  0
SECTION
  2
HEADER
  9
$ACADVER
  1
AC1015
  9
$ACADMAINTVER
 70
     6
  9
$DWGCODEPAGE
  3
ANSI_932
  9
$INSBASE
 10
-666.7223416008455
 20
-1694.47573469989
 30
0.0
  9
$EXTMIN
 10
-574.3031987447014
 20
-1793.51030536704
 30
0.0
  9
$EXTMAX
 10
-217.4265193413141
 20
-1502.732675299663
 30
0.0
  9
$LIMMIN
 10
36.5367069936281
 20
113.324853577772
  9
$LIMMAX
 10
338.3638017977693
 20
295.4885977298599
  9
$ORTHOMODE
 70
     1
  9
$REGENMODE
 70
     1
  9
$FILLMODE
 70
     1
  9
$QTEXTMODE
 70
     0
  9
$MIRRTEXT
 70
     1
  9
$LTSCALE
 40
1.0
  9
$ATTMODE
 70
     1
  9
$TEXTSIZE
 40
3.5
  9
$TRACEWID
 40
0.5
  9
$TEXTSTYLE
  7
STANDARD
  9
$CLAYER
  8
Object
  9
$CELTYPE
  6
ByLayer
  9
$CECOLOR
 62
   256
  9
$CELTSCALE
 40
1.0
  9
$DISPSILH
 70
     0
  9
$DIMSCALE
 40
1.0
  9
$DIMASZ
 40
5.0
  9
$DIMEXO
 40
2.0
  9
$DIMDLI
 40
0.38
  9
$DIMRND
 40
0.0
  9
$DIMDLE
 40
0.0
  9
$DIMEXE
 40
0.18
  9
$DIMTP
 40
0.0
  9
$DIMTM
 40
0.0
  9
$DIMTXT
 40
4.0
  9
$DIMCEN
 40
1.0
  9
$DIMTSZ
 40
0.0
  9
$DIMTOL
 70
     0
  9
$DIMLIM
 70
     0
  9
$DIMTIH
 70
     0
  9
$DIMTOH
 70
     0
  9
$DIMSE1
 70
     0
  9
$DIMSE2
 70
     0
  9
$DIMTAD
 70
     1
  9
$DIMZIN
 70
     8
  9
$DIMBLK
  1

  9
$DIMASO
 70
     1
  9
$DIMSHO
 70
     1
  9
$DIMPOST
  1

  9
$DIMAPOST
  1

  9
$DIMALT
 70
     0
  9
$DIMALTD
 70
     2
  9
$DIMALTF
 40
25.4
  9
$DIMLFAC
 40
1.0
  9
$DIMTOFL
 70
     0
  9
$DIMTVP
 40
0.0
  9
$DIMTIX
 70
     0
  9
$DIMSOXD
 70
     0
  9
$DIMSAH
 70
     0
  9
$DIMBLK1
  1

  9
$DIMBLK2
  1

  9
$DIMSTYLE
  2
DMST_1
  9
$DIMCLRD
 70
     0
  9
$DIMCLRE
 70
     0
  9
$DIMCLRT
 70
     0
  9
$DIMTFAC
 40
1.0
  9
$DIMGAP
 40
1.5
  9
$DIMJUST
 70
     0
  9
$DIMSD1
 70
     0
  9
$DIMSD2
 70
     0
  9
$DIMTOLJ
 70
     1
  9
$DIMTZIN
 70
     0
  9
$DIMALTZ
 70
     0
  9
$DIMALTTZ
 70
     0
  9
$DIMUPT
 70
     0
  9
$DIMDEC
 70
     4
  9
$DIMTDEC
 70
     4
  9
$DIMALTU
 70
     2
  9
$DIMALTTD
 70
     2
  9
$DIMTXSTY
  7
STANDARD
  9
$DIMAUNIT
 70
     0
  9
$DIMADEC
 70
     2
  9
$DIMALTRND
 40
0.0
  9
$DIMAZIN
 70
     2
  9
$DIMDSEP
 70
    46
  9
$DIMATFIT
 70
     3
  9
$DIMFRAC
 70
     0
  9
$DIMLDRBLK
  1

  9
$DIMLUNIT
 70
     2
  9
$DIMLWD
 70
    -2
  9
$DIMLWE
 70
    -2
  9
$DIMTMOVE
 70
     0
  9
$LUNITS
 70
     2
  9
$LUPREC
 70
     4
  9
$SKETCHINC
 40
0.1
  9
$FILLETRAD
 40
5.0
  9
$AUNITS
 70
     0
  9
$AUPREC
 70
     0
  9
$MENU
  1
ACAD
  9
$ELEVATION
 40
0.0
  9
$PELEVATION
 40
0.0
  9
$THICKNESS
 40
0.0
  9
$LIMCHECK
 70
     0
  9
$CHAMFERA
 40
0.0
  9
$CHAMFERB
 40
0.0
  9
$CHAMFERC
 40
0.0
  9
$CHAMFERD
 40
0.0
  9
$SKPOLY
 70
     0
  9
$TDCREATE
 40
2453781.394197072
  9
$TDUCREATE
 40
2453781.019197072
  9
$TDUPDATE
 40
2456724.483922303
  9
$TDUUPDATE
 40
2456724.108922303
  9
$TDINDWG
 40
2.0177604398
  9
$TDUSRTIMER
 40
2456724.108712025
  9
$USRTIMER
 70
     1
  9
$ANGBASE
 50
0.0
  9
$ANGDIR
 70
     0
  9
$PDMODE
 70
     0
  9
$PDSIZE
 40
0.0
  9
$PLINEWID
 40
0.0
  9
$SPLFRAME
 70
     0
  9
$SPLINETYPE
 70
     6
  9
$SPLINESEGS
 70
     8
  9
$HANDSEED
  5
9EA
  9
$SURFTAB1
 70
     6
  9
$SURFTAB2
 70
     6
  9
$SURFTYPE
 70
     6
  9
$SURFU
 70
     6
  9
$SURFV
 70
     6
  9
$UCSBASE
  2

  9
$UCSNAME
  2

  9
$UCSORG
 10
0.0
 20
0.0
 30
0.0
  9
$UCSXDIR
 10
1.0
 20
0.0
 30
0.0
  9
$UCSYDIR
 10
0.0
 20
1.0
 30
0.0
  9
$UCSORTHOREF
  2

  9
$UCSORTHOVIEW
 70
     0
  9
$UCSORGTOP
 10
0.0
 20
0.0
 30
0.0
  9
$UCSORGBOTTOM
 10
0.0
 20
0.0
 30
0.0
  9
$UCSORGLEFT
 10
0.0
 20
0.0
 30
0.0
  9
$UCSORGRIGHT
 10
0.0
 20
0.0
 30
0.0
  9
$UCSORGFRONT
 10
0.0
 20
0.0
 30
0.0
  9
$UCSORGBACK
 10
0.0
 20
0.0
 30
0.0
  9
$PUCSBASE
  2

  9
$PUCSNAME
  2

  9
$PUCSORG
 10
0.0
 20
0.0
 30
0.0
  9
$PUCSXDIR
 10
1.0
 20
0.0
 30
0.0
  9
$PUCSYDIR
 10
0.0
 20
1.0
 30
0.0
  9
$PUCSORTHOREF
  2

  9
$PUCSORTHOVIEW
 70
     0
  9
$PUCSORGTOP
 10
0.0
 20
0.0
 30
0.0
  9
$PUCSORGBOTTOM
 10
0.0
 20
0.0
 30
0.0
  9
$PUCSORGLEFT
 10
0.0
 20
0.0
 30
0.0
  9
$PUCSORGRIGHT
 10
0.0
 20
0.0
 30
0.0
  9
$PUCSORGFRONT
 10
0.0
 20
0.0
 30
0.0
  9
$PUCSORGBACK
 10
0.0
 20
0.0
 30
0.0
  9
$USERI1
 70
     0
  9
$USERI2
 70
     0
  9
$USERI3
 70
     0
  9
$USERI4
 70
     0
  9
$USERI5
 70
     0
  9
$USERR1
 40
0.0
  9
$USERR2
 40
0.0
  9
$USERR3
 40
0.0
  9
$USERR4
 40
0.0
  9
$USERR5
 40
0.0
  9
$WORLDVIEW
 70
     1
  9
$SHADEDGE
 70
     3
  9
$SHADEDIF
 70
    70
  9
$TILEMODE
 70
     1
  9
$MAXACTVP
 70
    64
  9
$PINSBASE
 10
0.0
 20
0.0
 30
0.0
  9
$PLIMCHECK
 70
     0
  9
$PEXTMIN
 10
1.000000000000000E+20
 20
1.000000000000000E+20
 30
1.000000000000000E+20
  9
$PEXTMAX
 10
-1.000000000000000E+20
 20
-1.000000000000000E+20
 30
-1.000000000000000E+20
  9
$PLIMMIN
 10
0.0
 20
0.0
  9
$PLIMMAX
 10
0.0
 20
0.0
  9
$UNITMODE
 70
     0
  9
$VISRETAIN
 70
     1
  9
$PLINEGEN
 70
     0
  9
$PSLTSCALE
 70
     1
  9
$TREEDEPTH
 70
  3020
  9
$CMLSTYLE
  2
Standard
  9
$CMLJUST
 70
     0
  9
$CMLSCALE
 40
1.0
  9
$PROXYGRAPHICS
 70
     1
  9
$MEASUREMENT
 70
     0
  9
$CELWEIGHT
370
    -1
  9
$ENDCAPS
280
     0
  9
$JOINSTYLE
280
     0
  9
$LWDISPLAY
290
     0
  9
$INSUNITS
 70
     0
  9
$HYPERLINKBASE
  1

  9
$STYLESHEET
  1
monochrome.ctb
  9
$XEDIT
290
     1
  9
$CEPSNTYPE
380
     0
  9
$PSTYLEMODE
290
     1
  9
$FINGERPRINTGUID
  2
{0E1C3B67-B1A7-47AE-8141-559CC396A0AE}
  9
$VERSIONGUID
  2
{CDF21587-29C5-4AD5-9496-2967E7D36EDE}
  9
$EXTNAMES
290
     1
  9
$PSVPSCALE
 40
0.0
  9
$OLESTARTUP
290
     0
  0
ENDSEC
  0
SECTION
  2
CLASSES
  0
CLASS
  1
ACDBDICTIONARYWDFLT
  2
AcDbDictionaryWithDefault
  3
ObjectDBX Classes
 90
        0
280
     0
281
     0
  0
CLASS
  1
ACDBPLACEHOLDER
  2
AcDbPlaceHolder
  3
ObjectDBX Classes
 90
        0
280
     0
281
     0
  0
CLASS
  1
LAYOUT
  2
AcDbLayout
  3
ObjectDBX Classes
 90
        0
280
     0
281
     0
  0
CLASS
  1
DICTIONARYVAR
  2
AcDbDictionaryVar
  3
ObjectDBX Classes
 90
        0
280
     0
281
     0
  0
CLASS
  1
DIMASSOC
  2
AcDbDimAssoc
  3
"AcDbDimAssoc|Product Desc:     AcDim ARX App For Dimension|Company:          Autodesk, Inc.|WEB Address:      www.autodesk.com"
 90
        0
280
     0
281
     0
  0
CLASS
  1
SCALE
  2
AcDbScale
  3
ObjectDBX Classes
 90
     1153
280
     0
281
     0
  0
CLASS
  1
MATERIAL
  2
AcDbMaterial
  3
ObjectDBX Classes
 90
     1153
280
     0
281
     0
  0
CLASS
  1
VISUALSTYLE
  2
AcDbVisualStyle
  3
ObjectDBX Classes
 90
     4095
280
     0
281
     0
  0
CLASS
  1
TABLESTYLE
  2
AcDbTableStyle
  3
ObjectDBX Classes
 90
     4095
280
     0
281
     0
  0
CLASS
  1
RASTERVARIABLES
  2
AcDbRasterVariables
  3
ISM
 90
        0
280
     0
281
     0
  0
ENDSEC
  0
SECTION
  2
TABLES
  0
TABLE
  2
VPORT
  5
19
330
0
100
AcDbSymbolTable
 70
     1
  0
VPORT
  5
98F
330
19
100
AcDbSymbolTableRecord
100
AcDbViewportTableRecord
  2
*Active
 70
     0
 10
0.0
 20
0.0
 11
1.0
 21
1.0
 12
-358.3566557599368
 22
-1614.131158050425
 13
0.0
 23
0.0
 14
1.0
 24
1.0
 15
0.0
 25
0.0
 16
0.0
 26
0.0
 36
1.0
 17
0.0
 27
0.0
 37
0.0
 40
447.6137482263538
 41
1.733038348082596
 42
50.0
 43
0.0
 44
0.0
 50
0.0
 51
0.0
 71
    16
 72
   100
 73
     1
 74
     1
 75
     0
 76
     0
 77
     0
 78
     0
281
     0
 65
     1
110
0.0
120
0.0
130
0.0
111
1.0
121
0.0
131
0.0
112
0.0
122
1.0
132
0.0
 79
     0
146
0.0
  0
ENDTAB
  0
TABLE
  2
LTYPE
  5
14
330
0
100
AcDbSymbolTable
 70
     4
  0
LTYPE
  5
15
330
14
100
AcDbSymbolTableRecord
100
AcDbLinetypeTableRecord
  2
ByBlock
 70
     0
  3

 72
    65
 73
     0
 40
0.0
  0
LTYPE
  5
16
330
14
100
AcDbSymbolTableRecord
100
AcDbLinetypeTableRecord
  2
ByLayer
 70
     0
  3

 72
    65
 73
     0
 40
0.0
  0
LTYPE
  5
8
330
14
100
AcDbSymbolTableRecord
100
AcDbLinetypeTableRecord
  2
CONTINUOUS
 70
     0
  3
Solid line
 72
    65
 73
     0
 40
0.0
  0
LTYPE
  5
1BF
330
14
100
AcDbSymbolTableRecord
100
AcDbLinetypeTableRecord
  2
CENTER
 70
     0
  3
____ _ ____ _
 72
    65
 73
     4
 40
15.885636568639
 49
9.928522855399383
 74
     0
 49
-1.985704571079876
 74
     0
 49
1.985704571079876
 74
     0
 49
-1.985704571079876
 74
     0
  0
LTYPE
  5
EE
330
14
100
AcDbSymbolTableRecord
100
AcDbLinetypeTableRecord
  2
HIDDEN
 70
     0
  3
_ _ _ _ _ _ _
 72
    65
 73
     2
 40
2.978556856619814
 49
1.985704571079876
 74
     0
 49
-0.9928522855399382
 74
     0
  0
LTYPE
  5
27F
330
14
100
AcDbSymbolTableRecord
100
AcDbLinetypeTableRecord
  2
DOT_CENTER
 70
     0
  3
Dot_Center
 72
    65
 73
     4
 40
14.0
 49
12.0
 74
     0
 49
-1.0
 74
     0
 49
0.0
 74
     0
 49
-1.0
 74
     0
  0
ENDTAB
  0
TABLE
  2
LAYER
  5
10
102
{ACAD_XDICTIONARY
360
371
102
}
330
0
100
AcDbSymbolTable
 70
    12
  0
LAYER
  5
4
330
10
100
AcDbSymbolTableRecord
100
AcDbLayerTableRecord
  2
0
 70
     0
 62
     7
  6
CONTINUOUS
370
    -3
390
5
  0
LAYER
  5
99
330
10
100
AcDbSymbolTableRecord
100
AcDbLayerTableRecord
  2
1
 70
     0
 62
     7
  6
CONTINUOUS
370
    -3
390
5
  0
LAYER
  5
2E
330
10
100
AcDbSymbolTableRecord
100
AcDbLayerTableRecord
  2
Defpoints
 70
     0
 62
     7
  6
CONTINUOUS
290
     0
370
    -3
390
5
  0
LAYER
  5
A5
330
10
100
AcDbSymbolTableRecord
100
AcDbLayerTableRecord
  2
Center
 70
     0
 62
     1
  6
CONTINUOUS
370
    25
390
5
  0
LAYER
  5
4E
330
10
100
AcDbSymbolTableRecord
100
AcDbLayerTableRecord
  2
Object
 70
     0
 62
     7
  6
CONTINUOUS
370
    25
390
5
  0
LAYER
  5
2C4
330
10
100
AcDbSymbolTableRecord
100
AcDbLayerTableRecord
  2
Hidden
 70
     0
 62
     4
  6
CONTINUOUS
370
    25
390
5
  0
LAYER
  5
167
330
10
100
AcDbSymbolTableRecord
100
AcDbLayerTableRecord
  2
Text
 70
     0
 62
     3
  6
CONTINUOUS
370
    -3
390
5
  0
LAYER
  5
27C
330
10
100
AcDbSymbolTableRecord
100
AcDbLayerTableRecord
  2
Object2
 70
     0
 62
     3
  6
CONTINUOUS
370
    -3
390
5
  0
LAYER
  5
ED
330
10
100
AcDbSymbolTableRecord
100
AcDbLayerTableRecord
  2
HIDDEN-1
 70
     0
 62
     7
  6
HIDDEN
370
    -3
390
5
  0
LAYER
  5
23
330
10
100
AcDbSymbolTableRecord
100
AcDbLayerTableRecord
  2
text3
 70
     0
 62
     2
  6
CONTINUOUS
370
    -3
390
5
  0
LAYER
  5
2D7
330
10
100
AcDbSymbolTableRecord
100
AcDbLayerTableRecord
  2
画層1
 70
     0
 62
     7
  6
CONTINUOUS
370
    -3
390
5
  0
LAYER
  5
36F
330
10
100
AcDbSymbolTableRecord
100
AcDbLayerTableRecord
  2
Dims
 70
     0
 62
     6
  6
CONTINUOUS
370
    -3
390
5
  0
ENDTAB
  0
TABLE
  2
STYLE
  5
11
330
0
100
AcDbSymbolTable
 70
     3
  0
STYLE
  5
12
330
11
100
AcDbSymbolTableRecord
100
AcDbTextStyleTableRecord
  2
STANDARD
 70
     0
 40
0.0
 41
1.0
 50
0.0
 71
     0
 42
3.5
  3
txt.shx
  4
bigfont.shx
  0
STYLE
  5
5B
330
11
100
AcDbSymbolTableRecord
100
AcDbTextStyleTableRecord
  2
Roman
 70
     0
 40
0.0
 41
1.0
 50
0.0
 71
     0
 42
4.0
  3
romans.shx
  4
bigfont.shx
  0
STYLE
  5
370
330
11
100
AcDbSymbolTableRecord
100
AcDbTextStyleTableRecord
  2
GDT
 70
     0
 40
0.0
 41
1.0
 50
0.0
 71
     0
 42
1.0
  3
gdt.shx
  4
bigfont.shx
  0
ENDTAB
  0
TABLE
  2
VIEW
  5
17
330
0
100
AcDbSymbolTable
 70
     0
  0
ENDTAB
  0
TABLE
  2
UCS
  5
18
330
0
100
AcDbSymbolTable
 70
     0
  0
ENDTAB
  0
TABLE
  2
APPID
  5
1B
330
0
100
AcDbSymbolTable
 70
     1
  0
APPID
  5
1C
330
1B
100
AcDbSymbolTableRecord
100
AcDbRegAppTableRecord
  2
ACAD
 70
     0
  0
ENDTAB
  0
TABLE
  2
DIMSTYLE
  5
1D
330
0
100
AcDbSymbolTable
 70
     1
100
AcDbDimStyleTable
  0
DIMSTYLE
105
1E
102
{ACAD_REACTORS
330
1C0
330
1B0
330
40
330
1CD
330
33
330
2EA
330
84
330
77
330
6A
330
182
330
25
330
5C3
330
757
330
75A
330
75B
330
777
330
77C
330
77D
330
780
330
781
330
785
330
7CF
330
7D0
330
7D1
330
7D4
330
7D7
102
}
330
1D
100
AcDbSymbolTableRecord
100
AcDbDimStyleTableRecord
  2
DMST_1
 70
     0
 41
3.5
 42
1.0
 43
7.0
 44
1.5
 47
0.1
 48
0.1
 71
     1
 73
     0
 74
     0
 77
     1
 78
     9
140
3.5
141
0.0
146
0.7
176
     2
177
     2
178
     2
279
     2
340
12
  0
ENDTAB
  0
TABLE
  2
BLOCK_RECORD
  5
1
330
0
100
AcDbSymbolTable
 70
    27
  0
BLOCK_RECORD
  5
2
330
1
100
AcDbSymbolTableRecord
100
AcDbBlockTableRecord
  2
*Model_Space
340
A
  0
BLOCK_RECORD
  5
C
330
1
100
AcDbSymbolTableRecord
100
AcDbBlockTableRecord
  2
*Paper_Space
340
F
  0
BLOCK_RECORD
  5
1B1
330
1
100
AcDbSymbolTableRecord
100
AcDbBlockTableRecord
  2
*D0
340
0
  0
BLOCK_RECORD
  5
1C1
330
1
100
AcDbSymbolTableRecord
100
AcDbBlockTableRecord
  2
*D1
340
0
  0
BLOCK_RECORD
  5
41
330
1
100
AcDbSymbolTableRecord
100
AcDbBlockTableRecord
  2
*D2
340
0
  0
BLOCK_RECORD
  5
34
330
1
100
AcDbSymbolTableRecord
100
AcDbBlockTableRecord
  2
*D3
340
0
  0
BLOCK_RECORD
  5
2EB
330
1
100
AcDbSymbolTableRecord
100
AcDbBlockTableRecord
  2
*D4
340
0
  0
BLOCK_RECORD
  5
183
330
1
100
AcDbSymbolTableRecord
100
AcDbBlockTableRecord
  2
*D5
340
0
  0
BLOCK_RECORD
  5
26
330
1
100
AcDbSymbolTableRecord
100
AcDbBlockTableRecord
  2
*D6
340
0
  0
BLOCK_RECORD
  5
313
330
1
100
AcDbSymbolTableRecord
100
AcDbBlockTableRecord
  2
1-178128-4-jo1
340
0
310
2800000020000000200000000100080000000000000400000000000000000000000000000000000000000000000080000080000000808000800000008000800080800000C0C0C000C0DCC000F0CAA6000020400000206000002080000020A0000020C0000020E00000400000004020000040400000406000004080000040A0
310
000040C0000040E00000600000006020000060400000606000006080000060A0000060C0000060E00000800000008020000080400000806000008080000080A0000080C0000080E00000A0000000A0200000A0400000A0600000A0800000A0A00000A0C00000A0E00000C0000000C0200000C0400000C0600000C0800000C0
310
A00000C0C00000C0E00000E0000000E0200000E0400000E0600000E0800000E0A00000E0C00000E0E00040000000400020004000400040006000400080004000A0004000C0004000E00040200000402020004020400040206000402080004020A0004020C0004020E000404000004040200040404000404060004040800040
310
40A0004040C0004040E00040600000406020004060400040606000406080004060A0004060C0004060E00040800000408020004080400040806000408080004080A0004080C0004080E00040A0000040A0200040A0400040A0600040A0800040A0A00040A0C00040A0E00040C0000040C0200040C0400040C0600040C08000
310
40C0A00040C0C00040C0E00040E0000040E0200040E0400040E0600040E0800040E0A00040E0C00040E0E00080000000800020008000400080006000800080008000A0008000C0008000E00080200000802020008020400080206000802080008020A0008020C0008020E00080400000804020008040400080406000804080
310
008040A0008040C0008040E00080600000806020008060400080606000806080008060A0008060C0008060E00080800000808020008080400080806000808080008080A0008080C0008080E00080A0000080A0200080A0400080A0600080A0800080A0A00080A0C00080A0E00080C0000080C0200080C0400080C0600080C0
310
800080C0A00080C0C00080C0E00080E0000080E0200080E0400080E0600080E0800080E0A00080E0C00080E0E000C0000000C0002000C0004000C0006000C0008000C000A000C000C000C000E000C0200000C0202000C0204000C0206000C0208000C020A000C020C000C020E000C0400000C0402000C0404000C0406000C0
310
408000C040A000C040C000C040E000C0600000C0602000C0604000C0606000C0608000C060A000C060C000C060E000C0800000C0802000C0804000C0806000C0808000C080A000C080C000C080E000C0A00000C0A02000C0A04000C0A06000C0A08000C0A0A000C0A0C000C0A0E000C0C00000C0C02000C0C04000C0C06000
310
C0C08000C0C0A000F0FBFF00A4A0A000808080000000FF0000FF000000FFFF00FF000000FF00FF00FFFF0000FFFFFF0000000000000000000000000000000000000000000000000000000000000000000000000000000000000000000000000000000000000000000000000000000000000000000000000000000000000000
310
0000000000000000000000000000000000000000000000000000000000000000000000000000000000000000000000000000000000000000000000000000000000000000000000000000000000000000000000000000000000000000000000000000000000000000000000000000000000000000000000FFFFFFFFFFFFFFF9
310
FFFFFFFFFFFFFFFFFFFFFFFF000000000000000000000000FF0000F9FFFFFFF9FFFFF9FFF9FFFF00F90000FF000000000000000000000000FF0000F9FFFFFFF9FFFFF9FFF9FFFF00F90000FF000000000000000000000000FF0000F9FFFFFFF9FFFFF9FFF9FFFF00F90000FF000000000000000000000000FF0000F9FFFFFF
310
F9FFFFF9FFF9FFFF00F90000FF000000000000000000000000FF0000F9FFFFFFF9FFFFF9FFF9FFFF00F90000FF000000000000000000000000FF0000F9FFFFFFF9FFFFF9FFF9FFFF00F90000FF000000000000000000000000FF0000F9FFFFFFF9FFFFF9FFF9FFFF00F90000FF000000000000000000000000FF0000F9FFFF
310
FFF9FFFFF9FFF9FFFF00F90000FF000000000000000000000000FF0000F9FFFFFFF9FFFFF9FFF9FFFF00F90000FF0000000000000000000000FFFF0000F9FFFFFFF9FFFFFFFFF9FFFF00F90000FFFF00000000000000000000FFFF0000F9FF00FFF9FF00F9FFF9FFFF00F9FAFFFAFF00000000000000000000FFFF0000F9FF
310
00FFF9FF00F9FFF9FFFF00F9FAFFFAFF000000000000000000FFFFFFFFFFF9FFFFFFF9FFFFF9FFF9FFFFFFF9FAFAFAFFFF00000000000000FF00FFFAFAFAFAFAFA00000000F90000000000FAFAFAFAFF00FF00000000FFFFFA00FFFA00FFFFFFFA00000000F90000000000FFFFFFFAFF00FAFFFF0000FFFAFAFFFFFFFAFAFA
310
FAFA00000000F90000000000FAFAFAFFFFFFFAFAFF0000FFFAFAFF00FF0000FFFA0000FAFA00F9FFFF0000FAFF0000FF00FFFAFAFF0000FFFFFFFF00FF0000FFFF0000FAFA00F9FFFF0000FAFF0000FF00FFFFFFFF0000000000FFFFFFFFFFFFFFFFFFFFFFFFF9FFFFFFFFFFFFFFFFFFFFFF00000000000000000000000000
310
00000000000000000000000000000000000000000000000000000000000000000000000000000000000000000000000000000000000000000000000000000000000000000000000000000000000000000000000000000000000000000000000000000000000000000000000000000000000000000000000000000000000000
310
0000000000000000000000000000000000000000000000000000000000000000000000000000000000000000000000000000000000000000
102
{BLKREFS
331
4E2
102
}
  0
BLOCK_RECORD
  5
577
330
1
100
AcDbSymbolTableRecord
100
AcDbBlockTableRecord
  2
*D8
340
0
  0
BLOCK_RECORD
  5
583
330
1
100
AcDbSymbolTableRecord
100
AcDbBlockTableRecord
  2
*D9
340
0
  0
BLOCK_RECORD
  5
58F
330
1
100
AcDbSymbolTableRecord
100
AcDbBlockTableRecord
  2
*D10
340
0
  0
BLOCK_RECORD
  5
5B6
330
1
100
AcDbSymbolTableRecord
100
AcDbBlockTableRecord
  2
*D11
340
0
  0
BLOCK_RECORD
  5
5C4
330
1
100
AcDbSymbolTableRecord
100
AcDbBlockTableRecord
  2
*D12
340
0
  0
BLOCK_RECORD
  5
807
330
1
100
AcDbSymbolTableRecord
100
AcDbBlockTableRecord
  2
*D13
340
0
  0
BLOCK_RECORD
  5
814
330
1
100
AcDbSymbolTableRecord
100
AcDbBlockTableRecord
  2
*D14
340
0
  0
BLOCK_RECORD
  5
821
330
1
100
AcDbSymbolTableRecord
100
AcDbBlockTableRecord
  2
*D15
340
0
  0
BLOCK_RECORD
  5
82E
330
1
100
AcDbSymbolTableRecord
100
AcDbBlockTableRecord
  2
*D16
340
0
  0
BLOCK_RECORD
  5
83B
330
1
100
AcDbSymbolTableRecord
100
AcDbBlockTableRecord
  2
*D17
340
0
  0
BLOCK_RECORD
  5
847
330
1
100
AcDbSymbolTableRecord
100
AcDbBlockTableRecord
  2
*D18
340
0
  0
BLOCK_RECORD
  5
853
330
1
100
AcDbSymbolTableRecord
100
AcDbBlockTableRecord
  2
*D19
340
0
  0
BLOCK_RECORD
  5
85F
330
1
100
AcDbSymbolTableRecord
100
AcDbBlockTableRecord
  2
*D20
340
0
  0
BLOCK_RECORD
  5
86B
330
1
100
AcDbSymbolTableRecord
100
AcDbBlockTableRecord
  2
*D21
340
0
  0
BLOCK_RECORD
  5
878
330
1
100
AcDbSymbolTableRecord
100
AcDbBlockTableRecord
  2
*D22
340
0
  0
BLOCK_RECORD
  5
884
330
1
100
AcDbSymbolTableRecord
100
AcDbBlockTableRecord
  2
*D23
340
0
  0
BLOCK_RECORD
  5
890
330
1
100
AcDbSymbolTableRecord
100
AcDbBlockTableRecord
  2
*D24
340
0
  0
BLOCK_RECORD
  5
89D
330
1
100
AcDbSymbolTableRecord
100
AcDbBlockTableRecord
  2
*D25
340
0
  0
BLOCK_RECORD
  5
8AA
330
1
100
AcDbSymbolTableRecord
100
AcDbBlockTableRecord
  2
*D26
340
0
  0
ENDTAB
  0
ENDSEC
  0
SECTION
  2
BLOCKS
  0
BLOCK
  5
3
330
2
100
AcDbEntity
  8
0
100
AcDbBlockBegin
  2
*Model_Space
 70
     0
 10
0.0
 20
0.0
 30
0.0
  3
*Model_Space
  1

  0
ENDBLK
  5
9
330
2
100
AcDbEntity
  8
0
100
AcDbBlockEnd
  0
BLOCK
  5
D
330
C
100
AcDbEntity
 67
     1
  8
0
100
AcDbBlockBegin
  2
*Paper_Space
 70
     0
 10
0.0
 20
0.0
 30
0.0
  3
*Paper_Space
  1

  0
ENDBLK
  5
E
330
C
100
AcDbEntity
 67
     1
  8
0
100
AcDbBlockEnd
  0
BLOCK
  5
1BC
330
1B1
100
AcDbEntity
  8
0
100
AcDbBlockBegin
  2
*D0
 70
     1
 10
0.0
 20
0.0
 30
0.0
  3
*D0
  1

  0
LINE
  5
1B2
330
1B1
100
AcDbEntity
  8
text3
 62
     0
370
    -2
100
AcDbLine
 10
-401.1196860764338
 20
-1649.20956382715
 30
0.0
 11
-401.1196860764338
 21
-1668.021274837681
 31
0.0
  0
LINE
  5
1B3
330
1B1
100
AcDbEntity
  8
text3
 62
     0
370
    -2
100
AcDbLine
 10
-406.1196860764337
 20
-1649.20956382715
 30
0.0
 11
-406.1196860764337
 21
-1668.021274837681
 31
0.0
  0
LINE
  5
1B4
330
1B1
100
AcDbEntity
  8
text3
 62
     0
370
    -2
100
AcDbLine
 10
-411.1196860764337
 20
-1663.021274837681
 30
0.0
 11
-416.1196860764337
 21
-1663.021274837681
 31
0.0
  0
LINE
  5
1B5
330
1B1
100
AcDbEntity
  8
text3
 62
     0
370
    -2
100
AcDbLine
 10
-396.1196860764337
 20
-1663.021274837681
 30
0.0
 11
-385.453019409767
 21
-1663.021274837681
 31
0.0
  0
SOLID
  5
1B6
330
1B1
100
AcDbEntity
  8
text3
 62
     0
100
AcDbTrace
 10
-411.1196860764337
 20
-1662.187941504348
 30
0.0
 11
-411.1196860764337
 21
-1663.854608171015
 31
0.0
 12
-406.1196860764337
 22
-1663.021274837681
 32
0.0
 13
-406.1196860764337
 23
-1663.021274837681
 33
0.0
  0
SOLID
  5
1B7
330
1B1
100
AcDbEntity
  8
text3
 62
     0
100
AcDbTrace
 10
-396.1196860764337
 20
-1662.187941504348
 30
0.0
 11
-396.1196860764337
 21
-1663.854608171015
 31
0.0
 12
-401.1196860764338
 22
-1663.021274837681
 32
0.0
 13
-401.1196860764338
 23
-1663.021274837681
 33
0.0
  0
MTEXT
  5
1B8
330
1B1
100
AcDbEntity
  8
text3
 62
     0
100
AcDbMText
 10
-388.2863527431004
 20
-1659.521274837681
 30
0.0
 40
4.0
 41
0.0
 71
     5
 72
     1
  1
\A1;5
 73
     1
 44
1.0
  0
POINT
  5
1B9
330
1B1
100
AcDbEntity
  8
Defpoints
 62
     0
100
AcDbPoint
 10
-401.1196860764338
 20
-1647.20956382715
 30
0.0
  0
POINT
  5
1BA
330
1B1
100
AcDbEntity
  8
Defpoints
 62
     0
100
AcDbPoint
 10
-406.1196860764337
 20
-1647.20956382715
 30
0.0
  0
POINT
  5
1BB
330
1B1
100
AcDbEntity
  8
Defpoints
 62
     0
100
AcDbPoint
 10
-406.1196860764337
 20
-1663.021274837681
 30
0.0
  0
ENDBLK
  5
1BD
330
1B1
100
AcDbEntity
  8
0
100
AcDbBlockEnd
  0
BLOCK
  5
1CB
330
1C1
100
AcDbEntity
  8
0
100
AcDbBlockBegin
  2
*D1
 70
     1
 10
0.0
 20
0.0
 30
0.0
  3
*D1
  1

  0
LINE
  5
1C2
330
1C1
100
AcDbEntity
  8
text3
 62
     0
370
    -2
100
AcDbLine
 10
-410.4196860764337
 20
-1599.959563827149
 30
0.0
 11
-454.0304503343318
 21
-1599.959563827149
 31
0.0
  0
LINE
  5
1C3
330
1C1
100
AcDbEntity
  8
text3
 62
     0
370
    -2
100
AcDbLine
 10
-410.4196860764337
 20
-1638.05956382715
 30
0.0
 11
-454.0304503343318
 21
-1638.05956382715
 31
0.0
  0
LINE
  5
1C4
330
1C1
100
AcDbEntity
  8
text3
 62
     0
370
    -2
100
AcDbLine
 10
-449.0304503343318
 20
-1604.959563827149
 30
0.0
 11
-449.0304503343318
 21
-1633.05956382715
 31
0.0
  0
SOLID
  5
1C5
330
1C1
100
AcDbEntity
  8
text3
 62
     0
100
AcDbTrace
 10
-449.8637836676651
 20
-1604.959563827149
 30
0.0
 11
-448.1971170009985
 21
-1604.959563827149
 31
0.0
 12
-449.0304503343318
 22
-1599.959563827149
 32
0.0
 13
-449.0304503343318
 23
-1599.959563827149
 33
0.0
  0
SOLID
  5
1C6
330
1C1
100
AcDbEntity
  8
text3
 62
     0
100
AcDbTrace
 10
-449.8637836676651
 20
-1633.05956382715
 30
0.0
 11
-448.1971170009985
 21
-1633.05956382715
 31
0.0
 12
-449.0304503343318
 22
-1638.05956382715
 32
0.0
 13
-449.0304503343318
 23
-1638.05956382715
 33
0.0
  0
MTEXT
  5
1C7
330
1C1
100
AcDbEntity
  8
text3
 62
     0
100
AcDbMText
 10
-452.5304503343315
 20
-1625.417000274276
 30
0.0
 40
4.0
 41
0.0
 71
     5
 72
     1
  1
\A1;Φ38.1h7
 11
1.000000000000000E-16
 21
1.0
 31
0.0
 73
     1
 44
1.0
  0
POINT
  5
1C8
330
1C1
100
AcDbEntity
  8
Defpoints
 62
     0
100
AcDbPoint
 10
-407.4196860764336
 20
-1599.959563827149
 30
0.0
  0
POINT
  5
1C9
330
1C1
100
AcDbEntity
  8
Defpoints
 62
     0
100
AcDbPoint
 10
-407.4196860764336
 20
-1638.05956382715
 30
0.0
  0
POINT
  5
1CA
330
1C1
100
AcDbEntity
  8
Defpoints
 62
     0
100
AcDbPoint
 10
-449.0304503343318
 20
-1638.05956382715
 30
0.0
  0
ENDBLK
  5
1CC
330
1C1
100
AcDbEntity
  8
0
100
AcDbBlockEnd
  0
BLOCK
  5
4B
330
41
100
AcDbEntity
  8
0
100
AcDbBlockBegin
  2
*D2
 70
     1
 10
0.0
 20
0.0
 30
0.0
  3
*D2
  1

  0
LINE
  5
42
330
41
100
AcDbEntity
  8
text3
 62
     0
370
    -2
100
AcDbLine
 10
-354.0196860764338
 20
-1649.709563827149
 30
0.0
 11
-354.0196860764338
 21
-1661.837853911733
 31
0.0
  0
LINE
  5
43
330
41
100
AcDbEntity
  8
text3
 62
     0
370
    -2
100
AcDbLine
 10
-312.9196860764342
 20
-1649.70956382715
 30
0.0
 11
-312.9196860764342
 21
-1661.837853911733
 31
0.0
  0
LINE
  5
44
330
41
100
AcDbEntity
  8
text3
 62
     0
370
    -2
100
AcDbLine
 10
-349.0196860764338
 20
-1656.837853911734
 30
0.0
 11
-317.9196860764342
 21
-1656.837853911734
 31
0.0
  0
SOLID
  5
45
330
41
100
AcDbEntity
  8
text3
 62
     0
100
AcDbTrace
 10
-349.0196860764338
 20
-1656.0045205784
 30
0.0
 11
-349.0196860764338
 21
-1657.671187245067
 31
0.0
 12
-354.0196860764338
 22
-1656.837853911734
 32
0.0
 13
-354.0196860764338
 23
-1656.837853911734
 33
0.0
  0
SOLID
  5
46
330
41
100
AcDbEntity
  8
text3
 62
     0
100
AcDbTrace
 10
-317.9196860764342
 20
-1656.0045205784
 30
0.0
 11
-317.9196860764342
 21
-1657.671187245067
 31
0.0
 12
-312.9196860764342
 22
-1656.837853911734
 32
0.0
 13
-312.9196860764342
 23
-1656.837853911734
 33
0.0
  0
MTEXT
  5
47
330
41
100
AcDbEntity
  8
text3
 62
     0
100
AcDbMText
 10
-333.469686076434
 20
-1653.337853911734
 30
0.0
 40
4.0
 41
0.0
 71
     5
 72
     1
  1
\A1;41.1±1
 73
     1
 44
1.0
  0
POINT
  5
48
330
41
100
AcDbEntity
  8
Defpoints
 62
     0
100
AcDbPoint
 10
-354.0196860764338
 20
-1646.70956382715
 30
0.0
  0
POINT
  5
49
330
41
100
AcDbEntity
  8
Defpoints
 62
     0
100
AcDbPoint
 10
-312.9196860764342
 20
-1646.70956382715
 30
0.0
  0
POINT
  5
4A
330
41
100
AcDbEntity
  8
Defpoints
 62
     0
100
AcDbPoint
 10
-312.9196860764342
 20
-1656.837853911734
 30
0.0
  0
ENDBLK
  5
4C
330
41
100
AcDbEntity
  8
0
100
AcDbBlockEnd
  0
BLOCK
  5
3E
330
34
100
AcDbEntity
  8
0
100
AcDbBlockBegin
  2
*D3
 70
     1
 10
0.0
 20
0.0
 30
0.0
  3
*D3
  1

  0
LINE
  5
35
330
34
100
AcDbEntity
  8
text3
 62
     0
370
    -2
100
AcDbLine
 10
-379.119686076447
 20
-1538.20956382715
 30
0.0
 11
-379.119686076447
 21
-1522.222972708187
 31
0.0
  0
LINE
  5
36
330
34
100
AcDbEntity
  8
text3
 62
     0
370
    -2
100
AcDbLine
 10
-312.9196860764462
 20
-1538.20956382715
 30
0.0
 11
-312.9196860764462
 21
-1522.222972708187
 31
0.0
  0
LINE
  5
37
330
34
100
AcDbEntity
  8
text3
 62
     0
370
    -2
100
AcDbLine
 10
-374.119686076447
 20
-1527.222972708187
 30
0.0
 11
-317.9196860764462
 21
-1527.222972708187
 31
0.0
  0
SOLID
  5
38
330
34
100
AcDbEntity
  8
text3
 62
     0
100
AcDbTrace
 10
-374.119686076447
 20
-1526.389639374853
 30
0.0
 11
-374.119686076447
 21
-1528.05630604152
 31
0.0
 12
-379.119686076447
 22
-1527.222972708187
 32
0.0
 13
-379.119686076447
 23
-1527.222972708187
 33
0.0
  0
SOLID
  5
39
330
34
100
AcDbEntity
  8
text3
 62
     0
100
AcDbTrace
 10
-317.9196860764462
 20
-1526.389639374853
 30
0.0
 11
-317.9196860764462
 21
-1528.05630604152
 31
0.0
 12
-312.9196860764462
 22
-1527.222972708187
 32
0.0
 13
-312.9196860764462
 23
-1527.222972708187
 33
0.0
  0
MTEXT
  5
3A
330
34
100
AcDbEntity
  8
text3
 62
     0
100
AcDbMText
 10
-346.0196860764466
 20
-1523.722972708187
 30
0.0
 40
4.0
 41
0.0
 71
     5
 72
     1
  1
\A1;66.2±1
 73
     1
 44
1.0
  0
POINT
  5
3B
330
34
100
AcDbEntity
  8
Defpoints
 62
     0
100
AcDbPoint
 10
-379.119686076447
 20
-1540.20956382715
 30
0.0
  0
POINT
  5
3C
330
34
100
AcDbEntity
  8
Defpoints
 62
     0
100
AcDbPoint
 10
-312.9196860764462
 20
-1540.20956382715
 30
0.0
  0
POINT
  5
3D
330
34
100
AcDbEntity
  8
Defpoints
 62
     0
100
AcDbPoint
 10
-312.9196860764462
 20
-1527.222972708187
 30
0.0
  0
ENDBLK
  5
3F
330
34
100
AcDbEntity
  8
0
100
AcDbBlockEnd
  0
BLOCK
  5
2F5
330
2EB
100
AcDbEntity
  8
0
100
AcDbBlockBegin
  2
*D4
 70
     1
 10
0.0
 20
0.0
 30
0.0
  3
*D4
  1

  0
LINE
  5
2EC
330
2EB
100
AcDbEntity
  8
text3
 62
     0
370
    -2
100
AcDbLine
 10
-310.9196860764333
 20
-1540.209563827149
 30
0.0
 11
-290.9803009908682
 21
-1540.209563827149
 31
0.0
  0
LINE
  5
2ED
330
2EB
100
AcDbEntity
  8
text3
 62
     0
370
    -2
100
AcDbLine
 10
-310.9196860764342
 20
-1647.20956382715
 30
0.0
 11
-290.9803009908682
 21
-1647.20956382715
 31
0.0
  0
LINE
  5
2EE
330
2EB
100
AcDbEntity
  8
text3
 62
     0
370
    -2
100
AcDbLine
 10
-295.9803009908682
 20
-1543.209563827149
 30
0.0
 11
-295.9803009908682
 21
-1644.20956382715
 31
0.0
  0
SOLID
  5
2EF
330
2EB
100
AcDbEntity
  8
text3
 62
     0
100
AcDbTrace
 10
-296.4803009908682
 20
-1543.209563827149
 30
0.0
 11
-295.4803009908682
 21
-1543.209563827149
 31
0.0
 12
-295.9803009908682
 22
-1540.209563827149
 32
0.0
 13
-295.9803009908682
 23
-1540.209563827149
 33
0.0
  0
SOLID
  5
2F0
330
2EB
100
AcDbEntity
  8
text3
 62
     0
100
AcDbTrace
 10
-296.4803009908682
 20
-1644.20956382715
 30
0.0
 11
-295.4803009908682
 21
-1644.20956382715
 31
0.0
 12
-295.9803009908682
 22
-1647.20956382715
 32
0.0
 13
-295.9803009908682
 23
-1647.20956382715
 33
0.0
  0
MTEXT
  5
2F1
330
2EB
100
AcDbEntity
  8
text3
 62
     0
100
AcDbMText
 10
-299.480300990868
 20
-1593.709563827149
 30
0.0
 40
4.0
 41
0.0
 71
     5
 72
     1
  1
\A1;107±1
 11
1.000000000000000E-16
 21
1.0
 31
0.0
 73
     1
 44
1.0
  0
POINT
  5
2F2
330
2EB
100
AcDbEntity
  8
Defpoints
 62
     0
100
AcDbPoint
 10
-312.9196860764333
 20
-1540.209563827149
 30
0.0
  0
POINT
  5
2F3
330
2EB
100
AcDbEntity
  8
Defpoints
 62
     0
100
AcDbPoint
 10
-312.9196860764342
 20
-1647.20956382715
 30
0.0
  0
POINT
  5
2F4
330
2EB
100
AcDbEntity
  8
Defpoints
 62
     0
100
AcDbPoint
 10
-295.9803009908682
 20
-1647.20956382715
 30
0.0
  0
ENDBLK
  5
2F6
330
2EB
100
AcDbEntity
  8
0
100
AcDbBlockEnd
  0
BLOCK
  5
18D
330
183
100
AcDbEntity
  8
0
100
AcDbBlockBegin
  2
*D5
 70
     1
 10
0.0
 20
0.0
 30
0.0
  3
*D5
  1

  0
LINE
  5
184
330
183
100
AcDbEntity
  8
text3
 62
     0
370
    -2
100
AcDbLine
 10
-406.1196860764338
 20
-1649.20956382715
 30
0.0
 11
-406.1196860764345
 21
-1672.944458708517
 31
0.0
  0
LINE
  5
185
330
183
100
AcDbEntity
  8
text3
 62
     0
370
    -2
100
AcDbLine
 10
-426.1196860764346
 20
-1649.209563827149
 30
0.0
 11
-426.1196860764353
 21
-1672.944458708516
 31
0.0
  0
LINE
  5
186
330
183
100
AcDbEntity
  8
text3
 62
     0
370
    -2
100
AcDbLine
 10
-411.1196860764346
 20
-1672.764458708517
 30
0.0
 11
-421.1196860764353
 21
-1672.764458708516
 31
0.0
  0
SOLID
  5
187
330
183
100
AcDbEntity
  8
text3
 62
     0
100
AcDbTrace
 10
-411.1196860764346
 20
-1671.931125375183
 30
0.0
 11
-411.1196860764346
 21
-1673.59779204185
 31
0.0
 12
-406.1196860764345
 22
-1672.764458708517
 32
0.0
 13
-406.1196860764345
 23
-1672.764458708517
 33
0.0
  0
SOLID
  5
188
330
183
100
AcDbEntity
  8
text3
 62
     0
100
AcDbTrace
 10
-421.1196860764353
 20
-1671.931125375183
 30
0.0
 11
-421.1196860764354
 21
-1673.597792041849
 31
0.0
 12
-426.1196860764353
 22
-1672.764458708516
 32
0.0
 13
-426.1196860764353
 23
-1672.764458708516
 33
0.0
  0
MTEXT
  5
189
330
183
100
AcDbEntity
  8
text3
 62
     0
100
AcDbMText
 10
-416.1196860764349
 20
-1669.264458708516
 30
0.0
 40
4.0
 41
0.0
 71
     5
 72
     1
  1
\A1;20±1
 73
     1
 44
1.0
  0
POINT
  5
18A
330
183
100
AcDbEntity
  8
Defpoints
 62
     0
100
AcDbPoint
 10
-406.1196860764337
 20
-1647.20956382715
 30
0.0
  0
POINT
  5
18B
330
183
100
AcDbEntity
  8
Defpoints
 62
     0
100
AcDbPoint
 10
-426.1196860764345
 20
-1647.209563827149
 30
0.0
  0
POINT
  5
18C
330
183
100
AcDbEntity
  8
Defpoints
 62
     0
100
AcDbPoint
 10
-426.1196860764353
 20
-1672.764458708516
 30
0.0
  0
ENDBLK
  5
18E
330
183
100
AcDbEntity
  8
0
100
AcDbBlockEnd
  0
BLOCK
  5
31
330
26
100
AcDbEntity
  8
0
100
AcDbBlockBegin
  2
*D6
 70
     1
 10
0.0
 20
0.0
 30
0.0
  3
*D6
  1

  0
LINE
  5
27
330
26
100
AcDbEntity
  8
text3
 62
     0
370
    -2
100
AcDbLine
 10
-406.1196860764337
 20
-1649.20956382715
 30
0.0
 11
-406.1196860764337
 21
-1672.944458708517
 31
0.0
  0
LINE
  5
28
330
26
100
AcDbEntity
  8
text3
 62
     0
370
    -2
100
AcDbLine
 10
-312.9196860764342
 20
-1649.20956382715
 30
0.0
 11
-312.9196860764342
 21
-1672.944458708517
 31
0.0
  0
LINE
  5
29
330
26
100
AcDbEntity
  8
text3
 62
     0
370
    -2
100
AcDbLine
 10
-401.1196860764338
 20
-1672.764458708517
 30
0.0
 11
-317.9196860764342
 21
-1672.764458708517
 31
0.0
  0
SOLID
  5
2A
330
26
100
AcDbEntity
  8
text3
 62
     0
100
AcDbTrace
 10
-401.1196860764338
 20
-1671.931125375184
 30
0.0
 11
-401.1196860764338
 21
-1673.59779204185
 31
0.0
 12
-406.1196860764337
 22
-1672.764458708517
 32
0.0
 13
-406.1196860764337
 23
-1672.764458708517
 33
0.0
  0
SOLID
  5
2B
330
26
100
AcDbEntity
  8
text3
 62
     0
100
AcDbTrace
 10
-317.9196860764342
 20
-1671.931125375184
 30
0.0
 11
-317.9196860764342
 21
-1673.59779204185
 31
0.0
 12
-312.9196860764342
 22
-1672.764458708517
 32
0.0
 13
-312.9196860764342
 23
-1672.764458708517
 33
0.0
  0
MTEXT
  5
2C
330
26
100
AcDbEntity
  8
text3
 62
     0
100
AcDbMText
 10
-359.519686076434
 20
-1669.264458708517
 30
0.0
 40
4.0
 41
0.0
 71
     5
 72
     1
  1
\A1;93.2±1
 73
     1
 44
1.0
  0
POINT
  5
2D
330
26
100
AcDbEntity
  8
Defpoints
 62
     0
100
AcDbPoint
 10
-406.1196860764337
 20
-1647.20956382715
 30
0.0
  0
POINT
  5
2F
330
26
100
AcDbEntity
  8
Defpoints
 62
     0
100
AcDbPoint
 10
-312.9196860764342
 20
-1647.20956382715
 30
0.0
  0
POINT
  5
30
330
26
100
AcDbEntity
  8
Defpoints
 62
     0
100
AcDbPoint
 10
-312.9196860764342
 20
-1672.764458708517
 30
0.0
  0
ENDBLK
  5
32
330
26
100
AcDbEntity
  8
0
100
AcDbBlockEnd
  0
BLOCK
  5
36D
330
313
100
AcDbEntity
  8
0
100
AcDbBlockBegin
  2
1-178128-4-jo1
 70
     0
 10
0.0
 20
0.0
 30
0.0
  3
1-178128-4-jo1
  1

  0
LINE
  5
314
330
313
100
AcDbEntity
  8
Object
100
AcDbLine
 10
-4.579999999999927
 20
-22.79999999999995
 30
0.0
 11
-0.5
 21
-22.79999999999995
 31
0.0
  0
LINE
  5
315
330
313
100
AcDbEntity
  8
Object
100
AcDbLine
 10
-12.16000000000008
 20
-6.5
 30
0.0
 11
12.15999999999985
 21
-6.5
 31
0.0
  0
LINE
  5
316
330
313
100
AcDbEntity
  8
Object
100
AcDbLine
 10
-14.46000000000003
 20
0.0000000000000568
 30
0.0
 11
14.46000000000003
 21
-0.0000000000000568
 31
0.0
  0
LINE
  5
317
330
313
100
AcDbEntity
  8
Object
100
AcDbLine
 10
-5.579999999999927
 20
-10.29999999999995
 30
0.0
 11
-5.579999999999927
 21
-22.80000000000001
 31
0.0
  0
LINE
  5
318
330
313
100
AcDbEntity
  8
Object
100
AcDbLine
 10
-4.579999999999927
 20
-10.29999999999995
 30
0.0
 11
-4.579999999999927
 21
-22.80000000000001
 31
0.0
  0
LINE
  5
319
330
313
100
AcDbEntity
  8
Object
100
AcDbLine
 10
-6.36999999999989
 20
-6.499999999999943
 30
0.0
 11
-6.36999999999989
 21
-22.79999999999995
 31
0.0
  0
LINE
  5
31A
330
313
100
AcDbEntity
  8
Center
100
AcDbLine
 10
-7.61999999999989
 20
-6.499999999999943
 30
0.0
 11
-7.61999999999989
 21
-22.79999999999995
 31
0.0
  0
LINE
  5
31B
330
313
100
AcDbEntity
  8
Object
100
AcDbLine
 10
-3.789999999999963
 20
-6.5
 30
0.0
 11
-3.789999999999963
 21
-22.79999999999995
 31
0.0
  0
LINE
  5
31C
330
313
100
AcDbEntity
  8
Object
100
AcDbLine
 10
-12.16000000000008
 20
0.0000000000000568
 30
0.0
 11
-12.16000000000008
 21
-22.79999999999995
 31
0.0
  0
LINE
  5
31D
330
313
100
AcDbEntity
  8
Object
100
AcDbLine
 10
-12.16000000000008
 20
-22.79999999999995
 30
0.0
 11
-5.579999999999927
 21
-22.79999999999995
 31
0.0
  0
TEXT
  5
31E
330
313
100
AcDbEntity
  8
Object
100
AcDbText
 10
-6.876163952245633
 20
-3.85990293482564
 30
0.0
 40
1.0
  1
AMP
 50
180.0
  7
GDT
100
AcDbText
  0
LINE
  5
31F
330
313
100
AcDbEntity
  8
Text
  6
HIDDEN
 48
0.1
100
AcDbLine
 10
-11.16000000000008
 20
-3.5
 30
0.0
 11
-11.16000000000008
 21
-5.499999999999943
 31
0.0
  0
LINE
  5
320
330
313
100
AcDbEntity
  8
Text
  6
HIDDEN
 48
0.1
100
AcDbLine
 10
-5.160000000000081
 20
-3.5
 30
0.0
 11
-5.160000000000081
 21
-5.5
 31
0.0
  0
LINE
  5
321
330
313
100
AcDbEntity
  8
Text
  6
HIDDEN
 48
0.2
100
AcDbLine
 10
-15.88999999999987
 20
-0.9999999999998863
 30
0.0
 11
-15.88999999999987
 21
-5.074688351406507
 31
0.0
  0
LINE
  5
322
330
313
100
AcDbEntity
  8
Text
  6
HIDDEN
 48
0.2
100
AcDbLine
 10
-16.38999999999987
 20
-0.9999999999998863
 30
0.0
 11
-16.38999999999987
 21
-5.074688351406507
 31
0.0
  0
LINE
  5
323
330
313
100
AcDbEntity
  8
Object
100
AcDbLine
 10
-12.66000000000008
 20
-3.0
 30
0.0
 11
-12.66000000000031
 21
-9.5
 31
0.0
  0
LINE
  5
324
330
313
100
AcDbEntity
  8
Object
100
AcDbLine
 10
-17.38999999999987
 20
-1.499999999999886
 30
0.0
 11
-17.38999999999987
 21
-4.204150096994339
 31
0.0
  0
LINE
  5
325
330
313
100
AcDbEntity
  8
Object
100
AcDbLine
 10
-12.16000000000008
 20
-13.5
 30
0.0
 11
-13.16000000000008
 21
-10.0
 31
0.0
  0
LINE
  5
326
330
313
100
AcDbEntity
  8
Object
100
AcDbLine
 10
-12.66000000000008
 20
-9.5
 30
0.0
 11
-12.16000000000008
 21
-13.5
 31
0.0
  0
LINE
  5
327
330
313
100
AcDbEntity
  8
Object
100
AcDbLine
 10
-5.579999999999927
 20
-10.29999999999995
 30
0.0
 11
-4.579999999999927
 21
-10.29999999999995
 31
0.0
  0
ARC
  5
328
330
313
100
AcDbEntity
  8
Object
100
AcDbCircle
 10
-16.88999999999987
 20
-4.204150096994339
 30
0.0
 40
0.5
100
AcDbArc
 50
180.0
 51
240.8494098705589
  0
LINE
  5
329
330
313
100
AcDbEntity
  8
Text
  6
HIDDEN
 48
0.1
100
AcDbLine
 10
-11.16000000000008
 20
-5.5
 30
0.0
 11
-5.160000000000081
 21
-5.5
 31
0.0
  0
ARC
  5
32A
330
313
100
AcDbEntity
  8
Object
100
AcDbCircle
 10
-27.92601118199945
 20
-23.99081533531295
 30
0.0
 40
22.15624999999976
100
AcDbArc
 50
46.44773132824703
 51
60.84940987055894
  0
LINE
  5
32B
330
313
100
AcDbEntity
  8
Object
100
AcDbLine
 10
-13.16000000000008
 20
-9.5
 30
0.0
 11
-13.16000000000008
 21
-10.00000000000022
 31
0.0
  0
LINE
  5
32C
330
313
100
AcDbEntity
  8
Object
100
AcDbLine
 10
-13.16000000000008
 20
-9.5
 30
0.0
 11
-12.66000000000031
 21
-9.5
 31
0.0
  0
ARC
  5
32D
330
313
100
AcDbEntity
  8
Object
100
AcDbCircle
 10
-16.88999999999987
 20
-1.499999999999886
 30
0.0
 40
0.5
100
AcDbArc
 50
90.0
 51
180.0
  0
LINE
  5
32E
330
313
100
AcDbEntity
  8
Text
  6
HIDDEN
 48
0.1
100
AcDbLine
 10
-8.61999999999989
 20
-0.5
 30
0.0
 11
-6.61999999999989
 21
-0.5
 31
0.0
  0
LINE
  5
32F
330
313
100
AcDbEntity
  8
Text
  6
HIDDEN
 48
0.1
100
AcDbLine
 10
-8.61999999999989
 20
-2.5
 30
0.0
 11
-6.61999999999989
 21
-2.5
 31
0.0
  0
LINE
  5
330
330
313
100
AcDbEntity
  8
Text
  6
HIDDEN
 48
0.1
100
AcDbLine
 10
-6.61999999999989
 20
-0.5
 30
0.0
 11
-6.61999999999989
 21
-2.5
 31
0.0
  0
LINE
  5
331
330
313
100
AcDbEntity
  8
Text
  6
HIDDEN
 48
0.1
100
AcDbLine
 10
-8.61999999999989
 20
-0.5
 30
0.0
 11
-8.61999999999989
 21
-2.5
 31
0.0
  0
TEXT
  5
332
330
313
100
AcDbEntity
  8
Object
100
AcDbText
 10
-7.064293675741055
 20
-1.088265929947908
 30
0.0
 40
1.0
  1
4
 50
180.0
  7
GDT
100
AcDbText
  0
LINE
  5
333
330
313
100
AcDbEntity
  8
Text
  6
HIDDEN
 48
0.1
100
AcDbLine
 10
-11.16000000000008
 20
-3.5
 30
0.0
 11
-5.160000000000309
 21
-3.5
 31
0.0
  0
LINE
  5
334
330
313
100
AcDbEntity
  8
Object
100
AcDbLine
 10
-14.46000000000003
 20
0.0
 30
0.0
 11
-14.46000000000003
 21
-3.0
 31
0.0
  0
LINE
  5
335
330
313
100
AcDbEntity
  8
Object
100
AcDbLine
 10
-16.88999999999987
 20
-0.9999999999998863
 30
0.0
 11
-14.46000000000003
 21
-0.9999999999998863
 31
0.0
  0
LINE
  5
336
330
313
100
AcDbEntity
  8
Object
100
AcDbLine
 10
-14.46000000000003
 20
-3.0
 30
0.0
 11
-12.16000000000008
 21
-3.0
 31
0.0
  0
LINE
  5
337
330
313
100
AcDbEntity
  8
Object
100
AcDbLine
 10
5.579999999999927
 20
-6.5
 30
0.0
 11
5.579999999999927
 21
-22.80000000000001
 31
0.0
  0
LINE
  5
338
330
313
100
AcDbEntity
  8
Object
100
AcDbLine
 10
4.579999999999927
 20
-6.5
 30
0.0
 11
4.579999999999927
 21
-22.80000000000001
 31
0.0
  0
LINE
  5
339
330
313
100
AcDbEntity
  8
Center
100
AcDbLine
 10
7.620000000000118
 20
-6.5
 30
0.0
 11
7.61999999999989
 21
-22.80000000000001
 31
0.0
  0
LINE
  5
33A
330
313
100
AcDbEntity
  8
Object
100
AcDbLine
 10
1.289999999999963
 20
-6.5
 30
0.0
 11
1.289999999999963
 21
-22.79999999999995
 31
0.0
  0
LINE
  5
33B
330
313
100
AcDbEntity
  8
Object
100
AcDbLine
 10
-1.289999999999963
 20
-6.5
 30
0.0
 11
-1.289999999999963
 21
-22.79999999999995
 31
0.0
  0
LINE
  5
33C
330
313
100
AcDbEntity
  8
Center
100
AcDbLine
 10
-2.539999999999963
 20
-6.5
 30
0.0
 11
-2.539999999999963
 21
-22.79999999999995
 31
0.0
  0
LINE
  5
33D
330
313
100
AcDbEntity
  8
Center
100
AcDbLine
 10
2.539999999999963
 20
-6.5
 30
0.0
 11
2.539999999999963
 21
-22.79999999999995
 31
0.0
  0
LINE
  5
33E
330
313
100
AcDbEntity
  8
Object
100
AcDbLine
 10
0.5
 20
-10.29999999999995
 30
0.0
 11
0.5
 21
-22.79999999999995
 31
0.0
  0
LINE
  5
33F
330
313
100
AcDbEntity
  8
Object
100
AcDbLine
 10
-0.5
 20
-10.29999999999995
 30
0.0
 11
-0.5
 21
-22.79999999999995
 31
0.0
  0
LINE
  5
340
330
313
100
AcDbEntity
  8
Center
100
AcDbLine
 10
0.0
 20
0.0
 30
0.0
 11
0.0
 21
-22.79999999999995
 31
0.0
  0
LINE
  5
341
330
313
100
AcDbEntity
  8
Object
100
AcDbLine
 10
12.15999999999985
 20
-0.0000000000000568
 30
0.0
 11
12.15999999999985
 21
-22.79999999999995
 31
0.0
  0
LINE
  5
342
330
313
100
AcDbEntity
  8
Object
100
AcDbLine
 10
5.579999999999927
 20
-22.80000000000001
 30
0.0
 11
12.15999999999985
 21
-22.79999999999995
 31
0.0
  0
LINE
  5
343
330
313
100
AcDbEntity
  8
Object
100
AcDbLine
 10
0.5
 20
-22.79999999999995
 30
0.0
 11
4.579999999999927
 21
-22.80000000000001
 31
0.0
  0
LINE
  5
344
330
313
100
AcDbEntity
  8
Object
100
AcDbLine
 10
17.38999999999987
 20
-1.499999999999886
 30
0.0
 11
17.38999999999987
 21
-4.204150096994339
 31
0.0
  0
LINE
  5
345
330
313
100
AcDbEntity
  8
Text
  6
HIDDEN
 48
0.2
100
AcDbLine
 10
16.38999999999987
 20
-0.9999999999998863
 30
0.0
 11
16.38999999999987
 21
-5.074688351406507
 31
0.0
  0
LINE
  5
346
330
313
100
AcDbEntity
  8
Text
  6
HIDDEN
 48
0.2
100
AcDbLine
 10
15.88999999999987
 20
-0.9999999999998863
 30
0.0
 11
15.88999999999987
 21
-5.074688351406507
 31
0.0
  0
LINE
  5
347
330
313
100
AcDbEntity
  8
Object
100
AcDbLine
 10
12.65999999999985
 20
-3.0
 30
0.0
 11
12.66000000000008
 21
-9.5
 31
0.0
  0
LINE
  5
348
330
313
100
AcDbEntity
  8
Text
  6
HIDDEN
 48
0.1
100
AcDbLine
 10
8.159999999999854
 20
-3.5
 30
0.0
 11
8.159999999999854
 21
-5.499999999999943
 31
0.0
  0
LINE
  5
349
330
313
100
AcDbEntity
  8
Text
  6
HIDDEN
 48
0.1
100
AcDbLine
 10
11.15999999999985
 20
-3.5
 30
0.0
 11
11.15999999999985
 21
-5.499999999999943
 31
0.0
  0
LINE
  5
34A
330
313
100
AcDbEntity
  8
Object
100
AcDbLine
 10
12.15999999999985
 20
-13.5
 30
0.0
 11
13.16000000000008
 21
-10.0
 31
0.0
  0
LINE
  5
34B
330
313
100
AcDbEntity
  8
Object
100
AcDbLine
 10
12.66000000000008
 20
-9.5
 30
0.0
 11
12.15999999999985
 21
-13.5
 31
0.0
  0
LINE
  5
34C
330
313
100
AcDbEntity
  8
Object
100
AcDbLine
 10
5.579999999999927
 20
-10.29999999999995
 30
0.0
 11
4.579999999999927
 21
-10.29999999999995
 31
0.0
  0
LINE
  5
34D
330
313
100
AcDbEntity
  8
Object
100
AcDbLine
 10
-0.5
 20
-10.29999999999995
 30
0.0
 11
0.5
 21
-10.29999999999995
 31
0.0
  0
LINE
  5
34E
330
313
100
AcDbEntity
  8
Text
  6
HIDDEN
 48
0.1
100
AcDbLine
 10
9.159999999999854
 20
-9.5
 30
0.0
 11
11.15999999999985
 21
-9.5
 31
0.0
  0
LINE
  5
34F
330
313
100
AcDbEntity
  8
Text
  6
HIDDEN
 48
0.1
100
AcDbLine
 10
9.159999999999854
 20
-7.499999999999943
 30
0.0
 11
11.15999999999985
 21
-7.5
 31
0.0
  0
TEXT
  5
350
330
313
100
AcDbEntity
  8
Object
100
AcDbText
 10
11.23469542004477
 20
-4.107628057664555
 30
0.0
 40
1.0
  1
D-3
 50
180.0
  7
GDT
100
AcDbText
  0
LINE
  5
351
330
313
100
AcDbEntity
  8
Text
  6
HIDDEN
 48
0.1
100
AcDbLine
 10
8.160000000000082
 20
-5.499999999999943
 30
0.0
 11
11.15999999999985
 21
-5.5
 31
0.0
  0
LINE
  5
352
330
313
100
AcDbEntity
  8
Text
  6
HIDDEN
 48
0.1
100
AcDbLine
 10
9.159999999999854
 20
-7.499999999999943
 30
0.0
 11
9.159999999999854
 21
-9.499999999999943
 31
0.0
  0
TEXT
  5
353
330
313
100
AcDbEntity
  8
Object
100
AcDbText
 10
10.71570632425891
 20
-8.088265929947852
 30
0.0
 40
1.0
  1
X
 50
180.0
  7
GDT
100
AcDbText
  0
LINE
  5
354
330
313
100
AcDbEntity
  8
Text
  6
HIDDEN
 48
0.1
100
AcDbLine
 10
11.15999999999985
 20
-7.5
 30
0.0
 11
11.15999999999985
 21
-9.5
 31
0.0
  0
ARC
  5
355
330
313
100
AcDbEntity
  8
Object
100
AcDbCircle
 10
16.88999999999987
 20
-4.204150096994339
 30
0.0
 40
0.5
100
AcDbArc
 50
299.150590129441
 51
0.0
  0
LINE
  5
356
330
313
100
AcDbEntity
  8
Object
100
AcDbLine
 10
13.16000000000008
 20
-9.5
 30
0.0
 11
13.15999999999985
 21
-10.00000000000022
 31
0.0
  0
LINE
  5
357
330
313
100
AcDbEntity
  8
Object
100
AcDbLine
 10
13.16000000000008
 20
-9.5
 30
0.0
 11
12.66000000000008
 21
-9.5
 31
0.0
  0
ARC
  5
358
330
313
100
AcDbEntity
  8
Object
100
AcDbCircle
 10
27.92601118199923
 20
-23.99081533531295
 30
0.0
 40
22.15624999999976
100
AcDbArc
 50
119.150590129441
 51
133.5522686717529
  0
LINE
  5
359
330
313
100
AcDbEntity
  8
Text
  6
HIDDEN
 48
0.1
100
AcDbLine
 10
8.159999999999854
 20
-3.499999999999943
 30
0.0
 11
11.15999999999985
 21
-3.5
 31
0.0
  0
LINE
  5
35A
330
313
100
AcDbEntity
  8
Text
  6
HIDDEN
 48
0.1
100
AcDbLine
 10
-3.539999999999963
 20
-0.5
 30
0.0
 11
-1.539999999999963
 21
-0.5
 31
0.0
  0
LINE
  5
35B
330
313
100
AcDbEntity
  8
Text
  6
HIDDEN
 48
0.1
100
AcDbLine
 10
-3.539999999999963
 20
-2.5
 30
0.0
 11
-1.539999999999963
 21
-2.5
 31
0.0
  0
TEXT
  5
35C
330
313
100
AcDbEntity
  8
Object
100
AcDbText
 10
-1.9842936757409
 20
-1.088265929947908
 30
0.0
 40
1.0
  1
3
 50
180.0
  7
GDT
100
AcDbText
  0
LINE
  5
35D
330
313
100
AcDbEntity
  8
Text
  6
HIDDEN
 48
0.1
100
AcDbLine
 10
-3.539999999999963
 20
-0.5
 30
0.0
 11
-3.539999999999963
 21
-2.5
 31
0.0
  0
LINE
  5
35E
330
313
100
AcDbEntity
  8
Text
  6
HIDDEN
 48
0.1
100
AcDbLine
 10
-1.539999999999963
 20
-0.5
 30
0.0
 11
-1.539999999999963
 21
-2.5
 31
0.0
  0
LINE
  5
35F
330
313
100
AcDbEntity
  8
Text
  6
HIDDEN
 48
0.1
100
AcDbLine
 10
1.539999999999963
 20
-0.5
 30
0.0
 11
3.539999999999963
 21
-0.5
 31
0.0
  0
LINE
  5
360
330
313
100
AcDbEntity
  8
Text
  6
HIDDEN
 48
0.1
100
AcDbLine
 10
1.539999999999963
 20
-2.5
 30
0.0
 11
3.539999999999963
 21
-2.500000000000056
 31
0.0
  0
LINE
  5
361
330
313
100
AcDbEntity
  8
Text
  6
HIDDEN
 48
0.1
100
AcDbLine
 10
3.539999999999963
 20
-0.5
 30
0.0
 11
3.539999999999963
 21
-2.5
 31
0.0
  0
LINE
  5
362
330
313
100
AcDbEntity
  8
Text
  6
HIDDEN
 48
0.1
100
AcDbLine
 10
1.539999999999963
 20
-0.5
 30
0.0
 11
1.539999999999963
 21
-2.5
 31
0.0
  0
TEXT
  5
363
330
313
100
AcDbEntity
  8
Object
100
AcDbText
 10
3.095706324259026
 20
-1.088265929947965
 30
0.0
 40
1.0
  1
2
 50
180.0
  7
GDT
100
AcDbText
  0
LINE
  5
364
330
313
100
AcDbEntity
  8
Text
  6
HIDDEN
 48
0.1
100
AcDbLine
 10
6.620000000000118
 20
-2.500000000000056
 30
0.0
 11
8.620000000000118
 21
-2.500000000000113
 31
0.0
  0
LINE
  5
365
330
313
100
AcDbEntity
  8
Text
  6
HIDDEN
 48
0.1
100
AcDbLine
 10
6.620000000000118
 20
-0.5
 30
0.0
 11
8.620000000000118
 21
-0.500000000000057
 31
0.0
  0
LINE
  5
366
330
313
100
AcDbEntity
  8
Text
  6
HIDDEN
 48
0.1
100
AcDbLine
 10
6.620000000000118
 20
-0.5
 30
0.0
 11
6.620000000000118
 21
-2.5
 31
0.0
  0
LINE
  5
367
330
313
100
AcDbEntity
  8
Text
  6
HIDDEN
 48
0.1
100
AcDbLine
 10
8.620000000000118
 20
-0.500000000000057
 30
0.0
 11
8.620000000000118
 21
-2.500000000000056
 31
0.0
  0
TEXT
  5
368
330
313
100
AcDbEntity
  8
Object
100
AcDbText
 10
8.175706324258954
 20
-1.088265929947965
 30
0.0
 40
1.0
  1
1
 50
180.0
  7
GDT
100
AcDbText
  0
LINE
  5
369
330
313
100
AcDbEntity
  8
Object
100
AcDbLine
 10
16.88999999999987
 20
-0.9999999999998863
 30
0.0
 11
14.46000000000003
 21
-0.9999999999998863
 31
0.0
  0
LINE
  5
36A
330
313
100
AcDbEntity
  8
Object
100
AcDbLine
 10
14.46000000000003
 20
-3.0
 30
0.0
 11
12.15999999999985
 21
-3.0
 31
0.0
  0
LINE
  5
36B
330
313
100
AcDbEntity
  8
Object
100
AcDbLine
 10
14.46000000000003
 20
0.0
 30
0.0
 11
14.46000000000003
 21
-3.0
 31
0.0
  0
ARC
  5
36C
330
313
100
AcDbEntity
  8
Object
100
AcDbCircle
 10
16.88999999999987
 20
-1.499999999999886
 30
0.0
 40
0.5
100
AcDbArc
 50
0.0
 51
90.0
  0
ENDBLK
  5
36E
330
313
100
AcDbEntity
  8
0
100
AcDbBlockEnd
  0
BLOCK
  5
581
330
577
100
AcDbEntity
  8
0
100
AcDbBlockBegin
  2
*D8
 70
     1
 10
0.0
 20
0.0
 30
0.0
  3
*D8
  1

  0
LINE
  5
5AD
330
577
100
AcDbEntity
  8
text3
 62
     0
370
    -2
100
AcDbLine
 10
-539.8196860764338
 20
-1649.20956382715
 30
0.0
 11
-539.8196860764338
 21
-1679.935836631309
 31
0.0
  0
LINE
  5
5AE
330
577
100
AcDbEntity
  8
text3
 62
     0
370
    -2
100
AcDbLine
 10
-483.4196860764337
 20
-1649.20956382715
 30
0.0
 11
-483.4196860764337
 21
-1679.935836631309
 31
0.0
  0
LINE
  5
5AF
330
577
100
AcDbEntity
  8
text3
 62
     0
370
    -2
100
AcDbLine
 10
-534.8196860764338
 20
-1674.935836631308
 30
0.0
 11
-488.4196860764337
 21
-1674.935836631308
 31
0.0
  0
SOLID
  5
5B0
330
577
100
AcDbEntity
  8
text3
 62
     0
100
AcDbTrace
 10
-534.8196860764338
 20
-1674.102503297975
 30
0.0
 11
-534.8196860764338
 21
-1675.769169964642
 31
0.0
 12
-539.8196860764338
 22
-1674.935836631308
 32
0.0
 13
-539.8196860764338
 23
-1674.935836631308
 33
0.0
  0
SOLID
  5
5B1
330
577
100
AcDbEntity
  8
text3
 62
     0
100
AcDbTrace
 10
-488.4196860764337
 20
-1674.102503297975
 30
0.0
 11
-488.4196860764337
 21
-1675.769169964642
 31
0.0
 12
-483.4196860764337
 22
-1674.935836631308
 32
0.0
 13
-483.4196860764337
 23
-1674.935836631308
 33
0.0
  0
MTEXT
  5
5B2
330
577
100
AcDbEntity
  8
text3
 62
     0
100
AcDbMText
 10
-511.6196860764337
 20
-1671.435836631308
 30
0.0
 40
4.0
 41
0.0
 71
     5
 72
     1
  1
\A1;□56.4±0.1
 73
     1
 44
1.0
  0
POINT
  5
5B3
330
577
100
AcDbEntity
  8
Defpoints
 62
     0
100
AcDbPoint
 10
-539.8196860764338
 20
-1647.20956382715
 30
0.0
  0
POINT
  5
5B4
330
577
100
AcDbEntity
  8
Defpoints
 62
     0
100
AcDbPoint
 10
-483.4196860764337
 20
-1647.209563827149
 30
0.0
  0
POINT
  5
5B5
330
577
100
AcDbEntity
  8
Defpoints
 62
     0
100
AcDbPoint
 10
-483.4196860764337
 20
-1674.935836631308
 30
0.0
  0
ENDBLK
  5
582
330
577
100
AcDbEntity
  8
0
100
AcDbBlockEnd
  0
BLOCK
  5
58D
330
583
100
AcDbEntity
  8
0
100
AcDbBlockBegin
  2
*D9
 70
     1
 10
0.0
 20
0.0
 30
0.0
  3
*D9
  1

  0
LINE
  5
59B
330
583
100
AcDbEntity
  8
text3
 62
     0
370
    -2
100
AcDbLine
 10
-545.119686076434
 20
-1538.20956382715
 30
0.0
 11
-545.119686076434
 21
-1516.950010837352
 31
0.0
  0
LINE
  5
59C
330
583
100
AcDbEntity
  8
text3
 62
     0
370
    -2
100
AcDbLine
 10
-478.1196860764342
 20
-1538.20956382715
 30
0.0
 11
-478.1196860764342
 21
-1516.950010837352
 31
0.0
  0
LINE
  5
59D
330
583
100
AcDbEntity
  8
text3
 62
     0
370
    -2
100
AcDbLine
 10
-540.1196860764342
 20
-1521.950010837352
 30
0.0
 11
-483.1196860764342
 21
-1521.950010837352
 31
0.0
  0
SOLID
  5
59E
330
583
100
AcDbEntity
  8
text3
 62
     0
100
AcDbTrace
 10
-540.1196860764342
 20
-1521.116677504019
 30
0.0
 11
-540.1196860764342
 21
-1522.783344170686
 31
0.0
 12
-545.119686076434
 22
-1521.950010837352
 32
0.0
 13
-545.119686076434
 23
-1521.950010837352
 33
0.0
  0
SOLID
  5
59F
330
583
100
AcDbEntity
  8
text3
 62
     0
100
AcDbTrace
 10
-483.1196860764342
 20
-1521.116677504019
 30
0.0
 11
-483.1196860764342
 21
-1522.783344170686
 31
0.0
 12
-478.1196860764342
 22
-1521.950010837352
 32
0.0
 13
-478.1196860764342
 23
-1521.950010837352
 33
0.0
  0
MTEXT
  5
5A0
330
583
100
AcDbEntity
  8
text3
 62
     0
100
AcDbMText
 10
-511.6196860764341
 20
-1518.450010837352
 30
0.0
 40
4.0
 41
0.0
 71
     5
 72
     1
  1
\A1;67±1
 73
     1
 44
1.0
  0
POINT
  5
5A1
330
583
100
AcDbEntity
  8
Defpoints
 62
     0
100
AcDbPoint
 10
-545.119686076434
 20
-1540.20956382715
 30
0.0
  0
POINT
  5
5A2
330
583
100
AcDbEntity
  8
Defpoints
 62
     0
100
AcDbPoint
 10
-478.1196860764342
 20
-1540.20956382715
 30
0.0
  0
POINT
  5
5A3
330
583
100
AcDbEntity
  8
Defpoints
 62
     0
100
AcDbPoint
 10
-478.1196860764342
 20
-1521.950010837352
 30
0.0
  0
ENDBLK
  5
58E
330
583
100
AcDbEntity
  8
0
100
AcDbBlockEnd
  0
BLOCK
  5
599
330
58F
100
AcDbEntity
  8
0
100
AcDbBlockBegin
  2
*D10
 70
     1
 10
0.0
 20
0.0
 30
0.0
  3
*D10
  1

  0
LINE
  5
5A4
330
58F
100
AcDbEntity
  8
text3
 62
     0
370
    -2
100
AcDbLine
 10
-535.1896860764338
 20
-1649.20956382715
 30
0.0
 11
-535.1896860764338
 21
-1666.960197144294
 31
0.0
  0
LINE
  5
5A5
330
58F
100
AcDbEntity
  8
text3
 62
     0
370
    -2
100
AcDbLine
 10
-488.0496860764337
 20
-1649.20956382715
 30
0.0
 11
-488.0496860764337
 21
-1666.960197144294
 31
0.0
  0
LINE
  5
5A6
330
58F
100
AcDbEntity
  8
text3
 62
     0
370
    -2
100
AcDbLine
 10
-530.1896860764339
 20
-1661.960197144295
 30
0.0
 11
-493.0496860764336
 21
-1661.960197144295
 31
0.0
  0
SOLID
  5
5A7
330
58F
100
AcDbEntity
  8
text3
 62
     0
100
AcDbTrace
 10
-530.1896860764339
 20
-1661.126863810961
 30
0.0
 11
-530.1896860764339
 21
-1662.793530477627
 31
0.0
 12
-535.1896860764338
 22
-1661.960197144295
 32
0.0
 13
-535.1896860764338
 23
-1661.960197144295
 33
0.0
  0
SOLID
  5
5A8
330
58F
100
AcDbEntity
  8
text3
 62
     0
100
AcDbTrace
 10
-493.0496860764336
 20
-1661.126863810961
 30
0.0
 11
-493.0496860764336
 21
-1662.793530477627
 31
0.0
 12
-488.0496860764337
 22
-1661.960197144295
 32
0.0
 13
-488.0496860764337
 23
-1661.960197144295
 33
0.0
  0
MTEXT
  5
5A9
330
58F
100
AcDbEntity
  8
text3
 62
     0
100
AcDbMText
 10
-511.6196860764338
 20
-1658.460197144295
 30
0.0
 40
4.0
 41
0.0
 71
     5
 72
     1
  1
\A1;□47.14±0.1
 73
     1
 44
1.0
  0
POINT
  5
5AA
330
58F
100
AcDbEntity
  8
Defpoints
 62
     0
100
AcDbPoint
 10
-535.1896860764338
 20
-1647.20956382715
 30
0.0
  0
POINT
  5
5AB
330
58F
100
AcDbEntity
  8
Defpoints
 62
     0
100
AcDbPoint
 10
-488.0496860764337
 20
-1647.209563827149
 30
0.0
  0
POINT
  5
5AC
330
58F
100
AcDbEntity
  8
Defpoints
 62
     0
100
AcDbPoint
 10
-488.0496860764337
 20
-1661.960197144295
 30
0.0
  0
ENDBLK
  5
59A
330
58F
100
AcDbEntity
  8
0
100
AcDbBlockEnd
  0
BLOCK
  5
5C1
330
5B6
100
AcDbEntity
  8
0
100
AcDbBlockBegin
  2
*D11
 70
     1
 10
0.0
 20
0.0
 30
0.0
  3
*D11
  1

  0
LINE
  5
5B7
330
5B6
100
AcDbEntity
  8
text3
 62
     0
370
    -2
100
AcDbLine
 10
-428.6196860764336
 20
-1623.00956382715
 30
0.0
 11
-440.0592133758789
 21
-1623.00956382715
 31
0.0
  0
LINE
  5
5B8
330
5B6
100
AcDbEntity
  8
text3
 62
     0
370
    -2
100
AcDbLine
 10
-428.6196860764336
 20
-1615.00956382715
 30
0.0
 11
-440.0592133758789
 21
-1615.00956382715
 31
0.0
  0
LINE
  5
5B9
330
5B6
100
AcDbEntity
  8
text3
 62
     0
370
    -2
100
AcDbLine
 10
-435.0592133758789
 20
-1610.00956382715
 30
0.0
 11
-435.0592133758789
 21
-1605.00956382715
 31
0.0
  0
LINE
  5
5BA
330
5B6
100
AcDbEntity
  8
text3
 62
     0
370
    -2
100
AcDbLine
 10
-435.0592133758789
 20
-1628.00956382715
 30
0.0
 11
-435.0592133758789
 21
-1657.28052563115
 31
0.0
  0
SOLID
  5
5BB
330
5B6
100
AcDbEntity
  8
text3
 62
     0
100
AcDbTrace
 10
-435.8925467092122
 20
-1610.00956382715
 30
0.0
 11
-434.2258800425455
 21
-1610.00956382715
 31
0.0
 12
-435.0592133758789
 22
-1615.00956382715
 32
0.0
 13
-435.0592133758789
 23
-1615.00956382715
 33
0.0
  0
SOLID
  5
5BC
330
5B6
100
AcDbEntity
  8
text3
 62
     0
100
AcDbTrace
 10
-435.8925467092122
 20
-1628.00956382715
 30
0.0
 11
-434.2258800425455
 21
-1628.00956382715
 31
0.0
 12
-435.0592133758789
 22
-1623.00956382715
 32
0.0
 13
-435.0592133758789
 23
-1623.00956382715
 33
0.0
  0
MTEXT
  5
5BD
330
5B6
100
AcDbEntity
  8
text3
 62
     0
100
AcDbMText
 10
-438.5592133758787
 20
-1648.18052563115
 30
0.0
 40
4.0
 41
0.0
 71
     5
 72
     1
  1
\A1;Φ8h6
 11
1.000000000000000E-16
 21
1.0
 31
0.0
 73
     1
 44
1.0
  0
POINT
  5
5BE
330
5B6
100
AcDbEntity
  8
Defpoints
 62
     0
100
AcDbPoint
 10
-425.6196860764336
 20
-1623.00956382715
 30
0.0
  0
POINT
  5
5BF
330
5B6
100
AcDbEntity
  8
Defpoints
 62
     0
100
AcDbPoint
 10
-425.6196860764336
 20
-1615.00956382715
 30
0.0
  0
POINT
  5
5C0
330
5B6
100
AcDbEntity
  8
Defpoints
 62
     0
100
AcDbPoint
 10
-435.0592133758789
 20
-1615.00956382715
 30
0.0
  0
ENDBLK
  5
5C2
330
5B6
100
AcDbEntity
  8
0
100
AcDbBlockEnd
  0
BLOCK
  5
5CE
330
5C4
100
AcDbEntity
  8
0
100
AcDbBlockBegin
  2
*D12
 70
     1
 10
0.0
 20
0.0
 30
0.0
  3
*D12
  1

  0
LINE
  5
5D9
330
5C4
100
AcDbEntity
  8
text3
 62
     0
370
    -2
100
AcDbLine
 10
-453.498423565238
 20
-1579.059563827151
 30
0.0
 11
-453.498423565238
 21
-1586.378343987177
 31
0.0
  0
LINE
  5
5DA
330
5C4
100
AcDbEntity
  8
text3
 62
     0
370
    -2
100
AcDbLine
 10
-379.1196860764344
 20
-1579.059563827156
 30
0.0
 11
-379.1196860764344
 21
-1586.378343987177
 31
0.0
  0
LINE
  5
5DB
330
5C4
100
AcDbEntity
  8
text3
 62
     0
370
    -2
100
AcDbLine
 10
-448.4984235652381
 20
-1581.378343987177
 30
0.0
 11
-384.1196860764344
 21
-1581.378343987177
 31
0.0
  0
SOLID
  5
5DC
330
5C4
100
AcDbEntity
  8
text3
 62
     0
100
AcDbTrace
 10
-448.4984235652381
 20
-1580.545010653844
 30
0.0
 11
-448.4984235652381
 21
-1582.21167732051
 31
0.0
 12
-453.498423565238
 22
-1581.378343987177
 32
0.0
 13
-453.498423565238
 23
-1581.378343987177
 33
0.0
  0
SOLID
  5
5DD
330
5C4
100
AcDbEntity
  8
text3
 62
     0
100
AcDbTrace
 10
-384.1196860764344
 20
-1580.545010653844
 30
0.0
 11
-384.1196860764344
 21
-1582.21167732051
 31
0.0
 12
-379.1196860764344
 22
-1581.378343987177
 32
0.0
 13
-379.1196860764344
 23
-1581.378343987177
 33
0.0
  0
MTEXT
  5
5DE
330
5C4
100
AcDbEntity
  8
text3
 62
     0
100
AcDbMText
 10
-416.3090548208362
 20
-1577.878343987177
 30
0.0
 40
4.0
 41
0.0
 71
     5
 72
     1
  1
\A1;300±50
 73
     1
 44
1.0
  0
POINT
  5
5DF
330
5C4
100
AcDbEntity
  8
Defpoints
 62
     0
100
AcDbPoint
 10
-453.498423565238
 20
-1577.059563827151
 30
0.0
  0
POINT
  5
5E0
330
5C4
100
AcDbEntity
  8
Defpoints
 62
     0
100
AcDbPoint
 10
-379.1196860764344
 20
-1577.059563827156
 30
0.0
  0
POINT
  5
5E1
330
5C4
100
AcDbEntity
  8
Defpoints
 62
     0
100
AcDbPoint
 10
-379.1196860764344
 20
-1581.378343987177
 30
0.0
  0
ENDBLK
  5
5CF
330
5C4
100
AcDbEntity
  8
0
100
AcDbBlockEnd
  0
BLOCK
  5
812
330
807
100
AcDbEntity
  8
0
100
AcDbBlockBegin
  2
*D13
 70
     1
 10
0.0
 20
0.0
 30
0.0
  3
*D13
  1

  0
LINE
  5
8B7
330
807
100
AcDbEntity
  8
text3
 62
     0
370
    -2
100
AcDbLine
 10
-508.7819345948189
 20
-1747.055195824496
 30
0.0
 11
-521.4026921111393
 21
-1747.055195824496
 31
0.0
  0
LINE
  5
8B8
330
807
100
AcDbEntity
  8
text3
 62
     0
370
    -2
100
AcDbLine
 10
-508.7819345948196
 20
-1755.055195824497
 30
0.0
 11
-521.4026921111393
 21
-1755.055195824496
 31
0.0
  0
LINE
  5
8B9
330
807
100
AcDbEntity
  8
text3
 62
     0
370
    -2
100
AcDbLine
 10
-516.4026921111393
 20
-1760.055195824496
 30
0.0
 11
-516.4026921111393
 21
-1765.055195824496
 31
0.0
  0
LINE
  5
8BA
330
807
100
AcDbEntity
  8
text3
 62
     0
370
    -2
100
AcDbLine
 10
-516.4026921111393
 20
-1742.055195824496
 30
0.0
 11
-516.4026921111393
 21
-1718.855195824496
 31
0.0
  0
SOLID
  5
8BB
330
807
100
AcDbEntity
  8
text3
 62
     0
100
AcDbTrace
 10
-517.2360254444728
 20
-1760.055195824496
 30
0.0
 11
-515.5693587778061
 21
-1760.055195824496
 31
0.0
 12
-516.4026921111393
 22
-1755.055195824496
 32
0.0
 13
-516.4026921111393
 23
-1755.055195824496
 33
0.0
  0
SOLID
  5
8BC
330
807
100
AcDbEntity
  8
text3
 62
     0
100
AcDbTrace
 10
-517.2360254444728
 20
-1742.055195824496
 30
0.0
 11
-515.5693587778061
 21
-1742.055195824496
 31
0.0
 12
-516.4026921111393
 22
-1747.055195824496
 32
0.0
 13
-516.4026921111393
 23
-1747.055195824496
 33
0.0
  0
MTEXT
  5
8BD
330
807
100
AcDbEntity
  8
text3
 62
     0
100
AcDbMText
 10
-519.9026921111392
 20
-1727.955195824496
 30
0.0
 40
4.0
 41
0.0
 71
     5
 72
     1
  1
\A1;Φ8h6
 11
1.000000000000000E-16
 21
1.0
 31
0.0
 73
     1
 44
1.0
  0
POINT
  5
8BE
330
807
100
AcDbEntity
  8
Defpoints
 62
     0
100
AcDbPoint
 10
-506.7819345948189
 20
-1747.055195824496
 30
0.0
  0
POINT
  5
8BF
330
807
100
AcDbEntity
  8
Defpoints
 62
     0
100
AcDbPoint
 10
-506.7819345948196
 20
-1755.055195824497
 30
0.0
  0
POINT
  5
8C0
330
807
100
AcDbEntity
  8
Defpoints
 62
     0
100
AcDbPoint
 10
-516.4026921111393
 20
-1755.055195824496
 30
0.0
  0
ENDBLK
  5
813
330
807
100
AcDbEntity
  8
0
100
AcDbBlockEnd
  0
BLOCK
  5
81F
330
814
100
AcDbEntity
  8
0
100
AcDbBlockBegin
  2
*D14
 70
     1
 10
0.0
 20
0.0
 30
0.0
  3
*D14
  1

  0
LINE
  5
8C1
330
814
100
AcDbEntity
  8
text3
 62
     0
370
    -2
100
AcDbLine
 10
-536.7587417644974
 20
-1749.555195824497
 30
0.0
 11
-527.6021029635737
 21
-1749.555195824497
 31
0.0
  0
LINE
  5
8C2
330
814
100
AcDbEntity
  8
text3
 62
     0
370
    -2
100
AcDbLine
 10
-536.7587417644974
 20
-1752.555195824496
 30
0.0
 11
-527.6021029635737
 21
-1752.555195824496
 31
0.0
  0
LINE
  5
8C3
330
814
100
AcDbEntity
  8
text3
 62
     0
370
    -2
100
AcDbLine
 10
-532.6021029635738
 20
-1757.555195824497
 30
0.0
 11
-532.6021029635738
 21
-1762.555195824496
 31
0.0
  0
LINE
  5
8C4
330
814
100
AcDbEntity
  8
text3
 62
     0
370
    -2
100
AcDbLine
 10
-532.6021029635738
 20
-1744.555195824497
 30
0.0
 11
-532.6021029635738
 21
-1725.888529157829
 31
0.0
  0
SOLID
  5
8C5
330
814
100
AcDbEntity
  8
text3
 62
     0
100
AcDbTrace
 10
-533.4354362969071
 20
-1757.555195824497
 30
0.0
 11
-531.7687696302404
 21
-1757.555195824497
 31
0.0
 12
-532.6021029635738
 22
-1752.555195824496
 32
0.0
 13
-532.6021029635738
 23
-1752.555195824496
 33
0.0
  0
SOLID
  5
8C6
330
814
100
AcDbEntity
  8
text3
 62
     0
100
AcDbTrace
 10
-533.4354362969071
 20
-1744.555195824497
 30
0.0
 11
-531.7687696302404
 21
-1744.555195824497
 31
0.0
 12
-532.6021029635738
 22
-1749.555195824497
 32
0.0
 13
-532.6021029635738
 23
-1749.555195824497
 33
0.0
  0
MTEXT
  5
8C7
330
814
100
AcDbEntity
  8
text3
 62
     0
100
AcDbMText
 10
-536.1021029635735
 20
-1732.721862491163
 30
0.0
 40
4.0
 41
0.0
 71
     5
 72
     1
  1
\A1;3P9
 11
1.000000000000000E-16
 21
1.0
 31
0.0
 73
     1
 44
1.0
  0
POINT
  5
8C8
330
814
100
AcDbEntity
  8
Defpoints
 62
     0
100
AcDbPoint
 10
-538.7587417644974
 20
-1749.555195824497
 30
0.0
  0
POINT
  5
8C9
330
814
100
AcDbEntity
  8
Defpoints
 62
     0
100
AcDbPoint
 10
-538.7587417644974
 20
-1752.555195824496
 30
0.0
  0
POINT
  5
8CA
330
814
100
AcDbEntity
  8
Defpoints
 62
     0
100
AcDbPoint
 10
-532.6021029635738
 20
-1752.555195824496
 30
0.0
  0
ENDBLK
  5
820
330
814
100
AcDbEntity
  8
0
100
AcDbBlockEnd
  0
BLOCK
  5
82C
330
821
100
AcDbEntity
  8
0
100
AcDbBlockBegin
  2
*D15
 70
     1
 10
0.0
 20
0.0
 30
0.0
  3
*D15
  1

  0
LINE
  5
8CB
330
821
100
AcDbEntity
  8
text3
 62
     0
370
    -2
100
AcDbLine
 10
-538.7587417644974
 20
-1753.055195824497
 30
0.0
 11
-538.7587417644974
 21
-1779.404591248674
 31
0.0
  0
LINE
  5
8CC
330
821
100
AcDbEntity
  8
text3
 62
     0
370
    -2
100
AcDbLine
 10
-544.9587417644975
 20
-1753.055195824497
 30
0.0
 11
-544.9587417644975
 21
-1779.404591248674
 31
0.0
  0
LINE
  5
8CD
330
821
100
AcDbEntity
  8
text3
 62
     0
370
    -2
100
AcDbLine
 10
-549.9587417644975
 20
-1774.404591248674
 30
0.0
 11
-554.9587417644975
 21
-1774.404591248674
 31
0.0
  0
LINE
  5
8CE
330
821
100
AcDbEntity
  8
text3
 62
     0
370
    -2
100
AcDbLine
 10
-533.7587417644974
 20
-1774.404591248674
 30
0.0
 11
-517.7587417644974
 21
-1774.404591248674
 31
0.0
  0
SOLID
  5
8CF
330
821
100
AcDbEntity
  8
text3
 62
     0
100
AcDbTrace
 10
-549.9587417644975
 20
-1773.571257915341
 30
0.0
 11
-549.9587417644975
 21
-1775.237924582007
 31
0.0
 12
-544.9587417644975
 22
-1774.404591248674
 32
0.0
 13
-544.9587417644975
 23
-1774.404591248674
 33
0.0
  0
SOLID
  5
8D0
330
821
100
AcDbEntity
  8
text3
 62
     0
100
AcDbTrace
 10
-533.7587417644974
 20
-1773.571257915341
 30
0.0
 11
-533.7587417644974
 21
-1775.237924582007
 31
0.0
 12
-538.7587417644974
 22
-1774.404591248674
 32
0.0
 13
-538.7587417644974
 23
-1774.404591248674
 33
0.0
  0
MTEXT
  5
8D1
330
821
100
AcDbEntity
  8
text3
 62
     0
100
AcDbMText
 10
-523.2587417644975
 20
-1770.904591248674
 30
0.0
 40
4.0
 41
0.0
 71
     5
 72
     1
  1
\A1;6.2
 73
     1
 44
1.0
  0
POINT
  5
8D2
330
821
100
AcDbEntity
  8
Defpoints
 62
     0
100
AcDbPoint
 10
-538.7587417644974
 20
-1751.055195824497
 30
0.0
  0
POINT
  5
8D3
330
821
100
AcDbEntity
  8
Defpoints
 62
     0
100
AcDbPoint
 10
-544.9587417644975
 20
-1751.055195824497
 30
0.0
  0
POINT
  5
8D4
330
821
100
AcDbEntity
  8
Defpoints
 62
     0
100
AcDbPoint
 10
-544.9587417644975
 20
-1774.404591248674
 30
0.0
  0
ENDBLK
  5
82D
330
821
100
AcDbEntity
  8
0
100
AcDbBlockEnd
  0
BLOCK
  5
839
330
82E
100
AcDbEntity
  8
0
100
AcDbBlockBegin
  2
*D16
 70
     1
 10
0.0
 20
0.0
 30
0.0
  3
*D16
  1

  0
LINE
  5
8D5
330
82E
100
AcDbEntity
  8
text3
 62
     0
370
    -2
100
AcDbLine
 10
-422.9853089649066
 20
-1747.055195824496
 30
0.0
 11
-435.6060664812272
 21
-1747.055195824496
 31
0.0
  0
LINE
  5
8D6
330
82E
100
AcDbEntity
  8
text3
 62
     0
370
    -2
100
AcDbLine
 10
-422.9853089649073
 20
-1755.055195824496
 30
0.0
 11
-435.6060664812272
 21
-1755.055195824496
 31
0.0
  0
LINE
  5
8D7
330
82E
100
AcDbEntity
  8
text3
 62
     0
370
    -2
100
AcDbLine
 10
-430.6060664812271
 20
-1760.055195824496
 30
0.0
 11
-430.6060664812271
 21
-1765.055195824496
 31
0.0
  0
LINE
  5
8D8
330
82E
100
AcDbEntity
  8
text3
 62
     0
370
    -2
100
AcDbLine
 10
-430.6060664812271
 20
-1742.055195824496
 30
0.0
 11
-430.6060664812271
 21
-1718.855195824496
 31
0.0
  0
SOLID
  5
8D9
330
82E
100
AcDbEntity
  8
text3
 62
     0
100
AcDbTrace
 10
-431.4393998145605
 20
-1760.055195824496
 30
0.0
 11
-429.7727331478938
 21
-1760.055195824496
 31
0.0
 12
-430.6060664812271
 22
-1755.055195824496
 32
0.0
 13
-430.6060664812271
 23
-1755.055195824496
 33
0.0
  0
SOLID
  5
8DA
330
82E
100
AcDbEntity
  8
text3
 62
     0
100
AcDbTrace
 10
-431.4393998145605
 20
-1742.055195824496
 30
0.0
 11
-429.7727331478938
 21
-1742.055195824496
 31
0.0
 12
-430.6060664812271
 22
-1747.055195824496
 32
0.0
 13
-430.6060664812271
 23
-1747.055195824496
 33
0.0
  0
MTEXT
  5
8DB
330
82E
100
AcDbEntity
  8
text3
 62
     0
100
AcDbMText
 10
-434.1060664812268
 20
-1727.955195824496
 30
0.0
 40
4.0
 41
0.0
 71
     5
 72
     1
  1
\A1;Φ8h6
 11
1.000000000000000E-16
 21
1.0
 31
0.0
 73
     1
 44
1.0
  0
POINT
  5
8DC
330
82E
100
AcDbEntity
  8
Defpoints
 62
     0
100
AcDbPoint
 10
-420.9853089649065
 20
-1747.055195824496
 30
0.0
  0
POINT
  5
8DD
330
82E
100
AcDbEntity
  8
Defpoints
 62
     0
100
AcDbPoint
 10
-420.9853089649072
 20
-1755.055195824496
 30
0.0
  0
POINT
  5
8DE
330
82E
100
AcDbEntity
  8
Defpoints
 62
     0
100
AcDbPoint
 10
-430.6060664812271
 20
-1755.055195824496
 30
0.0
  0
ENDBLK
  5
83A
330
82E
100
AcDbEntity
  8
0
100
AcDbBlockEnd
  0
BLOCK
  5
845
330
83B
100
AcDbEntity
  8
0
100
AcDbBlockBegin
  2
*D17
 70
     1
 10
0.0
 20
0.0
 30
0.0
  3
*D17
  1

  0
LINE
  5
8DF
330
83B
100
AcDbEntity
  8
text3
 62
     0
370
    -2
100
AcDbLine
 10
-491.2819345948191
 20
-1745.555195824497
 30
0.0
 11
-491.2819345948186
 21
-1730.909486400263
 31
0.0
  0
LINE
  5
8E0
330
83B
100
AcDbEntity
  8
text3
 62
     0
370
    -2
100
AcDbLine
 10
-507.2819345948186
 20
-1745.555195824496
 30
0.0
 11
-507.2819345948182
 21
-1730.909486400263
 31
0.0
  0
LINE
  5
8E1
330
83B
100
AcDbEntity
  8
text3
 62
     0
370
    -2
100
AcDbLine
 10
-496.2819345948188
 20
-1735.909486400263
 30
0.0
 11
-502.2819345948184
 21
-1735.909486400262
 31
0.0
  0
SOLID
  5
8E2
330
83B
100
AcDbEntity
  8
text3
 62
     0
100
AcDbTrace
 10
-496.2819345948188
 20
-1735.07615306693
 30
0.0
 11
-496.2819345948188
 21
-1736.742819733596
 31
0.0
 12
-491.2819345948188
 22
-1735.909486400263
 32
0.0
 13
-491.2819345948188
 23
-1735.909486400263
 33
0.0
  0
SOLID
  5
8E3
330
83B
100
AcDbEntity
  8
text3
 62
     0
100
AcDbTrace
 10
-502.2819345948184
 20
-1735.07615306693
 30
0.0
 11
-502.2819345948184
 21
-1736.742819733596
 31
0.0
 12
-507.2819345948183
 22
-1735.909486400262
 32
0.0
 13
-507.2819345948183
 23
-1735.909486400262
 33
0.0
  0
MTEXT
  5
8E4
330
83B
100
AcDbEntity
  8
text3
 62
     0
100
AcDbMText
 10
-499.2819345948181
 20
-1732.409486400263
 30
0.0
 40
4.0
 41
0.0
 71
     5
 72
     1
  1
\A1;16
 73
     1
 44
1.0
  0
POINT
  5
8E5
330
83B
100
AcDbEntity
  8
Defpoints
 62
     0
100
AcDbPoint
 10
-491.2819345948191
 20
-1747.555195824497
 30
0.0
  0
POINT
  5
8E6
330
83B
100
AcDbEntity
  8
Defpoints
 62
     0
100
AcDbPoint
 10
-507.2819345948187
 20
-1747.555195824496
 30
0.0
  0
POINT
  5
8E7
330
83B
100
AcDbEntity
  8
Defpoints
 62
     0
100
AcDbPoint
 10
-507.2819345948183
 20
-1735.909486400262
 30
0.0
  0
ENDBLK
  5
846
330
83B
100
AcDbEntity
  8
0
100
AcDbBlockEnd
  0
BLOCK
  5
851
330
847
100
AcDbEntity
  8
0
100
AcDbBlockBegin
  2
*D18
 70
     1
 10
0.0
 20
0.0
 30
0.0
  3
*D18
  1

  0
LINE
  5
8E8
330
847
100
AcDbEntity
  8
text3
 62
     0
370
    -2
100
AcDbLine
 10
-507.2819345948187
 20
-1745.555195824496
 30
0.0
 11
-507.2819345948187
 21
-1710.239272295592
 31
0.0
  0
LINE
  5
8E9
330
847
100
AcDbEntity
  8
text3
 62
     0
370
    -2
100
AcDbLine
 10
-487.2819345948187
 20
-1745.555195824496
 30
0.0
 11
-487.2819345948187
 21
-1710.239272295592
 31
0.0
  0
LINE
  5
8EA
330
847
100
AcDbEntity
  8
text3
 62
     0
370
    -2
100
AcDbLine
 10
-502.2819345948187
 20
-1715.239272295593
 30
0.0
 11
-492.2819345948187
 21
-1715.239272295593
 31
0.0
  0
SOLID
  5
8EB
330
847
100
AcDbEntity
  8
text3
 62
     0
100
AcDbTrace
 10
-502.2819345948187
 20
-1714.405938962259
 30
0.0
 11
-502.2819345948187
 21
-1716.072605628926
 31
0.0
 12
-507.2819345948187
 22
-1715.239272295593
 32
0.0
 13
-507.2819345948187
 23
-1715.239272295593
 33
0.0
  0
SOLID
  5
8EC
330
847
100
AcDbEntity
  8
text3
 62
     0
100
AcDbTrace
 10
-492.2819345948187
 20
-1714.405938962259
 30
0.0
 11
-492.2819345948187
 21
-1716.072605628926
 31
0.0
 12
-487.2819345948187
 22
-1715.239272295593
 32
0.0
 13
-487.2819345948187
 23
-1715.239272295593
 33
0.0
  0
MTEXT
  5
8ED
330
847
100
AcDbEntity
  8
text3
 62
     0
100
AcDbMText
 10
-497.2819345948187
 20
-1711.739272295593
 30
0.0
 40
4.0
 41
0.0
 71
     5
 72
     1
  1
\A1;20±1
 73
     1
 44
1.0
  0
POINT
  5
8EE
330
847
100
AcDbEntity
  8
Defpoints
 62
     0
100
AcDbPoint
 10
-507.2819345948187
 20
-1747.555195824496
 30
0.0
  0
POINT
  5
8EF
330
847
100
AcDbEntity
  8
Defpoints
 62
     0
100
AcDbPoint
 10
-487.2819345948187
 20
-1747.555195824496
 30
0.0
  0
POINT
  5
8F0
330
847
100
AcDbEntity
  8
Defpoints
 62
     0
100
AcDbPoint
 10
-487.2819345948187
 20
-1715.239272295593
 30
0.0
  0
ENDBLK
  5
852
330
847
100
AcDbEntity
  8
0
100
AcDbBlockEnd
  0
BLOCK
  5
85D
330
853
100
AcDbEntity
  8
0
100
AcDbBlockBegin
  2
*D19
 70
     1
 10
0.0
 20
0.0
 30
0.0
  3
*D19
  1

  0
LINE
  5
8F1
330
853
100
AcDbEntity
  8
text3
 62
     0
370
    -2
100
AcDbLine
 10
-405.4853089649069
 20
-1745.555195824497
 30
0.0
 11
-405.4853089649065
 21
-1730.909486400263
 31
0.0
  0
LINE
  5
8F2
330
853
100
AcDbEntity
  8
text3
 62
     0
370
    -2
100
AcDbLine
 10
-421.4853089649065
 20
-1745.555195824496
 30
0.0
 11
-421.4853089649061
 21
-1730.909486400263
 31
0.0
  0
LINE
  5
8F3
330
853
100
AcDbEntity
  8
text3
 62
     0
370
    -2
100
AcDbLine
 10
-410.4853089649067
 20
-1735.909486400263
 30
0.0
 11
-416.4853089649062
 21
-1735.909486400263
 31
0.0
  0
SOLID
  5
8F4
330
853
100
AcDbEntity
  8
text3
 62
     0
100
AcDbTrace
 10
-410.4853089649067
 20
-1735.07615306693
 30
0.0
 11
-410.4853089649067
 21
-1736.742819733597
 31
0.0
 12
-405.4853089649067
 22
-1735.909486400263
 32
0.0
 13
-405.4853089649067
 23
-1735.909486400263
 33
0.0
  0
SOLID
  5
8F5
330
853
100
AcDbEntity
  8
text3
 62
     0
100
AcDbTrace
 10
-416.4853089649062
 20
-1735.07615306693
 30
0.0
 11
-416.4853089649062
 21
-1736.742819733597
 31
0.0
 12
-421.4853089649063
 22
-1735.909486400263
 32
0.0
 13
-421.4853089649063
 23
-1735.909486400263
 33
0.0
  0
MTEXT
  5
8F6
330
853
100
AcDbEntity
  8
text3
 62
     0
100
AcDbMText
 10
-413.485308964906
 20
-1732.409486400263
 30
0.0
 40
4.0
 41
0.0
 71
     5
 72
     1
  1
\A1;16
 73
     1
 44
1.0
  0
POINT
  5
8F7
330
853
100
AcDbEntity
  8
Defpoints
 62
     0
100
AcDbPoint
 10
-405.485308964907
 20
-1747.555195824497
 30
0.0
  0
POINT
  5
8F8
330
853
100
AcDbEntity
  8
Defpoints
 62
     0
100
AcDbPoint
 10
-421.4853089649066
 20
-1747.555195824497
 30
0.0
  0
POINT
  5
8F9
330
853
100
AcDbEntity
  8
Defpoints
 62
     0
100
AcDbPoint
 10
-421.4853089649063
 20
-1735.909486400263
 30
0.0
  0
ENDBLK
  5
85E
330
853
100
AcDbEntity
  8
0
100
AcDbBlockEnd
  0
BLOCK
  5
869
330
85F
100
AcDbEntity
  8
0
100
AcDbBlockBegin
  2
*D20
 70
     1
 10
0.0
 20
0.0
 30
0.0
  3
*D20
  1

  0
LINE
  5
8FA
330
85F
100
AcDbEntity
  8
text3
 62
     0
370
    -2
100
AcDbLine
 10
-421.4853089649063
 20
-1745.555195824496
 30
0.0
 11
-421.4853089649063
 21
-1710.239272295592
 31
0.0
  0
LINE
  5
8FB
330
85F
100
AcDbEntity
  8
text3
 62
     0
370
    -2
100
AcDbLine
 10
-401.4853089649063
 20
-1745.555195824496
 30
0.0
 11
-401.4853089649063
 21
-1710.239272295592
 31
0.0
  0
LINE
  5
8FC
330
85F
100
AcDbEntity
  8
text3
 62
     0
370
    -2
100
AcDbLine
 10
-416.4853089649064
 20
-1715.239272295593
 30
0.0
 11
-406.4853089649063
 21
-1715.239272295593
 31
0.0
  0
SOLID
  5
8FD
330
85F
100
AcDbEntity
  8
text3
 62
     0
100
AcDbTrace
 10
-416.4853089649064
 20
-1714.405938962259
 30
0.0
 11
-416.4853089649064
 21
-1716.072605628926
 31
0.0
 12
-421.4853089649063
 22
-1715.239272295593
 32
0.0
 13
-421.4853089649063
 23
-1715.239272295593
 33
0.0
  0
SOLID
  5
8FE
330
85F
100
AcDbEntity
  8
text3
 62
     0
100
AcDbTrace
 10
-406.4853089649063
 20
-1714.405938962259
 30
0.0
 11
-406.4853089649063
 21
-1716.072605628926
 31
0.0
 12
-401.4853089649063
 22
-1715.239272295593
 32
0.0
 13
-401.4853089649063
 23
-1715.239272295593
 33
0.0
  0
MTEXT
  5
8FF
330
85F
100
AcDbEntity
  8
text3
 62
     0
100
AcDbMText
 10
-411.4853089649064
 20
-1711.739272295593
 30
0.0
 40
4.0
 41
0.0
 71
     5
 72
     1
  1
\A1;20±1
 73
     1
 44
1.0
  0
POINT
  5
900
330
85F
100
AcDbEntity
  8
Defpoints
 62
     0
100
AcDbPoint
 10
-421.4853089649063
 20
-1747.555195824496
 30
0.0
  0
POINT
  5
901
330
85F
100
AcDbEntity
  8
Defpoints
 62
     0
100
AcDbPoint
 10
-401.4853089649063
 20
-1747.555195824496
 30
0.0
  0
POINT
  5
902
330
85F
100
AcDbEntity
  8
Defpoints
 62
     0
100
AcDbPoint
 10
-401.4853089649063
 20
-1715.239272295593
 30
0.0
  0
ENDBLK
  5
86A
330
85F
100
AcDbEntity
  8
0
100
AcDbBlockEnd
  0
BLOCK
  5
876
330
86B
100
AcDbEntity
  8
0
100
AcDbBlockBegin
  2
*D21
 70
     1
 10
0.0
 20
0.0
 30
0.0
  3
*D21
  1

  0
LINE
  5
903
330
86B
100
AcDbEntity
  8
text3
 62
     0
370
    -2
100
AcDbLine
 10
-454.1044993868831
 20
-1753.055195824497
 30
0.0
 11
-454.1044993868831
 21
-1780.334068565263
 31
0.0
  0
LINE
  5
904
330
86B
100
AcDbEntity
  8
text3
 62
     0
370
    -2
100
AcDbLine
 10
-446.6044993868831
 20
-1753.055195824497
 30
0.0
 11
-446.6044993868831
 21
-1780.334068565263
 31
0.0
  0
LINE
  5
905
330
86B
100
AcDbEntity
  8
text3
 62
     0
370
    -2
100
AcDbLine
 10
-459.1044993868831
 20
-1775.334068565263
 30
0.0
 11
-464.1044993868831
 21
-1775.334068565263
 31
0.0
  0
LINE
  5
906
330
86B
100
AcDbEntity
  8
text3
 62
     0
370
    -2
100
AcDbLine
 10
-441.6044993868831
 20
-1775.334068565263
 30
0.0
 11
-412.1378327202164
 21
-1775.334068565263
 31
0.0
  0
SOLID
  5
907
330
86B
100
AcDbEntity
  8
text3
 62
     0
100
AcDbTrace
 10
-459.1044993868831
 20
-1774.50073523193
 30
0.0
 11
-459.1044993868831
 21
-1776.167401898596
 31
0.0
 12
-454.1044993868831
 22
-1775.334068565263
 32
0.0
 13
-454.1044993868831
 23
-1775.334068565263
 33
0.0
  0
SOLID
  5
908
330
86B
100
AcDbEntity
  8
text3
 62
     0
100
AcDbTrace
 10
-441.6044993868831
 20
-1774.50073523193
 30
0.0
 11
-441.6044993868831
 21
-1776.167401898596
 31
0.0
 12
-446.6044993868831
 22
-1775.334068565263
 32
0.0
 13
-446.6044993868831
 23
-1775.334068565263
 33
0.0
  0
MTEXT
  5
909
330
86B
100
AcDbEntity
  8
text3
 62
     0
100
AcDbMText
 10
-424.3711660535498
 20
-1771.834068565263
 30
0.0
 40
4.0
 41
0.0
 71
     5
 72
     1
  1
\A1;7.5±0.2
 73
     1
 44
1.0
  0
POINT
  5
90A
330
86B
100
AcDbEntity
  8
Defpoints
 62
     0
100
AcDbPoint
 10
-454.1044993868831
 20
-1751.055195824497
 30
0.0
  0
POINT
  5
90B
330
86B
100
AcDbEntity
  8
Defpoints
 62
     0
100
AcDbPoint
 10
-446.6044993868831
 20
-1751.055195824497
 30
0.0
  0
POINT
  5
90C
330
86B
100
AcDbEntity
  8
Defpoints
 62
     0
100
AcDbPoint
 10
-446.6044993868831
 20
-1775.334068565263
 30
0.0
  0
ENDBLK
  5
877
330
86B
100
AcDbEntity
  8
0
100
AcDbBlockEnd
  0
BLOCK
  5
882
330
878
100
AcDbEntity
  8
0
100
AcDbBlockBegin
  2
*D22
 70
     1
 10
0.0
 20
0.0
 30
0.0
  3
*D22
  1

  0
LINE
  5
90D
330
878
100
AcDbEntity
  8
text3
 62
     0
370
    -2
100
AcDbLine
 10
-305.8216699178153
 20
-1745.555195824497
 30
0.0
 11
-305.821669917815
 21
-1735.806889725894
 31
0.0
  0
LINE
  5
90E
330
878
100
AcDbEntity
  8
text3
 62
     0
370
    -2
100
AcDbLine
 10
-321.8216699178146
 20
-1745.555195824496
 30
0.0
 11
-321.8216699178143
 21
-1735.806889725893
 31
0.0
  0
LINE
  5
90F
330
878
100
AcDbEntity
  8
text3
 62
     0
370
    -2
100
AcDbLine
 10
-310.8216699178151
 20
-1740.806889725893
 30
0.0
 11
-316.8216699178144
 21
-1740.806889725893
 31
0.0
  0
SOLID
  5
910
330
878
100
AcDbEntity
  8
text3
 62
     0
100
AcDbTrace
 10
-310.8216699178151
 20
-1739.97355639256
 30
0.0
 11
-310.8216699178151
 21
-1741.640223059226
 31
0.0
 12
-305.8216699178151
 22
-1740.806889725893
 32
0.0
 13
-305.8216699178151
 23
-1740.806889725893
 33
0.0
  0
SOLID
  5
911
330
878
100
AcDbEntity
  8
text3
 62
     0
100
AcDbTrace
 10
-316.8216699178144
 20
-1739.97355639256
 30
0.0
 11
-316.8216699178145
 21
-1741.640223059226
 31
0.0
 12
-321.8216699178144
 22
-1740.806889725893
 32
0.0
 13
-321.8216699178144
 23
-1740.806889725893
 33
0.0
  0
MTEXT
  5
912
330
878
100
AcDbEntity
  8
text3
 62
     0
100
AcDbMText
 10
-313.8216699178147
 20
-1737.306889725893
 30
0.0
 40
4.0
 41
0.0
 71
     5
 72
     1
  1
\A1;16
 73
     1
 44
1.0
  0
POINT
  5
913
330
878
100
AcDbEntity
  8
Defpoints
 62
     0
100
AcDbPoint
 10
-305.8216699178153
 20
-1747.555195824497
 30
0.0
  0
POINT
  5
914
330
878
100
AcDbEntity
  8
Defpoints
 62
     0
100
AcDbPoint
 10
-321.8216699178146
 20
-1747.555195824497
 30
0.0
  0
POINT
  5
915
330
878
100
AcDbEntity
  8
Defpoints
 62
     0
100
AcDbPoint
 10
-321.8216699178144
 20
-1740.806889725893
 30
0.0
  0
ENDBLK
  5
883
330
878
100
AcDbEntity
  8
0
100
AcDbBlockEnd
  0
BLOCK
  5
88E
330
884
100
AcDbEntity
  8
0
100
AcDbBlockBegin
  2
*D23
 70
     1
 10
0.0
 20
0.0
 30
0.0
  3
*D23
  1

  0
LINE
  5
916
330
884
100
AcDbEntity
  8
text3
 62
     0
370
    -2
100
AcDbLine
 10
-321.8216699178146
 20
-1745.555195824496
 30
0.0
 11
-321.8216699178146
 21
-1710.923731606339
 31
0.0
  0
LINE
  5
917
330
884
100
AcDbEntity
  8
text3
 62
     0
370
    -2
100
AcDbLine
 10
-301.8216699178147
 20
-1745.555195824496
 30
0.0
 11
-301.8216699178147
 21
-1710.923731606339
 31
0.0
  0
LINE
  5
918
330
884
100
AcDbEntity
  8
text3
 62
     0
370
    -2
100
AcDbLine
 10
-316.8216699178147
 20
-1715.923731606339
 30
0.0
 11
-306.8216699178146
 21
-1715.923731606339
 31
0.0
  0
SOLID
  5
919
330
884
100
AcDbEntity
  8
text3
 62
     0
100
AcDbTrace
 10
-316.8216699178147
 20
-1715.090398273005
 30
0.0
 11
-316.8216699178147
 21
-1716.757064939672
 31
0.0
 12
-321.8216699178146
 22
-1715.923731606339
 32
0.0
 13
-321.8216699178146
 23
-1715.923731606339
 33
0.0
  0
SOLID
  5
91A
330
884
100
AcDbEntity
  8
text3
 62
     0
100
AcDbTrace
 10
-306.8216699178146
 20
-1715.090398273005
 30
0.0
 11
-306.8216699178146
 21
-1716.757064939672
 31
0.0
 12
-301.8216699178147
 22
-1715.923731606339
 32
0.0
 13
-301.8216699178147
 23
-1715.923731606339
 33
0.0
  0
MTEXT
  5
91B
330
884
100
AcDbEntity
  8
text3
 62
     0
100
AcDbMText
 10
-311.8216699178146
 20
-1712.423731606339
 30
0.0
 40
4.0
 41
0.0
 71
     5
 72
     1
  1
\A1;20±1
 73
     1
 44
1.0
  0
POINT
  5
91C
330
884
100
AcDbEntity
  8
Defpoints
 62
     0
100
AcDbPoint
 10
-321.8216699178146
 20
-1747.555195824497
 30
0.0
  0
POINT
  5
91D
330
884
100
AcDbEntity
  8
Defpoints
 62
     0
100
AcDbPoint
 10
-301.8216699178147
 20
-1747.555195824497
 30
0.0
  0
POINT
  5
91E
330
884
100
AcDbEntity
  8
Defpoints
 62
     0
100
AcDbPoint
 10
-301.8216699178147
 20
-1715.923731606339
 30
0.0
  0
ENDBLK
  5
88F
330
884
100
AcDbEntity
  8
0
100
AcDbBlockEnd
  0
BLOCK
  5
89B
330
890
100
AcDbEntity
  8
0
100
AcDbBlockBegin
  2
*D24
 70
     1
 10
0.0
 20
0.0
 30
0.0
  3
*D24
  1

  0
LINE
  5
91F
330
890
100
AcDbEntity
  8
text3
 62
     0
370
    -2
100
AcDbLine
 10
-323.3216699178142
 20
-1747.055195824496
 30
0.0
 11
-335.9424274341348
 21
-1747.055195824496
 31
0.0
  0
LINE
  5
920
330
890
100
AcDbEntity
  8
text3
 62
     0
370
    -2
100
AcDbLine
 10
-323.3216699178149
 20
-1755.055195824497
 30
0.0
 11
-335.9424274341348
 21
-1755.055195824497
 31
0.0
  0
LINE
  5
921
330
890
100
AcDbEntity
  8
text3
 62
     0
370
    -2
100
AcDbLine
 10
-330.9424274341348
 20
-1760.055195824497
 30
0.0
 11
-330.9424274341348
 21
-1765.055195824496
 31
0.0
  0
LINE
  5
922
330
890
100
AcDbEntity
  8
text3
 62
     0
370
    -2
100
AcDbLine
 10
-330.9424274341348
 20
-1742.055195824496
 30
0.0
 11
-330.9424274341348
 21
-1718.855195824496
 31
0.0
  0
SOLID
  5
923
330
890
100
AcDbEntity
  8
text3
 62
     0
100
AcDbTrace
 10
-331.7757607674681
 20
-1760.055195824497
 30
0.0
 11
-330.1090941008014
 21
-1760.055195824497
 31
0.0
 12
-330.9424274341348
 22
-1755.055195824497
 32
0.0
 13
-330.9424274341348
 23
-1755.055195824497
 33
0.0
  0
SOLID
  5
924
330
890
100
AcDbEntity
  8
text3
 62
     0
100
AcDbTrace
 10
-331.7757607674681
 20
-1742.055195824496
 30
0.0
 11
-330.1090941008014
 21
-1742.055195824496
 31
0.0
 12
-330.9424274341348
 22
-1747.055195824496
 32
0.0
 13
-330.9424274341348
 23
-1747.055195824496
 33
0.0
  0
MTEXT
  5
925
330
890
100
AcDbEntity
  8
text3
 62
     0
100
AcDbMText
 10
-334.4424274341345
 20
-1727.955195824496
 30
0.0
 40
4.0
 41
0.0
 71
     5
 72
     1
  1
\A1;Φ8h6
 11
1.000000000000000E-16
 21
1.0
 31
0.0
 73
     1
 44
1.0
  0
POINT
  5
926
330
890
100
AcDbEntity
  8
Defpoints
 62
     0
100
AcDbPoint
 10
-321.3216699178142
 20
-1747.055195824496
 30
0.0
  0
POINT
  5
927
330
890
100
AcDbEntity
  8
Defpoints
 62
     0
100
AcDbPoint
 10
-321.3216699178149
 20
-1755.055195824497
 30
0.0
  0
POINT
  5
928
330
890
100
AcDbEntity
  8
Defpoints
 62
     0
100
AcDbPoint
 10
-330.9424274341348
 20
-1755.055195824497
 30
0.0
  0
ENDBLK
  5
89C
330
890
100
AcDbEntity
  8
0
100
AcDbBlockEnd
  0
BLOCK
  5
8A8
330
89D
100
AcDbEntity
  8
0
100
AcDbBlockBegin
  2
*D25
 70
     1
 10
0.0
 20
0.0
 30
0.0
  3
*D25
  1

  0
LINE
  5
929
330
89D
100
AcDbEntity
  8
text3
 62
     0
370
    -2
100
AcDbLine
 10
-352.6410832921365
 20
-1747.555195824497
 30
0.0
 11
-338.7185671255059
 21
-1747.555195824497
 31
0.0
  0
LINE
  5
92A
330
89D
100
AcDbEntity
  8
text3
 62
     0
370
    -2
100
AcDbLine
 10
-352.6410832921365
 20
-1755.055195824497
 30
0.0
 11
-338.7185671255059
 21
-1755.055195824497
 31
0.0
  0
LINE
  5
92B
330
89D
100
AcDbEntity
  8
text3
 62
     0
370
    -2
100
AcDbLine
 10
-343.7185671255059
 20
-1760.055195824497
 30
0.0
 11
-343.7185671255059
 21
-1765.055195824496
 31
0.0
  0
LINE
  5
92C
330
89D
100
AcDbEntity
  8
text3
 62
     0
370
    -2
100
AcDbLine
 10
-343.7185671255059
 20
-1742.555195824497
 30
0.0
 11
-343.7185671255059
 21
-1713.08852915783
 31
0.0
  0
SOLID
  5
92D
330
89D
100
AcDbEntity
  8
text3
 62
     0
100
AcDbTrace
 10
-344.5519004588392
 20
-1760.055195824497
 30
0.0
 11
-342.8852337921725
 21
-1760.055195824497
 31
0.0
 12
-343.7185671255059
 22
-1755.055195824497
 32
0.0
 13
-343.7185671255059
 23
-1755.055195824497
 33
0.0
  0
SOLID
  5
92E
330
89D
100
AcDbEntity
  8
text3
 62
     0
100
AcDbTrace
 10
-344.5519004588392
 20
-1742.555195824497
 30
0.0
 11
-342.8852337921725
 21
-1742.555195824497
 31
0.0
 12
-343.7185671255059
 22
-1747.555195824497
 32
0.0
 13
-343.7185671255059
 23
-1747.555195824497
 33
0.0
  0
MTEXT
  5
92F
330
89D
100
AcDbEntity
  8
text3
 62
     0
100
AcDbMText
 10
-347.2185671255056
 20
-1725.321862491163
 30
0.0
 40
4.0
 41
0.0
 71
     5
 72
     1
  1
\A1;7.5±0.2
 11
1.000000000000000E-16
 21
1.0
 31
0.0
 73
     1
 44
1.0
  0
POINT
  5
930
330
89D
100
AcDbEntity
  8
Defpoints
 62
     0
100
AcDbPoint
 10
-354.6410832921365
 20
-1747.555195824497
 30
0.0
  0
POINT
  5
931
330
89D
100
AcDbEntity
  8
Defpoints
 62
     0
100
AcDbPoint
 10
-354.6410832921365
 20
-1755.055195824497
 30
0.0
  0
POINT
  5
932
330
89D
100
AcDbEntity
  8
Defpoints
 62
     0
100
AcDbPoint
 10
-343.7185671255059
 20
-1755.055195824497
 30
0.0
  0
ENDBLK
  5
8A9
330
89D
100
AcDbEntity
  8
0
100
AcDbBlockEnd
  0
BLOCK
  5
8B5
330
8AA
100
AcDbEntity
  8
0
100
AcDbBlockBegin
  2
*D26
 70
     1
 10
0.0
 20
0.0
 30
0.0
  3
*D26
  1

  0
LINE
  5
933
330
8AA
100
AcDbEntity
  8
text3
 62
     0
370
    -2
100
AcDbLine
 10
-351.1410832921364
 20
-1753.055195824497
 30
0.0
 11
-351.1410832921364
 21
-1783.113130227839
 31
0.0
  0
LINE
  5
934
330
8AA
100
AcDbEntity
  8
text3
 62
     0
370
    -2
100
AcDbLine
 10
-358.6410832921365
 20
-1753.055195824497
 30
0.0
 11
-358.6410832921365
 21
-1783.113130227839
 31
0.0
  0
LINE
  5
935
330
8AA
100
AcDbEntity
  8
text3
 62
     0
370
    -2
100
AcDbLine
 10
-363.6410832921364
 20
-1778.113130227839
 30
0.0
 11
-368.6410832921365
 21
-1778.113130227839
 31
0.0
  0
LINE
  5
936
330
8AA
100
AcDbEntity
  8
text3
 62
     0
370
    -2
100
AcDbLine
 10
-346.1410832921365
 20
-1778.113130227839
 30
0.0
 11
-316.6744166254698
 21
-1778.113130227839
 31
0.0
  0
SOLID
  5
937
330
8AA
100
AcDbEntity
  8
text3
 62
     0
100
AcDbTrace
 10
-363.6410832921364
 20
-1777.279796894505
 30
0.0
 11
-363.6410832921364
 21
-1778.946463561172
 31
0.0
 12
-358.6410832921365
 22
-1778.113130227839
 32
0.0
 13
-358.6410832921365
 23
-1778.113130227839
 33
0.0
  0
SOLID
  5
938
330
8AA
100
AcDbEntity
  8
text3
 62
     0
100
AcDbTrace
 10
-346.1410832921365
 20
-1777.279796894505
 30
0.0
 11
-346.1410832921365
 21
-1778.946463561172
 31
0.0
 12
-351.1410832921364
 22
-1778.113130227839
 32
0.0
 13
-351.1410832921364
 23
-1778.113130227839
 33
0.0
  0
MTEXT
  5
939
330
8AA
100
AcDbEntity
  8
text3
 62
     0
100
AcDbMText
 10
-328.9077499588031
 20
-1774.613130227838
 30
0.0
 40
4.0
 41
0.0
 71
     5
 72
     1
  1
\A1;7.5±0.2
 73
     1
 44
1.0
  0
POINT
  5
93A
330
8AA
100
AcDbEntity
  8
Defpoints
 62
     0
100
AcDbPoint
 10
-351.1410832921364
 20
-1751.055195824497
 30
0.0
  0
POINT
  5
93B
330
8AA
100
AcDbEntity
  8
Defpoints
 62
     0
100
AcDbPoint
 10
-358.6410832921365
 20
-1751.055195824497
 30
0.0
  0
POINT
  5
93C
330
8AA
100
AcDbEntity
  8
Defpoints
 62
     0
100
AcDbPoint
 10
-358.6410832921365
 20
-1778.113130227839
 30
0.0
  0
ENDBLK
  5
8B6
330
8AA
100
AcDbEntity
  8
0
100
AcDbBlockEnd
  0
ENDSEC
  0
SECTION
  2
ENTITIES
  0
DIMENSION
  5
25
330
2
100
AcDbEntity
  8
text3
100
AcDbDimension
  2
*D6
 10
-312.9196860764342
 20
-1672.764458708517
 30
0.0
 11
-359.519686076434
 21
-1669.264458708517
 31
0.0
 70
     1
  1
<>±1
 71
     5
 42
93.19999999999953
  3
DMST_1
100
AcDbAlignedDimension
 13
-406.1196860764337
 23
-1647.20956382715
 33
0.0
 14
-312.9196860764342
 24
-1647.20956382715
 34
0.0
1001
ACAD
1000
DSTYLE
1002
{
1070
    41
1040
5.0
1070
    42
1040
2.0
1070
    43
1040
0.38
1070
    44
1040
0.18
1070
    47
1040
0.0
1070
    48
1040
0.0
1070
    71
1070
     0
1070
    78
1070
     8
1070
    79
1070
     2
1070
   140
1040
4.0
1070
   141
1040
1.0
1070
   146
1040
1.0
1070
   147
1040
1.5
1070
   176
1070
     0
1070
   177
1070
     0
1070
   178
1070
     0
1070
   179
1070
     2
1070
   279
1070
     0
1002
}
  0
DIMENSION
  5
33
330
2
100
AcDbEntity
  8
text3
100
AcDbDimension
  2
*D3
 10
-312.9196860764462
 20
-1527.222972708187
 30
0.0
 11
-346.0196860764466
 21
-1527.222972708187
 31
0.0
 70
   129
  1
<>±1
 71
     5
 42
66.20000000000078
  3
DMST_1
100
AcDbAlignedDimension
 13
-379.119686076447
 23
-1540.20956382715
 33
0.0
 14
-312.9196860764462
 24
-1540.20956382715
 34
0.0
1001
ACAD
1000
DSTYLE
1002
{
1070
    41
1040
5.0
1070
    42
1040
2.0
1070
    43
1040
0.38
1070
    44
1040
5.0
1070
    47
1040
0.0
1070
    48
1040
0.0
1070
    71
1070
     0
1070
    78
1070
     8
1070
    79
1070
     2
1070
   140
1040
4.0
1070
   141
1040
1.0
1070
   146
1040
1.0
1070
   147
1040
1.5
1070
   176
1070
     0
1070
   177
1070
     0
1070
   178
1070
     0
1070
   179
1070
     2
1070
   279
1070
     0
1002
}
  0
DIMENSION
  5
40
330
2
100
AcDbEntity
  8
text3
100
AcDbDimension
  2
*D2
 10
-312.9196860764342
 20
-1656.837853911734
 30
0.0
 11
-333.469686076434
 21
-1653.337853911734
 31
0.0
 70
     1
  1
<>±1
 71
     5
 42
41.09999999999963
  3
DMST_1
100
AcDbAlignedDimension
 13
-354.0196860764338
 23
-1646.70956382715
 33
0.0
 14
-312.9196860764342
 24
-1646.70956382715
 34
0.0
1001
ACAD
1000
DSTYLE
1002
{
1070
    41
1040
5.0
1070
    42
1040
3.0
1070
    43
1040
0.38
1070
    44
1040
5.0
1070
    47
1040
0.0
1070
    48
1040
0.0
1070
    71
1070
     0
1070
    78
1070
     8
1070
    79
1070
     2
1070
   140
1040
4.0
1070
   141
1040
0.09
1070
   146
1040
1.0
1070
   147
1040
1.5
1070
   176
1070
     0
1070
   177
1070
     0
1070
   178
1070
     0
1070
   179
1070
     2
1070
   279
1070
     0
1002
}
  0
LINE
  5
4D
330
2
100
AcDbEntity
  8
Object
100
AcDbLine
 10
-335.7196860764465
 20
-1628.988899673608
 30
0.0
 11
-343.263670923688
 21
-1629.210208854766
 31
0.0
  0
LINE
  5
4F
330
2
100
AcDbEntity
  8
Object
100
AcDbLine
 10
-335.719686076446
 20
-1630.448177173124
 30
0.0
 11
-343.263670923688
 21
-1630.226867991965
 31
0.0
  0
LINE
  5
50
330
2
100
AcDbEntity
  8
Object
100
AcDbLine
 10
-335.719686076446
 20
-1632.430227980692
 30
0.0
 11
-343.263670923688
 21
-1632.208918799534
 31
0.0
  0
LINE
  5
51
330
2
100
AcDbEntity
  8
Object
100
AcDbLine
 10
-335.719686076446
 20
-1635.988899673607
 30
0.0
 11
-343.2636709236875
 21
-1636.210208854766
 31
0.0
  0
LINE
  5
52
330
2
100
AcDbEntity
  8
Object
100
AcDbLine
 10
-335.719686076446
 20
-1637.448177173124
 30
0.0
 11
-343.2636709236875
 21
-1637.226867991965
 31
0.0
  0
LINE
  5
53
330
2
100
AcDbEntity
  8
Object
100
AcDbLine
 10
-335.719686076446
 20
-1639.430227980692
 30
0.0
 11
-343.2636709236875
 21
-1639.208918799534
 31
0.0
  0
LINE
  5
54
330
2
100
AcDbEntity
  8
Object
100
AcDbLine
 10
-335.7196860764469
 20
-1621.988899673607
 30
0.0
 11
-343.2636709236875
 21
-1622.210208854766
 31
0.0
  0
LINE
  5
55
330
2
100
AcDbEntity
  8
Object
100
AcDbLine
 10
-335.719686076446
 20
-1623.448177173123
 30
0.0
 11
-343.2636709236875
 21
-1623.226867991965
 31
0.0
  0
LINE
  5
56
330
2
100
AcDbEntity
  8
Object
100
AcDbLine
 10
-335.719686076446
 20
-1625.430227980692
 30
0.0
 11
-343.2636709236875
 21
-1625.208918799534
 31
0.0
  0
LINE
  5
57
330
2
100
AcDbEntity
  8
Object
100
AcDbLine
 10
-335.7196860764339
 20
-1540.209563827149
 30
0.0
 11
-339.7196860764344
 21
-1540.20956382715
 31
0.0
  0
LINE
  5
58
330
2
100
AcDbEntity
  8
Object
100
AcDbLine
 10
-335.719686076433
 20
-1647.209563827149
 30
0.0
 11
-339.7196860764344
 21
-1647.209563827149
 31
0.0
  0
LINE
  5
59
330
2
100
AcDbEntity
  8
Object
100
AcDbLine
 10
-337.8939975619287
 20
-1540.049836779
 30
0.0
 11
-371.8169320184143
 21
-1543.017708977476
 31
0.0
  0
TEXT
  5
5A
330
2
100
AcDbEntity
  8
text3
100
AcDbText
 10
-574.8865320780347
 20
-1506.732675299663
 30
0.0
 40
4.0
  1
56B10C
  7
Roman
100
AcDbText
  0
DIMENSION
  5
6A
330
2
100
AcDbEntity
  8
text3
100
AcDbDimension
  2
*D9
 10
-478.1196860764342
 20
-1521.950010837352
 30
0.0
 11
-511.6196860764341
 21
-1518.450010837352
 31
0.0
 70
    33
  1
<>±1
 71
     5
 42
66.99999999999994
  3
DMST_1
100
AcDbAlignedDimension
 13
-545.119686076434
 23
-1540.20956382715
 33
0.0
 14
-478.1196860764342
 24
-1540.20956382715
 34
0.0
1001
ACAD
1000
DSTYLE
1002
{
1070
    46
1040
0.0
1070
    41
1040
5.0
1070
    42
1040
2.0
1070
    43
1040
0.38
1070
    44
1040
5.0
1070
    47
1040
0.0
1070
    48
1040
0.0
1070
    71
1070
     0
1070
    78
1070
     8
1070
    79
1070
     2
1070
   140
1040
4.0
1070
   141
1040
1.0
1070
   146
1040
1.0
1070
   147
1040
1.5
1070
   176
1070
     0
1070
   177
1070
     0
1070
   178
1070
     0
1070
   179
1070
     2
1070
   279
1070
     0
1002
}
  0
DIMENSION
  5
77
330
2
100
AcDbEntity
  8
text3
100
AcDbDimension
  2
*D10
 10
-488.0496860764337
 20
-1661.960197144295
 30
0.0
 11
-511.6196860764338
 21
-1658.460197144295
 31
0.0
 70
    33
  1
□<>±0.1
 71
     5
 42
47.14000000000015
  3
DMST_1
100
AcDbAlignedDimension
 13
-535.1896860764338
 23
-1647.20956382715
 33
0.0
 14
-488.0496860764337
 24
-1647.209563827149
 34
0.0
1001
ACAD
1000
DSTYLE
1002
{
1070
    41
1040
5.0
1070
    42
1040
2.0
1070
    43
1040
0.38
1070
    44
1040
5.0
1070
    47
1040
0.0
1070
    48
1040
0.0
1070
    71
1070
     0
1070
    78
1070
     8
1070
    79
1070
     2
1070
   140
1040
4.0
1070
   141
1040
1.0
1070
   146
1040
1.0
1070
   147
1040
1.5
1070
   176
1070
     0
1070
   177
1070
     0
1070
   178
1070
     0
1070
   179
1070
     2
1070
   279
1070
     0
1002
}
  0
DIMENSION
  5
84
330
2
100
AcDbEntity
  8
text3
100
AcDbDimension
  2
*D8
 10
-483.4196860764337
 20
-1674.935836631308
 30
0.0
 11
-511.6196860764337
 21
-1671.435836631308
 31
0.0
 70
    33
  1
□<>±0.1
 71
     5
 42
56.40000000000004
  3
DMST_1
100
AcDbAlignedDimension
 13
-539.8196860764338
 23
-1647.20956382715
 33
0.0
 14
-483.4196860764337
 24
-1647.209563827149
 34
0.0
1001
ACAD
1000
DSTYLE
1002
{
1070
    41
1040
5.0
1070
    42
1040
2.0
1070
    43
1040
0.38
1070
    44
1040
5.0
1070
    47
1040
0.0
1070
    48
1040
0.0
1070
    71
1070
     0
1070
    78
1070
     8
1070
    79
1070
     2
1070
   140
1040
4.0
1070
   141
1040
1.0
1070
   146
1040
1.0
1070
   147
1040
1.5
1070
   176
1070
     0
1070
   177
1070
     0
1070
   178
1070
     0
1070
   179
1070
     2
1070
   279
1070
     0
1002
}
  0
ARC
  5
91
330
2
100
AcDbEntity
  8
Object
100
AcDbCircle
 10
-498.4481132011786
 20
-1558.609563827156
 30
0.0
 40
0.5
100
AcDbArc
 50
270.0
 51
308.9424412689776
  0
ARC
  5
92
330
2
100
AcDbEntity
  8
Object
100
AcDbCircle
 10
-495.6196860764328
 20
-1562.209563827156
 30
0.0
 40
6.0
100
AcDbArc
 50
150.0000000000006
 51
29.99999999999932
  0
LINE
  5
93
330
2
100
AcDbEntity
  8
Object
100
AcDbLine
 10
-496.3267928427188
 20
-1565.502457045969
 30
0.0
 11
-499.3267928560206
 21
-1562.502457046244
 31
0.0
  0
ARC
  5
94
330
2
100
AcDbEntity
  8
Object
100
AcDbCircle
 10
-495.6196860764328
 20
-1562.209563827156
 30
0.0
 40
4.0
100
AcDbArc
 50
180.0
 51
0.0
  0
ARC
  5
95
330
2
100
AcDbEntity
  8
Object
100
AcDbCircle
 10
-495.6196860764328
 20
-1562.109563827156
 30
0.0
 40
6.0
100
AcDbArc
 50
32.57897039281318
 51
147.4210296071867
  0
LINE
  5
96
330
2
100
AcDbEntity
  8
text3
100
AcDbLine
 10
-527.6196860764336
 20
-1569.209563827156
 30
0.0
 11
-495.6196860764337
 21
-1569.209563827156
 31
0.0
  0
LINE
  5
97
330
2
100
AcDbEntity
  8
Object
100
AcDbLine
 10
-534.5196860764338
 20
-1540.20956382715
 30
0.0
 11
-488.7196860764341
 21
-1540.209563827149
 31
0.0
  0
LINE
  5
98
330
2
100
AcDbEntity
  8
1
 62
     2
100
AcDbLine
 10
-498.6196860764337
 20
-1591.50956382715
 30
0.0
 11
-497.9196860764337
 21
-1590.80956382715
 31
0.0
  0
ARC
  5
9A
330
2
100
AcDbEntity
  8
1
 62
     2
100
AcDbCircle
 10
-494.9196860764337
 20
-1593.90956382715
 30
0.0
 40
3.70000000000003
100
AcDbArc
 50
180.0
 51
0.0
  0
LINE
  5
9B
330
2
100
AcDbEntity
  8
1
 62
     2
100
AcDbLine
 10
-497.9196860764337
 20
-1647.20956382715
 30
0.0
 11
-498.6196860764337
 21
-1646.50956382715
 31
0.0
  0
ARC
  5
9C
330
2
100
AcDbEntity
  8
1
 62
     2
100
AcDbCircle
 10
-494.9196860764337
 20
-1644.10956382715
 30
0.0
 40
3.699999999999973
100
AcDbArc
 50
0.0
 51
180.0
  0
CIRCLE
  5
9D
330
2
100
AcDbEntity
  8
1
 62
     7
100
AcDbCircle
 10
-511.6196860764339
 20
-1619.00956382715
 30
0.0
 40
19.05000000000003
  0
CIRCLE
  5
9E
330
2
100
AcDbEntity
  8
1
 62
     2
100
AcDbCircle
 10
-511.6196860764339
 20
-1619.00956382715
 30
0.0
 40
18.85000000000003
  0
LINE
  5
9F
330
2
100
AcDbEntity
  8
Object
100
AcDbLine
 10
-481.1196860764333
 20
-1647.209563827149
 30
0.0
 11
-542.119686076434
 21
-1647.20956382715
 31
0.0
  0
LINE
  5
A0
330
2
100
AcDbEntity
  8
1
 62
     7
100
AcDbLine
 10
-534.8196860764338
 20
-1647.20956382715
 30
0.0
 11
-488.4196860764337
 21
-1647.20956382715
 31
0.0
  0
LINE
  5
A1
330
2
100
AcDbEntity
  8
1
 62
     7
100
AcDbLine
 10
-488.4196860764337
 20
-1590.80956382715
 30
0.0
 11
-534.8196860764338
 21
-1590.80956382715
 31
0.0
  0
LINE
  5
A2
330
2
100
AcDbEntity
  8
Object
100
AcDbLine
 10
-490.6196860764337
 20
-1589.682260207824
 30
0.0
 11
-532.6196860764337
 21
-1589.682260207824
 31
0.0
  0
LINE
  5
A3
330
2
100
AcDbEntity
  8
Object
100
AcDbLine
 10
-544.6822427588052
 20
-1624.957005809961
 30
0.0
 11
-544.6822427588052
 21
-1621.839609649592
 31
0.0
  0
LINE
  5
A4
330
2
100
AcDbEntity
  8
Center
100
AcDbLine
 10
-511.6196860764339
 20
-1625.25956382715
 30
0.0
 11
-511.6196860764339
 21
-1612.75956382715
 31
0.0
  0
LINE
  5
A6
330
2
100
AcDbEntity
  8
1
 62
     7
100
AcDbLine
 10
-539.8196860764338
 20
-1595.80956382715
 30
0.0
 11
-539.8196860764338
 21
-1642.20956382715
 31
0.0
  0
LINE
  5
A7
330
2
100
AcDbEntity
  8
1
 62
     2
100
AcDbLine
 10
-539.1196860764337
 20
-1642.20956382715
 30
0.0
 11
-539.1196860764337
 21
-1595.80956382715
 31
0.0
  0
LINE
  5
A8
330
2
100
AcDbEntity
  8
1
 62
     2
100
AcDbLine
 10
-534.8196860764338
 20
-1646.50956382715
 30
0.0
 11
-532.0196860764338
 21
-1646.50956382715
 31
0.0
  0
CIRCLE
  5
A9
330
2
100
AcDbEntity
  8
1
 62
     2
100
AcDbCircle
 10
-535.1896860764338
 20
-1642.57956382715
 30
0.0
 40
2.75
  0
CIRCLE
  5
AA
330
2
100
AcDbEntity
  8
1
 62
     7
100
AcDbCircle
 10
-535.1896860764338
 20
-1642.57956382715
 30
0.0
 40
2.25
  0
LINE
  5
AB
330
2
100
AcDbEntity
  8
Center
100
AcDbLine
 10
-535.1896860764338
 20
-1643.57956382715
 30
0.0
 11
-535.1896860764338
 21
-1641.57956382715
 31
0.0
  0
LINE
  5
AC
330
2
100
AcDbEntity
  8
Center
100
AcDbLine
 10
-536.1896860764338
 20
-1642.57956382715
 30
0.0
 11
-534.1896860764339
 21
-1642.57956382715
 31
0.0
  0
LINE
  5
AD
330
2
100
AcDbEntity
  8
Object
100
AcDbLine
 10
-545.119686076434
 20
-1628.343538423365
 30
0.0
 11
-545.119686076434
 21
-1625.498238961744
 31
0.0
  0
LINE
  5
AE
330
2
100
AcDbEntity
  8
Object
100
AcDbLine
 10
-545.119686076434
 20
-1635.343538423365
 30
0.0
 11
-545.119686076434
 21
-1632.498238961744
 31
0.0
  0
ARC
  5
AF
330
2
100
AcDbEntity
  8
Object
100
AcDbCircle
 10
-544.6196860764337
 20
-1625.498238961744
 30
0.0
 40
0.5
100
AcDbArc
 50
119.9999999999951
 51
180.0
  0
LINE
  5
B0
330
2
100
AcDbEntity
  8
Object
100
AcDbLine
 10
-544.8696860764337
 20
-1625.065226259852
 30
0.0
 11
-544.6822427588052
 21
-1624.957005809961
 31
0.0
  0
POINT
  5
B1
330
2
100
AcDbEntity
  8
Object
100
AcDbPoint
 10
-545.1196860764337
 20
-1625.209563827149
 30
0.0
  0
ARC
  5
B2
330
2
100
AcDbEntity
  8
Object
100
AcDbCircle
 10
-544.6196860764337
 20
-1632.498238961744
 30
0.0
 40
0.5
100
AcDbArc
 50
119.9999999999951
 51
180.0
  0
ARC
  5
B3
330
2
100
AcDbEntity
  8
Object
100
AcDbCircle
 10
-544.6196860764337
 20
-1628.343538423365
 30
0.0
 40
0.5
100
AcDbArc
 50
180.0
 51
262.8126975029318
  0
LINE
  5
B4
330
2
100
AcDbEntity
  8
Object
100
AcDbLine
 10
-544.8696860764337
 20
-1632.065226259852
 30
0.0
 11
-544.6822427588046
 21
-1631.957005809961
 31
0.0
  0
POINT
  5
B5
330
2
100
AcDbEntity
  8
Object
100
AcDbPoint
 10
-545.119686076434
 20
-1629.209563827149
 30
0.0
  0
POINT
  5
B6
330
2
100
AcDbEntity
  8
Object
100
AcDbPoint
 10
-545.1196860764337
 20
-1632.20956382715
 30
0.0
  0
LINE
  5
B7
330
2
100
AcDbEntity
  8
Object
100
AcDbLine
 10
-544.6822427588052
 20
-1631.957005809961
 30
0.0
 11
-544.6822427588052
 21
-1628.839609649593
 31
0.0
  0
LINE
  5
B8
330
2
100
AcDbEntity
  8
Object
100
AcDbLine
 10
-545.1196860764337
 20
-1635.343538423365
 30
0.0
 11
-545.1196860764337
 21
-1632.498238961744
 31
0.0
  0
LINE
  5
B9
330
2
100
AcDbEntity
  8
Object
100
AcDbLine
 10
-545.1196860764337
 20
-1628.343538423365
 30
0.0
 11
-545.1196860764337
 21
-1625.498238961744
 31
0.0
  0
POINT
  5
BA
330
2
100
AcDbEntity
  8
Object
100
AcDbPoint
 10
-545.119686076434
 20
-1636.209563827149
 30
0.0
  0
ARC
  5
BB
330
2
100
AcDbEntity
  8
Object
100
AcDbCircle
 10
-544.6196860764337
 20
-1639.498238961744
 30
0.0
 40
0.5
100
AcDbArc
 50
119.9999999999951
 51
180.0
  0
LINE
  5
BC
330
2
100
AcDbEntity
  8
Object
100
AcDbLine
 10
-544.8696860764337
 20
-1639.065226259852
 30
0.0
 11
-544.6822427588046
 21
-1638.957005809961
 31
0.0
  0
POINT
  5
BD
330
2
100
AcDbEntity
  8
Object
100
AcDbPoint
 10
-545.1196860764337
 20
-1639.209563827149
 30
0.0
  0
LINE
  5
BE
330
2
100
AcDbEntity
  8
Object
100
AcDbLine
 10
-544.6822427588046
 20
-1638.957005809961
 30
0.0
 11
-544.6822427588052
 21
-1635.839609649592
 31
0.0
  0
ARC
  5
BF
330
2
100
AcDbEntity
  8
Object
100
AcDbCircle
 10
-544.6196860764337
 20
-1635.343538423365
 30
0.0
 40
0.5
100
AcDbArc
 50
180.0
 51
262.8126975029318
  0
ARC
  5
C0
330
2
100
AcDbEntity
  8
Object
100
AcDbCircle
 10
-542.119686076434
 20
-1644.20956382715
 30
0.0
 40
3.0
100
AcDbArc
 50
180.0
 51
270.0
  0
ARC
  5
C1
330
2
100
AcDbEntity
  8
1
 62
     2
100
AcDbCircle
 10
-534.8196860764338
 20
-1642.20956382715
 30
0.0
 40
4.299999999999982
100
AcDbArc
 50
180.0
 51
270.0
  0
ARC
  5
C2
330
2
100
AcDbEntity
  8
1
 62
     7
100
AcDbCircle
 10
-534.8196860764338
 20
-1642.20956382715
 30
0.0
 40
5.0
100
AcDbArc
 50
180.0
 51
270.0
  0
LINE
  5
C3
330
2
100
AcDbEntity
  8
Object
100
AcDbLine
 10
-545.119686076434
 20
-1644.20956382715
 30
0.0
 11
-545.119686076434
 21
-1639.498238961744
 31
0.0
  0
LINE
  5
C4
330
2
100
AcDbEntity
  8
1
 62
     2
100
AcDbLine
 10
-498.6196860764337
 20
-1646.50956382715
 30
0.0
 11
-524.6196860764339
 21
-1646.50956382715
 31
0.0
  0
ARC
  5
C5
330
2
100
AcDbEntity
  8
1
 62
     2
100
AcDbCircle
 10
-528.3196860764338
 20
-1644.10956382715
 30
0.0
 40
1.499999999999745
100
AcDbArc
 50
75.59218556463703
 51
104.4078144353565
  0
ARC
  5
C6
330
2
100
AcDbEntity
  8
1
 62
     2
100
AcDbCircle
 10
-528.3196860764338
 20
-1644.10956382715
 30
0.0
 40
1.499999999999738
100
AcDbArc
 50
345.5921855646394
 51
14.40781443536065
  0
LINE
  5
C7
330
2
100
AcDbEntity
  8
1
 62
     2
100
AcDbLine
 10
-527.6294767262302
 20
-1644.496108294188
 30
0.0
 11
-526.8668622255888
 21
-1644.482796808564
 31
0.0
  0
LINE
  5
C8
330
2
100
AcDbEntity
  8
1
 62
     2
100
AcDbLine
 10
-526.8668622255888
 20
-1643.736330845735
 30
0.0
 11
-527.6294767262302
 21
-1643.723019360112
 31
0.0
  0
LINE
  5
C9
330
2
100
AcDbEntity
  8
1
 62
     7
100
AcDbLine
 10
-525.3196860764338
 20
-1647.20956382715
 30
0.0
 11
-525.3196860764338
 21
-1644.10956382715
 31
0.0
  0
LINE
  5
CA
330
2
100
AcDbEntity
  8
1
 62
     2
100
AcDbLine
 10
-524.6196860764339
 20
-1646.50956382715
 30
0.0
 11
-524.6196860764339
 21
-1644.00956382715
 31
0.0
  0
LINE
  5
CB
330
2
100
AcDbEntity
  8
1
 62
     2
100
AcDbLine
 10
-524.6196860764339
 20
-1646.50956382715
 30
0.0
 11
-525.3196860764338
 21
-1647.20956382715
 31
0.0
  0
ARC
  5
CC
330
2
100
AcDbEntity
  8
1
 62
     2
100
AcDbCircle
 10
-528.3196860764338
 20
-1644.10956382715
 30
0.0
 40
1.499999999999718
100
AcDbArc
 50
165.5921855646394
 51
194.4078144353606
  0
ARC
  5
CD
330
2
100
AcDbEntity
  8
1
 62
     2
100
AcDbCircle
 10
-528.3196860764338
 20
-1644.10956382715
 30
0.0
 40
1.49999999999971
100
AcDbArc
 50
255.5921855646433
 51
284.407814435363
  0
LINE
  5
CE
330
2
100
AcDbEntity
  8
1
 62
     2
100
AcDbLine
 10
-529.7725099272786
 20
-1644.482796808564
 30
0.0
 11
-529.009895426637
 21
-1644.496108294188
 31
0.0
  0
LINE
  5
CF
330
2
100
AcDbEntity
  8
1
 62
     2
100
AcDbLine
 10
-529.009895426637
 20
-1644.496108294188
 30
0.0
 11
-528.7997799713793
 21
-1644.589657722095
 31
0.0
  0
LINE
  5
D0
330
2
100
AcDbEntity
  8
1
 62
     2
100
AcDbLine
 10
-528.7062305434719
 20
-1644.799773177353
 30
0.0
 11
-528.692919057848
 21
-1645.562387677995
 31
0.0
  0
LINE
  5
D1
330
2
100
AcDbEntity
  8
1
 62
     2
100
AcDbLine
 10
-528.7997799713793
 20
-1644.589657722095
 30
0.0
 11
-528.7062305434719
 21
-1644.799773177353
 31
0.0
  0
LINE
  5
D2
330
2
100
AcDbEntity
  8
1
 62
     2
100
AcDbLine
 10
-527.9464530950194
 20
-1645.562387677995
 30
0.0
 11
-527.9331416093955
 21
-1644.799773177353
 31
0.0
  0
LINE
  5
D3
330
2
100
AcDbEntity
  8
1
 62
     2
100
AcDbLine
 10
-527.9331416093955
 20
-1644.799773177353
 30
0.0
 11
-527.8395921814881
 21
-1644.589657722095
 31
0.0
  0
LINE
  5
D4
330
2
100
AcDbEntity
  8
1
 62
     2
100
AcDbLine
 10
-527.8395921814881
 20
-1643.629469932204
 30
0.0
 11
-527.9331416093955
 21
-1643.419354476946
 31
0.0
  0
LINE
  5
D5
330
2
100
AcDbEntity
  8
1
 62
     2
100
AcDbLine
 10
-528.7062305434719
 20
-1643.419354476946
 30
0.0
 11
-528.7997799713796
 21
-1643.629469932204
 31
0.0
  0
LINE
  5
D6
330
2
100
AcDbEntity
  8
1
 62
     2
100
AcDbLine
 10
-529.009895426637
 20
-1643.723019360112
 30
0.0
 11
-529.7725099272786
 21
-1643.736330845735
 31
0.0
  0
LINE
  5
D7
330
2
100
AcDbEntity
  8
1
 62
     2
100
AcDbLine
 10
-528.7997799713796
 20
-1643.629469932204
 30
0.0
 11
-529.009895426637
 21
-1643.723019360112
 31
0.0
  0
LINE
  5
D8
330
2
100
AcDbEntity
  8
1
 62
     2
100
AcDbLine
 10
-527.8395921814881
 20
-1644.589657722095
 30
0.0
 11
-527.6294767262302
 21
-1644.496108294188
 31
0.0
  0
LINE
  5
D9
330
2
100
AcDbEntity
  8
1
 62
     2
100
AcDbLine
 10
-527.6294767262302
 20
-1643.723019360112
 30
0.0
 11
-527.8395921814881
 21
-1643.629469932204
 31
0.0
  0
CIRCLE
  5
DA
330
2
100
AcDbEntity
  8
1
 62
     7
100
AcDbCircle
 10
-528.3196860764338
 20
-1644.10956382715
 30
0.0
 40
2.800000000000011
  0
LINE
  5
DB
330
2
100
AcDbEntity
  8
1
 62
     2
100
AcDbLine
 10
-527.9331416093955
 20
-1643.419354476946
 30
0.0
 11
-527.9464530950194
 21
-1642.656739976305
 31
0.0
  0
LINE
  5
DC
330
2
100
AcDbEntity
  8
1
 62
     2
100
AcDbLine
 10
-528.692919057848
 20
-1642.656739976305
 30
0.0
 11
-528.7062305434719
 21
-1643.419354476946
 31
0.0
  0
LINE
  5
DD
330
2
100
AcDbEntity
  8
1
 62
     7
100
AcDbLine
 10
-531.3196860764338
 20
-1647.20956382715
 30
0.0
 11
-531.3196860764338
 21
-1644.10956382715
 31
0.0
  0
LINE
  5
DE
330
2
100
AcDbEntity
  8
1
 62
     2
100
AcDbLine
 10
-532.0196860764338
 20
-1646.50956382715
 30
0.0
 11
-532.0196860764338
 21
-1644.10956382715
 31
0.0
  0
LINE
  5
DF
330
2
100
AcDbEntity
  8
1
 62
     2
100
AcDbLine
 10
-532.0196860764338
 20
-1646.50956382715
 30
0.0
 11
-531.3196860764338
 21
-1647.20956382715
 31
0.0
  0
ARC
  5
E0
330
2
100
AcDbEntity
  8
1
 62
     7
100
AcDbCircle
 10
-528.3196860764338
 20
-1644.10956382715
 30
0.0
 40
3.0
100
AcDbArc
 50
0.0
 51
180.0
  0
ARC
  5
E1
330
2
100
AcDbEntity
  8
1
 62
     2
100
AcDbCircle
 10
-528.3196860764338
 20
-1644.05956382715
 30
0.0
 40
3.700337822415669
100
AcDbArc
 50
0.7742201649296822
 51
180.7742201649264
  0
LINE
  5
E2
330
2
100
AcDbEntity
  8
1
 62
     2
100
AcDbLine
 10
-498.6196860764337
 20
-1644.10956382715
 30
0.0
 11
-498.6196860764337
 21
-1646.50956382715
 31
0.0
  0
ARC
  5
E3
330
2
100
AcDbEntity
  8
Object
100
AcDbCircle
 10
-533.5196860764343
 20
-1541.70956382715
 30
0.0
 40
1.0
100
AcDbArc
 50
90.0
 51
180.0
  0
LINE
  5
E4
330
2
100
AcDbEntity
  8
Object
100
AcDbLine
 10
-532.6196860764327
 20
-1559.209563827156
 30
0.0
 11
-534.1196860764328
 21
-1559.209563827156
 31
0.0
  0
LINE
  5
E5
330
2
100
AcDbEntity
  8
Object
100
AcDbLine
 10
-534.5196860764338
 20
-1549.909563827151
 30
0.0
 11
-532.5196860764333
 21
-1549.909563827151
 31
0.0
  0
LINE
  5
E6
330
2
100
AcDbEntity
  8
Object
100
AcDbLine
 10
-534.5196860764338
 20
-1549.709563827151
 30
0.0
 11
-532.5196860764333
 21
-1549.709563827151
 31
0.0
  0
LINE
  5
E7
330
2
100
AcDbEntity
  8
Object
100
AcDbLine
 10
-534.3196860764339
 20
-1559.109563827155
 30
0.0
 11
-530.4481132011808
 21
-1559.109563827155
 31
0.0
  0
ARC
  5
E8
330
2
100
AcDbEntity
  8
Object
100
AcDbCircle
 10
-527.6196860764336
 20
-1562.209563827156
 30
0.0
 40
7.0
100
AcDbArc
 50
180.0
 51
270.0
  0
LINE
  5
E9
330
2
100
AcDbEntity
  8
1
 62
     2
100
AcDbLine
 10
-532.0196860764338
 20
-1591.50956382715
 30
0.0
 11
-534.8196860764338
 21
-1591.50956382715
 31
0.0
  0
CIRCLE
  5
EA
330
2
100
AcDbEntity
  8
1
 62
     2
100
AcDbCircle
 10
-535.1896860764338
 20
-1595.43956382715
 30
0.0
 40
2.75
  0
CIRCLE
  5
EB
330
2
100
AcDbEntity
  8
1
 62
     7
100
AcDbCircle
 10
-535.1896860764338
 20
-1595.43956382715
 30
0.0
 40
2.25
  0
LINE
  5
EC
330
2
100
AcDbEntity
  8
HIDDEN-1
  6
ByBlock
100
AcDbLine
 10
-532.6196860764333
 20
-1590.20956382715
 30
0.0
 11
-538.9496762235713
 21
-1590.20956382715
 31
0.0
  0
LINE
  5
EF
330
2
100
AcDbEntity
  8
Object
100
AcDbLine
 10
-544.0010072494048
 20
-1556.209563827149
 30
0.0
 11
-544.0010072494048
 21
-1571.209563827149
 31
0.0
  0
LINE
  5
F0
330
2
100
AcDbEntity
  8
Object
100
AcDbLine
 10
-541.3382216463702
 20
-1556.209563827149
 30
0.0
 11
-541.3382216463698
 21
-1571.209563827149
 31
0.0
  0
LINE
  5
F1
330
2
100
AcDbEntity
  8
Object
100
AcDbLine
 10
-545.119686076434
 20
-1621.343538423365
 30
0.0
 11
-545.119686076434
 21
-1547.209563827149
 31
0.0
  0
LINE
  5
F2
330
2
100
AcDbEntity
  8
Object
100
AcDbLine
 10
-545.0707969991469
 20
-1555.209563827149
 30
0.0
 11
-545.0707969991469
 21
-1572.20956382715
 31
0.0
  0
LINE
  5
F3
330
2
100
AcDbEntity
  8
Object
100
AcDbLine
 10
-536.3572481559115
 20
-1555.209563827149
 30
0.0
 11
-536.3572481559115
 21
-1572.20956382715
 31
0.0
  0
LINE
  5
F4
330
2
100
AcDbEntity
  8
Center
100
AcDbLine
 10
-535.1896860764338
 20
-1596.43956382715
 30
0.0
 11
-535.1896860764338
 21
-1594.43956382715
 31
0.0
  0
LINE
  5
F5
330
2
100
AcDbEntity
  8
Center
100
AcDbLine
 10
-536.1896860764338
 20
-1595.43956382715
 30
0.0
 11
-534.1896860764339
 21
-1595.43956382715
 31
0.0
  0
LINE
  5
F6
330
2
100
AcDbEntity
  8
Object
100
AcDbLine
 10
-542.334416344462
 20
-1572.209563827149
 30
0.0
 11
-542.334416344462
 21
-1584.538920978018
 31
0.0
  0
ARC
  5
F7
330
2
100
AcDbEntity
  8
Object
100
AcDbCircle
 10
-544.6196860764337
 20
-1621.343538423365
 30
0.0
 40
0.5
100
AcDbArc
 50
180.0
 51
262.8126975029318
  0
POINT
  5
F8
330
2
100
AcDbEntity
  8
Object
100
AcDbPoint
 10
-545.119686076434
 20
-1622.209563827149
 30
0.0
  0
LINE
  5
F9
330
2
100
AcDbEntity
  8
Object
100
AcDbLine
 10
-534.6196860764337
 20
-1589.538920978018
 30
0.0
 11
-537.3344163444617
 21
-1589.538920978018
 31
0.0
  0
LINE
  5
FA
330
2
100
AcDbEntity
  8
Object
100
AcDbLine
 10
-543.9496762235692
 20
-1572.20956382715
 30
0.0
 11
-543.9496762235692
 21
-1585.20956382715
 31
0.0
  0
ARC
  5
FB
330
2
100
AcDbEntity
  8
Object
100
AcDbCircle
 10
-538.9496762235713
 20
-1585.20956382715
 30
0.0
 40
5.0
100
AcDbArc
 50
179.9999999999974
 51
270.0
  0
ARC
  5
FC
330
2
100
AcDbEntity
  8
Object
100
AcDbCircle
 10
-537.3344163444617
 20
-1584.538920978018
 30
0.0
 40
5.0
100
AcDbArc
 50
180.0
 51
270.0
  0
LINE
  5
FD
330
2
100
AcDbEntity
  8
Object
100
AcDbLine
 10
-545.0707969991469
 20
-1572.20956382715
 30
0.0
 11
-536.3572481559115
 21
-1572.20956382715
 31
0.0
  0
ARC
  5
FE
330
2
100
AcDbEntity
  8
1
 62
     2
100
AcDbCircle
 10
-534.8196860764338
 20
-1595.80956382715
 30
0.0
 40
4.300000000000125
100
AcDbArc
 50
90.0
 51
180.0
  0
ARC
  5
FF
330
2
100
AcDbEntity
  8
1
 62
     7
100
AcDbCircle
 10
-534.8196860764338
 20
-1595.80956382715
 30
0.0
 40
5.000000000000198
100
AcDbArc
 50
90.0
 51
180.0
  0
LINE
  5
100
330
2
100
AcDbEntity
  8
Object
100
AcDbLine
 10
-534.5196860764338
 20
-1540.20956382715
 30
0.0
 11
-538.119686076434
 21
-1540.20956382715
 31
0.0
  0
LINE
  5
101
330
2
100
AcDbEntity
  8
Object
100
AcDbLine
 10
-534.6196860764345
 20
-1548.00956382715
 30
0.0
 11
-534.6196860764337
 21
-1540.209563827149
 31
0.0
  0
ARC
  5
102
330
2
100
AcDbEntity
  8
Object
100
AcDbCircle
 10
-534.1196860764328
 20
-1558.709563827156
 30
0.0
 40
0.5
100
AcDbArc
 50
180.0
 51
270.0
  0
ARC
  5
103
330
2
100
AcDbEntity
  8
Object
100
AcDbCircle
 10
-534.3196860764344
 20
-1558.909563827156
 30
0.0
 40
0.2
100
AcDbArc
 50
180.0
 51
270.0
  0
LINE
  5
104
330
2
100
AcDbEntity
  8
Object
100
AcDbLine
 10
-534.5196860764338
 20
-1540.209563827149
 30
0.0
 11
-534.5196860764338
 21
-1558.909563827156
 31
0.0
  0
LINE
  5
105
330
2
100
AcDbEntity
  8
Object
100
AcDbLine
 10
-534.6196860764337
 20
-1548.00956382715
 30
0.0
 11
-534.6196860764337
 21
-1562.209563827156
 31
0.0
  0
LINE
  5
106
330
2
100
AcDbEntity
  8
Object
100
AcDbLine
 10
-534.619686076434
 20
-1542.755242986898
 30
0.0
 11
-537.334416344462
 21
-1542.755242986898
 31
0.0
  0
ARC
  5
107
330
2
100
AcDbEntity
  8
Object
100
AcDbCircle
 10
-537.334416344462
 20
-1547.755242986898
 30
0.0
 40
5.0
100
AcDbArc
 50
89.99999999999991
 51
180.0
  0
LINE
  5
108
330
2
100
AcDbEntity
  8
Object
100
AcDbLine
 10
-545.0707969991469
 20
-1555.209563827149
 30
0.0
 11
-536.3572481559115
 21
-1555.209563827149
 31
0.0
  0
ARC
  5
109
330
2
100
AcDbEntity
  8
Object
100
AcDbCircle
 10
-538.119686076434
 20
-1547.209563827149
 30
0.0
 40
7.0
100
AcDbArc
 50
90.0
 51
180.0
  0
LINE
  5
10A
330
2
100
AcDbEntity
  8
Object
100
AcDbLine
 10
-542.334416344462
 20
-1547.755242986898
 30
0.0
 11
-542.334416344462
 21
-1555.209563827149
 31
0.0
  0
ARC
  5
10B
330
2
100
AcDbEntity
  8
Object
100
AcDbCircle
 10
-509.6196860764337
 20
-1562.209563827156
 30
0.0
 40
7.0
100
AcDbArc
 50
270.0
 51
0.0
  0
ARC
  5
10C
330
2
100
AcDbEntity
  8
Object
100
AcDbCircle
 10
-513.6196860764337
 20
-1562.209563827156
 30
0.0
 40
7.0
100
AcDbArc
 50
180.0
 51
270.0
  0
CIRCLE
  5
10D
330
2
100
AcDbEntity
  8
1
 62
     7
100
AcDbCircle
 10
-511.6196860764339
 20
-1619.00956382715
 30
0.0
 40
4.75
  0
CIRCLE
  5
10E
330
2
100
AcDbEntity
  8
1
 62
     3
100
AcDbCircle
 10
-511.6196860764339
 20
-1619.00956382715
 30
0.0
 40
5.25
  0
LINE
  5
10F
330
2
100
AcDbEntity
  8
Center
100
AcDbLine
 10
-517.8696860764339
 20
-1619.00956382715
 30
0.0
 11
-505.3696860764339
 21
-1619.00956382715
 31
0.0
  0
LINE
  5
110
330
2
100
AcDbEntity
  8
1
 62
     2
100
AcDbLine
 10
-524.6196860764339
 20
-1591.50956382715
 30
0.0
 11
-498.6196860764337
 21
-1591.50956382715
 31
0.0
  0
LINE
  5
111
330
2
100
AcDbEntity
  8
1
 62
     2
100
AcDbLine
 10
-525.3196860764338
 20
-1590.80956382715
 30
0.0
 11
-524.6196860764339
 21
-1591.50956382715
 31
0.0
  0
ARC
  5
112
330
2
100
AcDbEntity
  8
1
 62
     2
100
AcDbCircle
 10
-528.3196860764338
 20
-1593.90956382715
 30
0.0
 40
1.499999999999774
100
AcDbArc
 50
345.5921855646362
 51
14.40781443536065
  0
LINE
  5
113
330
2
100
AcDbEntity
  8
1
 62
     2
100
AcDbLine
 10
-526.8668622255888
 20
-1593.536330845735
 30
0.0
 11
-527.6294767262305
 21
-1593.523019360111
 31
0.0
  0
LINE
  5
114
330
2
100
AcDbEntity
  8
1
 62
     2
100
AcDbLine
 10
-527.6294767262305
 20
-1594.296108294188
 30
0.0
 11
-526.8668622255888
 21
-1594.282796808564
 31
0.0
  0
LINE
  5
115
330
2
100
AcDbEntity
  8
1
 62
     7
100
AcDbLine
 10
-525.3196860764338
 20
-1593.90956382715
 30
0.0
 11
-525.3196860764338
 21
-1590.80956382715
 31
0.0
  0
LINE
  5
116
330
2
100
AcDbEntity
  8
1
 62
     2
100
AcDbLine
 10
-524.6196860764339
 20
-1593.90956382715
 30
0.0
 11
-524.6196860764339
 21
-1591.50956382715
 31
0.0
  0
ARC
  5
117
330
2
100
AcDbEntity
  8
1
 62
     2
100
AcDbCircle
 10
-528.3196860764338
 20
-1593.90956382715
 30
0.0
 40
1.499999999999718
100
AcDbArc
 50
75.59218556463703
 51
104.4078144353565
  0
LINE
  5
118
330
2
100
AcDbEntity
  8
1
 62
     2
100
AcDbLine
 10
-528.692919057848
 20
-1592.456739976305
 30
0.0
 11
-528.7062305434719
 21
-1593.219354476946
 31
0.0
  0
LINE
  5
119
330
2
100
AcDbEntity
  8
1
 62
     2
100
AcDbLine
 10
-527.9331416093955
 20
-1593.219354476946
 30
0.0
 11
-527.9464530950194
 21
-1592.456739976305
 31
0.0
  0
ARC
  5
11A
330
2
100
AcDbEntity
  8
1
 62
     2
100
AcDbCircle
 10
-528.3196860764338
 20
-1593.90956382715
 30
0.0
 40
1.499999999999718
100
AcDbArc
 50
165.5921855646394
 51
194.4078144353637
  0
ARC
  5
11B
330
2
100
AcDbEntity
  8
1
 62
     2
100
AcDbCircle
 10
-528.3196860764338
 20
-1593.90956382715
 30
0.0
 40
1.499999999999821
100
AcDbArc
 50
255.5921855646433
 51
284.4078144353566
  0
LINE
  5
11C
330
2
100
AcDbEntity
  8
1
 62
     2
100
AcDbLine
 10
-529.0098954266372
 20
-1593.523019360111
 30
0.0
 11
-529.7725099272786
 21
-1593.536330845735
 31
0.0
  0
LINE
  5
11D
330
2
100
AcDbEntity
  8
1
 62
     2
100
AcDbLine
 10
-528.7997799713793
 20
-1593.429469932204
 30
0.0
 11
-529.0098954266372
 21
-1593.523019360111
 31
0.0
  0
LINE
  5
11E
330
2
100
AcDbEntity
  8
1
 62
     2
100
AcDbLine
 10
-527.9464530950194
 20
-1595.362387677995
 30
0.0
 11
-527.9331416093955
 21
-1594.599773177353
 31
0.0
  0
LINE
  5
11F
330
2
100
AcDbEntity
  8
1
 62
     2
100
AcDbLine
 10
-527.9331416093955
 20
-1594.599773177353
 30
0.0
 11
-527.8395921814881
 21
-1594.389657722095
 31
0.0
  0
LINE
  5
120
330
2
100
AcDbEntity
  8
1
 62
     2
100
AcDbLine
 10
-528.7062305434719
 20
-1594.599773177353
 30
0.0
 11
-528.692919057848
 21
-1595.362387677995
 31
0.0
  0
LINE
  5
121
330
2
100
AcDbEntity
  8
1
 62
     2
100
AcDbLine
 10
-528.7997799713796
 20
-1594.389657722095
 30
0.0
 11
-528.7062305434719
 21
-1594.599773177353
 31
0.0
  0
LINE
  5
122
330
2
100
AcDbEntity
  8
1
 62
     2
100
AcDbLine
 10
-529.7725099272786
 20
-1594.282796808564
 30
0.0
 11
-529.0098954266372
 21
-1594.296108294188
 31
0.0
  0
LINE
  5
123
330
2
100
AcDbEntity
  8
1
 62
     2
100
AcDbLine
 10
-529.0098954266372
 20
-1594.296108294188
 30
0.0
 11
-528.7997799713796
 21
-1594.389657722095
 31
0.0
  0
LINE
  5
124
330
2
100
AcDbEntity
  8
1
 62
     2
100
AcDbLine
 10
-528.7062305434719
 20
-1593.219354476946
 30
0.0
 11
-528.7997799713793
 21
-1593.429469932204
 31
0.0
  0
LINE
  5
125
330
2
100
AcDbEntity
  8
1
 62
     2
100
AcDbLine
 10
-527.8395921814881
 20
-1593.429469932204
 30
0.0
 11
-527.9331416093955
 21
-1593.219354476946
 31
0.0
  0
LINE
  5
126
330
2
100
AcDbEntity
  8
1
 62
     2
100
AcDbLine
 10
-527.6294767262305
 20
-1593.523019360111
 30
0.0
 11
-527.8395921814881
 21
-1593.429469932204
 31
0.0
  0
LINE
  5
127
330
2
100
AcDbEntity
  8
1
 62
     2
100
AcDbLine
 10
-527.8395921814881
 20
-1594.389657722095
 30
0.0
 11
-527.6294767262305
 21
-1594.296108294188
 31
0.0
  0
CIRCLE
  5
128
330
2
100
AcDbEntity
  8
1
 62
     7
100
AcDbCircle
 10
-528.3196860764338
 20
-1593.90956382715
 30
0.0
 40
2.800000000000011
  0
LINE
  5
129
330
2
100
AcDbEntity
  8
1
 62
     2
100
AcDbLine
 10
-531.3196860764338
 20
-1590.80956382715
 30
0.0
 11
-532.0196860764338
 21
-1591.50956382715
 31
0.0
  0
LINE
  5
12A
330
2
100
AcDbEntity
  8
1
 62
     7
100
AcDbLine
 10
-531.3196860764338
 20
-1593.90956382715
 30
0.0
 11
-531.3196860764338
 21
-1590.80956382715
 31
0.0
  0
LINE
  5
12B
330
2
100
AcDbEntity
  8
1
 62
     2
100
AcDbLine
 10
-532.0196860764338
 20
-1593.90956382715
 30
0.0
 11
-532.0196860764338
 21
-1591.50956382715
 31
0.0
  0
LINE
  5
12C
330
2
100
AcDbEntity
  8
Object
100
AcDbLine
 10
-532.6196860764333
 20
-1590.20956382715
 30
0.0
 11
-532.6196860764337
 21
-1589.682260207824
 31
0.0
  0
ARC
  5
12D
330
2
100
AcDbEntity
  8
1
 62
     7
100
AcDbCircle
 10
-528.3196860764338
 20
-1593.90956382715
 30
0.0
 40
3.0
100
AcDbArc
 50
180.0
 51
0.0
  0
ARC
  5
12E
330
2
100
AcDbEntity
  8
1
 62
     2
100
AcDbCircle
 10
-528.3196860764338
 20
-1593.90956382715
 30
0.0
 40
3.699999999999988
100
AcDbArc
 50
180.0
 51
0.0
  0
LINE
  5
12F
330
2
100
AcDbEntity
  8
1
 62
     2
100
AcDbLine
 10
-498.6196860764337
 20
-1591.50956382715
 30
0.0
 11
-498.6196860764337
 21
-1593.90956382715
 31
0.0
  0
ARC
  5
135
330
2
100
AcDbEntity
  8
Object
100
AcDbCircle
 10
-521.1196860764318
 20
-1532.57752773298
 30
0.0
 40
8.63815572471549
100
AcDbArc
 50
259.999999999993
 51
280.0000000000068
  0
ARC
  5
136
330
2
100
AcDbEntity
  8
Object
100
AcDbCircle
 10
-522.8196860764317
 20
-1540.409563827149
 30
0.0
 40
0.2
100
AcDbArc
 50
0.0
 51
90.0
  0
LINE
  5
137
330
2
100
AcDbEntity
  8
Object
100
AcDbLine
 10
-519.6196860764318
 20
-1540.409563827149
 30
0.0
 11
-519.6196860764314
 21
-1541.084450462407
 31
0.0
  0
LINE
  5
138
330
2
100
AcDbEntity
  8
Object
100
AcDbLine
 10
-522.619686076431
 20
-1540.409563827149
 30
0.0
 11
-522.619686076431
 21
-1541.084450462407
 31
0.0
  0
LINE
  5
139
330
2
100
AcDbEntity
  8
Object
100
AcDbLine
 10
-525.6196860764323
 20
-1540.409563827149
 30
0.0
 11
-525.6196860764318
 21
-1541.084450462407
 31
0.0
  0
ARC
  5
13A
330
2
100
AcDbEntity
  8
Object
100
AcDbCircle
 10
-525.419686076433
 20
-1540.409563827149
 30
0.0
 40
0.2
100
AcDbArc
 50
90.0
 51
180.0
  0
ARC
  5
13B
330
2
100
AcDbEntity
  8
Object
100
AcDbCircle
 10
-519.419686076432
 20
-1540.409563827149
 30
0.0
 40
0.2
100
AcDbArc
 50
90.0
 51
180.0
  0
ARC
  5
13C
330
2
100
AcDbEntity
  8
Object
100
AcDbCircle
 10
-516.7613416909146
 20
-1568.909563827156
 30
0.0
 40
0.3
100
AcDbArc
 50
270.0
 51
64.8779398133779
  0
LINE
  5
13D
330
2
100
AcDbEntity
  8
Object
100
AcDbLine
 10
-522.6196860764333
 20
-1559.209563827156
 30
0.0
 11
-520.6464809956769
 21
-1559.209563827156
 31
0.0
  0
ARC
  5
13E
330
2
100
AcDbEntity
  8
Object
  6
Continuous
100
AcDbCircle
 10
-524.6196860764333
 20
-1561.795350263457
 30
0.0
 40
1.0
100
AcDbArc
 50
314.9999998703429
 51
0.0000000000130276
  0
LINE
  5
13F
330
2
100
AcDbEntity
  8
Object
100
AcDbLine
 10
-520.7196860764335
 20
-1559.209563827156
 30
0.0
 11
-520.7196860764335
 21
-1562.209563827156
 31
0.0
  0
LINE
  5
140
330
2
100
AcDbEntity
  8
Object
100
AcDbLine
 10
-523.6196860764327
 20
-1562.209563827156
 30
0.0
 11
-523.6196860764333
 21
-1560.209563827156
 31
0.0
  0
ARC
  5
141
330
2
100
AcDbEntity
  8
Object
100
AcDbCircle
 10
-522.6196860764333
 20
-1560.209563827156
 30
0.0
 40
1.0
100
AcDbArc
 50
90.0
 51
180.0
  0
LINE
  5
142
330
2
100
AcDbEntity
  8
Object
100
AcDbLine
 10
-524.7912589516887
 20
-1559.109563827155
 30
0.0
 11
-520.8196860764335
 21
-1559.109563827156
 31
0.0
  0
ARC
  5
143
330
2
100
AcDbEntity
  8
Object
100
AcDbCircle
 10
-520.8196860764335
 20
-1559.309563827157
 30
0.0
 40
0.2
100
AcDbArc
 50
0.0
 51
90.0
  0
ARC
  5
144
330
2
100
AcDbEntity
  8
Object
100
AcDbCircle
 10
-522.1424605013833
 20
-1558.609563827156
 30
0.0
 40
0.5
100
AcDbArc
 50
212.5789703927969
 51
270.0
  0
LINE
  5
145
330
2
100
AcDbEntity
  8
Object
100
AcDbLine
 10
-520.6196860764337
 20
-1559.309563827156
 30
0.0
 11
-520.6196860764337
 21
-1562.209563827156
 31
0.0
  0
LINE
  5
146
330
2
100
AcDbEntity
  8
Object
100
AcDbLine
 10
-526.9125793117479
 20
-1565.502457047569
 30
0.0
 11
-523.9125792968463
 21
-1562.502457046243
 31
0.0
  0
ARC
  5
147
330
2
100
AcDbEntity
  8
Object
100
AcDbCircle
 10
-524.7912589516887
 20
-1558.609563827156
 30
0.0
 40
0.5
100
AcDbArc
 50
231.0575587310224
 51
270.0
  0
ARC
  5
148
330
2
100
AcDbEntity
  8
Object
100
AcDbCircle
 10
-513.6196860764337
 20
-1562.209563827156
 30
0.0
 40
7.099999999999999
100
AcDbArc
 50
180.0
 51
244.8779398133779
  0
LINE
  5
149
330
2
100
AcDbEntity
  8
Object
100
AcDbLine
 10
-531.0196860764338
 20
-1540.409563827149
 30
0.0
 11
-531.0196860764338
 21
-1548.209563827151
 31
0.0
  0
LINE
  5
14A
330
2
100
AcDbEntity
  8
Object
100
AcDbLine
 10
-530.8196860764339
 20
-1540.409563827149
 30
0.0
 11
-530.8196860764339
 21
-1548.209563827151
 31
0.0
  0
LINE
  5
14B
330
2
100
AcDbEntity
  8
Object
100
AcDbLine
 10
-531.219686076434
 20
-1540.709563827149
 30
0.0
 11
-533.5196860764337
 21
-1540.709563827149
 31
0.0
  0
ARC
  5
14C
330
2
100
AcDbEntity
  8
Object
100
AcDbCircle
 10
-531.219686076434
 20
-1540.509563827149
 30
0.0
 40
0.2
100
AcDbArc
 50
270.0
 51
0.0
  0
ARC
  5
14D
330
2
100
AcDbEntity
  8
Object
100
AcDbCircle
 10
-530.8196860764344
 20
-1540.409563827149
 30
0.0
 40
0.2
100
AcDbArc
 50
90.0
 51
180.0
  0
LINE
  5
14E
330
2
100
AcDbEntity
  8
Object
100
AcDbLine
 10
-528.6196860764314
 20
-1540.409563827149
 30
0.0
 11
-528.6196860764314
 21
-1541.084450462407
 31
0.0
  0
ARC
  5
14F
330
2
100
AcDbEntity
  8
Object
100
AcDbCircle
 10
-528.8196860764316
 20
-1540.409563827149
 30
0.0
 40
0.2
100
AcDbArc
 50
0.0
 51
90.0
  0
ARC
  5
150
330
2
100
AcDbEntity
  8
Object
  6
Continuous
100
AcDbCircle
 10
-530.6196860764328
 20
-1561.795350266109
 30
0.0
 40
1.0
100
AcDbArc
 50
180.0
 51
224.9999998703613
  0
LINE
  5
151
330
2
100
AcDbEntity
  8
Center
  6
Continuous
100
AcDbLine
 10
-527.6196860764336
 20
-1563.209563827156
 30
0.0
 11
-527.6196860764336
 21
-1561.209563827156
 31
0.0
  0
LINE
  5
152
330
2
100
AcDbEntity
  8
Object
100
AcDbLine
 10
-531.3267928592193
 20
-1562.502457045696
 30
0.0
 11
-528.3267928741213
 21
-1565.502457044369
 31
0.0
  0
LINE
  5
153
330
2
100
AcDbEntity
  8
Object
100
AcDbLine
 10
-531.6196860764327
 20
-1562.209563827156
 30
0.0
 11
-531.6196860764327
 21
-1560.209563827156
 31
0.0
  0
ARC
  5
154
330
2
100
AcDbEntity
  8
Object
100
AcDbCircle
 10
-532.6196860764327
 20
-1560.209563827156
 30
0.0
 40
1.0
100
AcDbArc
 50
0.0
 51
90.0
  0
ARC
  5
155
330
2
100
AcDbEntity
  8
Object
100
AcDbCircle
 10
-533.0969116514868
 20
-1558.609563827156
 30
0.0
 40
0.5
100
AcDbArc
 50
270.0
 51
327.421029607203
  0
ARC
  5
156
330
2
100
AcDbEntity
  8
Object
100
AcDbCircle
 10
-530.4481132011813
 20
-1558.609563827156
 30
0.0
 40
0.5
100
AcDbArc
 50
270.0
 51
308.9424412689776
  0
LINE
  5
157
330
2
100
AcDbEntity
  8
Center
100
AcDbLine
 10
-527.6196860764346
 20
-1563.109563827156
 30
0.0
 11
-527.6196860764346
 21
-1561.109563827156
 31
0.0
  0
ARC
  5
158
330
2
100
AcDbEntity
  8
Object
100
AcDbCircle
 10
-532.5196860764338
 20
-1548.209563827151
 30
0.0
 40
1.7
100
AcDbArc
 50
270.0
 51
0.0
  0
ARC
  5
159
330
2
100
AcDbEntity
  8
Object
100
AcDbCircle
 10
-532.5196860764338
 20
-1548.209563827151
 30
0.0
 40
1.5
100
AcDbArc
 50
270.0
 51
0.0
  0
LINE
  5
15A
330
2
100
AcDbEntity
  8
Center
  6
Continuous
100
AcDbLine
 10
-528.6196860764337
 20
-1562.209563827156
 30
0.0
 11
-526.6196860764337
 21
-1562.209563827156
 31
0.0
  0
ARC
  5
15B
330
2
100
AcDbEntity
  8
Object
100
AcDbCircle
 10
-527.6196860913349
 20
-1564.795350264783
 30
0.0
 40
1.0
100
AcDbArc
 50
224.9999999999908
 51
315.0000000000092
  0
ARC
  5
15C
330
2
100
AcDbEntity
  8
Object
100
AcDbCircle
 10
-527.6196860764346
 20
-1562.109563827156
 30
0.0
 40
4.0
100
AcDbArc
 50
51.05755873102246
 51
128.9424412689775
  0
ARC
  5
15D
330
2
100
AcDbEntity
  8
Object
100
AcDbCircle
 10
-527.6196860764336
 20
-1562.209563827156
 30
0.0
 40
6.0
100
AcDbArc
 50
150.0000000000006
 51
29.99999999999932
  0
ARC
  5
15E
330
2
100
AcDbEntity
  8
Object
100
AcDbCircle
 10
-527.6196860764336
 20
-1562.209563827156
 30
0.0
 40
4.0
100
AcDbArc
 50
180.0
 51
0.0
  0
ARC
  5
15F
330
2
100
AcDbEntity
  8
Object
100
AcDbCircle
 10
-527.6196860764346
 20
-1562.109563827156
 30
0.0
 40
6.0
100
AcDbArc
 50
32.57897039281318
 51
147.4210296071867
  0
ARC
  5
160
330
2
100
AcDbEntity
  8
Object
100
AcDbCircle
 10
-527.1196860764319
 20
-1532.57752773298
 30
0.0
 40
8.63815572471549
100
AcDbArc
 50
259.999999999993
 51
280.0000000000068
  0
LINE
  5
161
330
2
100
AcDbEntity
  8
Object
100
AcDbLine
 10
-500.6196860764347
 20
-1540.409563827149
 30
0.0
 11
-500.6196860764347
 21
-1541.084450462407
 31
0.0
  0
ARC
  5
162
330
2
100
AcDbEntity
  8
Object
100
AcDbCircle
 10
-500.4196860764348
 20
-1540.409563827149
 30
0.0
 40
0.2
100
AcDbArc
 50
90.0
 51
180.0
  0
ARC
  5
163
330
2
100
AcDbEntity
  8
Object
100
AcDbCircle
 10
-503.8196860764336
 20
-1540.409563827149
 30
0.0
 40
0.2
100
AcDbArc
 50
0.0
 51
90.0
  0
LINE
  5
164
330
2
100
AcDbEntity
  8
Object
100
AcDbLine
 10
-503.6196860764337
 20
-1540.409563827149
 30
0.0
 11
-503.6196860764341
 21
-1541.084450462407
 31
0.0
  0
ARC
  5
165
330
2
100
AcDbEntity
  8
Object
100
AcDbCircle
 10
-502.1196860764346
 20
-1532.57752773298
 30
0.0
 40
8.63815572471549
100
AcDbArc
 50
259.999999999993
 51
280.0000000000068
  0
POINT
  5
166
330
2
100
AcDbEntity
  8
Text
100
AcDbPoint
 10
-511.6196860764337
 20
-1540.209563827149
 30
0.0
  0
LINE
  5
168
330
2
100
AcDbEntity
  8
Object
100
AcDbLine
 10
-502.5928911571905
 20
-1559.209563827156
 30
0.0
 11
-500.6196860764338
 21
-1559.209563827156
 31
0.0
  0
LINE
  5
169
330
2
100
AcDbEntity
  8
Object
100
AcDbLine
 10
-502.5196860764338
 20
-1562.209563827156
 30
0.0
 11
-502.5196860764338
 21
-1559.209563827156
 31
0.0
  0
ARC
  5
16A
330
2
100
AcDbEntity
  8
Object
  6
Continuous
100
AcDbCircle
 10
-498.6196860764337
 20
-1561.795350263457
 30
0.0
 40
1.0
100
AcDbArc
 50
180.0
 51
225.000000129657
  0
LINE
  5
16B
330
2
100
AcDbEntity
  8
Object
100
AcDbLine
 10
-499.6196860764337
 20
-1562.209563827156
 30
0.0
 11
-499.6196860764337
 21
-1560.209563827156
 31
0.0
  0
ARC
  5
16C
330
2
100
AcDbEntity
  8
Object
100
AcDbCircle
 10
-500.6196860764338
 20
-1560.209563827156
 30
0.0
 40
1.0
100
AcDbArc
 50
0.0
 51
90.0
  0
LINE
  5
16D
330
2
100
AcDbEntity
  8
Object
100
AcDbLine
 10
-498.4481132011786
 20
-1559.109563827155
 30
0.0
 11
-502.4196860764339
 21
-1559.109563827156
 31
0.0
  0
ARC
  5
16E
330
2
100
AcDbEntity
  8
Object
100
AcDbCircle
 10
-502.4196860764339
 20
-1559.309563827157
 30
0.0
 40
0.2
100
AcDbArc
 50
90.0
 51
180.0
  0
ARC
  5
16F
330
2
100
AcDbEntity
  8
Object
100
AcDbCircle
 10
-501.0969116514841
 20
-1558.609563827156
 30
0.0
 40
0.5
100
AcDbArc
 50
270.0
 51
327.421029607203
  0
LINE
  5
170
330
2
100
AcDbEntity
  8
Object
100
AcDbLine
 10
-502.6196860764337
 20
-1562.209563827156
 30
0.0
 11
-502.6196860764337
 21
-1559.309563827156
 31
0.0
  0
ARC
  5
171
330
2
100
AcDbEntity
  8
Object
 48
0.5
100
AcDbCircle
 10
-511.6196860764337
 20
-1566.709563827156
 30
0.0
 40
2.25
100
AcDbArc
 50
42.83958840691916
 51
77.16041159309874
  0
ARC
  5
172
330
2
100
AcDbEntity
  8
Object
 48
0.5
100
AcDbCircle
 10
-511.6196860764337
 20
-1566.709563827156
 30
0.0
 40
2.25
100
AcDbArc
 50
282.8395884069012
 51
317.1604115930769
  0
ARC
  5
173
330
2
100
AcDbEntity
  8
Object
 48
0.5
100
AcDbCircle
 10
-508.2674818024102
 20
-1568.644959867143
 30
0.0
 40
1.75
100
AcDbArc
 50
133.3984504009699
 51
166.6015495990188
  0
ARC
  5
174
330
2
100
AcDbEntity
  8
Object
 48
0.5
100
AcDbCircle
 10
-508.26748180241
 20
-1564.77416778717
 30
0.0
 40
1.75
100
AcDbArc
 50
193.3984504009811
 51
226.60154959903
  0
ARC
  5
175
330
2
100
AcDbEntity
  8
Object
 48
0.5
100
AcDbCircle
 10
-511.6196860764337
 20
-1566.709563827156
 30
0.0
 40
2.25
100
AcDbArc
 50
342.8395884069159
 51
17.16041159307066
  0
ARC
  5
176
330
2
100
AcDbEntity
  8
Object
100
AcDbCircle
 10
-506.4780304619528
 20
-1568.909563827156
 30
0.0
 40
0.3
100
AcDbArc
 50
115.122060186622
 51
270.0
  0
ARC
  5
177
330
2
100
AcDbEntity
  8
Object
100
AcDbCircle
 10
-509.6196860764337
 20
-1562.209563827156
 30
0.0
 40
7.099999999999999
100
AcDbArc
 50
295.1220601866221
 51
0.0
  0
ARC
  5
178
330
2
100
AcDbEntity
  8
Object
 48
0.5
100
AcDbCircle
 10
-514.9718903504578
 20
-1564.77416778717
 30
0.0
 40
1.75
100
AcDbArc
 50
313.39845040097
 51
346.6015495990188
  0
ARC
  5
179
330
2
100
AcDbEntity
  8
Object
 48
0.5
100
AcDbCircle
 10
-514.9718903504578
 20
-1568.644959867142
 30
0.0
 40
1.75
100
AcDbArc
 50
13.3984504009811
 51
46.60154959903004
  0
ARC
  5
17A
330
2
100
AcDbEntity
  8
Object
 48
0.5
100
AcDbCircle
 10
-511.6196860764337
 20
-1566.709563827156
 30
0.0
 40
2.25
100
AcDbArc
 50
222.8395884069052
 51
257.1604115930868
  0
ARC
  5
17B
330
2
100
AcDbEntity
  8
Object
 48
0.5
100
AcDbCircle
 10
-511.6196860764337
 20
-1566.709563827156
 30
0.0
 40
2.25
100
AcDbArc
 50
162.8395884068886
 51
197.1604115930707
  0
ARC
  5
17C
330
2
100
AcDbEntity
  8
Object
 48
0.5
100
AcDbCircle
 10
-511.6196860764337
 20
-1566.709563827156
 30
0.0
 40
2.25
100
AcDbArc
 50
102.8395884069012
 51
137.1604115930992
  0
CIRCLE
  5
17D
330
2
100
AcDbEntity
  8
Object
 48
0.5
100
AcDbCircle
 10
-511.6196860764337
 20
-1566.709563827156
 30
0.0
 40
2.649999999999999
  0
LINE
  5
17E
330
2
100
AcDbEntity
  8
Object
100
AcDbLine
 10
-513.6196860764337
 20
-1569.209563827156
 30
0.0
 11
-509.6196860764337
 21
-1569.209563827156
 31
0.0
  0
ARC
  5
17F
330
2
100
AcDbEntity
  8
Object
 48
0.5
100
AcDbCircle
 10
-511.6196860764337
 20
-1562.838771747183
 30
0.0
 40
1.75
100
AcDbArc
 50
253.3984504009703
 51
286.6015495990296
  0
ARC
  5
180
330
2
100
AcDbEntity
  8
Object
 48
0.5
100
AcDbCircle
 10
-511.6196860764341
 20
-1570.580355907129
 30
0.0
 40
1.75
100
AcDbArc
 50
73.39845040097033
 51
106.6015495990296
  0
SOLID
  5
181
330
2
100
AcDbEntity
  8
text3
100
AcDbTrace
 10
-412.7196860764337
 20
-1654.514068875056
 30
0.0
 11
-412.7196860764337
 21
-1656.180735541722
 31
0.0
 12
-407.7196860764337
 22
-1655.347402208389
 32
0.0
 13
-407.7196860764337
 23
-1655.347402208389
 33
0.0
  0
DIMENSION
  5
182
330
2
100
AcDbEntity
  8
text3
100
AcDbDimension
  2
*D5
 10
-426.1196860764353
 20
-1672.764458708516
 30
0.0
 11
-416.1196860764349
 21
-1669.264458708516
 31
0.0
 70
     1
  1
<>±1
 71
     5
 42
20.00000000000074
  3
DMST_1
100
AcDbAlignedDimension
 13
-406.1196860764337
 23
-1647.20956382715
 33
0.0
 14
-426.1196860764345
 24
-1647.209563827149
 34
0.0
1001
ACAD
1000
DSTYLE
1002
{
1070
    41
1040
5.0
1070
    42
1040
2.0
1070
    43
1040
0.38
1070
    44
1040
0.18
1070
    47
1040
0.0
1070
    48
1040
0.0
1070
    71
1070
     0
1070
    78
1070
     8
1070
    79
1070
     2
1070
   140
1040
4.0
1070
   141
1040
1.0
1070
   146
1040
1.0
1070
   147
1040
1.5
1070
   176
1070
     0
1070
   177
1070
     0
1070
   178
1070
     0
1070
   179
1070
     2
1070
   279
1070
     0
1002
}
  0
LINE
  5
1A2
330
2
100
AcDbEntity
  8
Object
100
AcDbLine
 10
-425.6196860764336
 20
-1623.00956382715
 30
0.0
 11
-407.7196860764337
 21
-1623.00956382715
 31
0.0
  0
DIMENSION
  5
1B0
330
2
100
AcDbEntity
  8
text3
100
AcDbDimension
  2
*D0
 10
-406.1196860764337
 20
-1663.021274837681
 30
0.0
 11
-388.2863527431004
 21
-1663.021274837681
 31
0.0
 70
   129
 71
     5
 42
5.0
  3
DMST_1
100
AcDbAlignedDimension
 13
-401.1196860764338
 23
-1647.20956382715
 33
0.0
 14
-406.1196860764337
 24
-1647.20956382715
 34
0.0
1001
ACAD
1000
DSTYLE
1002
{
1070
   343
1005
0
1070
   173
1070
     1
1070
   344
1005
0
1070
    41
1040
5.0
1070
    42
1040
2.0
1070
    43
1040
0.38
1070
    44
1040
5.0
1070
    47
1040
0.0
1070
    48
1040
0.0
1070
    71
1070
     0
1070
    78
1070
     8
1070
    79
1070
     2
1070
   140
1040
4.0
1070
   141
1040
0.09
1070
   146
1040
1.0
1070
   147
1040
1.5
1070
   176
1070
     0
1070
   177
1070
     0
1070
   178
1070
     0
1070
   179
1070
     2
1070
   279
1070
     0
1002
}
  0
LINE
  5
1BE
330
2
100
AcDbEntity
  8
Center
  6
CENTER
100
AcDbLine
 10
-405.6196860764337
 20
-1619.00956382715
 30
0.0
 11
-428.6793561422965
 21
-1619.00956382715
 31
0.0
  0
DIMENSION
  5
1C0
330
2
100
AcDbEntity
  8
text3
100
AcDbDimension
  2
*D1
 10
-449.0304503343318
 20
-1638.05956382715
 30
0.0
 11
-449.0304503343316
 21
-1625.417000274276
 31
0.0
 70
   129
  1
Φ<>h7
 71
     5
 42
38.10000000000036
  3
DMST_1
100
AcDbAlignedDimension
 13
-407.4196860764336
 23
-1599.959563827149
 33
0.0
 14
-407.4196860764336
 24
-1638.05956382715
 34
0.0
1001
ACAD
1000
DSTYLE
1002
{
1070
    41
1040
5.0
1070
    42
1040
3.0
1070
    43
1040
0.38
1070
    44
1040
5.0
1070
    47
1040
0.0
1070
    48
1040
0.0
1070
    71
1070
     0
1070
    78
1070
     8
1070
    79
1070
     2
1070
   140
1040
4.0
1070
   141
1040
0.09
1070
   146
1040
1.0
1070
   147
1040
1.5
1070
   176
1070
     0
1070
   177
1070
     0
1070
   178
1070
     0
1070
   179
1070
     2
1070
   279
1070
     0
1002
}
  0
DIMENSION
  5
1CD
330
2
100
AcDbEntity
  8
text3
100
AcDbDimension
  2
*D11
 10
-435.0592133758789
 20
-1615.00956382715
 30
0.0
 11
-435.0592133758786
 21
-1648.18052563115
 31
0.0
 70
   161
  1
Φ<>h6
 71
     5
 42
8.0
  3
DMST_1
100
AcDbAlignedDimension
 13
-425.6196860764336
 23
-1623.00956382715
 33
0.0
 14
-425.6196860764336
 24
-1615.00956382715
 34
0.0
1001
ACAD
1000
DSTYLE
1002
{
1070
    41
1040
5.0
1070
    42
1040
3.0
1070
    43
1040
0.38
1070
    44
1040
5.0
1070
    47
1040
0.0
1070
    48
1040
0.0
1070
    71
1070
     0
1070
    78
1070
     8
1070
    79
1070
     2
1070
   140
1040
4.0
1070
   141
1040
1.0
1070
   146
1040
1.0
1070
   147
1040
1.5
1070
   176
1070
     0
1070
   177
1070
     0
1070
   178
1070
     0
1070
   179
1070
     2
1070
   279
1070
     0
1002
}
  0
LINE
  5
1DB
330
2
100
AcDbEntity
  8
Object
100
AcDbLine
 10
-478.5571293940614
 20
-1624.957005809961
 30
0.0
 11
-478.5571293940614
 21
-1621.839609649592
 31
0.0
  0
LINE
  5
1DC
330
2
100
AcDbEntity
  8
1
 62
     7
100
AcDbLine
 10
-483.4196860764337
 20
-1642.20956382715
 30
0.0
 11
-483.4196860764337
 21
-1595.80956382715
 31
0.0
  0
LINE
  5
1DD
330
2
100
AcDbEntity
  8
1
 62
     2
100
AcDbLine
 10
-484.1196860764338
 20
-1595.80956382715
 30
0.0
 11
-484.1196860764338
 21
-1642.20956382715
 31
0.0
  0
MTEXT
  5
1DE
102
{ACAD_REACTORS
330
1DF
102
}
330
2
100
AcDbEntity
  8
text3
100
AcDbMText
 10
-469.7953702175913
 20
-1674.651780510258
 30
0.0
 40
4.0
 41
0.0
 71
     1
 72
     1
  1
4-Φ4.5
 73
     1
 44
1.0
  0
LEADER
  5
1DF
330
2
100
AcDbEntity
  8
text3
100
AcDbLeader
  3
DMST_1
 73
     0
 40
4.0
 41
20.8
 76
     3
 10
-482.8021692247959
 20
-1648.288548630708
 30
0.0
 10
-475.7953702175912
 20
-1676.151780510258
 30
0.0
 10
-470.7953702175912
 20
-1676.151780510258
 30
0.0
340
1DE
213
0.0
223
-1.5
233
0.0
1001
ACAD
1000
DSTYLE
1002
{
1070
    77
1070
     0
1070
    41
1040
5.0
1070
    42
1040
0.0625
1070
    43
1040
0.38
1070
    44
1040
0.18
1070
    47
1040
0.0
1070
    48
1040
0.0
1070
    71
1070
     0
1070
    78
1070
     8
1070
    79
1070
     2
1070
   140
1040
3.0
1070
   141
1040
0.09
1070
   146
1040
1.0
1070
   147
1040
1.0
1070
   176
1070
     0
1070
   177
1070
     0
1070
   178
1070
     0
1070
   179
1070
     2
1070
   279
1070
     0
1002
}
  0
ARC
  5
1E0
330
2
100
AcDbEntity
  8
Object
100
AcDbCircle
 10
-481.1196860764333
 20
-1644.20956382715
 30
0.0
 40
3.0
100
AcDbArc
 50
270.0
 51
0.0
  0
LINE
  5
1E1
330
2
100
AcDbEntity
  8
Center
100
AcDbLine
 10
-488.0496860764337
 20
-1643.57956382715
 30
0.0
 11
-488.0496860764337
 21
-1641.57956382715
 31
0.0
  0
LINE
  5
1E2
330
2
100
AcDbEntity
  8
Center
100
AcDbLine
 10
-489.0496860764336
 20
-1642.57956382715
 30
0.0
 11
-487.0496860764337
 21
-1642.57956382715
 31
0.0
  0
ARC
  5
1E3
330
2
100
AcDbEntity
  8
1
 62
     2
100
AcDbCircle
 10
-494.9196860764337
 20
-1644.10956382715
 30
0.0
 40
1.499999999999703
100
AcDbArc
 50
75.59218556464334
 51
104.4078144353636
  0
LINE
  5
1E4
330
2
100
AcDbEntity
  8
1
 62
     2
100
AcDbLine
 10
-491.2196860764337
 20
-1644.10956382715
 30
0.0
 11
-491.2196860764337
 21
-1646.50956382715
 31
0.0
  0
ARC
  5
1E5
330
2
100
AcDbEntity
  8
1
 62
     2
100
AcDbCircle
 10
-494.9196860764337
 20
-1644.10956382715
 30
0.0
 40
1.49999999999958
100
AcDbArc
 50
345.5921855646394
 51
14.40781443536377
  0
LINE
  5
1E6
330
2
100
AcDbEntity
  8
1
 62
     2
100
AcDbLine
 10
-494.2294767262303
 20
-1644.496108294188
 30
0.0
 11
-493.4668622255889
 21
-1644.482796808564
 31
0.0
  0
LINE
  5
1E7
330
2
100
AcDbEntity
  8
1
 62
     2
100
AcDbLine
 10
-494.4395921814882
 20
-1644.589657722095
 30
0.0
 11
-494.2294767262303
 21
-1644.496108294188
 31
0.0
  0
LINE
  5
1E8
330
2
100
AcDbEntity
  8
1
 62
     2
100
AcDbLine
 10
-493.4668622255889
 20
-1643.736330845735
 30
0.0
 11
-494.2294767262303
 21
-1643.723019360112
 31
0.0
  0
LINE
  5
1E9
330
2
100
AcDbEntity
  8
1
 62
     2
100
AcDbLine
 10
-494.2294767262303
 20
-1643.723019360112
 30
0.0
 11
-494.439592181488
 21
-1643.629469932204
 31
0.0
  0
LINE
  5
1EA
330
2
100
AcDbEntity
  8
1
 62
     7
100
AcDbLine
 10
-491.9196860764337
 20
-1644.10956382715
 30
0.0
 11
-491.9196860764337
 21
-1647.20956382715
 31
0.0
  0
LINE
  5
1EB
330
2
100
AcDbEntity
  8
1
 62
     2
100
AcDbLine
 10
-491.9196860764337
 20
-1647.20956382715
 30
0.0
 11
-491.2196860764337
 21
-1646.50956382715
 31
0.0
  0
LINE
  5
1EC
330
2
100
AcDbEntity
  8
1
 62
     2
100
AcDbLine
 10
-491.2196860764337
 20
-1646.50956382715
 30
0.0
 11
-488.4196860764337
 21
-1646.50956382715
 31
0.0
  0
ARC
  5
1ED
330
2
100
AcDbEntity
  8
1
 62
     2
100
AcDbCircle
 10
-494.9196860764337
 20
-1644.10956382715
 30
0.0
 40
1.499999999999731
100
AcDbArc
 50
255.5921855646362
 51
284.4078144353566
  0
LINE
  5
1EE
330
2
100
AcDbEntity
  8
1
 62
     2
100
AcDbLine
 10
-494.5464530950196
 20
-1645.562387677995
 30
0.0
 11
-494.5331416093956
 21
-1644.799773177353
 31
0.0
  0
LINE
  5
1EF
330
2
100
AcDbEntity
  8
1
 62
     2
100
AcDbLine
 10
-495.306230543472
 20
-1644.799773177353
 30
0.0
 11
-495.2929190578481
 21
-1645.562387677995
 31
0.0
  0
LINE
  5
1F0
330
2
100
AcDbEntity
  8
1
 62
     2
100
AcDbLine
 10
-495.3997799713794
 20
-1644.589657722095
 30
0.0
 11
-495.306230543472
 21
-1644.799773177353
 31
0.0
  0
LINE
  5
1F1
330
2
100
AcDbEntity
  8
1
 62
     2
100
AcDbLine
 10
-495.306230543472
 20
-1643.419354476946
 30
0.0
 11
-495.3997799713794
 21
-1643.629469932204
 31
0.0
  0
ARC
  5
1F2
330
2
100
AcDbEntity
  8
1
 62
     2
100
AcDbCircle
 10
-494.9196860764337
 20
-1644.10956382715
 30
0.0
 40
1.4999999999998
100
AcDbArc
 50
165.5921855646394
 51
194.4078144353606
  0
LINE
  5
1F3
330
2
100
AcDbEntity
  8
1
 62
     2
100
AcDbLine
 10
-496.3725099272787
 20
-1644.482796808564
 30
0.0
 11
-495.6098954266371
 21
-1644.496108294188
 31
0.0
  0
LINE
  5
1F4
330
2
100
AcDbEntity
  8
1
 62
     2
100
AcDbLine
 10
-495.6098954266371
 20
-1643.723019360112
 30
0.0
 11
-496.3725099272787
 21
-1643.736330845735
 31
0.0
  0
LINE
  5
1F5
330
2
100
AcDbEntity
  8
1
 62
     7
100
AcDbLine
 10
-497.9196860764337
 20
-1644.10956382715
 30
0.0
 11
-497.9196860764337
 21
-1647.20956382715
 31
0.0
  0
LINE
  5
1F6
330
2
100
AcDbEntity
  8
1
 62
     2
100
AcDbLine
 10
-495.6098954266371
 20
-1644.496108294188
 30
0.0
 11
-495.3997799713794
 21
-1644.589657722095
 31
0.0
  0
LINE
  5
1F7
330
2
100
AcDbEntity
  8
1
 62
     2
100
AcDbLine
 10
-495.3997799713794
 20
-1643.629469932204
 30
0.0
 11
-495.6098954266371
 21
-1643.723019360112
 31
0.0
  0
LINE
  5
1F8
330
2
100
AcDbEntity
  8
1
 62
     2
100
AcDbLine
 10
-494.5331416093956
 20
-1644.799773177353
 30
0.0
 11
-494.4395921814882
 21
-1644.589657722095
 31
0.0
  0
LINE
  5
1F9
330
2
100
AcDbEntity
  8
1
 62
     2
100
AcDbLine
 10
-494.439592181488
 20
-1643.629469932204
 30
0.0
 11
-494.5331416093956
 21
-1643.419354476946
 31
0.0
  0
LINE
  5
1FA
330
2
100
AcDbEntity
  8
1
 62
     2
100
AcDbLine
 10
-495.2929190578481
 20
-1642.656739976305
 30
0.0
 11
-495.306230543472
 21
-1643.419354476946
 31
0.0
  0
LINE
  5
1FB
330
2
100
AcDbEntity
  8
1
 62
     2
100
AcDbLine
 10
-494.5331416093956
 20
-1643.419354476946
 30
0.0
 11
-494.5464530950196
 21
-1642.656739976305
 31
0.0
  0
CIRCLE
  5
1FC
330
2
100
AcDbEntity
  8
1
 62
     7
100
AcDbCircle
 10
-494.9196860764337
 20
-1644.10956382715
 30
0.0
 40
2.800000000000039
  0
ARC
  5
1FD
330
2
100
AcDbEntity
  8
1
 62
     7
100
AcDbCircle
 10
-494.9196860764337
 20
-1644.10956382715
 30
0.0
 40
2.999999999999986
100
AcDbArc
 50
0.0
 51
180.0
  0
ARC
  5
1FE
330
2
100
AcDbEntity
  8
1
 62
     2
100
AcDbCircle
 10
-488.4196860764337
 20
-1642.20956382715
 30
0.0
 40
4.299999999999982
100
AcDbArc
 50
270.0
 51
0.0
  0
ARC
  5
1FF
330
2
100
AcDbEntity
  8
1
 62
     7
100
AcDbCircle
 10
-488.4196860764337
 20
-1642.20956382715
 30
0.0
 40
5.0
100
AcDbArc
 50
270.0
 51
0.0
  0
CIRCLE
  5
200
330
2
100
AcDbEntity
  8
1
 62
     7
100
AcDbCircle
 10
-488.0496860764337
 20
-1642.57956382715
 30
0.0
 40
2.25
  0
CIRCLE
  5
201
330
2
100
AcDbEntity
  8
1
 62
     2
100
AcDbCircle
 10
-488.0496860764337
 20
-1642.57956382715
 30
0.0
 40
2.75
  0
LINE
  5
202
330
2
100
AcDbEntity
  8
Object
100
AcDbLine
 10
-478.1196860764334
 20
-1628.343538423365
 30
0.0
 11
-478.1196860764334
 21
-1625.498238961744
 31
0.0
  0
LINE
  5
203
330
2
100
AcDbEntity
  8
Object
100
AcDbLine
 10
-478.1196860764334
 20
-1635.343538423365
 30
0.0
 11
-478.1196860764334
 21
-1632.498238961744
 31
0.0
  0
POINT
  5
204
330
2
100
AcDbEntity
  8
Object
100
AcDbPoint
 10
-478.1196860764328
 20
-1625.209563827149
 30
0.0
  0
LINE
  5
205
330
2
100
AcDbEntity
  8
Object
100
AcDbLine
 10
-478.3696860764329
 20
-1625.065226259852
 30
0.0
 11
-478.5571293940614
 21
-1624.957005809961
 31
0.0
  0
ARC
  5
206
330
2
100
AcDbEntity
  8
Object
100
AcDbCircle
 10
-478.6196860764328
 20
-1625.498238961744
 30
0.0
 40
0.5
100
AcDbArc
 50
0.0
 51
60.00000000000483
  0
LINE
  5
207
330
2
100
AcDbEntity
  8
Object
100
AcDbLine
 10
-478.1196860764328
 20
-1635.343538423365
 30
0.0
 11
-478.1196860764328
 21
-1632.498238961744
 31
0.0
  0
LINE
  5
208
330
2
100
AcDbEntity
  8
Object
100
AcDbLine
 10
-478.5571293940614
 20
-1631.957005809961
 30
0.0
 11
-478.5571293940614
 21
-1628.839609649593
 31
0.0
  0
POINT
  5
209
330
2
100
AcDbEntity
  8
Object
100
AcDbPoint
 10
-478.1196860764328
 20
-1632.20956382715
 30
0.0
  0
POINT
  5
20A
330
2
100
AcDbEntity
  8
Object
100
AcDbPoint
 10
-478.1196860764324
 20
-1629.209563827149
 30
0.0
  0
LINE
  5
20B
330
2
100
AcDbEntity
  8
Object
100
AcDbLine
 10
-478.3696860764329
 20
-1632.065226259852
 30
0.0
 11
-478.5571293940618
 21
-1631.957005809961
 31
0.0
  0
ARC
  5
20C
330
2
100
AcDbEntity
  8
Object
100
AcDbCircle
 10
-478.6196860764328
 20
-1628.343538423365
 30
0.0
 40
0.5
100
AcDbArc
 50
277.1873024970681
 51
0.0
  0
ARC
  5
20D
330
2
100
AcDbEntity
  8
Object
100
AcDbCircle
 10
-478.6196860764328
 20
-1632.498238961744
 30
0.0
 40
0.5
100
AcDbArc
 50
0.0
 51
60.00000000000483
  0
LINE
  5
20E
330
2
100
AcDbEntity
  8
Object
100
AcDbLine
 10
-478.1196860764328
 20
-1628.343538423365
 30
0.0
 11
-478.1196860764328
 21
-1625.498238961744
 31
0.0
  0
POINT
  5
20F
330
2
100
AcDbEntity
  8
Object
100
AcDbPoint
 10
-478.1196860764324
 20
-1636.209563827149
 30
0.0
  0
POINT
  5
210
330
2
100
AcDbEntity
  8
Object
100
AcDbPoint
 10
-478.1196860764328
 20
-1639.209563827149
 30
0.0
  0
LINE
  5
211
330
2
100
AcDbEntity
  8
Object
100
AcDbLine
 10
-478.3696860764329
 20
-1639.065226259852
 30
0.0
 11
-478.5571293940618
 21
-1638.957005809961
 31
0.0
  0
ARC
  5
212
330
2
100
AcDbEntity
  8
Object
100
AcDbCircle
 10
-478.6196860764328
 20
-1639.498238961744
 30
0.0
 40
0.5
100
AcDbArc
 50
0.0
 51
60.00000000000483
  0
LINE
  5
213
330
2
100
AcDbEntity
  8
Object
100
AcDbLine
 10
-478.5571293940618
 20
-1638.957005809961
 30
0.0
 11
-478.5571293940614
 21
-1635.839609649592
 31
0.0
  0
ARC
  5
214
330
2
100
AcDbEntity
  8
Object
100
AcDbCircle
 10
-478.6196860764328
 20
-1635.343538423365
 30
0.0
 40
0.5
100
AcDbArc
 50
277.1873024970681
 51
0.0
  0
LINE
  5
215
330
2
100
AcDbEntity
  8
Object
100
AcDbLine
 10
-478.1196860764333
 20
-1644.20956382715
 30
0.0
 11
-478.1196860764334
 21
-1639.498238961744
 31
0.0
  0
MTEXT
  5
216
330
2
100
AcDbEntity
  8
text3
100
AcDbMText
 10
-418.084423583992
 20
-1651.634712893172
 30
0.0
 40
4.0
 41
0.0
 71
     5
 72
     1
  1
\A1;1.6
 73
     1
 44
1.0
  0
LINE
  5
217
330
2
100
AcDbEntity
  8
text3
100
AcDbLine
 10
-412.7196860764337
 20
-1655.347402208389
 30
0.0
 11
-423.051164651747
 21
-1655.347402208389
 31
0.0
  0
LINE
  5
218
330
2
100
AcDbEntity
  8
text3
100
AcDbLine
 10
-426.1196860764346
 20
-1649.209563827149
 30
0.0
 11
-426.1196860764346
 21
-1624.720029030868
 31
0.0
  0
ARC
  5
21A
330
2
100
AcDbEntity
  8
Object
100
AcDbCircle
 10
-495.6196860764337
 20
-1562.209563827156
 30
0.0
 40
7.0
100
AcDbArc
 50
270.0
 51
0.0
  0
LINE
  5
21B
330
2
100
AcDbEntity
  8
Object
100
AcDbLine
 10
-479.2383649034634
 20
-1556.209563827149
 30
0.0
 11
-479.2383649034634
 21
-1571.209563827149
 31
0.0
  0
LINE
  5
21C
330
2
100
AcDbEntity
  8
Object
100
AcDbLine
 10
-481.901150506498
 20
-1556.209563827149
 30
0.0
 11
-481.9011505064985
 21
-1571.209563827149
 31
0.0
  0
LINE
  5
21D
330
2
100
AcDbEntity
  8
Object
100
AcDbLine
 10
-478.1196860764335
 20
-1621.343538423365
 30
0.0
 11
-478.1196860764342
 21
-1547.209563827149
 31
0.0
  0
LINE
  5
21E
330
2
100
AcDbEntity
  8
Object
100
AcDbLine
 10
-486.8821239969562
 20
-1555.209563827149
 30
0.0
 11
-486.8821239969562
 21
-1572.209563827149
 31
0.0
  0
LINE
  5
21F
330
2
100
AcDbEntity
  8
Object
100
AcDbLine
 10
-478.1685751537223
 20
-1555.209563827149
 30
0.0
 11
-478.1685751537223
 21
-1572.20956382715
 31
0.0
  0
ARC
  5
220
330
2
100
AcDbEntity
  8
Object
100
AcDbCircle
 10
-485.9049558084058
 20
-1584.538920978018
 30
0.0
 40
5.0
100
AcDbArc
 50
270.0
 51
0.0
  0
ARC
  5
221
330
2
100
AcDbEntity
  8
Object
100
AcDbCircle
 10
-484.2896959292963
 20
-1585.20956382715
 30
0.0
 40
5.0
100
AcDbArc
 50
270.0
 51
0.0000000000026055
  0
LINE
  5
222
330
2
100
AcDbEntity
  8
Object
100
AcDbLine
 10
-478.1685751537223
 20
-1572.20956382715
 30
0.0
 11
-486.8821239969562
 21
-1572.20956382715
 31
0.0
  0
LINE
  5
223
330
2
100
AcDbEntity
  8
Center
100
AcDbLine
 10
-488.0496860764337
 20
-1596.43956382715
 30
0.0
 11
-488.0496860764337
 21
-1594.43956382715
 31
0.0
  0
LINE
  5
224
330
2
100
AcDbEntity
  8
Center
100
AcDbLine
 10
-489.0496860764336
 20
-1595.43956382715
 30
0.0
 11
-487.0496860764337
 21
-1595.43956382715
 31
0.0
  0
LINE
  5
225
330
2
100
AcDbEntity
  8
Object
100
AcDbLine
 10
-480.9049558084057
 20
-1572.20956382715
 30
0.0
 11
-480.9049558084057
 21
-1584.538920978018
 31
0.0
  0
LINE
  5
226
330
2
100
AcDbEntity
  8
Object
100
AcDbLine
 10
-490.6196860764337
 20
-1589.682260207824
 30
0.0
 11
-490.6196860764337
 21
-1590.20956382715
 31
0.0
  0
LINE
  5
227
330
2
100
AcDbEntity
  8
1
 62
     2
100
AcDbLine
 10
-491.2196860764337
 20
-1591.50956382715
 30
0.0
 11
-491.9196860764337
 21
-1590.80956382715
 31
0.0
  0
ARC
  5
228
330
2
100
AcDbEntity
  8
1
 62
     2
100
AcDbCircle
 10
-494.9196860764337
 20
-1593.90956382715
 30
0.0
 40
1.499999999999629
100
AcDbArc
 50
345.5921855646331
 51
14.40781443536065
  0
LINE
  5
229
330
2
100
AcDbEntity
  8
1
 62
     2
100
AcDbLine
 10
-493.4668622255889
 20
-1593.536330845735
 30
0.0
 11
-494.2294767262305
 21
-1593.523019360111
 31
0.0
  0
LINE
  5
22A
330
2
100
AcDbEntity
  8
1
 62
     2
100
AcDbLine
 10
-494.2294767262305
 20
-1593.523019360111
 30
0.0
 11
-494.4395921814883
 21
-1593.429469932204
 31
0.0
  0
LINE
  5
22B
330
2
100
AcDbEntity
  8
1
 62
     2
100
AcDbLine
 10
-494.2294767262305
 20
-1594.296108294188
 30
0.0
 11
-493.4668622255889
 21
-1594.282796808564
 31
0.0
  0
LINE
  5
22C
330
2
100
AcDbEntity
  8
1
 62
     2
100
AcDbLine
 10
-494.439592181488
 20
-1594.389657722095
 30
0.0
 11
-494.2294767262305
 21
-1594.296108294188
 31
0.0
  0
LINE
  5
22D
330
2
100
AcDbEntity
  8
1
 62
     2
100
AcDbLine
 10
-491.2196860764337
 20
-1591.50956382715
 30
0.0
 11
-491.2196860764337
 21
-1593.90956382715
 31
0.0
  0
LINE
  5
22E
330
2
100
AcDbEntity
  8
1
 62
     7
100
AcDbLine
 10
-491.9196860764337
 20
-1590.80956382715
 30
0.0
 11
-491.9196860764337
 21
-1593.90956382715
 31
0.0
  0
LINE
  5
22F
330
2
100
AcDbEntity
  8
1
 62
     2
100
AcDbLine
 10
-488.4196860764337
 20
-1591.50956382715
 30
0.0
 11
-491.2196860764337
 21
-1591.50956382715
 31
0.0
  0
ARC
  5
230
330
2
100
AcDbEntity
  8
1
 62
     2
100
AcDbCircle
 10
-494.9196860764337
 20
-1593.90956382715
 30
0.0
 40
1.49999999999968
100
AcDbArc
 50
75.59218556464334
 51
104.4078144353636
  0
LINE
  5
231
330
2
100
AcDbEntity
  8
1
 62
     2
100
AcDbLine
 10
-494.5331416093956
 20
-1593.219354476946
 30
0.0
 11
-494.5464530950196
 21
-1592.456739976305
 31
0.0
  0
LINE
  5
232
330
2
100
AcDbEntity
  8
1
 62
     2
100
AcDbLine
 10
-495.2929190578481
 20
-1592.456739976305
 30
0.0
 11
-495.306230543472
 21
-1593.219354476946
 31
0.0
  0
ARC
  5
233
330
2
100
AcDbEntity
  8
1
 62
     2
100
AcDbCircle
 10
-494.9196860764337
 20
-1593.90956382715
 30
0.0
 40
1.499999999999839
100
AcDbArc
 50
255.5921855646362
 51
284.4078144353566
  0
LINE
  5
234
330
2
100
AcDbEntity
  8
1
 62
     2
100
AcDbLine
 10
-495.306230543472
 20
-1594.599773177353
 30
0.0
 11
-495.2929190578481
 21
-1595.362387677995
 31
0.0
  0
LINE
  5
235
330
2
100
AcDbEntity
  8
1
 62
     2
100
AcDbLine
 10
-495.3997799713794
 20
-1594.389657722095
 30
0.0
 11
-495.306230543472
 21
-1594.599773177353
 31
0.0
  0
LINE
  5
236
330
2
100
AcDbEntity
  8
1
 62
     2
100
AcDbLine
 10
-494.5464530950196
 20
-1595.362387677995
 30
0.0
 11
-494.5331416093956
 21
-1594.599773177353
 31
0.0
  0
ARC
  5
237
330
2
100
AcDbEntity
  8
1
 62
     2
100
AcDbCircle
 10
-494.9196860764337
 20
-1593.90956382715
 30
0.0
 40
1.499999999999786
100
AcDbArc
 50
165.5921855646394
 51
194.4078144353637
  0
LINE
  5
238
330
2
100
AcDbEntity
  8
1
 62
     2
100
AcDbLine
 10
-495.6098954266372
 20
-1593.523019360111
 30
0.0
 11
-496.3725099272787
 21
-1593.536330845735
 31
0.0
  0
LINE
  5
239
330
2
100
AcDbEntity
  8
1
 62
     2
100
AcDbLine
 10
-496.3725099272787
 20
-1594.282796808564
 30
0.0
 11
-495.6098954266372
 21
-1594.296108294188
 31
0.0
  0
LINE
  5
23A
330
2
100
AcDbEntity
  8
1
 62
     2
100
AcDbLine
 10
-495.3997799713794
 20
-1593.429469932204
 30
0.0
 11
-495.6098954266372
 21
-1593.523019360111
 31
0.0
  0
LINE
  5
23B
330
2
100
AcDbEntity
  8
1
 62
     2
100
AcDbLine
 10
-495.6098954266372
 20
-1594.296108294188
 30
0.0
 11
-495.3997799713794
 21
-1594.389657722095
 31
0.0
  0
LINE
  5
23C
330
2
100
AcDbEntity
  8
1
 62
     2
100
AcDbLine
 10
-495.306230543472
 20
-1593.219354476946
 30
0.0
 11
-495.3997799713794
 21
-1593.429469932204
 31
0.0
  0
LINE
  5
23D
330
2
100
AcDbEntity
  8
1
 62
     7
100
AcDbLine
 10
-497.9196860764337
 20
-1590.80956382715
 30
0.0
 11
-497.9196860764337
 21
-1593.90956382715
 31
0.0
  0
LINE
  5
23E
330
2
100
AcDbEntity
  8
1
 62
     2
100
AcDbLine
 10
-494.5331416093956
 20
-1594.599773177353
 30
0.0
 11
-494.439592181488
 21
-1594.389657722095
 31
0.0
  0
ARC
  5
23F
330
2
100
AcDbEntity
  8
1
 62
     7
100
AcDbCircle
 10
-494.9196860764337
 20
-1593.90956382715
 30
0.0
 40
3.0
100
AcDbArc
 50
180.0
 51
0.0
  0
CIRCLE
  5
240
330
2
100
AcDbEntity
  8
1
 62
     7
100
AcDbCircle
 10
-494.9196860764337
 20
-1593.90956382715
 30
0.0
 40
2.800000000000125
  0
LINE
  5
241
330
2
100
AcDbEntity
  8
1
 62
     2
100
AcDbLine
 10
-494.4395921814883
 20
-1593.429469932204
 30
0.0
 11
-494.5331416093956
 21
-1593.219354476946
 31
0.0
  0
LINE
  5
242
330
2
100
AcDbEntity
  8
Object
100
AcDbLine
 10
-488.6196860764328
 20
-1589.538920978018
 30
0.0
 11
-485.9049558084058
 21
-1589.538920978018
 31
0.0
  0
LINE
  5
243
330
2
100
AcDbEntity
  8
HIDDEN-1
  6
ByBlock
100
AcDbLine
 10
-484.2896959292963
 20
-1590.20956382715
 30
0.0
 11
-490.6196860764337
 21
-1590.20956382715
 31
0.0
  0
ARC
  5
244
330
2
100
AcDbEntity
  8
1
 62
     2
100
AcDbCircle
 10
-488.4196860764337
 20
-1595.80956382715
 30
0.0
 40
4.299999999999955
100
AcDbArc
 50
0.0
 51
90.0
  0
ARC
  5
245
330
2
100
AcDbEntity
  8
1
 62
     7
100
AcDbCircle
 10
-488.4196860764337
 20
-1595.80956382715
 30
0.0
 40
5.0
100
AcDbArc
 50
0.0
 51
90.0
  0
CIRCLE
  5
246
330
2
100
AcDbEntity
  8
1
 62
     2
100
AcDbCircle
 10
-488.0496860764337
 20
-1595.43956382715
 30
0.0
 40
2.75
  0
CIRCLE
  5
247
330
2
100
AcDbEntity
  8
1
 62
     7
100
AcDbCircle
 10
-488.0496860764337
 20
-1595.43956382715
 30
0.0
 40
2.25
  0
TEXT
  5
248
330
2
100
AcDbEntity
  8
text3
100
AcDbText
 10
-453.4390291894257
 20
-1610.379750189492
 30
0.0
 40
2.21184
  1
0
 50
90.0
  7
Roman
100
AcDbText
  0
TEXT
  5
249
330
2
100
AcDbEntity
  8
text3
100
AcDbText
 10
-450.8176251041466
 20
-1613.078850634255
 30
0.0
 40
2.21184
  1
-0.025
 50
90.0
  7
Roman
100
AcDbText
  0
POINT
  5
24A
330
2
100
AcDbEntity
  8
Object
100
AcDbPoint
 10
-478.1196860764324
 20
-1622.209563827149
 30
0.0
  0
ARC
  5
24B
330
2
100
AcDbEntity
  8
Object
100
AcDbCircle
 10
-478.6196860764328
 20
-1621.343538423365
 30
0.0
 40
0.5
100
AcDbArc
 50
277.1873024970681
 51
0.0
  0
LINE
  5
24C
330
2
100
AcDbEntity
  8
Object
100
AcDbLine
 10
-479.2896959292969
 20
-1572.20956382715
 30
0.0
 11
-479.2896959292963
 21
-1585.209563827149
 31
0.0
  0
ARC
  5
24D
330
2
100
AcDbEntity
  8
Object
100
AcDbCircle
 10
-485.9049558084058
 20
-1547.755242986898
 30
0.0
 40
5.0
100
AcDbArc
 50
0.0
 51
90.0
  0
LINE
  5
24E
330
2
100
AcDbEntity
  8
Object
100
AcDbLine
 10
-478.1685751537223
 20
-1555.209563827149
 30
0.0
 11
-486.8821239969562
 21
-1555.209563827149
 31
0.0
  0
ARC
  5
24F
330
2
100
AcDbEntity
  8
Object
100
AcDbCircle
 10
-485.1196860764342
 20
-1547.209563827149
 30
0.0
 40
7.0
100
AcDbArc
 50
0.0
 51
90.0
  0
LINE
  5
250
330
2
100
AcDbEntity
  8
Object
100
AcDbLine
 10
-488.6196860764346
 20
-1548.00956382715
 30
0.0
 11
-488.6196860764338
 21
-1540.209563827149
 31
0.0
  0
LINE
  5
251
330
2
100
AcDbEntity
  8
Object
100
AcDbLine
 10
-492.4196860764334
 20
-1540.409563827149
 30
0.0
 11
-492.4196860764334
 21
-1548.209563827151
 31
0.0
  0
LINE
  5
252
330
2
100
AcDbEntity
  8
Object
100
AcDbLine
 10
-492.2196860764336
 20
-1540.409563827149
 30
0.0
 11
-492.2196860764327
 21
-1548.209563827151
 31
0.0
  0
LINE
  5
253
330
2
100
AcDbEntity
  8
Object
100
AcDbLine
 10
-492.0196860764343
 20
-1540.709563827149
 30
0.0
 11
-489.7196860764337
 21
-1540.709563827149
 31
0.0
  0
ARC
  5
254
330
2
100
AcDbEntity
  8
Object
100
AcDbCircle
 10
-492.4196860764339
 20
-1540.409563827149
 30
0.0
 40
0.2
100
AcDbArc
 50
0.0
 51
90.0
  0
ARC
  5
255
330
2
100
AcDbEntity
  8
Object
100
AcDbCircle
 10
-492.0196860764343
 20
-1540.509563827149
 30
0.0
 40
0.2
100
AcDbArc
 50
180.0
 51
270.0
  0
LINE
  5
256
330
2
100
AcDbEntity
  8
Object
100
AcDbLine
 10
-494.6196860764342
 20
-1540.409563827149
 30
0.0
 11
-494.6196860764342
 21
-1541.084450462407
 31
0.0
  0
ARC
  5
257
330
2
100
AcDbEntity
  8
Object
100
AcDbCircle
 10
-494.4196860764339
 20
-1540.409563827149
 30
0.0
 40
0.2
100
AcDbArc
 50
90.0
 51
180.0
  0
ARC
  5
258
330
2
100
AcDbEntity
  8
Object
100
AcDbCircle
 10
-489.7196860764341
 20
-1541.70956382715
 30
0.0
 40
1.0
100
AcDbArc
 50
0.0
 51
90.0
  0
ARC
  5
259
330
2
100
AcDbEntity
  8
Object
  6
Continuous
100
AcDbCircle
 10
-492.6196860764338
 20
-1561.795350266108
 30
0.0
 40
1.0
100
AcDbArc
 50
315.0000001296385
 51
0.0
  0
LINE
  5
25A
330
2
100
AcDbEntity
  8
Center
  6
Continuous
100
AcDbLine
 10
-495.6196860764328
 20
-1563.209563827156
 30
0.0
 11
-495.6196860764328
 21
-1561.209563827156
 31
0.0
  0
LINE
  5
25B
330
2
100
AcDbEntity
  8
Object
100
AcDbLine
 10
-491.9125792936473
 20
-1562.502457045695
 30
0.0
 11
-494.9125792803459
 21
-1565.502457045969
 31
0.0
  0
LINE
  5
25C
330
2
100
AcDbEntity
  8
Object
100
AcDbLine
 10
-491.6196860764337
 20
-1562.209563827156
 30
0.0
 11
-491.6196860764337
 21
-1560.209563827156
 31
0.0
  0
ARC
  5
25D
330
2
100
AcDbEntity
  8
Object
100
AcDbCircle
 10
-495.6196860615321
 20
-1564.795350264783
 30
0.0
 40
1.0
100
AcDbArc
 50
224.9999999999908
 51
315.0000000000092
  0
ARC
  5
25E
330
2
100
AcDbEntity
  8
Object
100
AcDbCircle
 10
-490.6196860764337
 20
-1560.209563827156
 30
0.0
 40
1.0
100
AcDbArc
 50
90.0
 51
180.0
  0
LINE
  5
25F
330
2
100
AcDbEntity
  8
Object
100
AcDbLine
 10
-490.6196860764337
 20
-1559.209563827156
 30
0.0
 11
-489.1196860764333
 21
-1559.209563827156
 31
0.0
  0
ARC
  5
260
330
2
100
AcDbEntity
  8
Object
100
AcDbCircle
 10
-488.9196860764339
 20
-1558.909563827156
 30
0.0
 40
0.2
100
AcDbArc
 50
270.0
 51
0.0
  0
ARC
  5
261
330
2
100
AcDbEntity
  8
Object
100
AcDbCircle
 10
-492.791258951687
 20
-1558.609563827156
 30
0.0
 40
0.5
100
AcDbArc
 50
231.0575587310224
 51
270.0
  0
ARC
  5
262
330
2
100
AcDbEntity
  8
Object
100
AcDbCircle
 10
-490.1424605013815
 20
-1558.609563827156
 30
0.0
 40
0.5
100
AcDbArc
 50
212.5789703927969
 51
270.0
  0
LINE
  5
263
330
2
100
AcDbEntity
  8
Center
100
AcDbLine
 10
-495.6196860764328
 20
-1563.109563827156
 30
0.0
 11
-495.6196860764328
 21
-1561.109563827156
 31
0.0
  0
LINE
  5
264
330
2
100
AcDbEntity
  8
Object
100
AcDbLine
 10
-488.7196860764341
 20
-1549.709563827151
 30
0.0
 11
-490.7196860764337
 21
-1549.709563827151
 31
0.0
  0
LINE
  5
265
330
2
100
AcDbEntity
  8
Object
100
AcDbLine
 10
-488.7196860764341
 20
-1549.909563827151
 30
0.0
 11
-490.7196860764337
 21
-1549.909563827151
 31
0.0
  0
LINE
  5
266
330
2
100
AcDbEntity
  8
Object
100
AcDbLine
 10
-488.9196860764339
 20
-1559.109563827155
 30
0.0
 11
-492.7912589516866
 21
-1559.109563827155
 31
0.0
  0
ARC
  5
267
330
2
100
AcDbEntity
  8
Object
100
AcDbCircle
 10
-489.1196860764333
 20
-1558.709563827155
 30
0.0
 40
0.5
100
AcDbArc
 50
270.0
 51
0.0
  0
LINE
  5
268
330
2
100
AcDbEntity
  8
Object
100
AcDbLine
 10
-488.7196860764341
 20
-1540.209563827149
 30
0.0
 11
-488.7196860764341
 21
-1558.909563827156
 31
0.0
  0
LINE
  5
269
330
2
100
AcDbEntity
  8
Object
100
AcDbLine
 10
-488.6196860764342
 20
-1548.00956382715
 30
0.0
 11
-488.6196860764338
 21
-1562.209563827156
 31
0.0
  0
ARC
  5
26A
330
2
100
AcDbEntity
  8
Object
100
AcDbCircle
 10
-490.7196860764337
 20
-1548.209563827151
 30
0.0
 40
1.7
100
AcDbArc
 50
180.0
 51
270.0
  0
ARC
  5
26B
330
2
100
AcDbEntity
  8
Object
100
AcDbCircle
 10
-490.7196860764337
 20
-1548.209563827151
 30
0.0
 40
1.5
100
AcDbArc
 50
180.0
 51
270.0
  0
LINE
  5
26C
330
2
100
AcDbEntity
  8
Object
100
AcDbLine
 10
-497.6196860764333
 20
-1540.409563827149
 30
0.0
 11
-497.6196860764337
 21
-1541.084450462407
 31
0.0
  0
ARC
  5
26D
330
2
100
AcDbEntity
  8
Object
100
AcDbCircle
 10
-497.8196860764335
 20
-1540.409563827149
 30
0.0
 40
0.2
100
AcDbArc
 50
0.0
 51
90.0
  0
LINE
  5
26E
330
2
100
AcDbEntity
  8
Center
  6
Continuous
100
AcDbLine
 10
-496.6196860764328
 20
-1562.209563827156
 30
0.0
 11
-494.6196860764328
 21
-1562.209563827156
 31
0.0
  0
ARC
  5
26F
330
2
100
AcDbEntity
  8
Object
100
AcDbCircle
 10
-495.6196860764328
 20
-1562.109563827156
 30
0.0
 40
4.0
100
AcDbArc
 50
51.05755873102246
 51
128.9424412689775
  0
ARC
  5
270
330
2
100
AcDbEntity
  8
Object
100
AcDbCircle
 10
-496.1196860764338
 20
-1532.57752773298
 30
0.0
 40
8.63815572471549
100
AcDbArc
 50
259.999999999993
 51
280.0000000000068
  0
LINE
  5
271
330
2
100
AcDbEntity
  8
Object
100
AcDbLine
 10
-485.9049558084058
 20
-1542.755242986898
 30
0.0
 11
-488.6196860764342
 21
-1542.755242986898
 31
0.0
  0
LINE
  5
272
330
2
100
AcDbEntity
  8
Object
100
AcDbLine
 10
-480.9049558084057
 20
-1547.755242986898
 30
0.0
 11
-480.9049558084057
 21
-1555.20956382715
 31
0.0
  0
LINE
  5
273
330
2
100
AcDbEntity
  8
Object
100
AcDbLine
 10
-485.1196860764342
 20
-1540.20956382715
 30
0.0
 11
-488.7196860764341
 21
-1540.20956382715
 31
0.0
  0
LINE
  5
274
330
2
100
AcDbEntity
  8
text3
100
AcDbLine
 10
-435.0592133758789
 20
-1638.05956382715
 30
0.0
 11
-435.0592133758789
 21
-1624.776833497285
 31
0.0
  0
TEXT
  5
275
330
2
100
AcDbEntity
  8
text3
100
AcDbText
 10
-437.0822782043164
 20
-1636.67510334887
 30
0.0
 40
2.21184
  1
-0.009
 50
90.0
  7
Roman
100
AcDbText
  0
TEXT
  5
276
330
2
100
AcDbEntity
  8
text3
100
AcDbText
 10
-439.7036822895956
 20
-1633.976002904107
 30
0.0
 40
2.21184
  1
0
 50
90.0
  7
Roman
100
AcDbText
  0
LINE
  5
277
330
2
100
AcDbEntity
  8
1
 62
     3
100
AcDbLine
 10
-425.6196860764336
 20
-1615.009563827149
 30
0.0
 11
-425.6196860764336
 21
-1623.00956382715
 31
0.0
  0
LINE
  5
278
330
2
100
AcDbEntity
  8
1
 62
     7
100
AcDbLine
 10
-426.1196860764334
 20
-1615.50956382715
 30
0.0
 11
-426.1196860764336
 21
-1622.509563827149
 31
0.0
  0
LINE
  5
279
330
2
100
AcDbEntity
  8
1
 62
     7
100
AcDbLine
 10
-425.6196860764336
 20
-1623.00956382715
 30
0.0
 11
-426.1196860764336
 21
-1622.50956382715
 31
0.0
  0
ARC
  5
284
330
2
100
AcDbEntity
  8
Object
100
AcDbCircle
 10
-343.2196860764319
 20
-1623.70956382715
 30
0.0
 40
1.5
100
AcDbArc
 50
91.68033827256134
 51
268.3196617274385
  0
LINE
  5
285
330
2
100
AcDbEntity
  8
0
100
AcDbLine
 10
-354.0196860764341
 20
-1625.20956382715
 30
0.0
 11
-354.0196860764341
 21
-1607.118091960609
 31
0.0
  0
LINE
  5
286
330
2
100
AcDbEntity
  8
1
 62
     7
100
AcDbLine
 10
-354.0196860764338
 20
-1646.70956382715
 30
0.0
 11
-354.0196860764338
 21
-1591.30956382715
 31
0.0
  0
LINE
  5
287
330
2
100
AcDbEntity
  8
1
 62
     3
100
AcDbLine
 10
-354.5196860764338
 20
-1647.20956382715
 30
0.0
 11
-354.5196860764338
 21
-1590.80956382715
 31
0.0
  0
LINE
  5
288
330
2
100
AcDbEntity
  8
Object
100
AcDbLine
 10
-354.0196860764337
 20
-1644.011864609329
 30
0.0
 11
-354.0196860764341
 21
-1590.20956382715
 31
0.0
  0
LINE
  5
289
330
2
100
AcDbEntity
  8
1
 62
     7
100
AcDbLine
 10
-366.4196860764337
 20
-1647.20956382715
 30
0.0
 11
-366.4196860764337
 21
-1590.80956382715
 31
0.0
  0
LINE
  5
28A
330
2
100
AcDbEntity
  8
1
 62
     7
100
AcDbLine
 10
-407.7196860764337
 20
-1637.75956382715
 30
0.0
 11
-407.7196860764337
 21
-1619.00956382715
 31
0.0
  0
LINE
  5
28B
330
2
100
AcDbEntity
  8
1
 62
     3
100
AcDbLine
 10
-405.6196860764337
 20
-1647.20956382715
 30
0.0
 11
-405.6196860764337
 21
-1619.00956382715
 31
0.0
  0
LINE
  5
28C
330
2
100
AcDbEntity
  8
1
 62
     7
100
AcDbLine
 10
-397.2196860764337
 20
-1647.20956382715
 30
0.0
 11
-397.2196860764337
 21
-1590.80956382715
 31
0.0
  0
LINE
  5
28D
330
2
100
AcDbEntity
  8
1
 62
     7
100
AcDbLine
 10
-406.1196860764337
 20
-1646.70956382715
 30
0.0
 11
-406.1196860764337
 21
-1591.30956382715
 31
0.0
  0
LINE
  5
28E
330
2
100
AcDbEntity
  8
1
 62
     7
100
AcDbLine
 10
-401.1196860764338
 20
-1635.70956382715
 30
0.0
 11
-354.5196860764338
 21
-1635.70956382715
 31
0.0
  0
LINE
  5
28F
330
2
100
AcDbEntity
  8
1
 62
     2
100
AcDbLine
 10
-401.1196860764338
 20
-1639.131595957883
 30
0.0
 11
-354.5196860764338
 21
-1639.131595957883
 31
0.0
  0
LINE
  5
290
330
2
100
AcDbEntity
  8
1
 62
     2
100
AcDbLine
 10
-354.5196860764338
 20
-1645.025873775308
 30
0.0
 11
-401.1196860764338
 21
-1645.025873775308
 31
0.0
  0
LINE
  5
291
330
2
100
AcDbEntity
  8
1
 62
     7
100
AcDbLine
 10
-397.2196860764337
 20
-1647.20956382715
 30
0.0
 11
-354.5196860764339
 21
-1647.20956382715
 31
0.0
  0
SOLID
  5
292
330
2
100
AcDbEntity
  8
text3
100
AcDbTrace
 10
-401.1196860764338
 20
-1654.514068875056
 30
0.0
 11
-401.1196860764338
 21
-1656.180735541722
 31
0.0
 12
-406.1196860764337
 22
-1655.347402208389
 32
0.0
 13
-406.1196860764337
 23
-1655.347402208389
 33
0.0
  0
LINE
  5
293
330
2
100
AcDbEntity
  8
text3
100
AcDbLine
 10
-401.1196860764338
 20
-1655.347402208389
 30
0.0
 11
-396.1196860764337
 21
-1655.347402208389
 31
0.0
  0
LINE
  5
294
330
2
100
AcDbEntity
  8
text3
100
AcDbLine
 10
-407.7196860764337
 20
-1649.20956382715
 30
0.0
 11
-407.7196860764337
 21
-1660.347402208389
 31
0.0
  0
LINE
  5
295
330
2
100
AcDbEntity
  8
text3
100
AcDbLine
 10
-406.1196860764337
 20
-1649.20956382715
 30
0.0
 11
-406.1196860764337
 21
-1660.347402208389
 31
0.0
  0
LINE
  5
296
330
2
100
AcDbEntity
  8
text3
100
AcDbLine
 10
-407.7196860764337
 20
-1649.20956382715
 30
0.0
 11
-407.7196860764337
 21
-1639.48441171928
 31
0.0
  0
LINE
  5
297
330
2
100
AcDbEntity
  8
1
 62
     7
100
AcDbLine
 10
-407.7196860764337
 20
-1637.75956382715
 30
0.0
 11
-407.4196860764336
 21
-1638.05956382715
 31
0.0
  0
LINE
  5
298
330
2
100
AcDbEntity
  8
1
 62
     7
100
AcDbLine
 10
-406.1196860764337
 20
-1638.05956382715
 30
0.0
 11
-407.4196860764336
 21
-1638.05956382715
 31
0.0
  0
LINE
  5
299
330
2
100
AcDbEntity
  8
1
 62
     7
100
AcDbLine
 10
-401.1196860764338
 20
-1647.20956382715
 30
0.0
 11
-397.2196860764337
 21
-1647.20956382715
 31
0.0
  0
LINE
  5
29A
330
2
100
AcDbEntity
  8
1
 62
     7
100
AcDbLine
 10
-406.1196860764337
 20
-1646.70956382715
 30
0.0
 11
-405.6196860764337
 21
-1647.20956382715
 31
0.0
  0
LINE
  5
29B
330
2
100
AcDbEntity
  8
1
 62
     7
100
AcDbLine
 10
-405.6196860764337
 20
-1647.20956382715
 30
0.0
 11
-401.1196860764338
 21
-1647.20956382715
 31
0.0
  0
LINE
  5
29C
330
2
100
AcDbEntity
  8
1
 62
     7
100
AcDbLine
 10
-401.1196860764338
 20
-1647.20956382715
 30
0.0
 11
-401.1196860764338
 21
-1635.70956382715
 31
0.0
  0
LINE
  5
29D
330
2
100
AcDbEntity
  8
1
 62
     7
100
AcDbLine
 10
-354.5196860764338
 20
-1647.20956382715
 30
0.0
 11
-366.4196860764337
 21
-1647.20956382715
 31
0.0
  0
ARC
  5
29E
330
2
100
AcDbEntity
  8
Object
100
AcDbCircle
 10
-343.2196860764319
 20
-1637.70956382715
 30
0.0
 40
1.5
100
AcDbArc
 50
91.68033827256134
 51
268.3196617274385
  0
ARC
  5
29F
330
2
100
AcDbEntity
  8
Object
100
AcDbCircle
 10
-343.2196860764319
 20
-1635.727513019581
 30
0.0
 40
1.5
100
AcDbArc
 50
221.3520290631664
 51
268.3196617274385
  0
ARC
  5
2A0
330
2
100
AcDbEntity
  8
Object
100
AcDbCircle
 10
-343.2196860764324
 20
-1628.727513019581
 30
0.0
 40
1.5
100
AcDbArc
 50
221.3520290631664
 51
268.3196617274385
  0
ARC
  5
2A1
330
2
100
AcDbEntity
  8
Object
100
AcDbCircle
 10
-343.2196860764324
 20
-1630.70956382715
 30
0.0
 40
1.5
100
AcDbArc
 50
91.68033827256134
 51
268.3196617274385
  0
LINE
  5
2A2
330
2
100
AcDbEntity
  8
1
 62
     7
100
AcDbLine
 10
-354.0196860764338
 20
-1646.70956382715
 30
0.0
 11
-354.5196860764338
 21
-1647.20956382715
 31
0.0
  0
POINT
  5
2A3
330
2
100
AcDbEntity
  8
Text
100
AcDbPoint
 10
-354.0196860764337
 20
-1646.959956398676
 30
0.0
  0
ARC
  5
2A4
330
2
100
AcDbEntity
  8
Object
100
AcDbCircle
 10
-351.0196860764339
 20
-1644.011864609329
 30
0.0
 40
3.0
100
AcDbArc
 50
180.0
 51
269.0000000000003
  0
LINE
  5
2A5
330
2
100
AcDbEntity
  8
Object
100
AcDbLine
 10
-339.7196860764344
 20
-1647.209563827149
 30
0.0
 11
-351.0720432957457
 21
-1647.011407694798
 31
0.0
  0
LINE
  5
2A6
330
2
100
AcDbEntity
  8
Object
100
AcDbLine
 10
-375.8249217983784
 20
-1572.815345970026
 30
0.0
 11
-342.1022336700092
 21
-1572.226714259191
 31
0.0
  0
LINE
  5
2A7
330
2
100
AcDbEntity
  8
Object
100
AcDbLine
 10
-375.8249217983779
 20
-1554.603781684274
 30
0.0
 11
-342.1022336700092
 21
-1555.192413395109
 31
0.0
  0
ARC
  5
2A8
330
2
100
AcDbEntity
  8
Object
100
AcDbCircle
 10
-371.119686076447
 20
-1551.012471665926
 30
0.0
 40
7.5
100
AcDbArc
 50
94.49999999999719
 51
169.1398297200626
  0
ARC
  5
2A9
330
2
100
AcDbEntity
  8
Object
100
AcDbCircle
 10
-368.1196860764337
 20
-1550.724800571632
 30
0.0
 40
8.0
100
AcDbArc
 50
94.99999999999983
 51
179.9999999999985
  0
ARC
  5
2AA
330
2
100
AcDbEntity
  8
Object
100
AcDbCircle
 10
-371.1196860764331
 20
-1550.98726656221
 30
0.0
 40
8.0
100
AcDbArc
 50
94.99999999999969
 51
179.9999999999983
  0
ARC
  5
2AB
330
2
100
AcDbEntity
  8
Object
100
AcDbCircle
 10
-371.1196860764345
 20
-1584.609370947347
 30
0.0
 40
5.0
100
AcDbArc
 50
179.9999999999985
 51
267.9999999999986
  0
LINE
  5
2AC
330
2
100
AcDbEntity
  8
1
 62
     2
100
AcDbLine
 10
-354.5196860764338
 20
-1598.887531696416
 30
0.0
 11
-401.1196860764338
 21
-1598.887531696416
 31
0.0
  0
LINE
  5
2AD
330
2
100
AcDbEntity
  8
1
 62
     2
100
AcDbLine
 10
-401.1196860764338
 20
-1592.993253878991
 30
0.0
 11
-354.5196860764338
 21
-1592.993253878991
 31
0.0
  0
LINE
  5
2AE
330
2
100
AcDbEntity
  8
1
 62
     7
100
AcDbLine
 10
-401.1196860764338
 20
-1602.30956382715
 30
0.0
 11
-354.5196860764338
 21
-1602.30956382715
 31
0.0
  0
LINE
  5
2AF
330
2
100
AcDbEntity
  8
1
 62
     7
100
AcDbLine
 10
-354.5196860764339
 20
-1590.80956382715
 30
0.0
 11
-397.2196860764337
 21
-1590.80956382715
 31
0.0
  0
LINE
  5
2B0
330
2
100
AcDbEntity
  8
Object
100
AcDbLine
 10
-376.1196860764345
 20
-1584.609370947347
 30
0.0
 11
-376.1196860764337
 21
-1550.724800571632
 31
0.0
  0
LINE
  5
2B3
330
2
100
AcDbEntity
  8
Object
100
AcDbLine
 10
-425.6196860764338
 20
-1615.00956382715
 30
0.0
 11
-407.7196860764337
 21
-1615.00956382715
 31
0.0
  0
LINE
  5
2B4
330
2
100
AcDbEntity
  8
1
 62
     7
100
AcDbLine
 10
-401.1196860764338
 20
-1602.30956382715
 30
0.0
 11
-401.1196860764338
 21
-1590.80956382715
 31
0.0
  0
LINE
  5
2B5
330
2
100
AcDbEntity
  8
1
 62
     7
100
AcDbLine
 10
-397.2196860764337
 20
-1590.80956382715
 30
0.0
 11
-401.1196860764338
 21
-1590.80956382715
 31
0.0
  0
LINE
  5
2B6
330
2
100
AcDbEntity
  8
1
 62
     7
100
AcDbLine
 10
-405.6196860764337
 20
-1590.80956382715
 30
0.0
 11
-406.1196860764337
 21
-1591.30956382715
 31
0.0
  0
LINE
  5
2B7
330
2
100
AcDbEntity
  8
1
 62
     7
100
AcDbLine
 10
-407.4196860764336
 20
-1599.959563827149
 30
0.0
 11
-407.7196860764337
 21
-1600.25956382715
 31
0.0
  0
LINE
  5
2B8
330
2
100
AcDbEntity
  8
1
 62
     7
100
AcDbLine
 10
-407.4196860764336
 20
-1599.959563827149
 30
0.0
 11
-406.1196860764337
 21
-1599.959563827149
 31
0.0
  0
LINE
  5
2B9
330
2
100
AcDbEntity
  8
1
 62
     7
100
AcDbLine
 10
-407.7196860764337
 20
-1619.00956382715
 30
0.0
 11
-407.7196860764337
 21
-1600.25956382715
 31
0.0
  0
LINE
  5
2BA
330
2
100
AcDbEntity
  8
1
 62
     3
100
AcDbLine
 10
-405.6196860764337
 20
-1619.00956382715
 30
0.0
 11
-405.6196860764337
 21
-1590.80956382715
 31
0.0
  0
LINE
  5
2BB
330
2
100
AcDbEntity
  8
1
 62
     7
100
AcDbLine
 10
-401.1196860764338
 20
-1590.80956382715
 30
0.0
 11
-405.6196860764337
 21
-1590.80956382715
 31
0.0
  0
ARC
  5
2BC
330
2
100
AcDbEntity
  8
Object
100
AcDbCircle
 10
-375.8196860764473
 20
-1573.115300278572
 30
0.0
 40
0.3
100
AcDbArc
 50
90.99999999997567
 51
180.0
  0
LINE
  5
2BD
330
2
100
AcDbEntity
  8
Object
 48
10.0
100
AcDbLine
 10
-379.1196860764333
 20
-1558.209563827151
 30
0.0
 11
-392.9378181868632
 21
-1558.209563827151
 31
0.0
  0
ARC
  5
2BE
330
2
100
AcDbEntity
  8
Object
100
AcDbCircle
 10
-394.4378181868632
 20
-1564.209563827151
 30
0.0
 40
2.499999999999983
100
AcDbArc
 50
306.869897645845
 51
53.13010235415646
  0
LINE
  5
2BF
330
2
100
AcDbEntity
  8
Object
 48
10.0
100
AcDbLine
 10
-379.1196860764338
 20
-1566.209563827151
 30
0.0
 11
-392.9378181868632
 21
-1566.209563827151
 31
0.0
  0
LINE
  5
2C0
330
2
100
AcDbEntity
  8
Center
 48
10.0
100
AcDbLine
 10
-379.1196860764336
 20
-1562.209563827152
 30
0.0
 11
-393.9378181868632
 21
-1562.209563827151
 31
0.0
  0
ARC
  5
2C2
330
2
100
AcDbEntity
  8
Object
100
AcDbCircle
 10
-391.4378181868634
 20
-1560.209563827151
 30
0.0
 40
2.499999999999914
100
AcDbArc
 50
126.8698976458414
 51
233.1301023541591
  0
POINT
  5
2C3
330
2
100
AcDbEntity
  8
Hidden
100
AcDbPoint
 10
-379.119686076447
 20
-1559.209563827157
 30
0.0
  0
LINE
  5
2C5
330
2
100
AcDbEntity
  8
Object
100
AcDbLine
 10
-377.119686076447
 20
-1559.109563827157
 30
0.0
 11
-378.9266659757876
 21
-1559.046462698616
 31
0.0
  0
ARC
  5
2C6
330
2
100
AcDbEntity
  8
Object
100
AcDbCircle
 10
-378.9196860764472
 20
-1558.846584533212
 30
0.0
 40
0.2
100
AcDbArc
 50
180.0
 51
268.0000000000225
  0
LINE
  5
2C7
330
2
100
AcDbEntity
  8
Object
 48
10.0
100
AcDbLine
 10
-377.1022336700093
 20
-1569.244778589896
 30
0.0
 11
-378.1371384828843
 21
-1569.226714259193
 31
0.0
  0
ARC
  5
2C8
330
2
100
AcDbEntity
  8
Object
100
AcDbCircle
 10
-378.119686076447
 20
-1568.226866564036
 30
0.0
 40
1.0
100
AcDbArc
 50
180.0
 51
268.9999999999982
  0
LINE
  5
2C9
330
2
100
AcDbEntity
  8
Object
 48
10.0
100
AcDbLine
 10
-377.1196860764475
 20
-1569.209563827151
 30
0.0
 11
-378.1545855731491
 21
-1569.17342434038
 31
0.0
  0
ARC
  5
2CA
330
2
100
AcDbEntity
  8
Object
 48
10.0
100
AcDbCircle
 10
-378.119686076447
 20
-1568.174033513361
 30
0.0
 40
1.0
100
AcDbArc
 50
180.0
 51
268.0000000000225
  0
ARC
  5
2CB
330
2
100
AcDbEntity
  8
Object
100
AcDbCircle
 10
-377.1196860764466
 20
-1570.244626285052
 30
0.0
 40
1.0
100
AcDbArc
 50
0.0
 51
88.99999999999824
  0
LINE
  5
2CC
330
2
100
AcDbEntity
  8
Object
100
AcDbLine
 10
-377.119686076447
 20
-1559.109563827157
 30
0.0
 11
-376.1196860764466
 21
-1559.074643057665
 31
0.0
  0
ARC
  5
2CD
330
2
100
AcDbEntity
  8
Object
100
AcDbCircle
 10
-375.8196860764468
 20
-1554.303827375728
 30
0.0
 40
0.3
100
AcDbArc
 50
180.0
 51
269.0000000000242
  0
LINE
  5
2CE
330
2
100
AcDbEntity
  8
Object
  6
Continuous
100
AcDbLine
 10
-378.9304303755602
 20
-1549.867578887325
 30
0.0
 11
-378.6120486558297
 21
-1549.749143918093
 31
0.0
  0
POINT
  5
2CF
330
2
100
AcDbEntity
  8
Object
  6
Continuous
100
AcDbPoint
 10
-378.5056478393903
 20
-1549.709563827152
 30
0.0
  0
POINT
  5
2D0
330
2
100
AcDbEntity
  8
Object
  6
Continuous
100
AcDbPoint
 10
-379.043296004956
 20
-1549.909563827151
 30
0.0
  0
ARC
  5
2D1
330
2
100
AcDbEntity
  8
Object
  6
Continuous
100
AcDbCircle
 10
-378.6817785140651
 20
-1549.561693266266
 30
0.0
 40
0.2
100
AcDbArc
 50
290.404721967104
 51
349.1398297200888
  0
ARC
  5
2D2
330
2
100
AcDbEntity
  8
Object
  6
Continuous
100
AcDbCircle
 10
-378.8607005173247
 20
-1550.055029539152
 30
0.0
 40
0.2
100
AcDbArc
 50
110.404721967104
 51
172.9492186620428
  0
LINE
  5
2D3
330
2
100
AcDbEntity
  8
Object
 48
0.5
100
AcDbLine
 10
-379.1196860764344
 20
-1569.359563827157
 30
0.0
 11
-379.1196860764344
 21
-1564.059563827157
 31
0.0
  0
POINT
  5
2D4
330
2
100
AcDbEntity
  8
Hidden
100
AcDbPoint
 10
-379.1196860764344
 20
-1569.209563827152
 30
0.0
  0
LINE
  5
2D5
330
2
100
AcDbEntity
  8
Object
 48
0.5
100
AcDbLine
 10
-379.7196860764347
 20
-1566.209563827151
 30
0.0
 11
-379.7196860764347
 21
-1569.359563827157
 31
0.0
  0
LINE
  5
2D6
330
2
100
AcDbEntity
  8
画層1
 62
     0
 48
0.5
370
    30
100
AcDbLine
 10
-381.4196860764345
 20
-1566.209563827151
 30
0.0
 11
-381.4196860764345
 21
-1567.959563827153
 31
0.0
  0
ARC
  5
2D8
330
2
100
AcDbEntity
  8
Object
 48
0.5
100
AcDbCircle
 10
-380.6937801557292
 20
-1567.806434375577
 30
0.0
 40
0.4330127018920962
100
AcDbArc
 50
90.0
 51
270.0
  0
LINE
  5
2D9
330
2
100
AcDbEntity
  8
Object
100
AcDbLine
 10
-379.1196860764344
 20
-1569.359563827157
 30
0.0
 11
-379.7196860764347
 21
-1569.359563827157
 31
0.0
  0
ARC
  5
2DA
330
2
100
AcDbEntity
  8
Object
 48
0.5
370
    30
100
AcDbCircle
 10
-380.4196860764345
 20
-1567.959563827153
 30
0.0
 40
1.0
100
AcDbArc
 50
180.0
 51
250.6896266621385
  0
LINE
  5
2DB
330
2
100
AcDbEntity
  8
Object
 48
0.5
100
AcDbLine
 10
-380.6937801557292
 20
-1568.239447077469
 30
0.0
 11
-379.7196860764347
 21
-1568.239447077469
 31
0.0
  0
LINE
  5
2DC
330
2
100
AcDbEntity
  8
Object
 48
0.5
100
AcDbLine
 10
-380.7503713378541
 20
-1568.903304924001
 30
0.0
 11
-379.7196860764347
 21
-1568.903304924001
 31
0.0
  0
LINE
  5
2DD
330
2
100
AcDbEntity
  8
Object
 48
0.5
100
AcDbLine
 10
-380.6937801557287
 20
-1567.373421673685
 30
0.0
 11
-379.7196860764347
 21
-1567.373421673685
 31
0.0
  0
LINE
  5
2DE
330
2
100
AcDbEntity
  8
Object
100
AcDbLine
 10
-379.1196860764333
 20
-1559.209563827156
 30
0.0
 11
-379.1196860764331
 21
-1550.98726656221
 31
0.0
  0
LINE
  5
2DF
330
2
100
AcDbEntity
  8
Object
100
AcDbLine
 10
-379.1196860764339
 20
-1568.209563827151
 30
0.0
 11
-379.1196860764333
 21
-1559.209563827156
 31
0.0
  0
LINE
  5
2E0
330
2
100
AcDbEntity
  8
Object
100
AcDbLine
 10
-341.1196860764466
 20
-1556.192261090266
 30
0.0
 11
-341.1196860764466
 21
-1571.226866564034
 31
0.0
  0
LINE
  5
2E1
330
2
100
AcDbEntity
  8
1
 62
     7
100
AcDbLine
 10
-366.4196860764337
 20
-1590.80956382715
 30
0.0
 11
-354.5196860764338
 21
-1590.80956382715
 31
0.0
  0
LINE
  5
2E2
330
2
100
AcDbEntity
  8
Object
100
AcDbLine
 10
-354.0196860764341
 20
-1590.20956382715
 30
0.0
 11
-371.2941835599472
 21
-1589.606325082442
 31
0.0
  0
POINT
  5
2E3
330
2
100
AcDbEntity
  8
Text
100
AcDbPoint
 10
-341.1196860764466
 20
-1572.20956382715
 30
0.0
  0
ARC
  5
2E4
330
2
100
AcDbEntity
  8
Object
100
AcDbCircle
 10
-342.1196860764466
 20
-1571.226866564034
 30
0.0
 40
1.0
100
AcDbArc
 50
271.0000000000017
 51
0.0
  0
ARC
  5
2E5
330
2
100
AcDbEntity
  8
Object
100
AcDbCircle
 10
-343.2196860764319
 20
-1621.727513019581
 30
0.0
 40
1.5
100
AcDbArc
 50
221.3520290631664
 51
268.3196617274385
  0
LINE
  5
2E6
330
2
100
AcDbEntity
  8
1
 62
     7
100
AcDbLine
 10
-354.5196860764338
 20
-1590.80956382715
 30
0.0
 11
-354.0196860764338
 21
-1591.30956382715
 31
0.0
  0
LINE
  5
2E7
330
2
100
AcDbEntity
  8
Object
100
AcDbLine
 10
-339.7196860764344
 20
-1540.20956382715
 30
0.0
 11
-368.8169320184149
 21
-1542.755242986898
 31
0.0
  0
POINT
  5
2E8
330
2
100
AcDbEntity
  8
Text
100
AcDbPoint
 10
-341.1196860764466
 20
-1555.20956382715
 30
0.0
  0
ARC
  5
2E9
330
2
100
AcDbEntity
  8
Object
100
AcDbCircle
 10
-342.1196860764466
 20
-1556.192261090266
 30
0.0
 40
1.0
100
AcDbArc
 50
0.0
 51
88.99999999999824
  0
DIMENSION
  5
2EA
330
2
100
AcDbEntity
  8
text3
100
AcDbDimension
  2
*D4
 10
-295.9803009908682
 20
-1647.20956382715
 30
0.0
 11
-299.480300990868
 21
-1593.709563827149
 31
0.0
 70
     1
  1
<>±1
 71
     5
 42
107.0000000000004
  3
DMST_1
100
AcDbAlignedDimension
 13
-312.9196860764333
 23
-1540.209563827149
 33
0.0
 14
-312.9196860764342
 24
-1647.20956382715
 34
0.0
1001
ACAD
1000
DSTYLE
1002
{
1070
    41
1040
3.0
1070
    42
1040
2.0
1070
    43
1040
0.38
1070
    44
1040
5.0
1070
    47
1040
0.0
1070
    48
1040
0.0
1070
    71
1070
     0
1070
    78
1070
     8
1070
    79
1070
     2
1070
   140
1040
4.0
1070
   141
1040
1.0
1070
   146
1040
1.0
1070
   147
1040
1.5
1070
   176
1070
     0
1070
   177
1070
     0
1070
   178
1070
     0
1070
   179
1070
     2
1070
   279
1070
     0
1002
}
  0
LINE
  5
2F7
330
2
100
AcDbEntity
  8
Object
100
AcDbLine
 10
-312.9196860764342
 20
-1645.828891083671
 30
0.0
 11
-312.9196860764333
 21
-1541.590236570629
 31
0.0
  0
LINE
  5
2F8
330
2
100
AcDbEntity
  8
Object
100
AcDbLine
 10
-335.7196860764334
 20
-1647.209563827149
 30
0.0
 11
-335.7196860764344
 21
-1540.20956382715
 31
0.0
  0
LINE
  5
2F9
330
2
100
AcDbEntity
  8
Object
100
AcDbLine
 10
-335.7196860764334
 20
-1540.20956382715
 30
0.0
 11
-335.719686076433
 21
-1647.209563827149
 31
0.0
  0
LINE
  5
2FA
330
2
100
AcDbEntity
  8
Object
100
AcDbLine
 10
-335.7196860764334
 20
-1647.209563827149
 30
0.0
 11
-313.9022336699969
 21
-1646.828738778827
 31
0.0
  0
LINE
  5
2FB
330
2
100
AcDbEntity
  8
Object
100
AcDbLine
 10
-335.719686076446
 20
-1625.430227980692
 30
0.0
 11
-335.7196860764451
 21
-1628.988899673608
 31
0.0
  0
LINE
  5
2FC
330
2
100
AcDbEntity
  8
Object
100
AcDbLine
 10
-335.7196860764469
 20
-1628.988899673608
 30
0.0
 11
-335.7196860764465
 21
-1625.430227980692
 31
0.0
  0
LINE
  5
2FD
330
2
100
AcDbEntity
  8
Object
100
AcDbLine
 10
-335.719686076446
 20
-1632.430227980692
 30
0.0
 11
-335.719686076446
 21
-1635.988899673608
 31
0.0
  0
LINE
  5
2FE
330
2
100
AcDbEntity
  8
Object
100
AcDbLine
 10
-335.7196860764469
 20
-1635.988899673608
 30
0.0
 11
-335.7196860764469
 21
-1632.430227980692
 31
0.0
  0
ARC
  5
2FF
330
2
100
AcDbEntity
  8
Object
100
AcDbCircle
 10
-335.4196860764328
 20
-1646.904281609258
 30
0.0
 40
0.3
100
AcDbArc
 50
180.0
 51
270.9999999999757
  0
LINE
  5
300
330
2
100
AcDbEntity
  8
Object2
100
AcDbLine
 10
-337.7196860764335
 20
-1647.20956382715
 30
0.0
 11
-333.7196860764334
 21
-1647.20956382715
 31
0.0
  0
ARC
  5
301
330
2
100
AcDbEntity
  8
Object
100
AcDbCircle
 10
-313.9196860764342
 20
-1645.828891083671
 30
0.0
 40
1.0
100
AcDbArc
 50
270.9999999999982
 51
359.9999999999995
  0
LINE
  5
302
330
2
100
AcDbEntity
  8
Object
100
AcDbLine
 10
-335.7196860764334
 20
-1540.20956382715
 30
0.0
 11
-313.9022336699961
 21
-1540.590388875472
 31
0.0
  0
ARC
  5
303
330
2
100
AcDbEntity
  8
Object
100
AcDbCircle
 10
-335.4196860764337
 20
-1540.514846045042
 30
0.0
 40
0.3
100
AcDbArc
 50
89.00000000002431
 51
180.0
  0
LINE
  5
304
330
2
100
AcDbEntity
  8
Object2
100
AcDbLine
 10
-337.7196860764335
 20
-1540.20956382715
 30
0.0
 11
-333.7196860764334
 21
-1540.20956382715
 31
0.0
  0
ARC
  5
305
330
2
100
AcDbEntity
  8
Object
100
AcDbCircle
 10
-313.9196860764333
 20
-1541.590236570629
 30
0.0
 40
1.0
100
AcDbArc
 50
359.9999999999993
 51
89.00000000000114
  0
LINE
  5
312
330
2
100
AcDbEntity
  8
1
 62
     7
100
AcDbLine
 10
-425.6196860764336
 20
-1615.00956382715
 30
0.0
 11
-426.1196860764336
 21
-1615.50956382715
 31
0.0
  0
LINE
  5
456
330
2
100
AcDbEntity
  8
Object
100
AcDbLine
 10
-453.6984235652383
 20
-1528.474719882911
 30
0.0
 11
-467.098423565238
 21
-1528.474719882911
 31
0.0
  0
LINE
  5
457
330
2
100
AcDbEntity
  8
Object
100
AcDbLine
 10
-453.498423565238
 20
-1521.274719882911
 30
0.0
 11
-467.098423565238
 21
-1521.274719882911
 31
0.0
  0
LINE
  5
458
330
2
100
AcDbEntity
  8
Object
100
AcDbLine
 10
-453.6984235652383
 20
-1520.474719882911
 30
0.0
 11
-467.098423565238
 21
-1520.474719882911
 31
0.0
  0
LINE
  5
459
330
2
100
AcDbEntity
  8
Object
100
AcDbLine
 10
-454.2984235652379
 20
-1533.689831512306
 30
0.0
 11
-462.998423565238
 21
-1533.689831512306
 31
0.0
  0
LINE
  5
45A
330
2
100
AcDbEntity
  8
Object
100
AcDbLine
 10
-453.498423565238
 20
-1535.589831512306
 30
0.0
 11
-462.9984235652378
 21
-1535.589831512306
 31
0.0
  0
LINE
  5
45B
330
2
100
AcDbEntity
  8
Object
100
AcDbLine
 10
-453.498423565238
 20
-1534.689831512307
 30
0.0
 11
-462.998423565238
 21
-1534.689831512307
 31
0.0
  0
LINE
  5
45C
330
2
100
AcDbEntity
  8
Object
100
AcDbLine
 10
-465.498423565238
 20
-1548.659563827151
 30
0.0
 11
-456.4984235652381
 21
-1548.659563827151
 31
0.0
  0
LINE
  5
45D
330
2
100
AcDbEntity
  8
Object
100
AcDbLine
 10
-465.2984235652377
 20
-1548.459563827151
 30
0.0
 11
-456.4984235652381
 21
-1548.459563827151
 31
0.0
  0
LINE
  5
45E
330
2
100
AcDbEntity
  8
Object
100
AcDbLine
 10
-454.2984235652379
 20
-1541.689831512306
 30
0.0
 11
-462.998423565238
 21
-1541.689831512306
 31
0.0
  0
LINE
  5
45F
330
2
100
AcDbEntity
  8
Object
100
AcDbLine
 10
-453.498423565238
 20
-1539.789831512307
 30
0.0
 11
-462.998423565238
 21
-1539.789831512306
 31
0.0
  0
LINE
  5
460
330
2
100
AcDbEntity
  8
Object
100
AcDbLine
 10
-453.498423565238
 20
-1540.689831512306
 30
0.0
 11
-462.998423565238
 21
-1540.689831512306
 31
0.0
  0
LINE
  5
461
330
2
100
AcDbEntity
  8
Object
100
AcDbLine
 10
-465.2984235652377
 20
-1575.959563827151
 30
0.0
 11
-456.4984235652381
 21
-1575.959563827151
 31
0.0
  0
LINE
  5
462
330
2
100
AcDbEntity
  8
Object
100
AcDbLine
 10
-465.498423565238
 20
-1575.759563827151
 30
0.0
 11
-456.4984235652381
 21
-1575.759563827151
 31
0.0
  0
LINE
  5
464
330
2
100
AcDbEntity
  8
Object
100
AcDbLine
 10
-460.9984235652378
 20
-1564.259563827151
 30
0.0
 11
-461.2984235652377
 21
-1563.959563827151
 31
0.0
  0
LINE
  5
465
330
2
100
AcDbEntity
  8
Object
100
AcDbLine
 10
-462.8984235652381
 20
-1564.259563827151
 30
0.0
 11
-462.8984235652381
 21
-1562.659563827151
 31
0.0
  0
LINE
  5
466
330
2
100
AcDbEntity
  8
Object
100
AcDbLine
 10
-463.8984235652381
 20
-1564.259563827151
 30
0.0
 11
-463.8984235652381
 21
-1562.659563827151
 31
0.0
  0
LINE
  5
467
330
2
100
AcDbEntity
  8
Object
100
AcDbLine
 10
-465.498423565238
 20
-1548.659563827151
 30
0.0
 11
-465.498423565238
 21
-1575.759563827151
 31
0.0
  0
LINE
  5
468
330
2
100
AcDbEntity
  8
Object
100
AcDbLine
 10
-465.2984235652377
 20
-1555.309563827151
 30
0.0
 11
-465.2984235652377
 21
-1569.109563827151
 31
0.0
  0
LINE
  5
469
330
2
100
AcDbEntity
  8
Object
100
AcDbLine
 10
-463.8984235652381
 20
-1569.109563827151
 30
0.0
 11
-465.2984235652377
 21
-1569.109563827151
 31
0.0
  0
LINE
  5
46A
330
2
100
AcDbEntity
  8
Object
100
AcDbLine
 10
-463.8984235652381
 20
-1570.309563827151
 30
0.0
 11
-465.2984235652377
 21
-1570.309563827151
 31
0.0
  0
ARC
  5
46B
330
2
100
AcDbEntity
  8
Object
100
AcDbCircle
 10
-464.498423565238
 20
-1569.709563827151
 30
0.0
 40
0.9999999999999829
100
AcDbArc
 50
143.1301023541624
 51
216.8698976458538
  0
LINE
  5
46C
330
2
100
AcDbEntity
  8
Object
100
AcDbLine
 10
-465.2984235652377
 20
-1570.309563827151
 30
0.0
 11
-465.2984235652377
 21
-1575.959563827151
 31
0.0
  0
LINE
  5
46D
330
2
100
AcDbEntity
  8
Object
100
AcDbLine
 10
-465.2984235652377
 20
-1575.959563827151
 30
0.0
 11
-465.498423565238
 21
-1575.759563827151
 31
0.0
  0
LINE
  5
46E
330
2
100
AcDbEntity
  8
Object
100
AcDbLine
 10
-463.8984235652381
 20
-1566.759563827151
 30
0.0
 11
-463.8984235652381
 21
-1565.159563827151
 31
0.0
  0
LINE
  5
46F
330
2
100
AcDbEntity
  8
Object
100
AcDbLine
 10
-462.8984235652381
 20
-1566.759563827151
 30
0.0
 11
-462.8984235652381
 21
-1565.159563827151
 31
0.0
  0
LINE
  5
470
330
2
100
AcDbEntity
  8
Object
100
AcDbLine
 10
-461.2984235652377
 20
-1568.959563827151
 30
0.0
 11
-463.8984235652379
 21
-1568.959563827151
 31
0.0
  0
LINE
  5
471
330
2
100
AcDbEntity
  8
Object
100
AcDbLine
 10
-460.9984235652378
 20
-1569.259563827151
 30
0.0
 11
-461.2984235652377
 21
-1568.959563827151
 31
0.0
  0
LINE
  5
472
330
2
100
AcDbEntity
  8
Object
100
AcDbLine
 10
-460.9984235652378
 20
-1569.259563827151
 30
0.0
 11
-463.8984235652379
 21
-1569.259563827151
 31
0.0
  0
LINE
  5
473
330
2
100
AcDbEntity
  8
Object
100
AcDbLine
 10
-461.2984235652377
 20
-1570.459563827151
 30
0.0
 11
-463.8984235652379
 21
-1570.459563827151
 31
0.0
  0
LINE
  5
474
330
2
100
AcDbEntity
  8
Object
100
AcDbLine
 10
-461.2984235652377
 20
-1570.459563827151
 30
0.0
 11
-460.9984235652381
 21
-1570.159563827151
 31
0.0
  0
LINE
  5
475
330
2
100
AcDbEntity
  8
Object
100
AcDbLine
 10
-460.9984235652378
 20
-1570.159563827151
 30
0.0
 11
-463.8984235652379
 21
-1570.159563827151
 31
0.0
  0
LINE
  5
476
330
2
100
AcDbEntity
  8
Object
100
AcDbLine
 10
-460.9984235652378
 20
-1572.659563827151
 30
0.0
 11
-463.8984235652379
 21
-1572.659563827151
 31
0.0
  0
LINE
  5
477
330
2
100
AcDbEntity
  8
Object
100
AcDbLine
 10
-460.9984235652378
 20
-1574.259563827151
 30
0.0
 11
-463.8984235652379
 21
-1574.259563827151
 31
0.0
  0
LINE
  5
478
330
2
100
AcDbEntity
  8
Object
100
AcDbLine
 10
-463.8984235652381
 20
-1574.259563827151
 30
0.0
 11
-463.8984235652381
 21
-1572.659563827151
 31
0.0
  0
LINE
  5
479
330
2
100
AcDbEntity
  8
Object
100
AcDbLine
 10
-460.9984235652378
 20
-1574.259563827151
 30
0.0
 11
-461.2984235652377
 21
-1573.959563827151
 31
0.0
  0
LINE
  5
47A
330
2
100
AcDbEntity
  8
Object
100
AcDbLine
 10
-461.2984235652377
 20
-1572.959563827151
 30
0.0
 11
-460.9984235652381
 21
-1572.659563827151
 31
0.0
  0
LINE
  5
47B
330
2
100
AcDbEntity
  8
Object
100
AcDbLine
 10
-461.2984235652377
 20
-1573.959563827151
 30
0.0
 11
-463.8984235652379
 21
-1573.959563827151
 31
0.0
  0
LINE
  5
47C
330
2
100
AcDbEntity
  8
Object
100
AcDbLine
 10
-461.2984235652377
 20
-1572.959563827151
 30
0.0
 11
-463.8984235652379
 21
-1572.959563827151
 31
0.0
  0
LINE
  5
47D
330
2
100
AcDbEntity
  8
Object
100
AcDbLine
 10
-462.8984235652381
 20
-1574.259563827151
 30
0.0
 11
-462.8984235652381
 21
-1572.659563827151
 31
0.0
  0
LINE
  5
47E
330
2
100
AcDbEntity
  8
Object
100
AcDbLine
 10
-461.2984235652377
 20
-1571.459563827151
 30
0.0
 11
-463.8984235652379
 21
-1571.459563827151
 31
0.0
  0
LINE
  5
47F
330
2
100
AcDbEntity
  8
Object
100
AcDbLine
 10
-460.9984235652378
 20
-1571.759563827151
 30
0.0
 11
-461.2984235652377
 21
-1571.459563827151
 31
0.0
  0
LINE
  5
480
330
2
100
AcDbEntity
  8
Object
100
AcDbLine
 10
-460.9984235652378
 20
-1571.759563827151
 30
0.0
 11
-463.8984235652379
 21
-1571.759563827151
 31
0.0
  0
LINE
  5
481
330
2
100
AcDbEntity
  8
Object
100
AcDbLine
 10
-462.8984235652381
 20
-1571.759563827151
 30
0.0
 11
-462.8984235652381
 21
-1570.159563827151
 31
0.0
  0
LINE
  5
482
330
2
100
AcDbEntity
  8
Object
100
AcDbLine
 10
-463.8984235652381
 20
-1571.759563827151
 30
0.0
 11
-463.8984235652381
 21
-1570.159563827151
 31
0.0
  0
LINE
  5
483
330
2
100
AcDbEntity
  8
Object
100
AcDbLine
 10
-460.9984235652378
 20
-1566.759563827151
 30
0.0
 11
-463.8984235652379
 21
-1566.759563827151
 31
0.0
  0
LINE
  5
484
330
2
100
AcDbEntity
  8
Object
100
AcDbLine
 10
-460.9984235652378
 20
-1566.759563827151
 30
0.0
 11
-461.2984235652377
 21
-1566.459563827151
 31
0.0
  0
LINE
  5
485
330
2
100
AcDbEntity
  8
Object
100
AcDbLine
 10
-461.2984235652377
 20
-1566.459563827151
 30
0.0
 11
-463.8984235652379
 21
-1566.459563827151
 31
0.0
  0
LINE
  5
486
330
2
100
AcDbEntity
  8
Object
100
AcDbLine
 10
-461.2984235652377
 20
-1567.959563827151
 30
0.0
 11
-463.8984235652379
 21
-1567.959563827151
 31
0.0
  0
LINE
  5
487
330
2
100
AcDbEntity
  8
Object
100
AcDbLine
 10
-461.2984235652377
 20
-1567.959563827151
 30
0.0
 11
-460.9984235652381
 21
-1567.659563827151
 31
0.0
  0
LINE
  5
488
330
2
100
AcDbEntity
  8
Object
100
AcDbLine
 10
-460.9984235652378
 20
-1567.659563827151
 30
0.0
 11
-463.8984235652379
 21
-1567.659563827151
 31
0.0
  0
LINE
  5
489
330
2
100
AcDbEntity
  8
Object
100
AcDbLine
 10
-462.8984235652381
 20
-1569.259563827151
 30
0.0
 11
-462.8984235652381
 21
-1567.659563827151
 31
0.0
  0
LINE
  5
48A
330
2
100
AcDbEntity
  8
Object
100
AcDbLine
 10
-463.8984235652381
 20
-1569.259563827151
 30
0.0
 11
-463.8984235652381
 21
-1567.659563827151
 31
0.0
  0
LINE
  5
48B
330
2
100
AcDbEntity
  8
Object
100
AcDbLine
 10
-461.2984235652377
 20
-1565.459563827151
 30
0.0
 11
-460.9984235652381
 21
-1565.159563827151
 31
0.0
  0
LINE
  5
48C
330
2
100
AcDbEntity
  8
Object
100
AcDbLine
 10
-460.9984235652378
 20
-1565.159563827151
 30
0.0
 11
-463.8984235652379
 21
-1565.159563827151
 31
0.0
  0
LINE
  5
48D
330
2
100
AcDbEntity
  8
Object
100
AcDbLine
 10
-460.9984235652378
 20
-1564.259563827151
 30
0.0
 11
-463.8984235652379
 21
-1564.259563827151
 31
0.0
  0
LINE
  5
48E
330
2
100
AcDbEntity
  8
Object
100
AcDbLine
 10
-461.2984235652377
 20
-1565.459563827151
 30
0.0
 11
-463.8984235652379
 21
-1565.459563827151
 31
0.0
  0
LINE
  5
48F
330
2
100
AcDbEntity
  8
Object
100
AcDbLine
 10
-469.098423565237
 20
-1529.474719882911
 30
0.0
 11
-474.8984235652381
 21
-1529.474719882911
 31
0.0
  0
LINE
  5
490
330
2
100
AcDbEntity
  8
Object
100
AcDbLine
 10
-472.0984235652379
 20
-1524.974719882911
 30
0.0
 11
-473.0984235652375
 21
-1524.974719882911
 31
0.0
  0
LINE
  5
491
330
2
100
AcDbEntity
  8
Object
100
AcDbLine
 10
-472.0984235652379
 20
-1523.974719882911
 30
0.0
 11
-473.0984235652375
 21
-1523.974719882911
 31
0.0
  0
LINE
  5
492
330
2
100
AcDbEntity
  8
Object
100
AcDbLine
 10
-468.0984235652379
 20
-1526.974719882911
 30
0.0
 11
-472.5984235652379
 21
-1526.974719882911
 31
0.0
  0
LINE
  5
493
330
2
100
AcDbEntity
  8
Object
100
AcDbLine
 10
-468.0984235652379
 20
-1521.974719882911
 30
0.0
 11
-472.5984235652379
 21
-1521.974719882911
 31
0.0
  0
LINE
  5
494
330
2
100
AcDbEntity
  8
Object
100
AcDbLine
 10
-469.098423565237
 20
-1519.474719882911
 30
0.0
 11
-474.8984235652381
 21
-1519.474719882911
 31
0.0
  0
LINE
  5
495
330
2
100
AcDbEntity
  8
Object
100
AcDbLine
 10
-472.5984235652379
 20
-1528.674719882911
 30
0.0
 11
-472.5984235652379
 21
-1520.274719882911
 31
0.0
  0
LINE
  5
496
330
2
100
AcDbEntity
  8
Object
100
AcDbLine
 10
-475.0984235652374
 20
-1521.774719882911
 30
0.0
 11
-475.098423565238
 21
-1519.674719882911
 31
0.0
  0
LINE
  5
497
330
2
100
AcDbEntity
  8
Object
100
AcDbLine
 10
-472.848423565238
 20
-1526.974719882911
 30
0.0
 11
-472.848423565238
 21
-1521.974719882911
 31
0.0
  0
LINE
  5
498
330
2
100
AcDbEntity
  8
Object
100
AcDbLine
 10
-473.0984235652379
 20
-1526.974719882911
 30
0.0
 11
-473.0984235652379
 21
-1521.974719882911
 31
0.0
  0
LINE
  5
499
330
2
100
AcDbEntity
  8
Object
100
AcDbLine
 10
-475.098423565238
 20
-1529.274719882911
 30
0.0
 11
-474.8984235652381
 21
-1529.474719882911
 31
0.0
  0
LINE
  5
49A
330
2
100
AcDbEntity
  8
Object
100
AcDbLine
 10
-472.5984235652379
 20
-1528.674719882911
 30
0.0
 11
-475.0984235652374
 21
-1528.674719882911
 31
0.0
  0
LINE
  5
49B
330
2
100
AcDbEntity
  8
Object
100
AcDbLine
 10
-474.8984235652376
 20
-1526.974719882911
 30
0.0
 11
-475.0984235652374
 21
-1527.174719882911
 31
0.0
  0
LINE
  5
49C
330
2
100
AcDbEntity
  8
Object
100
AcDbLine
 10
-472.848423565238
 20
-1526.974719882911
 30
0.0
 11
-474.8984235652376
 21
-1526.974719882911
 31
0.0
  0
LINE
  5
49D
330
2
100
AcDbEntity
  8
Object
100
AcDbLine
 10
-473.0984235652375
 20
-1524.974719882911
 30
0.0
 11
-473.0984235652375
 21
-1523.974719882911
 31
0.0
  0
LINE
  5
49E
330
2
100
AcDbEntity
  8
Object
100
AcDbLine
 10
-472.5984235652375
 20
-1524.974719882911
 30
0.0
 11
-472.5984235652375
 21
-1523.974719882911
 31
0.0
  0
LINE
  5
49F
330
2
100
AcDbEntity
  8
Object
100
AcDbLine
 10
-475.0984235652374
 20
-1527.174719882911
 30
0.0
 11
-475.098423565238
 21
-1529.274719882911
 31
0.0
  0
LINE
  5
4A0
330
2
100
AcDbEntity
  8
Object
100
AcDbLine
 10
-474.8984235652376
 20
-1521.974719882911
 30
0.0
 11
-475.0984235652374
 21
-1521.774719882911
 31
0.0
  0
LINE
  5
4A1
330
2
100
AcDbEntity
  8
Object
100
AcDbLine
 10
-472.848423565238
 20
-1521.974719882911
 30
0.0
 11
-474.8984235652376
 21
-1521.974719882911
 31
0.0
  0
LINE
  5
4A2
330
2
100
AcDbEntity
  8
Object
100
AcDbLine
 10
-475.098423565238
 20
-1519.674719882911
 30
0.0
 11
-474.8984235652381
 21
-1519.474719882911
 31
0.0
  0
LINE
  5
4A3
330
2
100
AcDbEntity
  8
Object
100
AcDbLine
 10
-472.5984235652379
 20
-1520.274719882911
 30
0.0
 11
-475.0984235652374
 21
-1520.274719882911
 31
0.0
  0
LINE
  5
4A4
330
2
100
AcDbEntity
  8
Object
100
AcDbLine
 10
-467.098423565237
 20
-1528.474719882911
 30
0.0
 11
-467.098423565238
 21
-1521.274719882911
 31
0.0
  0
LINE
  5
4A5
330
2
100
AcDbEntity
  8
Object
100
AcDbLine
 10
-469.0984235652379
 20
-1521.974719882911
 30
0.0
 11
-469.0984235652379
 21
-1519.474719882911
 31
0.0
  0
LINE
  5
4A6
330
2
100
AcDbEntity
  8
Object
100
AcDbLine
 10
-463.8984235652381
 20
-1555.309563827151
 30
0.0
 11
-465.2984235652377
 21
-1555.309563827151
 31
0.0
  0
LINE
  5
4A7
330
2
100
AcDbEntity
  8
Object
100
AcDbLine
 10
-463.8984235652381
 20
-1554.109563827151
 30
0.0
 11
-465.2984235652377
 21
-1554.109563827151
 31
0.0
  0
LINE
  5
4A8
330
2
100
AcDbEntity
  8
Object
100
AcDbLine
 10
-468.0984235652375
 20
-1526.974719882911
 30
0.0
 11
-468.0984235652379
 21
-1521.974719882911
 31
0.0
  0
LINE
  5
4A9
330
2
100
AcDbEntity
  8
Object
100
AcDbLine
 10
-467.098423565238
 20
-1528.474719882911
 30
0.0
 11
-469.0984235652379
 21
-1529.474719882911
 31
0.0
  0
LINE
  5
4AA
330
2
100
AcDbEntity
  8
Object
100
AcDbLine
 10
-472.0984235652375
 20
-1524.974719882911
 30
0.0
 11
-472.0984235652375
 21
-1523.974719882911
 31
0.0
  0
LINE
  5
4AB
330
2
100
AcDbEntity
  8
Object
100
AcDbLine
 10
-469.0984235652379
 20
-1526.974719882911
 30
0.0
 11
-469.0984235652379
 21
-1529.474719882911
 31
0.0
  0
LINE
  5
4AC
330
2
100
AcDbEntity
  8
Object
100
AcDbLine
 10
-465.2984235652377
 20
-1548.459563827151
 30
0.0
 11
-465.2984235652377
 21
-1554.109563827151
 31
0.0
  0
LINE
  5
4AD
330
2
100
AcDbEntity
  8
Object
100
AcDbLine
 10
-465.2984235652377
 20
-1548.459563827151
 30
0.0
 11
-465.498423565238
 21
-1548.659563827151
 31
0.0
  0
ARC
  5
4AE
330
2
100
AcDbEntity
  8
Object
100
AcDbCircle
 10
-464.498423565238
 20
-1554.709563827151
 30
0.0
 40
0.9999999999999829
100
AcDbArc
 50
143.1301023541462
 51
216.8698976458375
  0
LINE
  5
4AF
330
2
100
AcDbEntity
  8
Object
100
AcDbLine
 10
-461.2984235652377
 20
-1558.959563827151
 30
0.0
 11
-463.8984235652379
 21
-1558.959563827151
 31
0.0
  0
LINE
  5
4B0
330
2
100
AcDbEntity
  8
Object
100
AcDbLine
 10
-461.2984235652377
 20
-1558.959563827151
 30
0.0
 11
-460.9984235652381
 21
-1559.259563827151
 31
0.0
  0
LINE
  5
4B1
330
2
100
AcDbEntity
  8
Object
100
AcDbLine
 10
-460.9984235652378
 20
-1559.259563827151
 30
0.0
 11
-463.8984235652379
 21
-1559.259563827151
 31
0.0
  0
LINE
  5
4B2
330
2
100
AcDbEntity
  8
Object
100
AcDbLine
 10
-460.9984235652378
 20
-1556.759563827151
 30
0.0
 11
-463.8984235652379
 21
-1556.759563827151
 31
0.0
  0
LINE
  5
4B3
330
2
100
AcDbEntity
  8
Object
100
AcDbLine
 10
-461.2984235652377
 20
-1556.459563827151
 30
0.0
 11
-460.9984235652381
 21
-1556.759563827151
 31
0.0
  0
LINE
  5
4B4
330
2
100
AcDbEntity
  8
Object
100
AcDbLine
 10
-461.2984235652377
 20
-1556.459563827151
 30
0.0
 11
-463.8984235652379
 21
-1556.459563827151
 31
0.0
  0
LINE
  5
4B5
330
2
100
AcDbEntity
  8
Object
100
AcDbLine
 10
-461.2984235652377
 20
-1557.959563827151
 30
0.0
 11
-463.8984235652379
 21
-1557.959563827151
 31
0.0
  0
LINE
  5
4B6
330
2
100
AcDbEntity
  8
Object
100
AcDbLine
 10
-460.9984235652378
 20
-1557.659563827151
 30
0.0
 11
-461.2984235652377
 21
-1557.959563827151
 31
0.0
  0
LINE
  5
4B7
330
2
100
AcDbEntity
  8
Object
100
AcDbLine
 10
-460.9984235652378
 20
-1557.659563827151
 30
0.0
 11
-463.8984235652379
 21
-1557.659563827151
 31
0.0
  0
LINE
  5
4B8
330
2
100
AcDbEntity
  8
Object
100
AcDbLine
 10
-462.8984235652381
 20
-1557.659563827151
 30
0.0
 11
-462.8984235652381
 21
-1559.259563827151
 31
0.0
  0
LINE
  5
4B9
330
2
100
AcDbEntity
  8
Object
100
AcDbLine
 10
-463.8984235652381
 20
-1557.659563827151
 30
0.0
 11
-463.8984235652381
 21
-1559.259563827151
 31
0.0
  0
LINE
  5
4BA
330
2
100
AcDbEntity
  8
Object
100
AcDbLine
 10
-462.8984235652381
 20
-1550.159563827151
 30
0.0
 11
-462.8984235652381
 21
-1551.759563827151
 31
0.0
  0
LINE
  5
4BB
330
2
100
AcDbEntity
  8
Object
100
AcDbLine
 10
-463.8984235652381
 20
-1550.159563827151
 30
0.0
 11
-463.8984235652381
 21
-1551.759563827151
 31
0.0
  0
LINE
  5
4BC
330
2
100
AcDbEntity
  8
Object
100
AcDbLine
 10
-460.9984235652378
 20
-1550.159563827151
 30
0.0
 11
-461.2984235652377
 21
-1550.459563827151
 31
0.0
  0
LINE
  5
4BD
330
2
100
AcDbEntity
  8
Object
100
AcDbLine
 10
-460.9984235652378
 20
-1550.159563827151
 30
0.0
 11
-463.8984235652379
 21
-1550.159563827151
 31
0.0
  0
LINE
  5
4BE
330
2
100
AcDbEntity
  8
Object
100
AcDbLine
 10
-461.2984235652377
 20
-1550.459563827151
 30
0.0
 11
-463.8984235652379
 21
-1550.459563827151
 31
0.0
  0
LINE
  5
4BF
330
2
100
AcDbEntity
  8
Object
100
AcDbLine
 10
-460.9984235652378
 20
-1555.159563827151
 30
0.0
 11
-463.8984235652379
 21
-1555.159563827151
 31
0.0
  0
LINE
  5
4C0
330
2
100
AcDbEntity
  8
Object
100
AcDbLine
 10
-460.9984235652378
 20
-1555.159563827151
 30
0.0
 11
-461.2984235652377
 21
-1555.459563827151
 31
0.0
  0
LINE
  5
4C1
330
2
100
AcDbEntity
  8
Object
100
AcDbLine
 10
-461.2984235652377
 20
-1555.459563827151
 30
0.0
 11
-463.8984235652381
 21
-1555.459563827151
 31
0.0
  0
LINE
  5
4C2
330
2
100
AcDbEntity
  8
Object
100
AcDbLine
 10
-460.9984235652378
 20
-1554.259563827151
 30
0.0
 11
-463.8984235652379
 21
-1554.259563827151
 31
0.0
  0
LINE
  5
4C3
330
2
100
AcDbEntity
  8
Object
100
AcDbLine
 10
-460.9984235652378
 20
-1552.659563827151
 30
0.0
 11
-463.8984235652379
 21
-1552.659563827151
 31
0.0
  0
LINE
  5
4C4
330
2
100
AcDbEntity
  8
Object
100
AcDbLine
 10
-463.8984235652381
 20
-1552.659563827151
 30
0.0
 11
-463.8984235652381
 21
-1554.259563827151
 31
0.0
  0
LINE
  5
4C5
330
2
100
AcDbEntity
  8
Object
100
AcDbLine
 10
-460.9984235652378
 20
-1552.659563827151
 30
0.0
 11
-461.2984235652377
 21
-1552.959563827151
 31
0.0
  0
LINE
  5
4C6
330
2
100
AcDbEntity
  8
Object
100
AcDbLine
 10
-461.2984235652377
 20
-1553.959563827151
 30
0.0
 11
-460.9984235652378
 21
-1554.259563827151
 31
0.0
  0
LINE
  5
4C7
330
2
100
AcDbEntity
  8
Object
100
AcDbLine
 10
-461.2984235652377
 20
-1552.959563827151
 30
0.0
 11
-463.8984235652379
 21
-1552.959563827151
 31
0.0
  0
LINE
  5
4C8
330
2
100
AcDbEntity
  8
Object
100
AcDbLine
 10
-461.2984235652377
 20
-1553.959563827151
 30
0.0
 11
-463.8984235652381
 21
-1553.959563827151
 31
0.0
  0
LINE
  5
4C9
330
2
100
AcDbEntity
  8
Object
100
AcDbLine
 10
-462.8984235652381
 20
-1552.659563827151
 30
0.0
 11
-462.8984235652381
 21
-1554.259563827151
 31
0.0
  0
LINE
  5
4CA
330
2
100
AcDbEntity
  8
Object
100
AcDbLine
 10
-461.2984235652377
 20
-1551.459563827151
 30
0.0
 11
-460.9984235652378
 21
-1551.759563827151
 31
0.0
  0
LINE
  5
4CB
330
2
100
AcDbEntity
  8
Object
100
AcDbLine
 10
-460.9984235652378
 20
-1551.759563827151
 30
0.0
 11
-463.8984235652379
 21
-1551.759563827151
 31
0.0
  0
LINE
  5
4CC
330
2
100
AcDbEntity
  8
Object
100
AcDbLine
 10
-461.2984235652377
 20
-1551.459563827151
 30
0.0
 11
-463.8984235652379
 21
-1551.459563827151
 31
0.0
  0
LINE
  5
4CD
330
2
100
AcDbEntity
  8
Object
100
AcDbLine
 10
-463.8984235652381
 20
-1555.159563827151
 30
0.0
 11
-463.8984235652381
 21
-1556.759563827151
 31
0.0
  0
LINE
  5
4CE
330
2
100
AcDbEntity
  8
Object
100
AcDbLine
 10
-462.8984235652381
 20
-1555.159563827151
 30
0.0
 11
-462.8984235652381
 21
-1556.759563827151
 31
0.0
  0
LINE
  5
4CF
330
2
100
AcDbEntity
  8
Object
100
AcDbLine
 10
-462.998423565238
 20
-1533.689831512306
 30
0.0
 11
-462.998423565238
 21
-1541.689831512306
 31
0.0
  0
LINE
  5
4D0
330
2
100
AcDbEntity
  8
Object
100
AcDbLine
 10
-463.8984235652381
 20
-1560.159563827151
 30
0.0
 11
-463.8984235652381
 21
-1561.759563827151
 31
0.0
  0
LINE
  5
4D1
330
2
100
AcDbEntity
  8
Object
100
AcDbLine
 10
-462.8984235652381
 20
-1560.159563827151
 30
0.0
 11
-462.8984235652381
 21
-1561.759563827151
 31
0.0
  0
LINE
  5
4D2
330
2
100
AcDbEntity
  8
Object
100
AcDbLine
 10
-460.9984235652378
 20
-1560.159563827151
 30
0.0
 11
-463.8984235652379
 21
-1560.159563827151
 31
0.0
  0
LINE
  5
4D3
330
2
100
AcDbEntity
  8
Object
100
AcDbLine
 10
-460.9984235652378
 20
-1560.159563827151
 30
0.0
 11
-461.2984235652377
 21
-1560.459563827151
 31
0.0
  0
LINE
  5
4D4
330
2
100
AcDbEntity
  8
Object
100
AcDbLine
 10
-461.2984235652377
 20
-1560.459563827151
 30
0.0
 11
-463.8984235652379
 21
-1560.459563827151
 31
0.0
  0
LINE
  5
4D5
330
2
100
AcDbEntity
  8
Object
100
AcDbLine
 10
-461.2984235652377
 20
-1562.959563827151
 30
0.0
 11
-463.8984235652379
 21
-1562.959563827151
 31
0.0
  0
LINE
  5
4D6
330
2
100
AcDbEntity
  8
Object
100
AcDbLine
 10
-461.2984235652377
 20
-1562.959563827151
 30
0.0
 11
-460.9984235652381
 21
-1562.659563827151
 31
0.0
  0
LINE
  5
4D7
330
2
100
AcDbEntity
  8
Object
100
AcDbLine
 10
-460.9984235652378
 20
-1562.659563827151
 30
0.0
 11
-463.8984235652379
 21
-1562.659563827151
 31
0.0
  0
LINE
  5
4D8
330
2
100
AcDbEntity
  8
Object
100
AcDbLine
 10
-461.2984235652377
 20
-1563.959563827151
 30
0.0
 11
-463.8984235652379
 21
-1563.959563827151
 31
0.0
  0
LINE
  5
4D9
330
2
100
AcDbEntity
  8
Object
100
AcDbLine
 10
-460.9984235652378
 20
-1561.759563827151
 30
0.0
 11
-463.8984235652379
 21
-1561.759563827151
 31
0.0
  0
LINE
  5
4DA
330
2
100
AcDbEntity
  8
Object
100
AcDbLine
 10
-461.2984235652377
 20
-1561.459563827151
 30
0.0
 11
-460.9984235652381
 21
-1561.759563827151
 31
0.0
  0
LINE
  5
4DB
330
2
100
AcDbEntity
  8
Object
100
AcDbLine
 10
-461.2984235652377
 20
-1561.459563827151
 30
0.0
 11
-463.8984235652379
 21
-1561.459563827151
 31
0.0
  0
LINE
  5
4DC
330
2
100
AcDbEntity
  8
Object
100
AcDbLine
 10
-467.098423565238
 20
-1520.474719882911
 30
0.0
 11
-469.0984235652379
 21
-1519.474719882911
 31
0.0
  0
ARC
  5
4DD
330
2
100
AcDbEntity
  8
Object
100
AcDbCircle
 10
-467.098423565238
 20
-1520.874719882911
 30
0.0
 40
0.4
100
AcDbArc
 50
90.0
 51
270.0
  0
LINE
  5
4DE
330
2
100
AcDbEntity
  8
Object
100
AcDbLine
 10
-394.9378181868635
 20
-1558.209563827151
 30
0.0
 11
-437.7859288451689
 21
-1558.209563827151
 31
0.0
  0
LINE
  5
4DF
330
2
100
AcDbEntity
  8
Center
  6
CENTER
100
AcDbLine
 10
-394.9378181868628
 20
-1562.209563827151
 30
0.0
 11
-437.7859288451689
 21
-1562.209563827151
 31
0.0
  0
LINE
  5
4E0
330
2
100
AcDbEntity
  8
Object
100
AcDbLine
 10
-437.7859288451689
 20
-1566.209563827151
 30
0.0
 11
-394.9378181868635
 21
-1566.209563827151
 31
0.0
  0
ARC
  5
4E1
330
2
100
AcDbEntity
  8
Object
100
AcDbCircle
 10
-408.5822737629276
 20
-1549.209563827151
 30
0.0
 40
9.0
100
AcDbArc
 50
180.0
 51
270.0
  0
INSERT
  5
4E2
330
2
100
AcDbEntity
  8
Dims
100
AcDbBlockReference
  2
1-178128-4-jo1
 10
-421.5822737629276
 20
-1536.434052893683
 30
0.0
 50
180.0
  0
TEXT
  5
4E3
330
2
100
AcDbEntity
  8
Object
100
AcDbText
 10
-456.0502501910384
 20
-1563.005864978557
 30
0.0
 40
1.0
  1
JST 20
 50
270.0
100
AcDbText
  0
LWPOLYLINE
  5
4E4
330
2
100
AcDbEntity
  8
Object
100
AcDbPolyline
 90
        4
 70
     0
 43
0.3
 10
-453.498423565238
 20
-1565.209563827151
 10
-451.8955639889466
 20
-1565.209563827151
 42
0.0396516019860022
 10
-451.1062627017857
 20
-1565.146871137628
 10
-437.7859288451689
 20
-1563.017419597082
  0
LWPOLYLINE
  5
4E5
330
2
100
AcDbEntity
  8
Object
100
AcDbPolyline
 90
        4
 70
     0
 43
0.3
 10
-453.498423565238
 20
-1567.209563827151
 10
-452.1531066603693
 20
-1567.209563827151
 42
0.0651900857428688
 10
-450.8658103899711
 20
-1567.04100960582
 10
-437.7859288451689
 20
-1563.55599011037
  0
LWPOLYLINE
  5
4E6
330
2
100
AcDbEntity
  8
Object
100
AcDbPolyline
 90
        4
 70
     0
 43
0.3
 10
-453.498423565238
 20
-1569.209563827151
 10
-452.4006066197844
 20
-1569.209563827151
 42
0.0894957036537148
 10
-450.6531336361573
 20
-1568.89425572433
 10
-437.7859288451689
 20
-1564.094560623657
  0
LINE
  5
4E7
330
2
100
AcDbEntity
  8
Object
100
AcDbLine
 10
-454.498423565238
 20
-1550.959563827151
 30
0.0
 11
-454.498423565238
 21
-1573.459563827151
 31
0.0
  0
LINE
  5
4E8
330
2
100
AcDbEntity
  8
Object
100
AcDbLine
 10
-453.498423565238
 20
-1547.359563827151
 30
0.0
 11
-453.498423565238
 21
-1577.059563827151
 31
0.0
  0
LINE
  5
4E9
330
2
100
AcDbEntity
  8
Object
100
AcDbLine
 10
-437.7859288451689
 20
-1558.209563827151
 30
0.0
 11
-437.7859288451689
 21
-1566.209563827151
 31
0.0
  0
LWPOLYLINE
  5
4EA
330
2
100
AcDbEntity
  8
Object
100
AcDbPolyline
 90
        4
 70
     0
 43
0.3
 10
-453.498423565238
 20
-1571.209563827151
 10
-452.6354100458471
 20
-1571.209563827151
 42
0.112265638776158
 10
-450.4732417895562
 20
-1570.71789261191
 10
-437.7859288451689
 20
-1564.633131136945
  0
LINE
  5
4EB
330
2
100
AcDbEntity
  8
Object
100
AcDbLine
 10
-456.4984235652381
 20
-1577.059563827151
 30
0.0
 11
-456.4984235652381
 21
-1573.459563827151
 31
0.0
  0
LINE
  5
4EC
330
2
100
AcDbEntity
  8
Object
100
AcDbLine
 10
-456.4984235652381
 20
-1573.459563827151
 30
0.0
 11
-454.498423565238
 21
-1573.459563827151
 31
0.0
  0
LINE
  5
4ED
330
2
100
AcDbEntity
  8
Object
100
AcDbLine
 10
-454.499555147868
 20
-1574.712965763274
 30
0.0
 11
-454.499555147868
 21
-1576.212965763274
 31
0.0
  0
LINE
  5
4EE
330
2
100
AcDbEntity
  8
Object
100
AcDbLine
 10
-454.499555147868
 20
-1574.712965763274
 30
0.0
 11
-455.9995551478681
 21
-1575.462965763274
 31
0.0
  0
LINE
  5
4EF
330
2
100
AcDbEntity
  8
Object
100
AcDbLine
 10
-455.9995551478681
 20
-1575.462965763274
 30
0.0
 11
-454.499555147868
 21
-1576.212965763274
 31
0.0
  0
LINE
  5
4F0
330
2
100
AcDbEntity
  8
Object
100
AcDbLine
 10
-453.498423565238
 20
-1577.059563827151
 30
0.0
 11
-456.4984235652381
 21
-1577.059563827151
 31
0.0
  0
LWPOLYLINE
  5
4F1
330
2
100
AcDbEntity
  8
Object
100
AcDbPolyline
 90
        4
 70
     0
 43
0.3
 10
-453.498423565238
 20
-1561.209563827151
 10
-451.6315497308922
 20
-1561.209563827151
 42
-0.0133102580627244
 10
-451.3654860129623
 20
-1561.216647835669
 10
-437.7859288451689
 20
-1561.940278570507
  0
LWPOLYLINE
  5
4F2
330
2
100
AcDbEntity
  8
Object
100
AcDbPolyline
 90
        4
 70
     0
 43
0.3
 10
-453.498423565238
 20
-1563.209563827151
 10
-451.6315497308919
 20
-1563.209563827151
 42
0.0133102580627244
 10
-451.365486012962
 20
-1563.202479818634
 10
-437.7859288451689
 20
-1562.478849083795
  0
LWPOLYLINE
  5
4F3
330
2
100
AcDbEntity
  8
Object
100
AcDbPolyline
 90
        4
 70
     0
 43
0.3
 10
-453.498423565238
 20
-1521.474719882911
 10
-453.1982693904004
 20
-1521.474719882911
 42
-0.3297534451698269
 10
-448.4167303267475
 20
-1525.012911351412
 10
-437.7859288451689
 20
-1559.785996517358
  0
LWPOLYLINE
  5
4F4
330
2
100
AcDbEntity
  8
Object
100
AcDbPolyline
 90
        4
 70
     0
 43
0.3
 10
-453.498423565238
 20
-1524.474719882911
 10
-453.1416779199703
 20
-1524.474719882911
 42
-0.3256819082115214
 10
-448.3821534780823
 20
-1527.942751512784
 10
-437.7859288451689
 20
-1560.863137543933
  0
LWPOLYLINE
  5
4F5
330
2
100
AcDbEntity
  8
Object
100
AcDbPolyline
 90
        4
 70
     0
 43
0.3
 10
-453.498423565238
 20
-1527.474719882911
 10
-453.0890412176732
 20
-1527.474719882911
 42
-0.3218642003028505
 10
-448.3511454283076
 20
-1530.87711433425
 10
-437.7859288451689
 20
-1562.209563827151
  0
LWPOLYLINE
  5
4F6
330
2
100
AcDbEntity
  8
Object
100
AcDbPolyline
 90
        4
 70
     0
 43
0.3
 10
-453.498423565238
 20
-1534.689831512307
 10
-452.7387406666035
 20
-1534.689831512307
 42
-0.2956990489431058
 10
-448.1748693995376
 20
-1537.647509535328
 10
-437.7859288451689
 20
-1560.863137543933
  0
LWPOLYLINE
  5
4F7
330
2
100
AcDbEntity
  8
Object
100
AcDbPolyline
 90
        4
 70
     0
 43
0.3
 10
-453.498423565238
 20
-1537.689831512307
 10
-452.6053793701595
 20
-1537.689831512307
 42
-0.2853901843838895
 10
-448.1224483529129
 20
-1540.475485221726
 10
-437.7859288451689
 20
-1561.40170805722
  0
LWPOLYLINE
  5
4F8
330
2
100
AcDbEntity
  8
Object
100
AcDbPolyline
 90
        4
 70
     0
 10
-453.498423565238
 20
-1540.689831512306
 40
0.3
 41
0.3
 10
-452.4696841122702
 20
-1540.689831512306
 40
0.3
 41
0.3
 42
-0.2747042088169623
 10
-448.0780169150872
 20
-1543.299589008043
 40
0.3
 41
0.3
 10
-437.7859288451689
 20
-1562.209563827151
 40
0.5
 41
0.5
  0
LWPOLYLINE
  5
4F9
330
2
100
AcDbEntity
  8
Object
100
AcDbPolyline
 90
        4
 70
     0
 43
0.3
 10
-453.498423565238
 20
-1553.209563827151
 10
-452.6354100458471
 20
-1553.209563827151
 42
-0.112265638776158
 10
-450.4732417895562
 20
-1553.701235042392
 10
-437.7859288451689
 20
-1559.785996517358
  0
LWPOLYLINE
  5
4FA
330
2
100
AcDbEntity
  8
Object
100
AcDbPolyline
 90
        4
 70
     0
 43
0.3
 10
-453.498423565238
 20
-1555.209563827151
 10
-452.4006066197844
 20
-1555.209563827151
 42
-0.0894957036537151
 10
-450.6531336361573
 20
-1555.524871929972
 10
-437.7859288451689
 20
-1560.324567030645
  0
LWPOLYLINE
  5
4FB
330
2
100
AcDbEntity
  8
Object
100
AcDbPolyline
 90
        4
 70
     0
 43
0.3
 10
-453.498423565238
 20
-1557.209563827151
 10
-452.1531066603691
 20
-1557.209563827151
 42
-0.0651900857428688
 10
-450.8658103899709
 20
-1557.378118048482
 10
-437.7859288451689
 20
-1560.863137543933
  0
LWPOLYLINE
  5
4FC
330
2
100
AcDbEntity
  8
Object
100
AcDbPolyline
 90
        4
 70
     0
 43
0.3
 10
-453.498423565238
 20
-1559.209563827151
 10
-451.8955639889468
 20
-1559.209563827151
 42
-0.0396516019860023
 10
-451.1062627017859
 20
-1559.272256516675
 10
-437.7859288451689
 20
-1561.40170805722
  0
LINE
  5
4FD
330
2
100
AcDbEntity
  8
Object
100
AcDbLine
 10
-453.4984235652378
 20
-1528.274719882911
 30
0.0
 11
-453.498423565238
 21
-1520.674719882911
 31
0.0
  0
LINE
  5
4FE
330
2
100
AcDbEntity
  8
Object
100
AcDbLine
 10
-454.2984235652379
 20
-1536.939831512307
 30
0.0
 11
-457.998423565238
 21
-1536.939831512307
 31
0.0
  0
LINE
  5
4FF
330
2
100
AcDbEntity
  8
Object
100
AcDbLine
 10
-453.498423565238
 20
-1532.789831512307
 30
0.0
 11
-454.2984235652379
 21
-1532.789831512307
 31
0.0
  0
LINE
  5
500
330
2
100
AcDbEntity
  8
Object
100
AcDbLine
 10
-454.2984235652379
 20
-1533.289831512307
 30
0.0
 11
-457.498423565238
 21
-1533.289831512307
 31
0.0
  0
LINE
  5
501
330
2
100
AcDbEntity
  8
Object
100
AcDbLine
 10
-457.498423565238
 20
-1533.289831512307
 30
0.0
 11
-457.498423565238
 21
-1533.689831512306
 31
0.0
  0
LINE
  5
502
330
2
100
AcDbEntity
  8
Object
100
AcDbLine
 10
-454.2984235652379
 20
-1532.789831512307
 30
0.0
 11
-454.2984235652379
 21
-1533.689831512306
 31
0.0
  0
LINE
  5
503
330
2
100
AcDbEntity
  8
Object
100
AcDbLine
 10
-454.2984235652379
 20
-1535.589831512307
 30
0.0
 11
-454.2984235652379
 21
-1536.939831512307
 31
0.0
  0
LINE
  5
504
330
2
100
AcDbEntity
  8
Object
100
AcDbLine
 10
-457.998423565238
 20
-1533.689831512306
 30
0.0
 11
-457.998423565238
 21
-1534.689831512307
 31
0.0
  0
LINE
  5
505
330
2
100
AcDbEntity
  8
Object
100
AcDbLine
 10
-453.498423565238
 20
-1528.274719882911
 30
0.0
 11
-453.6984235652383
 21
-1528.474719882911
 31
0.0
  0
LINE
  5
506
330
2
100
AcDbEntity
  8
Object
100
AcDbLine
 10
-454.2984235652379
 20
-1538.439831512307
 30
0.0
 11
-457.998423565238
 21
-1538.439831512307
 31
0.0
  0
LINE
  5
507
330
2
100
AcDbEntity
  8
Object
100
AcDbLine
 10
-454.2984235652379
 20
-1542.089831512306
 30
0.0
 11
-457.498423565238
 21
-1542.089831512306
 31
0.0
  0
LINE
  5
508
330
2
100
AcDbEntity
  8
Object
100
AcDbLine
 10
-457.498423565238
 20
-1541.689831512306
 30
0.0
 11
-457.498423565238
 21
-1542.089831512306
 31
0.0
  0
LINE
  5
509
330
2
100
AcDbEntity
  8
Object
100
AcDbLine
 10
-454.2984235652379
 20
-1538.439831512307
 30
0.0
 11
-454.2984235652379
 21
-1539.789831512307
 31
0.0
  0
LINE
  5
50A
330
2
100
AcDbEntity
  8
Object
100
AcDbLine
 10
-454.2984235652379
 20
-1541.689831512306
 30
0.0
 11
-454.2984235652379
 21
-1542.589831512306
 31
0.0
  0
LINE
  5
50B
330
2
100
AcDbEntity
  8
Object
100
AcDbLine
 10
-453.498423565238
 20
-1542.589831512306
 30
0.0
 11
-454.2984235652379
 21
-1542.589831512307
 31
0.0
  0
LINE
  5
50C
330
2
100
AcDbEntity
  8
Object
100
AcDbLine
 10
-457.998423565238
 20
-1541.689831512306
 30
0.0
 11
-457.998423565238
 21
-1540.689831512306
 31
0.0
  0
LINE
  5
50D
330
2
100
AcDbEntity
  8
Object
100
AcDbLine
 10
-456.4984235652381
 20
-1547.359563827151
 30
0.0
 11
-456.4984235652381
 21
-1550.959563827151
 31
0.0
  0
LINE
  5
50E
330
2
100
AcDbEntity
  8
Object
100
AcDbLine
 10
-456.4984235652381
 20
-1550.959563827151
 30
0.0
 11
-454.498423565238
 21
-1550.959563827151
 31
0.0
  0
LINE
  5
50F
330
2
100
AcDbEntity
  8
Object
100
AcDbLine
 10
-453.498423565238
 20
-1547.359563827151
 30
0.0
 11
-456.4984235652381
 21
-1547.359563827151
 31
0.0
  0
LINE
  5
510
330
2
100
AcDbEntity
  8
Object
100
AcDbLine
 10
-453.498423565238
 20
-1532.789831512307
 30
0.0
 11
-453.498423565238
 21
-1542.589831512306
 31
0.0
  0
LINE
  5
511
330
2
100
AcDbEntity
  8
Object
100
AcDbLine
 10
-457.998423565238
 20
-1536.939831512307
 30
0.0
 11
-457.998423565238
 21
-1538.439831512307
 31
0.0
  0
TEXT
  5
512
330
2
100
AcDbEntity
  8
Object
100
AcDbText
 10
-456.0031154253586
 20
-1559.744526562294
 30
0.0
 40
1.0
  1
H
 50
270.0
100
AcDbText
  0
LINE
  5
513
330
2
100
AcDbEntity
  8
Object
100
AcDbLine
 10
-453.498423565238
 20
-1520.674719882911
 30
0.0
 11
-453.6984235652383
 21
-1520.474719882911
 31
0.0
  0
LINE
  5
514
330
2
100
AcDbEntity
  8
Object
100
AcDbLine
 10
-417.5822737629276
 20
-1544.582591579885
 30
0.0
 11
-425.5822737629276
 21
-1544.582591579885
 31
0.0
  0
ARC
  5
515
330
2
100
AcDbEntity
  8
Object
100
AcDbCircle
 10
-408.5822737629276
 20
-1549.209563827151
 30
0.0
 40
17.0
100
AcDbArc
 50
180.0
 51
211.9657187507957
  0
LWPOLYLINE
  5
516
330
2
100
AcDbEntity
  8
Object
100
AcDbPolyline
 90
        5
 70
     0
 43
0.3
 10
-427.2972737629277
 20
-1536.434052893683
 10
-427.2972737629277
 20
-1536.977588745147
 42
0.216102127730352
 10
-425.5922378876078
 20
-1540.738334870196
 10
-425.1923096382482
 20
-1541.088730560378
 42
-0.2021674280290146
 10
-423.4944016095035
 20
-1544.582591579885
 42
-0.2021674280290146
  0
LINE
  5
517
330
2
100
AcDbEntity
  8
Object
100
AcDbLine
 10
-425.5822737629276
 20
-1544.582591579885
 30
0.0
 11
-425.5822737629276
 21
-1549.209563827151
 31
0.0
  0
ARC
  5
518
330
2
100
AcDbEntity
  8
Center
  6
CENTER
100
AcDbCircle
 10
-408.5822737629276
 20
-1549.209563827151
 30
0.0
 40
13.0
100
AcDbArc
 50
180.0
 51
223.8130614603971
  0
LWPOLYLINE
  5
519
330
2
100
AcDbEntity
  8
Object
100
AcDbPolyline
 90
        5
 70
     0
 43
0.3
 10
-415.8672737629279
 20
-1536.434052893683
 10
-415.8672737629279
 20
-1536.931996690352
 42
-0.2200502165146602
 10
-417.6293766372442
 20
-1540.741986480822
 10
-417.9151708886116
 20
-1540.984867022747
 42
0.2089452191475042
 10
-419.6727660780773
 20
-1544.582591579885
 42
0.2089452191475042
  0
LINE
  5
51A
330
2
100
AcDbEntity
  8
Center
  6
CENTER
100
AcDbLine
 10
-421.5822737629276
 20
-1549.209563827151
 30
0.0
 11
-421.5822737629276
 21
-1544.582591579885
 31
0.0
  0
LWPOLYLINE
  5
51B
330
2
100
AcDbEntity
  8
Object
100
AcDbPolyline
 90
        6
 70
     0
 43
0.3
 10
-419.6772737629278
 20
-1536.434052893683
 10
-419.6772737629278
 20
-1538.736842011145
 42
-0.0794699954038677
 10
-419.926732121357
 20
-1540.296442636851
 10
-420.4278154044987
 20
-1541.822741718311
 42
0.0794699954038734
 10
-420.6772737629278
 20
-1543.382342344017
 10
-420.6772737629278
 20
-1544.582591579885
  0
LWPOLYLINE
  5
51C
330
2
100
AcDbEntity
  8
Object
100
AcDbPolyline
 90
        6
 70
     0
 43
0.3
 10
-423.4872737629278
 20
-1536.434052893683
 10
-423.4872737629278
 20
-1538.736842011144
 42
0.0794699954038677
 10
-423.2378154044987
 20
-1540.296442636849
 10
-422.7367321213569
 20
-1541.82274171831
 42
-0.0794699954038734
 10
-422.4872737629278
 20
-1543.382342344015
 10
-422.4872737629278
 20
-1544.582591579885
  0
LINE
  5
51D
330
2
100
AcDbEntity
  8
Object
100
AcDbLine
 10
-417.5822737629276
 20
-1549.209563827151
 30
0.0
 11
-417.5822737629276
 21
-1544.582591579885
 31
0.0
  0
ARC
  5
521
330
2
100
AcDbEntity
  8
Object
100
AcDbCircle
 10
-396.4378181868631
 20
-1564.209563827151
 30
0.0
 40
2.499999999999983
100
AcDbArc
 50
306.8698976458493
 51
53.13010235415338
  0
LINE
  5
523
330
2
100
AcDbEntity
  8
Object
100
AcDbLine
 10
-392.9378181868635
 20
-1566.209563827151
 30
0.0
 11
-391.4782542759708
 21
-1566.209563827151
 31
0.0
  0
LINE
  5
524
330
2
100
AcDbEntity
  8
Object
100
AcDbLine
 10
-391.4782542759708
 20
-1558.209563827151
 30
0.0
 11
-392.9378181868635
 21
-1558.209563827151
 31
0.0
  0
ARC
  5
525
330
2
100
AcDbEntity
  8
Object
100
AcDbCircle
 10
-393.4378181868635
 20
-1560.209563827151
 30
0.0
 40
2.499999999999914
100
AcDbArc
 50
126.8698976458466
 51
233.1301023541533
  0
DIMENSION
  5
5C3
330
2
100
AcDbEntity
  8
text3
100
AcDbDimension
  2
*D12
 10
-379.1196860764344
 20
-1581.378343987177
 30
0.0
 11
-416.3090548208362
 21
-1577.878343987177
 31
0.0
 70
    33
  1
300±50
 71
     5
 42
74.37873748880361
  3
DMST_1
100
AcDbAlignedDimension
 13
-453.498423565238
 23
-1577.059563827151
 33
0.0
 14
-379.1196860764344
 24
-1577.059563827156
 34
0.0
1001
ACAD
1000
DSTYLE
1002
{
1070
    41
1040
5.0
1070
    42
1040
2.0
1070
    43
1040
0.38
1070
    44
1040
5.0
1070
    47
1040
0.0
1070
    48
1040
0.0
1070
    71
1070
     0
1070
    78
1070
     8
1070
    79
1070
     2
1070
   140
1040
4.0
1070
   141
1040
1.0
1070
   146
1040
1.0
1070
   147
1040
1.5
1070
   176
1070
     0
1070
   177
1070
     0
1070
   178
1070
     0
1070
   179
1070
     2
1070
   279
1070
     0
1002
}
  0
ARC
  5
5E2
330
2
100
AcDbEntity
  8
text3
100
AcDbCircle
 10
-408.5822737629276
 20
-1549.209563827151
 30
0.0
 40
3.0
100
AcDbArc
 50
180.0
 51
270.0
  0
LEADER
  5
5E3
330
2
100
AcDbEntity
  8
text3
100
AcDbLeader
  3
DMST_1
 73
     0
 76
     2
 10
-379.1196860764332
 20
-1552.209563827151
 30
0.0
 10
-408.5822737629277
 20
-1552.209563827152
 30
0.0
340
5E4
211
-1.0
221
0.0
231
0.0
210
0.0
220
0.0
230
-1.0
213
0.0
223
-2.0
233
0.0
1001
ACAD
1000
DSTYLE
1002
{
1070
    77
1070
     0
1070
    41
1040
5.0
1070
    42
1040
2.0
1070
    43
1040
0.38
1070
    44
1040
0.18
1070
    47
1040
0.0
1070
    48
1040
0.0
1070
    71
1070
     0
1070
    78
1070
     8
1070
    79
1070
     2
1070
   140
1040
4.0
1070
   141
1040
1.0
1070
   146
1040
1.0
1070
   147
1040
1.5
1070
   176
1070
     0
1070
   177
1070
     0
1070
   178
1070
     0
1070
   179
1070
     2
1070
   279
1070
     0
1002
}
  0
MTEXT
  5
5E4
102
{ACAD_REACTORS
330
5E3
102
}
330
2
100
AcDbEntity
  8
text3
100
AcDbMText
 10
-377.6196860764331
 20
-1550.209563827152
 30
0.0
 40
4.0
 41
2.590199999999999
 71
     1
 72
     1
  1

 73
     1
 44
1.0
  0
LEADER
  5
5E5
330
2
100
AcDbEntity
  8
text3
100
AcDbLeader
  3
DMST_1
 76
     2
 10
-411.5822737629273
 20
-1536.434052893683
 30
0.0
 10
-411.5822737629276
 20
-1549.209563827151
 30
0.0
211
-2.000000000000000E-16
221
-1.0
231
0.0
213
-2.0
223
4.000000000000000E-16
233
0.0
1001
ACAD
1000
DSTYLE
1002
{
1070
    77
1070
     0
1070
    41
1040
5.0
1070
    42
1040
2.0
1070
    43
1040
0.38
1070
    44
1040
0.18
1070
    47
1040
0.0
1070
    48
1040
0.0
1070
    71
1070
     0
1070
    78
1070
     8
1070
    79
1070
     2
1070
   140
1040
4.0
1070
   141
1040
1.0
1070
   146
1040
1.0
1070
   147
1040
1.5
1070
   176
1070
     0
1070
   177
1070
     0
1070
   178
1070
     0
1070
   179
1070
     2
1070
   279
1070
     0
1002
}
  0
CIRCLE
  5
5EF
330
2
100
AcDbEntity
  8
Object
100
AcDbCircle
 10
-511.6196860764339
 20
-1619.00956382715
 30
0.0
 40
4.0
  0
CIRCLE
  5
5F0
330
2
100
AcDbEntity
  8
Object2
100
AcDbCircle
 10
-511.6196860764339
 20
-1619.00956382715
 30
0.0
 40
3.5
  0
LINE
  5
756
330
2
100
AcDbEntity
  8
text3
100
AcDbLine
 10
-517.7587417644974
 20
-1774.404591248674
 30
0.0
 11
-508.6504785271956
 21
-1774.404591248674
 31
0.0
  0
DIMENSION
  5
757
330
2
100
AcDbEntity
  8
text3
100
AcDbDimension
  2
*D13
 10
-516.4026921111393
 20
-1755.055195824496
 30
0.0
 11
-516.4026921111392
 21
-1727.955195824496
 31
0.0
 70
   161
  1
Φ<>h6
 71
     5
 42
8.0
  3
DMST_1
100
AcDbAlignedDimension
 13
-506.7819345948189
 23
-1747.055195824496
 33
0.0
 14
-506.7819345948196
 24
-1755.055195824497
 34
0.0
1001
ACAD
1000
DSTYLE
1002
{
1070
    41
1040
5.0
1070
    42
1040
2.0
1070
    43
1040
0.38
1070
    44
1040
5.0
1070
    47
1040
0.0
1070
    48
1040
0.0
1070
    71
1070
     0
1070
    78
1070
     8
1070
    79
1070
     2
1070
   140
1040
4.0
1070
   141
1040
2.0
1070
   146
1040
1.0
1070
   147
1040
1.5
1070
   176
1070
     0
1070
   177
1070
     0
1070
   178
1070
     0
1070
   179
1070
     2
1070
   279
1070
     0
1002
}
  0
LINE
  5
758
330
2
100
AcDbEntity
  8
1
  6
CENTER
 62
     1
100
AcDbLine
 10
-472.0075911798365
 20
-1751.055195824497
 30
0.0
 11
-509.8416046606817
 21
-1751.055195824497
 31
0.0
  0
TEXT
  5
759
330
2
100
AcDbEntity
  8
text3
100
AcDbText
 10
-551.966170157749
 20
-1786.868697988074
 30
0.0
 40
3.456
  1
付属キー　3*3*16
  7
Roman
100
AcDbText
  0
DIMENSION
  5
75A
330
2
100
AcDbEntity
  8
text3
100
AcDbDimension
  2
*D14
 10
-532.6021029635738
 20
-1752.555195824496
 30
0.0
 11
-532.6021029635735
 21
-1732.721862491163
 31
0.0
 70
   161
  1
<>P9
 71
     5
 42
3.0
  3
DMST_1
100
AcDbAlignedDimension
 13
-538.7587417644974
 23
-1749.555195824497
 33
0.0
 14
-538.7587417644974
 24
-1752.555195824496
 34
0.0
1001
ACAD
1000
DSTYLE
1002
{
1070
    41
1040
5.0
1070
    42
1040
2.0
1070
    43
1040
0.38
1070
    44
1040
5.0
1070
    47
1040
0.0
1070
    48
1040
0.0
1070
    71
1070
     0
1070
    78
1070
     8
1070
    79
1070
     2
1070
   140
1040
4.0
1070
   141
1040
2.0
1070
   146
1040
1.0
1070
   147
1040
1.5
1070
   176
1070
     0
1070
   177
1070
     0
1070
   178
1070
     0
1070
   179
1070
     2
1070
   279
1070
     0
1002
}
  0
DIMENSION
  5
75B
330
2
100
AcDbEntity
  8
text3
100
AcDbDimension
  2
*D15
 10
-544.9587417644975
 20
-1774.404591248674
 30
0.0
 11
-523.2587417644975
 21
-1774.404591248674
 31
0.0
 70
   161
 71
     5
 42
6.200000000000045
  3
DMST_1
100
AcDbAlignedDimension
 13
-538.7587417644974
 23
-1751.055195824497
 33
0.0
 14
-544.9587417644975
 24
-1751.055195824497
 34
0.0
1001
ACAD
1000
DSTYLE
1002
{
1070
    41
1040
5.0
1070
    42
1040
2.0
1070
    43
1040
0.38
1070
    44
1040
5.0
1070
    47
1040
0.0
1070
    48
1040
0.0
1070
    71
1070
     0
1070
    78
1070
     8
1070
    79
1070
     2
1070
   140
1040
4.0
1070
   141
1040
2.0
1070
   146
1040
1.0
1070
   147
1040
1.5
1070
   176
1070
     0
1070
   177
1070
     0
1070
   178
1070
     0
1070
   179
1070
     2
1070
   279
1070
     0
1002
}
  0
ARC
  5
75C
330
2
100
AcDbEntity
  8
Object
100
AcDbCircle
 10
-540.9587417644975
 20
-1751.055195824497
 30
0.0
 40
4.0
100
AcDbArc
 50
22.02431283704329
 51
337.9756871629567
  0
LINE
  5
75D
330
2
100
AcDbEntity
  8
Center
  6
CENTER
 48
0.5
100
AcDbLine
 10
-533.9587417644975
 20
-1751.055195824497
 30
0.0
 11
-547.9587417644975
 21
-1751.055195824497
 31
0.0
  0
LINE
  5
75E
330
2
100
AcDbEntity
  8
Center
  6
CENTER
 48
0.5
100
AcDbLine
 10
-540.9587417644975
 20
-1758.055195824496
 30
0.0
 11
-540.9587417644975
 21
-1744.055195824497
 31
0.0
  0
LINE
  5
75F
330
2
100
AcDbEntity
  8
Object
100
AcDbLine
 10
-537.2506425209496
 20
-1749.555195824497
 30
0.0
 11
-538.7587417644974
 21
-1749.555195824497
 31
0.0
  0
LINE
  5
760
330
2
100
AcDbEntity
  8
Object
100
AcDbLine
 10
-537.2506425209496
 20
-1752.555195824496
 30
0.0
 11
-538.7587417644974
 21
-1752.555195824496
 31
0.0
  0
LINE
  5
761
330
2
100
AcDbEntity
  8
Object
100
AcDbLine
 10
-538.7587417644974
 20
-1752.555195824496
 30
0.0
 11
-538.7587417644974
 21
-1749.555195824497
 31
0.0
  0
TEXT
  5
762
330
2
100
AcDbEntity
  8
text3
100
AcDbText
 10
-516.2595215968101
 20
-1770.21888196865
 30
0.0
 40
1.92
  1
0
  7
Roman
100
AcDbText
  0
TEXT
  5
763
330
2
100
AcDbEntity
  8
text3
100
AcDbText
 10
-518.6134564531719
 20
-1772.870409075212
 30
0.0
 40
1.92
  1
-0.2
  7
Roman
100
AcDbText
  0
TEXT
  5
764
330
2
100
AcDbEntity
  8
Object
100
AcDbText
 10
-566.6486427633087
 20
-1704.223145802888
 30
0.0
 40
3.84
  1
（キー溝）
  7
Roman
100
AcDbText
  0
LINE
  5
767
330
2
100
AcDbEntity
  8
text3
100
AcDbLine
 10
-532.6021029635738
 20
-1725.88852915783
 30
0.0
 11
-532.6021029635738
 21
-1714.901522162529
 31
0.0
  0
TEXT
  5
768
330
2
100
AcDbEntity
  8
text3
100
AcDbText
 10
-536.6483547605175
 20
-1726.290128631843
 30
0.0
 40
1.92
  1
-0.006
 50
90.0
  7
Roman
100
AcDbText
  0
TEXT
  5
769
330
2
100
AcDbEntity
  8
text3
100
AcDbText
 10
-533.9968276539557
 20
-1726.459034581445
 30
0.0
 40
1.92
  1
-0.031
 50
90.0
  7
Roman
100
AcDbText
  0
LINE
  5
76A
330
2
100
AcDbEntity
  8
text3
100
AcDbLine
 10
-516.4026921111393
 20
-1721.703935911396
 30
0.0
 11
-516.4026921111393
 21
-1708.021018376968
 31
0.0
  0
TEXT
  5
76B
330
2
100
AcDbEntity
  8
text3
100
AcDbText
 10
-520.6341758169001
 20
-1716.716754485956
 30
0.0
 40
1.92
  1
0
 50
90.0
  7
Roman
100
AcDbText
  0
TEXT
  5
76C
330
2
100
AcDbEntity
  8
text3
100
AcDbText
 10
-517.9826487103383
 20
-1719.070689342317
 30
0.0
 40
1.92
  1
-0.009
 50
90.0
  7
Roman
100
AcDbText
  0
LINE
  5
76D
330
2
100
AcDbEntity
  8
1
 62
     7
100
AcDbLine
 10
-396.4853089649066
 20
-1734.355195824496
 30
0.0
 11
-383.3646264179551
 21
-1734.355195824496
 31
0.0
  0
LINE
  5
76E
330
2
100
AcDbEntity
  8
1
 62
     7
100
AcDbLine
 10
-381.4045725246831
 20
-1722.855195824496
 30
0.0
 11
-392.5853089649067
 21
-1722.855195824496
 31
0.0
  0
LINE
  5
76F
330
2
100
AcDbEntity
  8
1
 62
     2
100
AcDbLine
 10
-382.7813770787597
 20
-1730.933163693763
 30
0.0
 11
-396.4853089649066
 21
-1730.933163693763
 31
0.0
  0
LINE
  5
770
330
2
100
AcDbEntity
  8
1
 62
     2
100
AcDbLine
 10
-396.4853089649066
 20
-1725.038885876338
 30
0.0
 11
-381.7767594975362
 21
-1725.038885876338
 31
0.0
  0
LINE
  5
771
330
2
100
AcDbEntity
  8
Object2
100
AcDbLine
 10
-379.8148838966585
 20
-1713.528197579686
 30
0.0
 11
-392.7271350588375
 21
-1789.286771808058
 31
0.0
  0
LINE
  5
772
330
2
100
AcDbEntity
  8
Object2
100
AcDbLine
 10
-377.7586628396434
 20
-1713.528197579686
 30
0.0
 11
-390.6709140018224
 21
-1789.286771808058
 31
0.0
  0
LINE
  5
773
330
2
100
AcDbEntity
  8
1
 62
     7
100
AcDbLine
 10
-403.0853089649067
 20
-1751.055195824497
 30
0.0
 11
-403.0853089649067
 21
-1732.305195824497
 31
0.0
  0
LINE
  5
774
330
2
100
AcDbEntity
  8
1
 62
     3
100
AcDbLine
 10
-400.9853089649066
 20
-1751.055195824497
 30
0.0
 11
-400.9853089649066
 21
-1722.855195824496
 31
0.0
  0
LINE
  5
775
330
2
100
AcDbEntity
  8
1
 62
     7
100
AcDbLine
 10
-392.5853089649067
 20
-1779.255195824497
 30
0.0
 11
-392.5853089649067
 21
-1722.855195824496
 31
0.0
  0
LINE
  5
776
330
2
100
AcDbEntity
  8
1
 62
     7
100
AcDbLine
 10
-401.4853089649066
 20
-1778.755195824496
 30
0.0
 11
-401.4853089649066
 21
-1723.355195824496
 31
0.0
  0
DIMENSION
  5
777
330
2
100
AcDbEntity
  8
text3
100
AcDbDimension
  2
*D16
 10
-430.6060664812271
 20
-1755.055195824496
 30
0.0
 11
-430.6060664812268
 21
-1727.955195824496
 31
0.0
 70
   161
  1
Φ<>h6
 71
     5
 42
8.0
  3
DMST_1
100
AcDbAlignedDimension
 13
-420.9853089649065
 23
-1747.055195824496
 33
0.0
 14
-420.9853089649072
 24
-1755.055195824496
 34
0.0
1001
ACAD
1000
DSTYLE
1002
{
1070
    41
1040
5.0
1070
    42
1040
2.0
1070
    43
1040
0.38
1070
    44
1040
5.0
1070
    47
1040
0.0
1070
    48
1040
0.0
1070
    71
1070
     0
1070
    78
1070
     8
1070
    79
1070
     2
1070
   140
1040
4.0
1070
   141
1040
2.0
1070
   146
1040
1.0
1070
   147
1040
1.5
1070
   176
1070
     0
1070
   177
1070
     0
1070
   178
1070
     0
1070
   179
1070
     2
1070
   279
1070
     0
1002
}
  0
LINE
  5
778
330
2
100
AcDbEntity
  8
1
 62
     7
100
AcDbLine
 10
-478.3819345948191
 20
-1779.255195824497
 30
0.0
 11
-478.3819345948191
 21
-1722.855195824496
 31
0.0
  0
LINE
  5
779
330
2
100
AcDbEntity
  8
Object2
100
AcDbLine
 10
-463.5552884695557
 20
-1713.528197579686
 30
0.0
 11
-476.4675396317348
 21
-1789.286771808058
 31
0.0
  0
LINE
  5
77A
330
2
100
AcDbEntity
  8
1
 62
     7
100
AcDbLine
 10
-488.881934594819
 20
-1751.055195824497
 30
0.0
 11
-488.881934594819
 21
-1732.305195824497
 31
0.0
  0
LINE
  5
77B
330
2
100
AcDbEntity
  8
1
 62
     3
100
AcDbLine
 10
-486.7819345948189
 20
-1751.055195824497
 30
0.0
 11
-486.7819345948189
 21
-1722.855195824496
 31
0.0
  0
DIMENSION
  5
77C
330
2
100
AcDbEntity
  8
text3
100
AcDbDimension
  2
*D17
 10
-507.2819345948183
 20
-1735.909486400262
 30
0.0
 11
-499.2819345948182
 21
-1735.909486400263
 31
0.0
 70
   161
 71
     5
 42
15.99999999999954
  3
DMST_1
100
AcDbAlignedDimension
 13
-491.2819345948191
 23
-1747.555195824497
 33
0.0
 14
-507.2819345948187
 24
-1747.555195824496
 34
0.0
1001
ACAD
1000
DSTYLE
1002
{
1070
    41
1040
5.0
1070
    42
1040
2.0
1070
    43
1040
0.38
1070
    44
1040
5.0
1070
    47
1040
0.0
1070
    48
1040
0.0
1070
    71
1070
     0
1070
    78
1070
     8
1070
    79
1070
     2
1070
   140
1040
4.0
1070
   141
1040
2.0
1070
   146
1040
1.0
1070
   147
1040
1.5
1070
   176
1070
     0
1070
   177
1070
     0
1070
   178
1070
     0
1070
   179
1070
     2
1070
   279
1070
     0
1002
}
  0
DIMENSION
  5
77D
330
2
100
AcDbEntity
  8
text3
100
AcDbDimension
  2
*D18
 10
-487.2819345948187
 20
-1715.239272295593
 30
0.0
 11
-497.2819345948187
 21
-1711.739272295593
 31
0.0
 70
    33
  1
<>±1
 71
     5
 42
20.0
  3
DMST_1
100
AcDbAlignedDimension
 13
-507.2819345948187
 23
-1747.555195824496
 33
0.0
 14
-487.2819345948187
 24
-1747.555195824496
 34
0.0
1001
ACAD
1000
DSTYLE
1002
{
1070
    41
1040
5.0
1070
    42
1040
2.0
1070
    43
1040
0.38
1070
    44
1040
5.0
1070
    47
1040
0.0
1070
    48
1040
0.0
1070
    71
1070
     0
1070
    78
1070
     8
1070
    79
1070
     2
1070
   140
1040
4.0
1070
   141
1040
2.0
1070
   146
1040
1.0
1070
   147
1040
1.5
1070
   176
1070
     0
1070
   177
1070
     0
1070
   178
1070
     0
1070
   179
1070
     2
1070
   279
1070
     0
1002
}
  0
LINE
  5
77E
330
2
100
AcDbEntity
  8
1
 62
     7
100
AcDbLine
 10
-487.2819345948189
 20
-1778.755195824496
 30
0.0
 11
-487.2819345948189
 21
-1723.355195824496
 31
0.0
  0
LINE
  5
77F
330
2
100
AcDbEntity
  8
Object2
100
AcDbLine
 10
-465.6115095265708
 20
-1713.528197579686
 30
0.0
 11
-478.5237606887498
 21
-1789.286771808058
 31
0.0
  0
DIMENSION
  5
780
330
2
100
AcDbEntity
  8
text3
100
AcDbDimension
  2
*D19
 10
-421.4853089649063
 20
-1735.909486400263
 30
0.0
 11
-413.4853089649061
 21
-1735.909486400263
 31
0.0
 70
   161
 71
     5
 42
15.99999999999954
  3
DMST_1
100
AcDbAlignedDimension
 13
-405.485308964907
 23
-1747.555195824497
 33
0.0
 14
-421.4853089649066
 24
-1747.555195824497
 34
0.0
1001
ACAD
1000
DSTYLE
1002
{
1070
    41
1040
5.0
1070
    42
1040
2.0
1070
    43
1040
0.38
1070
    44
1040
5.0
1070
    47
1040
0.0
1070
    48
1040
0.0
1070
    71
1070
     0
1070
    78
1070
     8
1070
    79
1070
     2
1070
   140
1040
4.0
1070
   141
1040
2.0
1070
   146
1040
1.0
1070
   147
1040
1.5
1070
   176
1070
     0
1070
   177
1070
     0
1070
   178
1070
     0
1070
   179
1070
     2
1070
   279
1070
     0
1002
}
  0
DIMENSION
  5
781
330
2
100
AcDbEntity
  8
text3
100
AcDbDimension
  2
*D20
 10
-401.4853089649063
 20
-1715.239272295593
 30
0.0
 11
-411.4853089649064
 21
-1711.739272295593
 31
0.0
 70
    33
  1
<>±1
 71
     5
 42
20.0
  3
DMST_1
100
AcDbAlignedDimension
 13
-421.4853089649063
 23
-1747.555195824496
 33
0.0
 14
-401.4853089649063
 24
-1747.555195824496
 34
0.0
1001
ACAD
1000
DSTYLE
1002
{
1070
    41
1040
5.0
1070
    42
1040
2.0
1070
    43
1040
0.38
1070
    44
1040
5.0
1070
    47
1040
0.0
1070
    48
1040
0.0
1070
    71
1070
     0
1070
    78
1070
     8
1070
    79
1070
     2
1070
   140
1040
4.0
1070
   141
1040
2.0
1070
   146
1040
1.0
1070
   147
1040
1.5
1070
   176
1070
     0
1070
   177
1070
     0
1070
   178
1070
     0
1070
   179
1070
     2
1070
   279
1070
     0
1002
}
  0
LINE
  5
782
330
2
100
AcDbEntity
  8
Center
  6
CENTER
 48
0.5
100
AcDbLine
 10
-443.1044993868831
 20
-1751.055195824497
 30
0.0
 11
-457.1044993868831
 21
-1751.055195824497
 31
0.0
  0
ARC
  5
783
330
2
100
AcDbEntity
  8
Object
100
AcDbCircle
 10
-450.1044993868831
 20
-1751.055195824497
 30
0.0
 40
4.0
100
AcDbArc
 50
28.95502437187521
 51
331.0449756281247
  0
CIRCLE
  5
784
330
2
100
AcDbEntity
  8
Object2
100
AcDbCircle
 10
-450.1044993868831
 20
-1751.055195824497
 30
0.0
 40
3.5
  0
DIMENSION
  5
785
330
2
100
AcDbEntity
  8
text3
100
AcDbDimension
  2
*D21
 10
-446.6044993868831
 20
-1775.334068565263
 30
0.0
 11
-424.3711660535498
 21
-1775.334068565263
 31
0.0
 70
   161
  1
<>±0.2
 71
     5
 42
7.5
  3
DMST_1
100
AcDbAlignedDimension
 13
-454.1044993868831
 23
-1751.055195824497
 33
0.0
 14
-446.6044993868831
 24
-1751.055195824497
 34
0.0
1001
ACAD
1000
DSTYLE
1002
{
1070
    41
1040
5.0
1070
    42
1040
2.0
1070
    43
1040
0.38
1070
    44
1040
5.0
1070
    47
1040
0.0
1070
    48
1040
0.0
1070
    71
1070
     0
1070
    78
1070
     8
1070
    79
1070
     2
1070
   140
1040
4.0
1070
   141
1040
2.0
1070
   146
1040
1.0
1070
   147
1040
1.5
1070
   176
1070
     0
1070
   177
1070
     0
1070
   178
1070
     0
1070
   179
1070
     2
1070
   279
1070
     0
1002
}
  0
LINE
  5
786
330
2
100
AcDbEntity
  8
1
 62
     7
100
AcDbLine
 10
-478.3819345948191
 20
-1779.255195824497
 30
0.0
 11
-476.8139842050775
 21
-1779.255195824497
 31
0.0
  0
LINE
  5
787
330
2
100
AcDbEntity
  8
1
 62
     2
100
AcDbLine
 10
-476.4417972322242
 20
-1777.071505772656
 30
0.0
 11
-482.2819345948189
 21
-1777.071505772656
 31
0.0
  0
LINE
  5
788
330
2
100
AcDbEntity
  8
1
 62
     2
100
AcDbLine
 10
-482.2819345948189
 20
-1771.17722795523
 30
0.0
 11
-475.4371796510006
 21
-1771.17722795523
 31
0.0
  0
LINE
  5
789
330
2
100
AcDbEntity
  8
1
 62
     7
100
AcDbLine
 10
-482.2819345948189
 20
-1767.755195824497
 30
0.0
 11
-474.8539303118055
 21
-1767.755195824497
 31
0.0
  0
LINE
  5
78A
330
2
100
AcDbEntity
  8
Object
100
AcDbLine
 10
-507.2819345948189
 20
-1749.555195824497
 30
0.0
 11
-492.7819345948192
 21
-1749.555195824497
 31
0.0
  0
LINE
  5
78B
330
2
100
AcDbEntity
  8
Object
100
AcDbLine
 10
-507.2819345948189
 20
-1752.555195824496
 30
0.0
 11
-492.7819345948192
 21
-1752.555195824496
 31
0.0
  0
LINE
  5
78C
330
2
100
AcDbEntity
  8
Object
100
AcDbLine
 10
-506.7819345948189
 20
-1747.055195824496
 30
0.0
 11
-488.881934594819
 21
-1747.055195824496
 31
0.0
  0
LINE
  5
78D
330
2
100
AcDbEntity
  8
Object
100
AcDbLine
 10
-506.7819345948189
 20
-1755.055195824497
 30
0.0
 11
-488.881934594819
 21
-1755.055195824497
 31
0.0
  0
LINE
  5
78E
330
2
100
AcDbEntity
  8
1
 62
     3
100
AcDbLine
 10
-506.7819345948189
 20
-1747.055195824496
 30
0.0
 11
-506.7819345948187
 21
-1749.555195824497
 31
0.0
  0
LINE
  5
78F
330
2
100
AcDbEntity
  8
1
 62
     7
100
AcDbLine
 10
-506.7819345948189
 20
-1747.055195824496
 30
0.0
 11
-507.2819345948189
 21
-1747.555195824497
 31
0.0
  0
LINE
  5
790
330
2
100
AcDbEntity
  8
1
 62
     7
100
AcDbLine
 10
-506.7819345948189
 20
-1755.055195824497
 30
0.0
 11
-507.2819345948189
 21
-1754.555195824496
 31
0.0
  0
LINE
  5
791
330
2
100
AcDbEntity
  8
1
 62
     7
100
AcDbLine
 10
-507.2819345948187
 20
-1747.555195824497
 30
0.0
 11
-507.2819345948189
 21
-1754.555195824496
 31
0.0
  0
LINE
  5
792
330
2
100
AcDbEntity
  8
1
 62
     3
100
AcDbLine
 10
-506.7819345948187
 20
-1752.555195824496
 30
0.0
 11
-506.7819345948189
 21
-1755.055195824497
 31
0.0
  0
LINE
  5
793
330
2
100
AcDbEntity
  8
text3
100
AcDbLine
 10
-491.2819345948191
 20
-1744.758060123725
 30
0.0
 11
-491.2819345948191
 21
-1750.106435330374
 31
0.0
  0
ARC
  5
794
330
2
100
AcDbEntity
  8
Object
100
AcDbCircle
 10
-492.7819345948192
 20
-1751.055195824497
 30
0.0
 40
1.5
100
AcDbArc
 50
270.0
 51
90.0
  0
LINE
  5
795
330
2
100
AcDbEntity
  8
1
 62
     7
100
AcDbLine
 10
-487.2819345948189
 20
-1770.105195824496
 30
0.0
 11
-488.5819345948188
 21
-1770.105195824496
 31
0.0
  0
LINE
  5
796
330
2
100
AcDbEntity
  8
1
 62
     7
100
AcDbLine
 10
-488.881934594819
 20
-1769.805195824496
 30
0.0
 11
-488.5819345948188
 21
-1770.105195824496
 31
0.0
  0
LINE
  5
797
330
2
100
AcDbEntity
  8
1
 62
     7
100
AcDbLine
 10
-486.7819345948189
 20
-1779.255195824497
 30
0.0
 11
-482.2819345948189
 21
-1779.255195824497
 31
0.0
  0
LINE
  5
798
330
2
100
AcDbEntity
  8
1
 62
     7
100
AcDbLine
 10
-487.2819345948189
 20
-1778.755195824496
 30
0.0
 11
-486.7819345948189
 21
-1779.255195824497
 31
0.0
  0
LINE
  5
799
330
2
100
AcDbEntity
  8
1
 62
     7
100
AcDbLine
 10
-482.2819345948189
 20
-1779.255195824497
 30
0.0
 11
-482.2819345948189
 21
-1767.755195824497
 31
0.0
  0
LINE
  5
79A
330
2
100
AcDbEntity
  8
1
 62
     7
100
AcDbLine
 10
-488.881934594819
 20
-1769.805195824496
 30
0.0
 11
-488.881934594819
 21
-1751.055195824497
 31
0.0
  0
LINE
  5
79B
330
2
100
AcDbEntity
  8
1
 62
     3
100
AcDbLine
 10
-486.7819345948189
 20
-1779.255195824497
 30
0.0
 11
-486.7819345948189
 21
-1751.055195824497
 31
0.0
  0
LINE
  5
79C
330
2
100
AcDbEntity
  8
1
 62
     7
100
AcDbLine
 10
-482.2819345948189
 20
-1779.255195824497
 30
0.0
 11
-478.3819345948191
 21
-1779.255195824497
 31
0.0
  0
LINE
  5
79D
330
2
100
AcDbEntity
  8
Center
  6
CENTER
 48
0.5
100
AcDbLine
 10
-450.1044993868831
 20
-1758.055195824496
 30
0.0
 11
-450.1044993868831
 21
-1744.055195824497
 31
0.0
  0
LINE
  5
79E
330
2
100
AcDbEntity
  8
Object
100
AcDbLine
 10
-405.4853089649068
 20
-1749.118704151392
 30
0.0
 11
-421.4853089649061
 21
-1752.9916874976
 31
0.0
  0
LINE
  5
79F
330
2
100
AcDbEntity
  8
Object
100
AcDbLine
 10
-421.4853089649063
 20
-1749.118704151392
 30
0.0
 11
-405.4853089649066
 21
-1752.991687497601
 31
0.0
  0
LINE
  5
7A0
330
2
100
AcDbEntity
  8
1
  6
CENTER
 62
     1
100
AcDbLine
 10
-386.2109655499241
 20
-1751.055195824497
 30
0.0
 11
-424.0449790307693
 21
-1751.055195824497
 31
0.0
  0
LINE
  5
7A1
330
2
100
AcDbEntity
  8
Object
100
AcDbLine
 10
-421.4853089649061
 20
-1752.9916874976
 30
0.0
 11
-405.4853089649066
 21
-1752.991687497601
 31
0.0
  0
LINE
  5
7A2
330
2
100
AcDbEntity
  8
Object
100
AcDbLine
 10
-420.9853089649065
 20
-1755.055195824497
 30
0.0
 11
-403.0853089649067
 21
-1755.055195824497
 31
0.0
  0
LINE
  5
7A3
330
2
100
AcDbEntity
  8
Object
100
AcDbLine
 10
-421.4853089649063
 20
-1749.118704151392
 30
0.0
 11
-405.4853089649068
 21
-1749.118704151392
 31
0.0
  0
LINE
  5
7A4
330
2
100
AcDbEntity
  8
Object
100
AcDbLine
 10
-420.9853089649064
 20
-1747.055195824496
 30
0.0
 11
-403.0853089649067
 21
-1747.055195824496
 31
0.0
  0
LINE
  5
7A5
330
2
100
AcDbEntity
  8
Object
100
AcDbLine
 10
-446.6044993868833
 20
-1749.118704151392
 30
0.0
 11
-446.6044993868836
 21
-1752.991687497601
 31
0.0
  0
LINE
  5
7A6
330
2
100
AcDbEntity
  8
1
 62
     3
100
AcDbLine
 10
-420.9853089649065
 20
-1747.055195824497
 30
0.0
 11
-420.9853089649065
 21
-1749.118704151392
 31
0.0
  0
LINE
  5
7A7
330
2
100
AcDbEntity
  8
1
 62
     7
100
AcDbLine
 10
-420.9853089649065
 20
-1747.055195824496
 30
0.0
 11
-421.4853089649066
 21
-1747.555195824497
 31
0.0
  0
LINE
  5
7A8
330
2
100
AcDbEntity
  8
1
 62
     3
100
AcDbLine
 10
-420.9853089649065
 20
-1752.9916874976
 30
0.0
 11
-420.9853089649065
 21
-1755.055195824497
 31
0.0
  0
LINE
  5
7A9
330
2
100
AcDbEntity
  8
1
 62
     7
100
AcDbLine
 10
-420.9853089649065
 20
-1755.055195824497
 30
0.0
 11
-421.4853089649066
 21
-1754.555195824496
 31
0.0
  0
LINE
  5
7AA
330
2
100
AcDbEntity
  8
1
 62
     7
100
AcDbLine
 10
-421.4853089649063
 20
-1747.555195824497
 30
0.0
 11
-421.4853089649066
 21
-1754.555195824496
 31
0.0
  0
LINE
  5
7AB
330
2
100
AcDbEntity
  8
1
 62
     7
100
AcDbLine
 10
-400.9853089649066
 20
-1779.255195824497
 30
0.0
 11
-396.4853089649066
 21
-1779.255195824497
 31
0.0
  0
LINE
  5
7AC
330
2
100
AcDbEntity
  8
text3
100
AcDbLine
 10
-405.4853089649068
 20
-1744.758060123725
 30
0.0
 11
-405.4853089649068
 21
-1748.352119130321
 31
0.0
  0
LINE
  5
7AD
330
2
100
AcDbEntity
  8
1
 62
     7
100
AcDbLine
 10
-401.4853089649066
 20
-1770.105195824496
 30
0.0
 11
-402.7853089649065
 21
-1770.105195824496
 31
0.0
  0
LINE
  5
7AE
330
2
100
AcDbEntity
  8
1
 62
     7
100
AcDbLine
 10
-403.0853089649067
 20
-1769.805195824496
 30
0.0
 11
-402.7853089649065
 21
-1770.105195824496
 31
0.0
  0
LINE
  5
7AF
330
2
100
AcDbEntity
  8
1
 62
     7
100
AcDbLine
 10
-401.4853089649066
 20
-1778.755195824496
 30
0.0
 11
-400.9853089649066
 21
-1779.255195824497
 31
0.0
  0
LINE
  5
7B0
330
2
100
AcDbEntity
  8
1
 62
     7
100
AcDbLine
 10
-405.4853089649068
 20
-1749.118704151392
 30
0.0
 11
-405.4853089649066
 21
-1752.991687497601
 31
0.0
  0
LINE
  5
7B1
330
2
100
AcDbEntity
  8
1
 62
     7
100
AcDbLine
 10
-403.0853089649067
 20
-1769.805195824496
 30
0.0
 11
-403.0853089649067
 21
-1751.055195824497
 31
0.0
  0
LINE
  5
7B2
330
2
100
AcDbEntity
  8
1
 62
     3
100
AcDbLine
 10
-400.9853089649066
 20
-1779.255195824497
 30
0.0
 11
-400.9853089649066
 21
-1751.055195824497
 31
0.0
  0
LINE
  5
7B3
330
2
100
AcDbEntity
  8
1
 62
     2
100
AcDbLine
 10
-396.4853089649066
 20
-1771.17722795523
 30
0.0
 11
-389.6405540210882
 21
-1771.17722795523
 31
0.0
  0
LINE
  5
7B4
330
2
100
AcDbEntity
  8
1
 62
     7
100
AcDbLine
 10
-396.4853089649066
 20
-1767.755195824497
 30
0.0
 11
-389.0573046818931
 21
-1767.755195824497
 31
0.0
  0
LINE
  5
7B5
330
2
100
AcDbEntity
  8
1
 62
     7
100
AcDbLine
 10
-392.5853089649067
 20
-1779.255195824497
 30
0.0
 11
-391.0173585751651
 21
-1779.255195824497
 31
0.0
  0
LINE
  5
7B6
330
2
100
AcDbEntity
  8
1
 62
     2
100
AcDbLine
 10
-390.6451716023118
 20
-1777.071505772656
 30
0.0
 11
-396.4853089649066
 21
-1777.071505772656
 31
0.0
  0
LINE
  5
7B7
330
2
100
AcDbEntity
  8
1
 62
     7
100
AcDbLine
 10
-396.4853089649066
 20
-1779.255195824497
 30
0.0
 11
-392.5853089649067
 21
-1779.255195824497
 31
0.0
  0
LINE
  5
7B8
330
2
100
AcDbEntity
  8
1
 62
     7
100
AcDbLine
 10
-396.4853089649066
 20
-1779.255195824497
 30
0.0
 11
-396.4853089649066
 21
-1767.755195824497
 31
0.0
  0
TEXT
  5
7B9
330
2
100
AcDbEntity
  8
Object
100
AcDbText
 10
-469.1088410295321
 20
-1702.94763024033
 30
0.0
 40
3.84
  1
（Ｄカット）
  7
Roman
100
AcDbText
  0
LINE
  5
7BA
330
2
100
AcDbEntity
  8
1
 62
     7
100
AcDbLine
 10
-467.2011981545954
 20
-1722.855195824496
 30
0.0
 11
-478.3819345948191
 21
-1722.855195824496
 31
0.0
  0
LINE
  5
7BB
330
2
100
AcDbEntity
  8
1
 62
     7
100
AcDbLine
 10
-482.2819345948189
 20
-1734.355195824496
 30
0.0
 11
-469.1612520478675
 21
-1734.355195824496
 31
0.0
  0
LINE
  5
7BC
330
2
100
AcDbEntity
  8
1
 62
     2
100
AcDbLine
 10
-468.578002708672
 20
-1730.933163693763
 30
0.0
 11
-482.2819345948189
 21
-1730.933163693763
 31
0.0
  0
LINE
  5
7BD
330
2
100
AcDbEntity
  8
1
 62
     2
100
AcDbLine
 10
-482.2819345948189
 20
-1725.038885876338
 30
0.0
 11
-467.5733851274485
 21
-1725.038885876338
 31
0.0
  0
LINE
  5
7BE
330
2
100
AcDbEntity
  8
1
 62
     7
100
AcDbLine
 10
-482.2819345948189
 20
-1722.855195824496
 30
0.0
 11
-486.7819345948189
 21
-1722.855195824496
 31
0.0
  0
LINE
  5
7BF
330
2
100
AcDbEntity
  8
1
 62
     7
100
AcDbLine
 10
-486.7819345948189
 20
-1722.855195824496
 30
0.0
 11
-487.2819345948189
 21
-1723.355195824496
 31
0.0
  0
LINE
  5
7C0
330
2
100
AcDbEntity
  8
1
 62
     7
100
AcDbLine
 10
-488.5819345948188
 20
-1732.005195824497
 30
0.0
 11
-487.2819345948189
 21
-1732.005195824497
 31
0.0
  0
LINE
  5
7C1
330
2
100
AcDbEntity
  8
1
 62
     7
100
AcDbLine
 10
-488.5819345948188
 20
-1732.005195824497
 30
0.0
 11
-488.881934594819
 21
-1732.305195824497
 31
0.0
  0
LINE
  5
7C2
330
2
100
AcDbEntity
  8
1
 62
     7
100
AcDbLine
 10
-482.2819345948189
 20
-1734.355195824496
 30
0.0
 11
-482.2819345948189
 21
-1722.855195824496
 31
0.0
  0
LINE
  5
7C3
330
2
100
AcDbEntity
  8
1
 62
     7
100
AcDbLine
 10
-478.3819345948191
 20
-1722.855195824496
 30
0.0
 11
-482.2819345948189
 21
-1722.855195824496
 31
0.0
  0
TEXT
  5
7C4
330
2
100
AcDbEntity
  8
text3
100
AcDbText
 10
-432.1305386045485
 20
-1719.098296449451
 30
0.0
 40
1.92
  1
-0.009
 50
90.0
  7
Roman
100
AcDbText
  0
TEXT
  5
7C5
330
2
100
AcDbEntity
  8
text3
100
AcDbText
 10
-434.7820657111103
 20
-1716.744361593089
 30
0.0
 40
1.92
  1
0
 50
90.0
  7
Roman
100
AcDbText
  0
LINE
  5
7C6
330
2
100
AcDbEntity
  8
text3
100
AcDbLine
 10
-430.6060664812268
 20
-1721.793060929767
 30
0.0
 11
-430.6060664812268
 21
-1708.11014339534
 31
0.0
  0
LINE
  5
7C7
330
2
100
AcDbEntity
  8
1
 62
     7
100
AcDbLine
 10
-396.4853089649066
 20
-1722.855195824496
 30
0.0
 11
-400.9853089649066
 21
-1722.855195824496
 31
0.0
  0
LINE
  5
7C8
330
2
100
AcDbEntity
  8
1
 62
     7
100
AcDbLine
 10
-400.9853089649066
 20
-1722.855195824496
 30
0.0
 11
-401.4853089649066
 21
-1723.355195824496
 31
0.0
  0
LINE
  5
7C9
330
2
100
AcDbEntity
  8
1
 62
     7
100
AcDbLine
 10
-402.7853089649065
 20
-1732.005195824497
 30
0.0
 11
-401.4853089649066
 21
-1732.005195824497
 31
0.0
  0
LINE
  5
7CA
330
2
100
AcDbEntity
  8
1
 62
     7
100
AcDbLine
 10
-402.7853089649065
 20
-1732.005195824497
 30
0.0
 11
-403.0853089649067
 21
-1732.305195824497
 31
0.0
  0
LINE
  5
7CB
330
2
100
AcDbEntity
  8
1
 62
     7
100
AcDbLine
 10
-392.5853089649067
 20
-1722.855195824496
 30
0.0
 11
-396.4853089649066
 21
-1722.855195824496
 31
0.0
  0
LINE
  5
7CC
330
2
100
AcDbEntity
  8
1
 62
     7
100
AcDbLine
 10
-396.4853089649066
 20
-1734.355195824496
 30
0.0
 11
-396.4853089649066
 21
-1722.855195824496
 31
0.0
  0
LINE
  5
7CD
330
2
100
AcDbEntity
  8
1
 62
     3
100
AcDbLine
 10
-301.3216699178149
 20
-1751.055195824497
 30
0.0
 11
-301.3216699178149
 21
-1722.855195824496
 31
0.0
  0
LINE
  5
7CE
330
2
100
AcDbEntity
  8
1
 62
     7
100
AcDbLine
 10
-303.421669917815
 20
-1751.055195824497
 30
0.0
 11
-303.421669917815
 21
-1732.305195824497
 31
0.0
  0
DIMENSION
  5
7CF
330
2
100
AcDbEntity
  8
text3
100
AcDbDimension
  2
*D22
 10
-321.8216699178144
 20
-1740.806889725893
 30
0.0
 11
-313.8216699178147
 21
-1737.306889725893
 31
0.0
 70
    33
 71
     5
 42
15.99999999999931
  3
DMST_1
100
AcDbAlignedDimension
 13
-305.8216699178153
 23
-1747.555195824497
 33
0.0
 14
-321.8216699178146
 24
-1747.555195824497
 34
0.0
1001
ACAD
1000
DSTYLE
1002
{
1070
    41
1040
5.0
1070
    42
1040
2.0
1070
    43
1040
0.38
1070
    44
1040
5.0
1070
    47
1040
0.0
1070
    48
1040
0.0
1070
    71
1070
     0
1070
    78
1070
     8
1070
    79
1070
     2
1070
   140
1040
4.0
1070
   141
1040
2.0
1070
   146
1040
1.0
1070
   147
1040
1.5
1070
   176
1070
     0
1070
   177
1070
     0
1070
   178
1070
     0
1070
   179
1070
     2
1070
   279
1070
     0
1002
}
  0
DIMENSION
  5
7D0
330
2
100
AcDbEntity
  8
text3
100
AcDbDimension
  2
*D23
 10
-301.8216699178147
 20
-1715.923731606339
 30
0.0
 11
-311.8216699178146
 21
-1712.423731606339
 31
0.0
 70
    33
  1
<>±1
 71
     5
 42
20.0
  3
DMST_1
100
AcDbAlignedDimension
 13
-321.8216699178146
 23
-1747.555195824497
 33
0.0
 14
-301.8216699178147
 24
-1747.555195824497
 34
0.0
1001
ACAD
1000
DSTYLE
1002
{
1070
    41
1040
5.0
1070
    42
1040
2.0
1070
    43
1040
0.38
1070
    44
1040
5.0
1070
    47
1040
0.0
1070
    48
1040
0.0
1070
    71
1070
     0
1070
    78
1070
     8
1070
    79
1070
     2
1070
   140
1040
4.0
1070
   141
1040
2.0
1070
   146
1040
1.0
1070
   147
1040
1.5
1070
   176
1070
     0
1070
   177
1070
     0
1070
   178
1070
     0
1070
   179
1070
     2
1070
   279
1070
     0
1002
}
  0
DIMENSION
  5
7D1
330
2
100
AcDbEntity
  8
text3
100
AcDbDimension
  2
*D24
 10
-330.9424274341348
 20
-1755.055195824497
 30
0.0
 11
-330.9424274341345
 21
-1727.955195824496
 31
0.0
 70
   161
  1
Φ<>h6
 71
     5
 42
8.0
  3
DMST_1
100
AcDbAlignedDimension
 13
-321.3216699178142
 23
-1747.055195824496
 33
0.0
 14
-321.3216699178149
 24
-1755.055195824497
 34
0.0
1001
ACAD
1000
DSTYLE
1002
{
1070
    41
1040
5.0
1070
    42
1040
2.0
1070
    43
1040
0.38
1070
    44
1040
5.0
1070
    47
1040
0.0
1070
    48
1040
0.0
1070
    71
1070
     0
1070
    78
1070
     8
1070
    79
1070
     2
1070
   140
1040
4.0
1070
   141
1040
2.0
1070
   146
1040
1.0
1070
   147
1040
1.5
1070
   176
1070
     0
1070
   177
1070
     0
1070
   178
1070
     0
1070
   179
1070
     2
1070
   279
1070
     0
1002
}
  0
LINE
  5
7D2
330
2
100
AcDbEntity
  8
1
 62
     7
100
AcDbLine
 10
-301.8216699178149
 20
-1778.755195824496
 30
0.0
 11
-301.8216699178149
 21
-1723.355195824496
 31
0.0
  0
LINE
  5
7D3
330
2
100
AcDbEntity
  8
1
 62
     7
100
AcDbLine
 10
-292.921669917815
 20
-1779.255195824497
 30
0.0
 11
-292.921669917815
 21
-1722.855195824496
 31
0.0
  0
DIMENSION
  5
7D4
330
2
100
AcDbEntity
  8
text3
100
AcDbDimension
  2
*D25
 10
-343.7185671255059
 20
-1755.055195824497
 30
0.0
 11
-343.7185671255056
 21
-1725.321862491163
 31
0.0
 70
   161
  1
<>±0.2
 71
     5
 42
7.5
  3
DMST_1
100
AcDbAlignedDimension
 13
-354.6410832921365
 23
-1747.555195824497
 33
0.0
 14
-354.6410832921365
 24
-1755.055195824497
 34
0.0
1001
ACAD
1000
DSTYLE
1002
{
1070
    41
1040
5.0
1070
    42
1040
2.0
1070
    43
1040
0.38
1070
    44
1040
5.0
1070
    47
1040
0.0
1070
    48
1040
0.0
1070
    71
1070
     0
1070
    78
1070
     8
1070
    79
1070
     2
1070
   140
1040
4.0
1070
   141
1040
2.0
1070
   146
1040
1.0
1070
   147
1040
1.5
1070
   176
1070
     0
1070
   177
1070
     0
1070
   178
1070
     0
1070
   179
1070
     2
1070
   279
1070
     0
1002
}
  0
LINE
  5
7D5
330
2
100
AcDbEntity
  8
Object2
100
AcDbLine
 10
-280.1512448495668
 20
-1713.528197579686
 30
0.0
 11
-293.0634960117458
 21
-1789.286771808058
 31
0.0
  0
LINE
  5
7D6
330
2
100
AcDbEntity
  8
Object2
100
AcDbLine
 10
-278.0950237925517
 20
-1713.528197579686
 30
0.0
 11
-291.0072749547307
 21
-1789.286771808058
 31
0.0
  0
DIMENSION
  5
7D7
330
2
100
AcDbEntity
  8
text3
100
AcDbDimension
  2
*D26
 10
-358.6410832921365
 20
-1778.113130227839
 30
0.0
 11
-328.9077499588031
 21
-1778.113130227839
 31
0.0
 70
   161
  1
<>±0.2
 71
     5
 42
7.5
  3
DMST_1
100
AcDbAlignedDimension
 13
-351.1410832921364
 23
-1751.055195824497
 33
0.0
 14
-358.6410832921365
 24
-1751.055195824497
 34
0.0
1001
ACAD
1000
DSTYLE
1002
{
1070
    41
1040
5.0
1070
    42
1040
2.0
1070
    43
1040
0.38
1070
    44
1040
5.0
1070
    47
1040
0.0
1070
    48
1040
0.0
1070
    71
1070
     0
1070
    78
1070
     8
1070
    79
1070
     2
1070
   140
1040
4.0
1070
   141
1040
2.0
1070
   146
1040
1.0
1070
   147
1040
1.5
1070
   176
1070
     0
1070
   177
1070
     0
1070
   178
1070
     0
1070
   179
1070
     2
1070
   279
1070
     0
1002
}
  0
LINE
  5
7D8
330
2
100
AcDbEntity
  8
Center
  6
CENTER
100
AcDbLine
 10
-286.5473265028324
 20
-1751.055195824497
 30
0.0
 11
-324.3813399836776
 21
-1751.055195824497
 31
0.0
  0
LINE
  5
7D9
330
2
100
AcDbEntity
  8
Object
100
AcDbLine
 10
-352.7045916190327
 20
-1747.555195824497
 30
0.0
 11
-356.5775749652402
 21
-1747.555195824497
 31
0.0
  0
CIRCLE
  5
7DA
330
2
100
AcDbEntity
  8
Object2
100
AcDbCircle
 10
-354.6410832921365
 20
-1751.055195824497
 30
0.0
 40
3.5
  0
LINE
  5
7DB
330
2
100
AcDbEntity
  8
Center
  6
CENTER
 48
0.5
100
AcDbLine
 10
-347.6410832921365
 20
-1751.055195824497
 30
0.0
 11
-361.6410832921364
 21
-1751.055195824497
 31
0.0
  0
ARC
  5
7DC
330
2
100
AcDbEntity
  8
Object
100
AcDbCircle
 10
-354.6410832921365
 20
-1751.055195824497
 30
0.0
 40
4.0
100
AcDbArc
 50
118.9550243718606
 51
331.0449756281247
  0
LINE
  5
7DD
330
2
100
AcDbEntity
  8
Center
  6
CENTER
 48
0.5
100
AcDbLine
 10
-354.6410832921365
 20
-1758.055195824496
 30
0.0
 11
-354.6410832921365
 21
-1744.055195824497
 31
0.0
  0
LINE
  5
7DE
330
2
100
AcDbEntity
  8
Object
100
AcDbLine
 10
-351.1410832921367
 20
-1749.118704151392
 30
0.0
 11
-351.1410832921369
 21
-1752.991687497601
 31
0.0
  0
ARC
  5
7DF
330
2
100
AcDbEntity
  8
Object
100
AcDbCircle
 10
-354.6410832921365
 20
-1751.055195824497
 30
0.0
 40
4.0
100
AcDbArc
 50
28.95502437186067
 51
61.04497562813933
  0
LINE
  5
7E0
330
2
100
AcDbEntity
  8
1
 62
     7
100
AcDbLine
 10
-296.8216699178149
 20
-1767.755195824497
 30
0.0
 11
-289.3936656348014
 21
-1767.755195824497
 31
0.0
  0
LINE
  5
7E1
330
2
100
AcDbEntity
  8
1
 62
     2
100
AcDbLine
 10
-296.8216699178149
 20
-1771.17722795523
 30
0.0
 11
-289.9769149739966
 21
-1771.17722795523
 31
0.0
  0
LINE
  5
7E2
330
2
100
AcDbEntity
  8
1
 62
     2
100
AcDbLine
 10
-290.9815325552201
 20
-1777.071505772656
 30
0.0
 11
-296.8216699178149
 21
-1777.071505772656
 31
0.0
  0
LINE
  5
7E3
330
2
100
AcDbEntity
  8
1
 62
     7
100
AcDbLine
 10
-292.921669917815
 20
-1779.255195824497
 30
0.0
 11
-291.3537195280735
 21
-1779.255195824497
 31
0.0
  0
LINE
  5
7E4
330
2
100
AcDbEntity
  8
Object
100
AcDbLine
 10
-321.8216699178146
 20
-1747.555195824497
 30
0.0
 11
-305.8216699178153
 21
-1747.555195824497
 31
0.0
  0
LINE
  5
7E5
330
2
100
AcDbEntity
  8
Object
100
AcDbLine
 10
-321.8216699178146
 20
-1749.118704151392
 30
0.0
 11
-305.8216699178151
 21
-1749.118704151392
 31
0.0
  0
LINE
  5
7E6
330
2
100
AcDbEntity
  8
Object
100
AcDbLine
 10
-321.3216699178149
 20
-1755.055195824497
 30
0.0
 11
-303.421669917815
 21
-1755.055195824497
 31
0.0
  0
LINE
  5
7E7
330
2
100
AcDbEntity
  8
Object
100
AcDbLine
 10
-321.8216699178144
 20
-1752.9916874976
 30
0.0
 11
-305.8216699178149
 21
-1752.991687497601
 31
0.0
  0
LINE
  5
7E8
330
2
100
AcDbEntity
  8
Object
100
AcDbLine
 10
-321.8216699178146
 20
-1749.118704151392
 30
0.0
 11
-305.8216699178149
 21
-1752.991687497601
 31
0.0
  0
LINE
  5
7E9
330
2
100
AcDbEntity
  8
Object
100
AcDbLine
 10
-305.8216699178151
 20
-1749.118704151392
 30
0.0
 11
-321.8216699178144
 21
-1752.9916874976
 31
0.0
  0
LINE
  5
7EA
330
2
100
AcDbEntity
  8
1
 62
     3
100
AcDbLine
 10
-321.3216699178149
 20
-1747.555195824497
 30
0.0
 11
-321.3216699178149
 21
-1749.118704151392
 31
0.0
  0
LINE
  5
7EB
330
2
100
AcDbEntity
  8
1
 62
     7
100
AcDbLine
 10
-321.3216699178149
 20
-1755.055195824497
 30
0.0
 11
-321.8216699178149
 21
-1754.555195824496
 31
0.0
  0
LINE
  5
7EC
330
2
100
AcDbEntity
  8
1
 62
     3
100
AcDbLine
 10
-321.3216699178149
 20
-1752.9916874976
 30
0.0
 11
-321.3216699178149
 21
-1755.055195824497
 31
0.0
  0
LINE
  5
7ED
330
2
100
AcDbEntity
  8
1
 62
     7
100
AcDbLine
 10
-321.8216699178146
 20
-1747.555195824497
 30
0.0
 11
-321.8216699178149
 21
-1754.555195824496
 31
0.0
  0
LINE
  5
7EE
330
2
100
AcDbEntity
  8
1
 62
     7
100
AcDbLine
 10
-305.8216699178151
 20
-1747.055195824496
 30
0.0
 11
-305.8216699178151
 21
-1747.555195824497
 31
0.0
  0
LINE
  5
7EF
330
2
100
AcDbEntity
  8
Object
100
AcDbLine
 10
-305.8216699178153
 20
-1747.055195824496
 30
0.0
 11
-303.421669917815
 21
-1747.055195824496
 31
0.0
  0
LINE
  5
7F0
330
2
100
AcDbEntity
  8
1
 62
     7
100
AcDbLine
 10
-301.8216699178149
 20
-1770.105195824496
 30
0.0
 11
-303.1216699178148
 21
-1770.105195824496
 31
0.0
  0
LINE
  5
7F1
330
2
100
AcDbEntity
  8
1
 62
     7
100
AcDbLine
 10
-301.3216699178149
 20
-1779.255195824497
 30
0.0
 11
-296.8216699178149
 21
-1779.255195824497
 31
0.0
  0
LINE
  5
7F2
330
2
100
AcDbEntity
  8
1
 62
     7
100
AcDbLine
 10
-301.8216699178149
 20
-1778.755195824496
 30
0.0
 11
-301.3216699178149
 21
-1779.255195824497
 31
0.0
  0
LINE
  5
7F3
330
2
100
AcDbEntity
  8
1
 62
     7
100
AcDbLine
 10
-296.8216699178149
 20
-1779.255195824497
 30
0.0
 11
-292.921669917815
 21
-1779.255195824497
 31
0.0
  0
LINE
  5
7F4
330
2
100
AcDbEntity
  8
1
 62
     7
100
AcDbLine
 10
-296.8216699178149
 20
-1779.255195824497
 30
0.0
 11
-296.8216699178149
 21
-1767.755195824497
 31
0.0
  0
LINE
  5
7F5
330
2
100
AcDbEntity
  8
1
 62
     7
100
AcDbLine
 10
-303.421669917815
 20
-1769.805195824496
 30
0.0
 11
-303.1216699178148
 21
-1770.105195824496
 31
0.0
  0
LINE
  5
7F6
330
2
100
AcDbEntity
  8
1
 62
     7
100
AcDbLine
 10
-305.8216699178151
 20
-1749.118704151392
 30
0.0
 11
-305.8216699178149
 21
-1752.991687497601
 31
0.0
  0
LINE
  5
7F7
330
2
100
AcDbEntity
  8
1
 62
     7
100
AcDbLine
 10
-303.421669917815
 20
-1769.805195824496
 30
0.0
 11
-303.421669917815
 21
-1751.055195824497
 31
0.0
  0
LINE
  5
7F8
330
2
100
AcDbEntity
  8
1
 62
     3
100
AcDbLine
 10
-301.3216699178149
 20
-1779.255195824497
 30
0.0
 11
-301.3216699178149
 21
-1751.055195824497
 31
0.0
  0
TEXT
  5
7F9
330
2
100
AcDbEntity
  8
Object
100
AcDbText
 10
-380.2949213589488
 20
-1702.596649174546
 30
0.0
 40
3.84
  1
（ダブルＤカット）
  7
Roman
100
AcDbText
  0
LINE
  5
7FA
330
2
100
AcDbEntity
  8
text3
100
AcDbLine
 10
-330.9424274341345
 20
-1720.943880958096
 30
0.0
 11
-330.9424274341345
 21
-1707.260963423669
 31
0.0
  0
TEXT
  5
7FB
330
2
100
AcDbEntity
  8
text3
100
AcDbText
 10
-332.420171335541
 20
-1719.168009490675
 30
0.0
 40
1.92
  1
-0.009
 50
90.0
  7
Roman
100
AcDbText
  0
TEXT
  5
7FC
330
2
100
AcDbEntity
  8
text3
100
AcDbText
 10
-335.0716984421028
 20
-1716.814074634314
 30
0.0
 40
1.92
  1
0
 50
90.0
  7
Roman
100
AcDbText
  0
LINE
  5
7FD
330
2
100
AcDbEntity
  8
1
 62
     7
100
AcDbLine
 10
-281.7409334775914
 20
-1722.855195824496
 30
0.0
 11
-292.921669917815
 21
-1722.855195824496
 31
0.0
  0
LINE
  5
7FE
330
2
100
AcDbEntity
  8
1
 62
     2
100
AcDbLine
 10
-283.117738031668
 20
-1730.933163693763
 30
0.0
 11
-296.8216699178149
 21
-1730.933163693763
 31
0.0
  0
LINE
  5
7FF
330
2
100
AcDbEntity
  8
1
 62
     7
100
AcDbLine
 10
-296.8216699178149
 20
-1734.355195824496
 30
0.0
 11
-283.7009873708634
 21
-1734.355195824496
 31
0.0
  0
LINE
  5
800
330
2
100
AcDbEntity
  8
1
 62
     2
100
AcDbLine
 10
-296.8216699178149
 20
-1725.038885876338
 30
0.0
 11
-282.1131204504445
 21
-1725.038885876338
 31
0.0
  0
LINE
  5
801
330
2
100
AcDbEntity
  8
1
 62
     7
100
AcDbLine
 10
-296.8216699178149
 20
-1722.855195824496
 30
0.0
 11
-301.3216699178149
 21
-1722.855195824496
 31
0.0
  0
LINE
  5
802
330
2
100
AcDbEntity
  8
1
 62
     7
100
AcDbLine
 10
-301.3216699178149
 20
-1722.855195824496
 30
0.0
 11
-301.8216699178149
 21
-1723.355195824496
 31
0.0
  0
LINE
  5
803
330
2
100
AcDbEntity
  8
1
 62
     7
100
AcDbLine
 10
-292.921669917815
 20
-1722.855195824496
 30
0.0
 11
-296.8216699178149
 21
-1722.855195824496
 31
0.0
  0
LINE
  5
804
330
2
100
AcDbEntity
  8
1
 62
     7
100
AcDbLine
 10
-303.1216699178148
 20
-1732.005195824497
 30
0.0
 11
-301.8216699178149
 21
-1732.005195824497
 31
0.0
  0
LINE
  5
805
330
2
100
AcDbEntity
  8
1
 62
     7
100
AcDbLine
 10
-296.8216699178149
 20
-1734.355195824496
 30
0.0
 11
-296.8216699178149
 21
-1722.855195824496
 31
0.0
  0
LINE
  5
806
330
2
100
AcDbEntity
  8
1
 62
     7
100
AcDbLine
 10
-303.1216699178148
 20
-1732.005195824497
 30
0.0
 11
-303.421669917815
 21
-1732.305195824497
 31
0.0
  0
TEXT
  5
93D
330
2
100
AcDbEntity
  8
text3
100
AcDbText
 10
-406.8048998431238
 20
-1550.485628944158
 30
0.0
 40
3.456
  1
300±50
  7
Roman
100
AcDbText
  0
TEXT
  5
93F
330
2
100
AcDbEntity
  8
Object
100
AcDbText
 10
-471.6820473683482
 20
-1591.304110117171
 30
0.0
 40
3.84
  1
（丸軸）
  7
Roman
100
AcDbText
  0
TEXT
  5
948
330
2
100
AcDbEntity
  8
text3
100
AcDbText
 10
-268.9466856823843
 20
-1783.519426616607
 30
0.0
 40
4.0
  1
単位   [ｍｍ]
  7
Roman
100
AcDbText
  0
TEXT
  5
949
330
2
100
AcDbEntity
  8
text3
100
AcDbText
 10
-269.1979479127427
 20
-1769.794990725356
 30
0.0
 40
4.0
  1
尺度　  １：２　（A4）
  7
Roman
100
AcDbText
  0
TEXT
  5
97D
330
2
100
AcDbEntity
  8
Object
100
AcDbText
 10
-467.8811286534942
 20
-1596.252879613401
 30
0.0
 40
3.84
  1
Round Shaft
  7
Roman
100
AcDbText
  0
TEXT
  5
985
330
2
100
AcDbEntity
  8
Object
100
AcDbText
 10
-561.613231002641
 20
-1709.745134119454
 30
0.0
 40
3.84
  1
Keyway
  7
Roman
100
AcDbText
  0
TEXT
  5
986
330
2
100
AcDbEntity
  8
Object
100
AcDbText
 10
-464.0734292688644
 20
-1708.621640330003
 30
0.0
 40
3.84
  1
D-cut
  7
Roman
100
AcDbText
  0
TEXT
  5
987
330
2
100
AcDbEntity
  8
Object
100
AcDbText
 10
-375.259509598281
 20
-1708.27065926422
 30
0.0
 40
3.84
  1
Double D-cut
  7
Roman
100
AcDbText
  0
TEXT
  5
988
330
2
100
AcDbEntity
  8
text3
100
AcDbText
 10
-549.2617198339756
 20
-1792.35830536704
 30
0.0
 40
3.456
  1
Key
  7
Roman
100
AcDbText
  0
TEXT
  5
98A
330
2
100
AcDbEntity
  8
text3
100
AcDbText
 10
-269.5955514807414
 20
-1775.676506928385
 30
0.0
 40
4.0
  1
Scale
  7
Roman
100
AcDbText
  0
TEXT
  5
98B
330
2
100
AcDbEntity
  8
text3
100
AcDbText
 10
-269.344289250383
 20
-1789.400942819636
 30
0.0
 40
4.0
  1
Unit
  7
Roman
100
AcDbText
  0
ENDSEC
  0
SECTION
  2
OBJECTS
  0
DICTIONARY
  5
7
330
0
100
AcDbDictionary
281
     1
  3
ACAD_GROUP
350
20
  3
ACAD_IMAGE_VARS
350
9CA
  3
ACAD_LAYOUT
350
B
  3
ACAD_MLINESTYLE
350
21
  3
ACAD_PLOTSETTINGS
350
22
  3
ACAD_PLOTSTYLENAME
350
6
  3
ACAD_SCALELIST
350
990
  3
AcDbVariableDictionary
350
309
  3
APPDATA
350
9C9
  3
DWGPROPS
350
9E8
  0
DICTIONARY
  5
371
330
10
100
AcDbDictionary
280
     1
281
     1
  3
ACAD_LAYERSTATES
360
372
  0
DICTIONARY
  5
20
102
{ACAD_REACTORS
330
7
102
}
330
7
100
AcDbDictionary
281
     1
  0
RASTERVARIABLES
  5
9CA
102
{ACAD_REACTORS
330
7
102
}
330
7
100
AcDbRasterVariables
 90
        0
 70
     1
 71
     1
 72
     0
  0
DICTIONARY
  5
B
102
{ACAD_REACTORS
330
7
102
}
330
7
100
AcDbDictionary
281
     1
  3
Model
350
A
  3
ﾚｲｱｳﾄ1
350
F
  0
DICTIONARY
  5
21
102
{ACAD_REACTORS
330
7
102
}
330
7
100
AcDbDictionary
281
     1
  3
Standard
350
24
  0
DICTIONARY
  5
22
102
{ACAD_REACTORS
330
7
102
}
330
7
100
AcDbDictionary
281
     1
  0
ACDBDICTIONARYWDFLT
  5
6
102
{ACAD_REACTORS
330
7
102
}
330
7
100
AcDbDictionary
281
     1
  3
Normal
350
5
100
AcDbDictionaryWithDefault
340
5
  0
DICTIONARY
  5
990
102
{ACAD_REACTORS
330
7
102
}
330
7
100
AcDbDictionary
281
     1
  3
A0
350
991
  3
A1
350
992
  3
A2
350
993
  3
A3
350
994
  3
A4
350
995
  3
A5
350
996
  3
A6
350
997
  3
A7
350
998
  3
A8
350
999
  3
A9
350
99A
  3
B0
350
99B
  3
B1
350
99C
  3
B2
350
99D
  3
B3
350
99E
  3
B4
350
99F
  3
B5
350
9A0
  3
B6
350
9A1
  3
B7
350
9A2
  3
B8
350
9A3
  3
B9
350
9A4
  3
C0
350
9A5
  3
C1
350
9A6
  3
C2
350
9A7
  3
C3
350
9A8
  3
C4
350
9A9
  3
C5
350
9AA
  3
C6
350
9AB
  3
C7
350
9AC
  3
C8
350
9AD
  3
C9
350
9AE
  3
D0
350
9AF
  3
D1
350
9B0
  3
D2
350
9B1
  0
DICTIONARY
  5
309
102
{ACAD_REACTORS
330
7
102
}
330
7
100
AcDbDictionary
281
     1
  3
CANNOSCALE
350
9E9
  3
DIMASSOC
350
30B
  3
HIDETEXT
350
30A
  0
DICTIONARY
  5
9C9
102
{ACAD_REACTORS
330
7
102
}
330
7
100
AcDbDictionary
281
     1
  0
XRECORD
  5
9E8
102
{ACAD_REACTORS
330
7
102
}
330
7
100
AcDbXrecord
280
     1
  1
DWGPROPS COOKIE
  2

  3

  4

  6

  7

  8
okabeOFFICE
  9

300
=
301
=
302
=
303
=
304
=
305
=
306
=
307
=
308
=
309
=
 40
0.0
 41
2453781.019197072
 42
2456724.108922303
  1

 90
        0
  0
DICTIONARY
  5
372
102
{ACAD_REACTORS
330
371
102
}
330
371
100
AcDbDictionary
281
     1
  0
LAYOUT
  5
A
102
{ACAD_REACTORS
330
B
102
}
330
B
100
AcDbPlotSettings
  1

  2
クセロPDF
  4
A4
  6

 40
3.174999952316284
 41
3.174999952316284
 42
3.175003051757812
 43
3.17498779296875
 44
209.9733276367187
 45
296.9259948730469
 46
6.65
 47
66.77
 48
-588.4546207979092
 49
-1805.807689235773
140
-207.8120234319467
141
-1491.717023872636
142
1.0
143
2.0
 70
 11956
 72
     1
 73
     0
 74
     4
  7
monochrome.ctb
 75
    17
147
0.5
148
588.4546207979092
149
1805.807689235773
100
AcDbLayout
  1
Model
 70
     1
 71
     0
 10
0.0
 20
0.0
 11
12.0
 21
9.0
 12
0.0
 22
0.0
 32
0.0
 14
-574.3031987447014
 24
-1793.51030536704
 34
0.0
 15
-217.4265193413141
 25
-1502.732675299663
 35
0.0
146
0.0
 13
0.0
 23
0.0
 33
0.0
 16
1.0
 26
0.0
 36
0.0
 17
0.0
 27
1.0
 37
0.0
 76
     0
330
2
331
98F
  0
LAYOUT
  5
F
102
{ACAD_REACTORS
330
B
102
}
330
B
100
AcDbPlotSettings
  1

  2
\\Epson_lpr\192.168.1.20(LP-8100)
  4

  6

 40
0.0
 41
0.0
 42
0.0
 43
0.0
 44
0.0
 45
0.0
 46
0.0
 47
0.0
 48
0.0
 49
0.0
140
0.0
141
0.0
142
1.0
143
1.0
 70
   688
 72
     0
 73
     0
 74
     5
  7
monochrome.ctb
 75
    16
147
1.0
148
0.0
149
0.0
100
AcDbLayout
  1
ﾚｲｱｳﾄ1
 70
     1
 71
     1
 10
0.0
 20
0.0
 11
12.0
 21
9.0
 12
0.0
 22
0.0
 32
0.0
 14
1.000000000000000E+20
 24
1.000000000000000E+20
 34
1.000000000000000E+20
 15
-1.000000000000000E+20
 25
-1.000000000000000E+20
 35
-1.000000000000000E+20
146
0.0
 13
0.0
 23
0.0
 33
0.0
 16
1.0
 26
0.0
 36
0.0
 17
0.0
 27
1.0
 37
0.0
 76
     0
330
C
  0
MLINESTYLE
  5
24
102
{ACAD_REACTORS
330
21
102
}
330
21
100
AcDbMlineStyle
  2
STANDARD
 70
     0
  3

 62
   256
 51
90.0
 52
90.0
 71
     2
 49
0.5
 62
   256
  6
BYLAYER
 49
-0.5
 62
   256
  6
BYLAYER
  0
ACDBPLACEHOLDER
  5
5
102
{ACAD_REACTORS
330
6
102
}
330
6
  0
SCALE
  5
991
102
{ACAD_REACTORS
330
990
102
}
330
990
100
AcDbScale
 70
     0
300
1:1
140
1.0
141
1.0
290
     1
  0
SCALE
  5
992
102
{ACAD_REACTORS
330
990
102
}
330
990
100
AcDbScale
 70
     0
300
1:2
140
1.0
141
2.0
290
     0
  0
SCALE
  5
993
102
{ACAD_REACTORS
330
990
102
}
330
990
100
AcDbScale
 70
     0
300
1:4
140
1.0
141
4.0
290
     0
  0
SCALE
  5
994
102
{ACAD_REACTORS
330
990
102
}
330
990
100
AcDbScale
 70
     0
300
1:5
140
1.0
141
5.0
290
     0
  0
SCALE
  5
995
102
{ACAD_REACTORS
330
990
102
}
330
990
100
AcDbScale
 70
     0
300
1:8
140
1.0
141
8.0
290
     0
  0
SCALE
  5
996
102
{ACAD_REACTORS
330
990
102
}
330
990
100
AcDbScale
 70
     0
300
1:10
140
1.0
141
10.0
290
     0
  0
SCALE
  5
997
102
{ACAD_REACTORS
330
990
102
}
330
990
100
AcDbScale
 70
     0
300
1:16
140
1.0
141
16.0
290
     0
  0
SCALE
  5
998
102
{ACAD_REACTORS
330
990
102
}
330
990
100
AcDbScale
 70
     0
300
1:20
140
1.0
141
20.0
290
     0
  0
SCALE
  5
999
102
{ACAD_REACTORS
330
990
102
}
330
990
100
AcDbScale
 70
     0
300
1:30
140
1.0
141
30.0
290
     0
  0
SCALE
  5
99A
102
{ACAD_REACTORS
330
990
102
}
330
990
100
AcDbScale
 70
     0
300
1:40
140
1.0
141
40.0
290
     0
  0
SCALE
  5
99B
102
{ACAD_REACTORS
330
990
102
}
330
990
100
AcDbScale
 70
     0
300
1:50
140
1.0
141
50.0
290
     0
  0
SCALE
  5
99C
102
{ACAD_REACTORS
330
990
102
}
330
990
100
AcDbScale
 70
     0
300
1:100
140
1.0
141
100.0
290
     0
  0
SCALE
  5
99D
102
{ACAD_REACTORS
330
990
102
}
330
990
100
AcDbScale
 70
     0
300
2:1
140
2.0
141
1.0
290
     0
  0
SCALE
  5
99E
102
{ACAD_REACTORS
330
990
102
}
330
990
100
AcDbScale
 70
     0
300
4:1
140
4.0
141
1.0
290
     0
  0
SCALE
  5
99F
102
{ACAD_REACTORS
330
990
102
}
330
990
100
AcDbScale
 70
     0
300
8:1
140
8.0
141
1.0
290
     0
  0
SCALE
  5
9A0
102
{ACAD_REACTORS
330
990
102
}
330
990
100
AcDbScale
 70
     0
300
10:1
140
10.0
141
1.0
290
     0
  0
SCALE
  5
9A1
102
{ACAD_REACTORS
330
990
102
}
330
990
100
AcDbScale
 70
     0
300
100:1
140
100.0
141
1.0
290
     0
  0
SCALE
  5
9A2
102
{ACAD_REACTORS
330
990
102
}
330
990
100
AcDbScale
 70
     0
300
1/128" = 1'-0"
140
0.0078125
141
12.0
290
     0
  0
SCALE
  5
9A3
102
{ACAD_REACTORS
330
990
102
}
330
990
100
AcDbScale
 70
     0
300
1/64" = 1'-0"
140
0.015625
141
12.0
290
     0
  0
SCALE
  5
9A4
102
{ACAD_REACTORS
330
990
102
}
330
990
100
AcDbScale
 70
     0
300
1/32" = 1'-0"
140
0.03125
141
12.0
290
     0
  0
SCALE
  5
9A5
102
{ACAD_REACTORS
330
990
102
}
330
990
100
AcDbScale
 70
     0
300
1/16" = 1'-0"
140
0.0625
141
12.0
290
     0
  0
SCALE
  5
9A6
102
{ACAD_REACTORS
330
990
102
}
330
990
100
AcDbScale
 70
     0
300
3/32" = 1'-0"
140
0.09375
141
12.0
290
     0
  0
SCALE
  5
9A7
102
{ACAD_REACTORS
330
990
102
}
330
990
100
AcDbScale
 70
     0
300
1/8" = 1'-0"
140
0.125
141
12.0
290
     0
  0
SCALE
  5
9A8
102
{ACAD_REACTORS
330
990
102
}
330
990
100
AcDbScale
 70
     0
300
3/16" = 1'-0"
140
0.1875
141
12.0
290
     0
  0
SCALE
  5
9A9
102
{ACAD_REACTORS
330
990
102
}
330
990
100
AcDbScale
 70
     0
300
1/4" = 1'-0"
140
0.25
141
12.0
290
     0
  0
SCALE
  5
9AA
102
{ACAD_REACTORS
330
990
102
}
330
990
100
AcDbScale
 70
     0
300
3/8" = 1'-0"
140
0.375
141
12.0
290
     0
  0
SCALE
  5
9AB
102
{ACAD_REACTORS
330
990
102
}
330
990
100
AcDbScale
 70
     0
300
1/2" = 1'-0"
140
0.5
141
12.0
290
     0
  0
SCALE
  5
9AC
102
{ACAD_REACTORS
330
990
102
}
330
990
100
AcDbScale
 70
     0
300
3/4" = 1'-0"
140
0.75
141
12.0
290
     0
  0
SCALE
  5
9AD
102
{ACAD_REACTORS
330
990
102
}
330
990
100
AcDbScale
 70
     0
300
1" = 1'-0"
140
1.0
141
12.0
290
     0
  0
SCALE
  5
9AE
102
{ACAD_REACTORS
330
990
102
}
330
990
100
AcDbScale
 70
     0
300
1-1/2" = 1'-0"
140
1.5
141
12.0
290
     0
  0
SCALE
  5
9AF
102
{ACAD_REACTORS
330
990
102
}
330
990
100
AcDbScale
 70
     0
300
3" = 1'-0"
140
3.0
141
12.0
290
     0
  0
SCALE
  5
9B0
102
{ACAD_REACTORS
330
990
102
}
330
990
100
AcDbScale
 70
     0
300
6" = 1'-0"
140
6.0
141
12.0
290
     0
  0
SCALE
  5
9B1
102
{ACAD_REACTORS
330
990
102
}
330
990
100
AcDbScale
 70
     0
300
1'-0" = 1'-0"
140
12.0
141
12.0
290
     0
  0
DICTIONARYVAR
  5
9E9
102
{ACAD_REACTORS
330
309
102
}
330
309
100
DictionaryVariables
280
     0
  1
1:1
  0
DICTIONARYVAR
  5
30B
102
{ACAD_REACTORS
330
309
102
}
330
309
100
DictionaryVariables
280
     0
  1
1
  0
DICTIONARYVAR
  5
30A
102
{ACAD_REACTORS
330
309
102
}
330
309
100
DictionaryVariables
280
     0
  1
1
  0
ENDSEC
  0
EOF
