  0
SECTION
  2
HEADER
  9
$ACADVER
  1
AC1014
  9
$ACADMAINTVER
 70
     9
  9
$DWGCODEPAGE
  3
ANSI_932
  9
$INSBASE
 10
0.0
 20
0.0
 30
0.0
  9
$EXTMIN
 10
24.23701832916867
 20
27.74364781839995
 30
-0.0000000349181948
  9
$EXTMAX
 10
222.6619885565769
 20
88.70528425512361
 30
0.0000000814935746
  9
$LIMMIN
 10
0.0
 20
0.0
  9
$LIMMAX
 10
420.0
 20
297.0
  9
$ORTHOMODE
 70
     1
  9
$REGENMODE
 70
     1
  9
$FILLMODE
 70
     1
  9
$QTEXTMODE
 70
     0
  9
$MIRRTEXT
 70
     0
  9
$DRAGMODE
 70
     2
  9
$LTSCALE
 40
2.0
  9
$OSMODE
 70
   191
  9
$ATTMODE
 70
     1
  9
$TEXTSIZE
 40
2.5
  9
$TRACEWID
 40
1.0
  9
$TEXTSTYLE
  7
STANDARD
  9
$CLAYER
  8
OBJECT
  9
$CELTYPE
  6
BYLAYER
  9
$CECOLOR
 62
   256
  9
$CELTSCALE
 40
1.0
  9
$DELOBJ
 70
     1
  9
$DISPSILH
 70
     0
  9
$DIMSCALE
 40
0.4600000000000001
  9
$DIMASZ
 40
2.5
  9
$DIMEXO
 40
1.25
  9
$DIMDLI
 40
1.0
  9
$DIMRND
 40
0.0
  9
$DIMDLE
 40
0.0
  9
$DIMEXE
 40
0.625
  9
$DIMTP
 40
0.0
  9
$DIMTM
 40
0.0
  9
$DIMTXT
 40
2.5
  9
$DIMCEN
 40
0.0
  9
$DIMTSZ
 40
0.0
  9
$DIMTOL
 70
     0
  9
$DIMLIM
 70
     0
  9
$DIMTIH
 70
     0
  9
$DIMTOH
 70
     0
  9
$DIMSE1
 70
     0
  9
$DIMSE2
 70
     0
  9
$DIMTAD
 70
     1
  9
$DIMZIN
 70
     8
  9
$DIMBLK
  1

  9
$DIMASO
 70
     1
  9
$DIMSHO
 70
     1
  9
$DIMPOST
  1

  9
$DIMAPOST
  1

  9
$DIMALT
 70
     0
  9
$DIMALTD
 70
     4
  9
$DIMALTF
 40
0.0394
  9
$DIMLFAC
 40
1.0
  9
$DIMTOFL
 70
     1
  9
$DIMTVP
 40
0.0
  9
$DIMTIX
 70
     0
  9
$DIMSOXD
 70
     0
  9
$DIMSAH
 70
     0
  9
$DIMBLK1
  1

  9
$DIMBLK2
  1

  9
$DIMSTYLE
  2
STANDARD
  9
$DIMCLRD
 70
     3
  9
$DIMCLRE
 70
     3
  9
$DIMCLRT
 70
     3
  9
$DIMTFAC
 40
1.0
  9
$DIMGAP
 40
0.625
  9
$DIMJUST
 70
     0
  9
$DIMSD1
 70
     0
  9
$DIMSD2
 70
     0
  9
$DIMTOLJ
 70
     1
  9
$DIMTZIN
 70
     8
  9
$DIMALTZ
 70
     0
  9
$DIMALTTZ
 70
     0
  9
$DIMFIT
 70
     3
  9
$DIMUPT
 70
     0
  9
$DIMUNIT
 70
     2
  9
$DIMDEC
 70
     2
  9
$DIMTDEC
 70
     2
  9
$DIMALTU
 70
     8
  9
$DIMALTTD
 70
     4
  9
$DIMTXSTY
  7
STANDARD
  9
$DIMAUNIT
 70
     0
  9
$LUNITS
 70
     2
  9
$LUPREC
 70
     4
  9
$SKETCHINC
 40
1.0
  9
$FILLETRAD
 40
0.5
  9
$AUNITS
 70
     0
  9
$AUPREC
 70
     0
  9
$MENU
  1
.
  9
$ELEVATION
 40
0.0
  9
$PELEVATION
 40
0.0
  9
$THICKNESS
 40
0.0
  9
$LIMCHECK
 70
     0
  9
$BLIPMODE
 70
     0
  9
$CHAMFERA
 40
0.0
  9
$CHAMFERB
 40
0.0
  9
$CHAMFERC
 40
20.0
  9
$CHAMFERD
 40
0.0
  9
$SKPOLY
 70
     0
  9
$TDCREATE
 40
2452136.870343981
  9
$TDUPDATE
 40
2454518.461962164
  9
$TDINDWG
 40
10.8348545602
  9
$TDUSRTIMER
 40
10.8348545602
  9
$USRTIMER
 70
     1
  9
$ANGBASE
 50
0.0
  9
$ANGDIR
 70
     0
  9
$PDMODE
 70
     0
  9
$PDSIZE
 40
0.0
  9
$PLINEWID
 40
0.3
  9
$COORDS
 70
     0
  9
$SPLFRAME
 70
     0
  9
$SPLINETYPE
 70
     6
  9
$SPLINESEGS
 70
     8
  9
$ATTDIA
 70
     0
  9
$ATTREQ
 70
     1
  9
$HANDLING
 70
 22529
  9
$HANDSEED
  5
5A6
  9
$SURFTAB1
 70
     6
  9
$SURFTAB2
 70
     6
  9
$SURFTYPE
 70
     6
  9
$SURFU
 70
     6
  9
$SURFV
 70
     6
  9
$UCSNAME
  2

  9
$UCSORG
 10
0.0
 20
0.0
 30
0.0
  9
$UCSXDIR
 10
1.0
 20
0.0
 30
0.0
  9
$UCSYDIR
 10
0.0
 20
1.0
 30
0.0
  9
$PUCSNAME
  2

  9
$PUCSORG
 10
0.0
 20
0.0
 30
0.0
  9
$PUCSXDIR
 10
1.0
 20
0.0
 30
0.0
  9
$PUCSYDIR
 10
0.0
 20
1.0
 30
0.0
  9
$USERI1
 70
     0
  9
$USERI2
 70
     0
  9
$USERI3
 70
     0
  9
$USERI4
 70
     0
  9
$USERI5
 70
     0
  9
$USERR1
 40
0.0
  9
$USERR2
 40
0.0
  9
$USERR3
 40
0.0
  9
$USERR4
 40
0.0
  9
$USERR5
 40
0.0
  9
$WORLDVIEW
 70
     1
  9
$SHADEDGE
 70
     3
  9
$SHADEDIF
 70
    70
  9
$TILEMODE
 70
     1
  9
$MAXACTVP
 70
    48
  9
$PINSBASE
 10
0.0
 20
0.0
 30
0.0
  9
$PLIMCHECK
 70
     0
  9
$PEXTMIN
 10
0.9598916571909988
 20
0.8043799099959727
 30
0.0
  9
$PEXTMAX
 10
8.639024914718985
 20
7.239419189963752
 30
0.0
  9
$PLIMMIN
 10
-0.7005418191744587
 20
-0.2281003861915408
  9
$PLIMMAX
 10
10.29945794052965
 20
8.271899373512567
  9
$UNITMODE
 70
     0
  9
$VISRETAIN
 70
     1
  9
$PLINEGEN
 70
     0
  9
$PSLTSCALE
 70
     1
  9
$TREEDEPTH
 70
  3020
  9
$PICKSTYLE
 70
     1
  9
$CMLSTYLE
  2
STANDARD
  9
$CMLJUST
 70
     0
  9
$CMLSCALE
 40
20.0
  9
$PROXYGRAPHICS
 70
     1
  9
$MEASUREMENT
 70
     0
  0
ENDSEC
  0
SECTION
  2
CLASSES
  0
CLASS
  1
DICTIONARYVAR
  2
AcDbDictionaryVar
  3
AutoCAD 2000
 90
        0
280
     0
281
     0
  0
CLASS
  1
HATCH
  2
AcDbHatch
  3
AutoCAD 2000
 90
        0
280
     0
281
     1
  0
CLASS
  1
XRECORD
  2
AcDbXrecord
  3
AutoCAD 2000
 90
        0
280
     0
281
     0
  0
CLASS
  1
LWPOLYLINE
  2
AcDbPolyline
  3
AutoCAD 2000
 90
        0
280
     0
281
     1
  0
CLASS
  1
ACDBDICTIONARYWDFLT
  2
AcDbDictionaryWithDefault
  3
AutoCAD 2000
 90
        0
280
     0
281
     0
  0
CLASS
  1
ACDBPLACEHOLDER
  2
AcDbPlaceHolder
  3
AutoCAD 2000
 90
        0
280
     0
281
     0
  0
CLASS
  1
LAYOUT
  2
AcDbLayout
  3
AutoCAD 2000
 90
        0
280
     0
281
     0
  0
CLASS
  1
DIMASSOC
  2
AcDbDimAssoc
  3
"AcDbDimAssoc|Product Desc:     AcDim ARX App For Dimension|Company:          Autodesk, Inc.|WEB Address:      www.autodesk.com"
 90
        0
280
     0
281
     0
  0
CLASS
  1
PLOTSETTINGS
  2
AcDbPlotSettings
  3
AutoCAD 2000
 90
        0
280
     0
281
     0
  0
CLASS
  1
LONG_TRANSACTION
  2
AcDbLongTransaction
  3
AutoCAD 2000
 90
        0
280
     0
281
     0
  0
CLASS
  1
LWPOLYLINE
  2
AcDbPolyline
  3
AutoCAD 2000
 90
        0
280
     0
281
     1
  0
CLASS
  1
HATCH
  2
AcDbHatch
  3
AutoCAD 2000
 90
        0
280
     0
281
     1
  0
CLASS
  1
XRECORD
  2
AcDbXrecord
  3
AutoCAD 2000
 90
        0
280
     0
281
     0
  0
ENDSEC
  0
SECTION
  2
TABLES
  0
TABLE
  2
VPORT
  5
1C
330
0
100
AcDbSymbolTable
 70
     6
  0
VPORT
  5
580
330
1C
100
AcDbSymbolTableRecord
100
AcDbViewportTableRecord
  2
*ACTIVE
 70
     0
 10
0.0
 20
0.0
 11
1.0
 21
1.0
 12
123.439669386151
 22
56.7153743973472
 13
0.0
 23
0.0
 14
10.0
 24
10.0
 15
10.0
 25
10.0
 16
0.0
 26
0.0
 36
1.0
 17
0.0
 27
0.0
 37
0.0
 40
188.7348490120778
 41
1.493654822335025
 42
50.0
 43
0.0
 44
0.0
 50
0.0
 51
0.0
 71
     0
 72
 20000
 73
     1
 74
     1
 75
     0
 76
     0
 77
     0
 78
     0
  0
ENDTAB
  0
TABLE
  2
LTYPE
  5
17
330
0
100
AcDbSymbolTable
 70
     1
  0
LTYPE
  5
18
330
17
100
AcDbSymbolTableRecord
100
AcDbLinetypeTableRecord
  2
BYBLOCK
 70
     0
  3

 72
    65
 73
     0
 40
0.0
  0
LTYPE
  5
19
330
17
100
AcDbSymbolTableRecord
100
AcDbLinetypeTableRecord
  2
BYLAYER
 70
     0
  3

 72
    65
 73
     0
 40
0.0
  0
LTYPE
  5
8
330
17
100
AcDbSymbolTableRecord
100
AcDbLinetypeTableRecord
  2
CONTINUOUS
 70
     0
  3
Solid line
 72
    65
 73
     0
 40
0.0
  0
ENDTAB
  0
TABLE
  2
LAYER
  5
10
102
{ACAD_XDICTIONARY
360
11
102
}
330
0
100
AcDbSymbolTable
 70
     4
  0
LAYER
  5
4
330
10
100
AcDbSymbolTableRecord
100
AcDbLayerTableRecord
  2
0
 70
     0
 62
     7
  6
CONTINUOUS
  0
LAYER
  5
B4
330
10
100
AcDbSymbolTableRecord
100
AcDbLayerTableRecord
  2
TEXT
 70
     0
 62
     3
  6
CONTINUOUS
  0
LAYER
  5
27
330
10
100
AcDbSymbolTableRecord
100
AcDbLayerTableRecord
  2
OBJECT
 70
     0
 62
     7
  6
CONTINUOUS
  0
LAYER
  5
36
330
10
100
AcDbSymbolTableRecord
100
AcDbLayerTableRecord
  2
DEFPOINTS
 70
     0
 62
     2
  6
CONTINUOUS
  0
ENDTAB
  0
TABLE
  2
STYLE
  5
14
330
0
100
AcDbSymbolTable
 70
     3
  0
STYLE
  5
15
330
14
100
AcDbSymbolTableRecord
100
AcDbTextStyleTableRecord
  2
STANDARD
 70
     0
 40
0.0
 41
1.0
 50
0.0
 71
     0
 42
2.5
  3
simplex.shx
  4
bigfont.shx
  0
ENDTAB
  0
TABLE
  2
VIEW
  5
1A
330
0
100
AcDbSymbolTable
 70
     0
  0
ENDTAB
  0
TABLE
  2
UCS
  5
1B
330
0
100
AcDbSymbolTable
 70
     0
  0
ENDTAB
  0
TABLE
  2
APPID
  5
1E
330
0
100
AcDbSymbolTable
 70
     1
  0
APPID
  5
1F
330
1E
100
AcDbSymbolTableRecord
100
AcDbRegAppTableRecord
  2
ACAD
 70
     0
  0
ENDTAB
  0
TABLE
  2
DIMSTYLE
  5
20
330
0
100
AcDbSymbolTable
 70
     1
  0
DIMSTYLE
105
21
102
{ACAD_REACTORS
330
210
330
221
330
203
330
18B
330
3B
330
2D
102
}
330
20
100
AcDbSymbolTableRecord
100
AcDbDimStyleTableRecord
  2
STANDARD
 70
     0
  3

  4

  5

  6

  7

 40
0.4600000000000001
 41
2.5
 42
1.25
 43
1.0
 44
0.625
 45
0.0
 46
0.0
 47
0.0
 48
0.0
140
2.5
141
0.0
142
0.0
143
0.0394
144
1.0
145
0.0
146
1.0
147
0.625
 71
     0
 72
     0
 73
     0
 74
     0
 75
     0
 76
     0
 77
     1
 78
     8
170
     0
171
     4
172
     1
173
     0
174
     0
175
     0
176
     3
177
     3
178
     3
270
     2
271
     2
272
     2
273
     8
274
     4
340
15
275
     0
280
     0
281
     0
282
     0
283
     1
284
     8
285
     0
286
     0
287
     3
288
     0
  0
ENDTAB
  0
TABLE
  2
BLOCK_RECORD
  5
1
330
0
100
AcDbSymbolTable
 70
     8
  0
BLOCK_RECORD
  5
2
102
{ACAD_XDICTIONARY
360
5A2
102
}
330
1
100
AcDbSymbolTableRecord
100
AcDbBlockTableRecord
  2
*MODEL_SPACE
  0
BLOCK_RECORD
  5
C
102
{ACAD_XDICTIONARY
360
5A4
102
}
330
1
100
AcDbSymbolTableRecord
100
AcDbBlockTableRecord
  2
*PAPER_SPACE
  0
BLOCK_RECORD
  5
24D
330
1
100
AcDbSymbolTableRecord
100
AcDbBlockTableRecord
  2
*D2
  0
BLOCK_RECORD
  5
259
330
1
100
AcDbSymbolTableRecord
100
AcDbBlockTableRecord
  2
*D3
  0
BLOCK_RECORD
  5
265
330
1
100
AcDbSymbolTableRecord
100
AcDbBlockTableRecord
  2
*D4
  0
BLOCK_RECORD
  5
271
330
1
100
AcDbSymbolTableRecord
100
AcDbBlockTableRecord
  2
*D5
  0
BLOCK_RECORD
  5
27D
330
1
100
AcDbSymbolTableRecord
100
AcDbBlockTableRecord
  2
*D6
  0
BLOCK_RECORD
  5
28A
330
1
100
AcDbSymbolTableRecord
100
AcDbBlockTableRecord
  2
*D7
  0
ENDTAB
  0
ENDSEC
  0
SECTION
  2
BLOCKS
  0
BLOCK
  5
3
330
2
100
AcDbEntity
  8
0
100
AcDbBlockBegin
  2
*MODEL_SPACE
 70
     2
 10
0.0
 20
0.0
 30
0.0
  3
*MODEL_SPACE
  1

  0
ENDBLK
  5
9
330
2
100
AcDbEntity
  8
0
100
AcDbBlockEnd
  0
BLOCK
  5
D
330
C
100
AcDbEntity
 67
     1
  8
0
100
AcDbBlockBegin
  2
*PAPER_SPACE
 70
     0
 10
0.0
 20
0.0
 30
0.0
  3
*PAPER_SPACE
  1

  0
ENDBLK
  5
E
330
C
100
AcDbEntity
 67
     1
  8
0
100
AcDbBlockEnd
  0
BLOCK
  5
257
330
24D
100
AcDbEntity
  8
0
100
AcDbBlockBegin
  2
*D2
 70
     1
 10
0.0
 20
0.0
 30
0.0
  3
*D2
  1

  0
LINE
  5
545
330
24D
100
AcDbEntity
  8
TEXT
 62
     0
100
AcDbLine
 10
84.85854772611856
 20
42.54786241532002
 30
0.0
 11
84.85854772611856
 21
27.78876414103422
 31
0.0
  0
LINE
  5
546
330
24D
100
AcDbEntity
  8
TEXT
 62
     0
100
AcDbLine
 10
205.9150504748543
 20
51.74092261763224
 30
0.0
 11
205.9150504748543
 21
27.78876414103422
 31
0.0
  0
LINE
  5
547
330
24D
100
AcDbEntity
  8
TEXT
 62
     0
100
AcDbLine
 10
87.35854772611856
 20
28.41376414103422
 30
0.0
 11
203.4150504748542
 21
28.41376414103422
 31
0.0
  0
SOLID
  5
548
330
24D
100
AcDbEntity
  8
TEXT
 62
     0
100
AcDbTrace
 10
87.35854772611856
 20
28.83043080770089
 30
0.0
 11
87.35854772611856
 21
27.99709747436755
 31
0.0
 12
84.85854772611856
 22
28.41376414103422
 32
0.0
 13
84.85854772611856
 23
28.41376414103422
 33
0.0
  0
SOLID
  5
549
330
24D
100
AcDbEntity
  8
TEXT
 62
     0
100
AcDbTrace
 10
203.4150504748542
 20
28.83043080770089
 30
0.0
 11
203.4150504748542
 21
27.99709747436755
 31
0.0
 12
205.9150504748543
 22
28.41376414103422
 32
0.0
 13
205.9150504748543
 23
28.41376414103422
 33
0.0
  0
MTEXT
  5
54A
330
24D
100
AcDbEntity
  8
TEXT
 62
     0
100
AcDbMText
 10
145.3867991004864
 20
30.53876414103422
 30
0.0
 40
3.0
 41
0.0
 71
     5
 72
     1
  1
\A1;1000／2000
1001
ACAD
1000
MTEXTBEGIN
1070
    73
1070
     1
1070
    44
1040
1.0
1070
    74
1070
     0
1000
MTEXTEND
  0
POINT
  5
54B
330
24D
100
AcDbEntity
  8
DEFPOINTS
 62
     0
100
AcDbPoint
 10
84.85854772611856
 20
43.79786241532002
 30
0.0
  0
POINT
  5
54C
330
24D
100
AcDbEntity
  8
DEFPOINTS
 62
     0
100
AcDbPoint
 10
205.9150504748543
 20
52.99092261763224
 30
0.0
  0
POINT
  5
54D
330
24D
100
AcDbEntity
  8
DEFPOINTS
 62
     0
100
AcDbPoint
 10
205.9150504748543
 20
28.41376414103422
 30
0.0
  0
ENDBLK
  5
258
330
24D
100
AcDbEntity
  8
0
100
AcDbBlockEnd
  0
BLOCK
  5
263
330
259
100
AcDbEntity
  8
0
100
AcDbBlockBegin
  2
*D3
 70
     1
 10
0.0
 20
0.0
 30
0.0
  3
*D3
  1

  0
LINE
  5
54E
330
259
100
AcDbEntity
  8
TEXT
 62
     0
100
AcDbLine
 10
39.212636374265
 20
73.59786241532003
 30
0.0
 11
53.46373102481654
 21
73.59786241532003
 31
0.0
  0
LINE
  5
54F
330
259
100
AcDbEntity
  8
TEXT
 62
     0
100
AcDbLine
 10
39.212636374265
 20
40.09786241532004
 30
0.0
 11
53.46373102481653
 21
40.09786241532003
 31
0.0
  0
LINE
  5
550
330
259
100
AcDbEntity
  8
TEXT
 62
     0
100
AcDbLine
 10
52.83873102481654
 20
71.09786241532003
 30
0.0
 11
52.83873102481653
 21
42.59786241532003
 31
0.0
  0
SOLID
  5
551
330
259
100
AcDbEntity
  8
TEXT
 62
     0
100
AcDbTrace
 10
52.42206435814988
 20
71.09786241532003
 30
0.0
 11
53.25539769148321
 21
71.09786241532003
 31
0.0
 12
52.83873102481654
 22
73.59786241532003
 32
0.0
 13
52.83873102481654
 23
73.59786241532003
 33
0.0
  0
SOLID
  5
552
330
259
100
AcDbEntity
  8
TEXT
 62
     0
100
AcDbTrace
 10
52.42206435814987
 20
42.59786241532003
 30
0.0
 11
53.2553976914832
 21
42.59786241532003
 31
0.0
 12
52.83873102481653
 22
40.09786241532003
 32
0.0
 13
52.83873102481653
 23
40.09786241532003
 33
0.0
  0
MTEXT
  5
553
330
259
100
AcDbEntity
  8
TEXT
 62
     0
100
AcDbMText
 10
50.71373102481652
 20
56.92631478389097
 30
0.0
 40
3.0
 41
0.0
 71
     5
 72
     1
  1
\A1;33.5
 11
0.0000000000000001
 21
1.0
 31
0.0
1001
ACAD
1000
MTEXTBEGIN
1070
    73
1070
     1
1070
    44
1040
1.0
1070
    74
1070
     0
1000
MTEXTEND
  0
POINT
  5
554
330
259
100
AcDbEntity
  8
DEFPOINTS
 62
     0
100
AcDbPoint
 10
37.962636374265
 20
73.59786241532003
 30
0.0
  0
POINT
  5
555
330
259
100
AcDbEntity
  8
DEFPOINTS
 62
     0
100
AcDbPoint
 10
37.962636374265
 20
40.09786241532004
 30
0.0
  0
POINT
  5
556
330
259
100
AcDbEntity
  8
DEFPOINTS
 62
     0
100
AcDbPoint
 10
52.83873102481653
 20
40.09786241532003
 30
0.0
  0
ENDBLK
  5
264
330
259
100
AcDbEntity
  8
0
100
AcDbBlockEnd
  0
BLOCK
  5
26F
330
265
100
AcDbEntity
  8
0
100
AcDbBlockBegin
  2
*D4
 70
     1
 10
0.0
 20
0.0
 30
0.0
  3
*D4
  1

  0
LINE
  5
557
330
265
100
AcDbEntity
  8
TEXT
 62
     0
100
AcDbLine
 10
29.76263637426495
 20
42.34786241532003
 30
0.0
 11
29.76263637426495
 21
27.8633485112644
 31
0.0
  0
LINE
  5
558
330
265
100
AcDbEntity
  8
TEXT
 62
     0
100
AcDbLine
 10
40.16263637426504
 20
42.34786241532003
 30
0.0
 11
40.16263637426504
 21
27.8633485112644
 31
0.0
  0
LINE
  5
559
330
265
100
AcDbEntity
  8
TEXT
 62
     0
100
AcDbLine
 10
32.26263637426495
 20
28.4883485112644
 30
0.0
 11
37.66263637426504
 21
28.4883485112644
 31
0.0
  0
SOLID
  5
55A
330
265
100
AcDbEntity
  8
TEXT
 62
     0
100
AcDbTrace
 10
32.26263637426495
 20
28.90501517793107
 30
0.0
 11
32.26263637426495
 21
28.07168184459774
 31
0.0
 12
29.76263637426495
 22
28.4883485112644
 32
0.0
 13
29.76263637426495
 23
28.4883485112644
 33
0.0
  0
SOLID
  5
55B
330
265
100
AcDbEntity
  8
TEXT
 62
     0
100
AcDbTrace
 10
37.66263637426504
 20
28.90501517793107
 30
0.0
 11
37.66263637426504
 21
28.07168184459774
 31
0.0
 12
40.16263637426504
 22
28.4883485112644
 32
0.0
 13
40.16263637426504
 23
28.4883485112644
 33
0.0
  0
MTEXT
  5
55C
330
265
100
AcDbEntity
  8
TEXT
 62
     0
100
AcDbMText
 10
35.39776422236809
 20
30.6133485112644
 30
0.0
 40
3.0
 41
0.0
 71
     5
 72
     1
  1
\A1;10.4
1001
ACAD
1000
MTEXTBEGIN
1070
    73
1070
     1
1070
    44
1040
1.0
1070
    74
1070
     0
1000
MTEXTEND
  0
POINT
  5
55D
330
265
100
AcDbEntity
  8
DEFPOINTS
 62
     0
100
AcDbPoint
 10
29.76263637426495
 20
43.59786241532003
 30
0.0
  0
POINT
  5
55E
330
265
100
AcDbEntity
  8
DEFPOINTS
 62
     0
100
AcDbPoint
 10
40.16263637426504
 20
43.59786241532003
 30
0.0
  0
POINT
  5
55F
330
265
100
AcDbEntity
  8
DEFPOINTS
 62
     0
100
AcDbPoint
 10
40.16263637426504
 20
28.4883485112644
 30
0.0
  0
ENDBLK
  5
270
330
265
100
AcDbEntity
  8
0
100
AcDbBlockEnd
  0
BLOCK
  5
27B
330
271
100
AcDbEntity
  8
0
100
AcDbBlockBegin
  2
*D5
 70
     1
 10
0.0
 20
0.0
 30
0.0
  3
*D5
  1

  0
LINE
  5
560
330
271
100
AcDbEntity
  8
TEXT
 62
     0
100
AcDbLine
 10
63.35854772611856
 20
41.84786241532009
 30
0.0
 11
63.35854772611856
 21
27.78876414103422
 31
0.0
  0
LINE
  5
561
330
271
100
AcDbEntity
  8
TEXT
 62
     0
100
AcDbLine
 10
84.85854772611856
 20
42.74786241532001
 30
0.0
 11
84.85854772611856
 21
27.78876414103422
 31
0.0
  0
LINE
  5
562
330
271
100
AcDbEntity
  8
TEXT
 62
     0
100
AcDbLine
 10
65.85854772611856
 20
28.41376414103422
 30
0.0
 11
82.35854772611856
 21
28.41376414103422
 31
0.0
  0
SOLID
  5
563
330
271
100
AcDbEntity
  8
TEXT
 62
     0
100
AcDbTrace
 10
65.85854772611856
 20
28.83043080770089
 30
0.0
 11
65.85854772611856
 21
27.99709747436755
 31
0.0
 12
63.35854772611856
 22
28.41376414103422
 32
0.0
 13
63.35854772611856
 23
28.41376414103422
 33
0.0
  0
SOLID
  5
564
330
271
100
AcDbEntity
  8
TEXT
 62
     0
100
AcDbTrace
 10
82.35854772611856
 20
28.83043080770089
 30
0.0
 11
82.35854772611856
 21
27.99709747436755
 31
0.0
 12
84.85854772611856
 22
28.41376414103422
 32
0.0
 13
84.85854772611856
 23
28.41376414103422
 33
0.0
  0
MTEXT
  5
565
330
271
100
AcDbEntity
  8
TEXT
 62
     0
100
AcDbMText
 10
74.10854772611855
 20
30.53876414103422
 30
0.0
 40
3.0
 41
0.0
 71
     5
 72
     1
  1
\A1;21.5
1001
ACAD
1000
MTEXTBEGIN
1070
    73
1070
     1
1070
    44
1040
1.0
1070
    74
1070
     0
1000
MTEXTEND
  0
POINT
  5
566
330
271
100
AcDbEntity
  8
DEFPOINTS
 62
     0
100
AcDbPoint
 10
63.35854772611856
 20
43.09786241532009
 30
0.0
  0
POINT
  5
567
330
271
100
AcDbEntity
  8
DEFPOINTS
 62
     0
100
AcDbPoint
 10
84.85854772611856
 20
43.99786241532001
 30
0.0
  0
POINT
  5
568
330
271
100
AcDbEntity
  8
DEFPOINTS
 62
     0
100
AcDbPoint
 10
84.85854772611856
 20
28.41376414103422
 30
0.0
  0
ENDBLK
  5
27C
330
271
100
AcDbEntity
  8
0
100
AcDbBlockEnd
  0
BLOCK
  5
288
330
27D
100
AcDbEntity
  8
0
100
AcDbBlockBegin
  2
*D6
 70
     1
 10
0.0
 20
0.0
 30
0.0
  3
*D6
  1

  0
LINE
  5
569
330
27D
100
AcDbEntity
  8
TEXT
 62
     0
100
AcDbLine
 10
130.7814080037442
 20
60.80092261763218
 30
0.0
 11
132.320373818482
 21
60.80092261763218
 31
0.0
  0
LINE
  5
56A
330
27D
100
AcDbEntity
  8
TEXT
 62
     0
100
AcDbLine
 10
130.7814080037442
 20
52.99092261763218
 30
0.0
 11
132.320373818482
 21
52.99092261763218
 31
0.0
  0
LINE
  5
56B
330
27D
100
AcDbEntity
  8
TEXT
 62
     0
100
AcDbLine
 10
131.695373818482
 20
55.49092261763218
 30
0.0
 11
131.695373818482
 21
58.30092261763218
 31
0.0
  0
LINE
  5
56C
330
27D
100
AcDbEntity
  8
TEXT
 62
     0
100
AcDbLine
 10
131.695373818482
 20
60.80092261763218
 30
0.0
 11
131.695373818482
 21
74.22592261763239
 31
0.0
  0
SOLID
  5
56D
330
27D
100
AcDbEntity
  8
TEXT
 62
     0
100
AcDbTrace
 10
131.2787071518153
 20
55.49092261763218
 30
0.0
 11
132.1120404851487
 21
55.49092261763218
 31
0.0
 12
131.695373818482
 22
52.99092261763218
 32
0.0
 13
131.695373818482
 23
52.99092261763218
 33
0.0
  0
SOLID
  5
56E
330
27D
100
AcDbEntity
  8
TEXT
 62
     0
100
AcDbTrace
 10
131.2787071518153
 20
58.30092261763218
 30
0.0
 11
132.1120404851487
 21
58.30092261763218
 31
0.0
 12
131.695373818482
 22
60.80092261763218
 32
0.0
 13
131.695373818482
 23
60.80092261763218
 33
0.0
  0
MTEXT
  5
56F
330
27D
100
AcDbEntity
  8
TEXT
 62
     0
100
AcDbMText
 10
129.570373818482
 20
68.95806547477525
 30
0.0
 40
3.0
 41
0.0
 71
     5
 72
     1
  1
\A1;φ8.5
 11
0.0000000000000001
 21
1.0
 31
0.0
1001
ACAD
1000
MTEXTBEGIN
1070
    73
1070
     1
1070
    44
1040
1.0
1070
    74
1070
     0
1000
MTEXTEND
  0
POINT
  5
570
330
27D
100
AcDbEntity
  8
DEFPOINTS
 62
     0
100
AcDbPoint
 10
129.5314080037442
 20
60.80092261763218
 30
0.0
  0
POINT
  5
571
330
27D
100
AcDbEntity
  8
DEFPOINTS
 62
     0
100
AcDbPoint
 10
129.5314080037442
 20
52.99092261763218
 30
0.0
  0
POINT
  5
572
330
27D
100
AcDbEntity
  8
DEFPOINTS
 62
     0
100
AcDbPoint
 10
131.695373818482
 20
52.99092261763218
 30
0.0
  0
ENDBLK
  5
289
330
27D
100
AcDbEntity
  8
0
100
AcDbBlockEnd
  0
BLOCK
  5
294
330
28A
100
AcDbEntity
  8
0
100
AcDbBlockBegin
  2
*D7
 70
     1
 10
0.0
 20
0.0
 30
0.0
  3
*D7
  1

  0
LINE
  5
573
330
28A
100
AcDbEntity
  8
TEXT
 62
     0
100
AcDbLine
 10
222.5998125267633
 20
53.74092261763223
 30
0.0
 11
222.5998125267633
 21
27.77179878064703
 31
0.0
  0
LINE
  5
574
330
28A
100
AcDbEntity
  8
TEXT
 62
     0
100
AcDbLine
 10
205.9150504748543
 20
51.74092261763224
 30
0.0
 11
205.9150504748543
 21
27.77179878064703
 31
0.0
  0
LINE
  5
575
330
28A
100
AcDbEntity
  8
TEXT
 62
     0
100
AcDbLine
 10
220.0998125267633
 20
28.39679878064703
 30
0.0
 11
208.4150504748543
 21
28.39679878064703
 31
0.0
  0
SOLID
  5
576
330
28A
100
AcDbEntity
  8
TEXT
 62
     0
100
AcDbTrace
 10
220.0998125267633
 20
28.81346544731369
 30
0.0
 11
220.0998125267633
 21
27.98013211398036
 31
0.0
 12
222.5998125267633
 22
28.39679878064703
 32
0.0
 13
222.5998125267633
 23
28.39679878064703
 33
0.0
  0
SOLID
  5
577
330
28A
100
AcDbEntity
  8
TEXT
 62
     0
100
AcDbTrace
 10
208.4150504748543
 20
28.81346544731369
 30
0.0
 11
208.4150504748543
 21
27.98013211398036
 31
0.0
 12
205.9150504748543
 22
28.39679878064703
 32
0.0
 13
205.9150504748543
 23
28.39679878064703
 33
0.0
  0
MTEXT
  5
578
330
28A
100
AcDbEntity
  8
TEXT
 62
     0
100
AcDbMText
 10
215.9146100385169
 20
30.52179878064703
 30
0.0
 40
3.0
 41
0.0
 71
     5
 72
     1
  1
\A1;30
1001
ACAD
1000
MTEXTBEGIN
1070
    73
1070
     1
1070
    44
1040
1.0
1070
    74
1070
     0
1000
MTEXTEND
  0
POINT
  5
579
330
28A
100
AcDbEntity
  8
DEFPOINTS
 62
     0
100
AcDbPoint
 10
222.5998125267633
 20
54.99092261763223
 30
0.0
  0
POINT
  5
57A
330
28A
100
AcDbEntity
  8
DEFPOINTS
 62
     0
100
AcDbPoint
 10
205.9150504748543
 20
52.99092261763224
 30
0.0
  0
POINT
  5
57B
330
28A
100
AcDbEntity
  8
DEFPOINTS
 62
     0
100
AcDbPoint
 10
205.9150504748543
 20
28.39679878064703
 30
0.0
  0
ENDBLK
  5
295
330
28A
100
AcDbEntity
  8
0
100
AcDbBlockEnd
  0
ENDSEC
  0
SECTION
  2
ENTITIES
  0
LWPOLYLINE
  5
29
330
2
100
AcDbEntity
  8
OBJECT
100
AcDbPolyline
 90
        2
 70
     0
 43
0.3
 10
222.5998125267635
 20
54.99092261763223
 10
205.9150504748543
 20
54.99092261763223
  0
LWPOLYLINE
  5
2A
330
2
100
AcDbEntity
  8
OBJECT
100
AcDbPolyline
 90
        2
 70
     0
 43
0.3
 10
222.5998125267635
 20
56.08230248897587
 10
205.9150504748543
 20
56.08230248897587
  0
LWPOLYLINE
  5
2B
330
2
100
AcDbEntity
  8
OBJECT
100
AcDbPolyline
 90
        2
 70
     0
 43
0.3
 10
222.5998125267635
 20
57.70954274628855
 10
205.9150504748545
 20
57.70954274628855
  0
LWPOLYLINE
  5
2C
330
2
100
AcDbEntity
  8
OBJECT
100
AcDbPolyline
 90
        2
 70
     0
 43
0.3
 10
222.5998125267635
 20
58.80092261763218
 10
205.9150504748545
 20
58.80092261763218
  0
DIMENSION
  5
2D
330
2
100
AcDbEntity
  8
TEXT
100
AcDbDimension
  2
*D7
 10
205.9150504748543
 20
28.39679878064703
 30
0.0
 11
215.9146100385169
 21
28.39679878064703
 31
0.0
 70
   160
  1
30
  3
STANDARD
100
AcDbAlignedDimension
 13
222.5998125267633
 23
54.99092261763223
 33
0.0
 14
205.9150504748543
 24
52.99092261763224
 34
0.0
100
AcDbRotatedDimension
1001
ACAD
1000
DSTYLE
1002
{
1070
   140
1040
3.0
1070
    41
1040
2.5
1070
    40
1040
1.0
1070
   176
1070
     0
1070
   177
1070
     0
1070
   178
1070
     0
1002
}
  0
DIMENSION
  5
3B
330
2
100
AcDbEntity
  8
TEXT
100
AcDbDimension
  2
*D6
 10
131.695373818482
 20
52.99092261763218
 30
0.0
 11
131.695373818482
 21
68.95806547477525
 31
0.0
 70
   160
  1
φ8.5
  3
STANDARD
100
AcDbAlignedDimension
 13
129.5314080037442
 23
60.80092261763218
 33
0.0
 14
129.5314080037442
 24
52.99092261763218
 34
0.0
 50
90.0
100
AcDbRotatedDimension
1001
ACAD
1000
DSTYLE
1002
{
1070
   140
1040
3.0
1070
    41
1040
2.5
1070
    40
1040
1.0
1070
   176
1070
     0
1070
   177
1070
     0
1070
   178
1070
     0
1002
}
  0
LWPOLYLINE
  5
49
330
2
100
AcDbEntity
  8
OBJECT
 48
10.0
100
AcDbPolyline
 90
        2
 70
     0
 43
0.4
 10
88.85854772611855
 20
65.59786241532009
 10
94.85854772611856
 20
58.09786241532015
  0
LWPOLYLINE
  5
4A
330
2
100
AcDbEntity
  8
OBJECT
 48
10.0
100
AcDbPolyline
 90
        2
 70
     0
 43
0.4
 10
88.85854772611855
 20
68.09786241532009
 10
94.85854772611856
 20
58.09786241532015
  0
DIMENSION
  5
18B
330
2
100
AcDbEntity
  8
TEXT
100
AcDbDimension
  2
*D3
 10
52.83873102481653
 20
40.09786241532003
 30
0.0
 11
52.83873102481653
 21
56.92631478389097
 31
0.0
 70
   160
  3
STANDARD
100
AcDbAlignedDimension
 13
37.962636374265
 23
73.59786241532003
 33
0.0
 14
37.962636374265
 24
40.09786241532004
 34
0.0
 50
90.0
100
AcDbRotatedDimension
1001
ACAD
1000
DSTYLE
1002
{
1070
   140
1040
3.0
1070
    41
1040
2.5
1070
    40
1040
1.0
1070
   176
1070
     0
1070
   177
1070
     0
1070
   178
1070
     0
1002
}
  0
LWPOLYLINE
  5
1FB
330
2
100
AcDbEntity
  8
OBJECT
 48
10.0
100
AcDbPolyline
 90
        2
 70
     0
 43
0.4
 10
88.85854772611855
 20
60.59786241532015
 10
94.85854772611856
 20
58.09786241532015
  0
LWPOLYLINE
  5
1FC
330
2
100
AcDbEntity
  8
OBJECT
 48
10.0
100
AcDbPolyline
 90
        2
 70
     0
 43
0.4
 10
88.85854772611855
 20
63.09786241532009
 10
94.85854772611856
 20
58.09786241532015
  0
LWPOLYLINE
  5
1FD
330
2
100
AcDbEntity
  8
OBJECT
100
AcDbPolyline
 90
        2
 70
     0
 43
0.6
 10
84.85854772611856
 20
55.59786241532015
 10
97.52242366421889
 20
55.59786241532015
  0
LWPOLYLINE
  5
1FE
330
2
100
AcDbEntity
  8
OBJECT
100
AcDbPolyline
 90
        2
 70
     0
 43
0.6
 10
84.85854772611856
 20
58.09786241532015
 10
97.52242366421933
 20
58.09786241532015
  0
LWPOLYLINE
  5
1FF
330
2
100
AcDbEntity
  8
OBJECT
 48
10.0
100
AcDbPolyline
 90
        2
 70
     0
 43
0.4
 10
88.85854772611855
 20
53.09786241531992
 10
94.85854772611856
 20
55.59786241531992
  0
LWPOLYLINE
  5
200
330
2
100
AcDbEntity
  8
OBJECT
 48
10.0
100
AcDbPolyline
 90
        2
 70
     0
 43
0.4
 10
88.85854772611855
 20
50.59786241531998
 10
94.85854772611856
 20
55.59786241531992
  0
LWPOLYLINE
  5
201
330
2
100
AcDbEntity
  8
OBJECT
 48
10.0
100
AcDbPolyline
 90
        2
 70
     0
 43
0.4
 10
88.85854772611855
 20
48.09786241531998
 10
94.85854772611856
 20
55.59786241531992
  0
LWPOLYLINE
  5
202
330
2
100
AcDbEntity
  8
OBJECT
 48
10.0
100
AcDbPolyline
 90
        2
 70
     0
 43
0.4
 10
88.85854772611855
 20
45.59786241531997
 10
94.85854772611856
 20
55.59786241531992
  0
DIMENSION
  5
203
330
2
100
AcDbEntity
  8
TEXT
100
AcDbDimension
  2
*D2
 10
205.9150504748543
 20
28.41376414103422
 30
0.0
 11
145.3867991004864
 21
30.53876414103422
 31
0.0
 70
    32
  1
1000／2000
  3
STANDARD
100
AcDbAlignedDimension
 13
84.85854772611856
 23
43.79786241532002
 33
0.0
 14
205.9150504748543
 24
52.99092261763224
 34
0.0
100
AcDbRotatedDimension
1001
ACAD
1000
DSTYLE
1002
{
1070
   140
1040
3.0
1070
    41
1040
2.5
1070
    40
1040
1.0
1070
   176
1070
     0
1070
   177
1070
     0
1070
   178
1070
     0
1002
}
  0
DIMENSION
  5
210
330
2
100
AcDbEntity
  8
TEXT
100
AcDbDimension
  2
*D4
 10
40.16263637426504
 20
28.4883485112644
 30
0.0
 11
35.39776422236809
 21
28.4883485112644
 31
0.0
 70
   160
  3
STANDARD
100
AcDbAlignedDimension
 13
29.76263637426495
 23
43.59786241532003
 33
0.0
 14
40.16263637426504
 24
43.59786241532003
 34
0.0
100
AcDbRotatedDimension
1001
ACAD
1000
DSTYLE
1002
{
1070
   140
1040
3.0
1070
    41
1040
2.5
1070
    40
1040
1.0
1070
   176
1070
     0
1070
   177
1070
     0
1070
   178
1070
     0
1002
}
  0
TEXT
  5
21E
330
2
100
AcDbEntity
  8
TEXT
100
AcDbText
 10
24.27952664777194
 20
44.84880518599379
 30
0.0
 40
1.5
  1
20
100
AcDbText
  0
TEXT
  5
220
330
2
100
AcDbEntity
  8
TEXT
100
AcDbText
 10
42.53985392400932
 20
44.76019995480641
 30
0.0
 40
1.5
  1
19
100
AcDbText
  0
DIMENSION
  5
221
330
2
100
AcDbEntity
  8
TEXT
100
AcDbDimension
  2
*D5
 10
84.85854772611856
 20
28.41376414103422
 30
0.0
 11
74.10854772611855
 21
30.53876414103422
 31
0.0
 70
    32
  3
STANDARD
100
AcDbAlignedDimension
 13
63.35854772611856
 23
43.09786241532009
 33
0.0
 14
84.85854772611856
 24
43.99786241532001
 34
0.0
100
AcDbRotatedDimension
1001
ACAD
1000
DSTYLE
1002
{
1070
   140
1040
3.0
1070
    41
1040
2.5
1070
    40
1040
1.0
1070
   176
1070
     0
1070
   177
1070
     0
1070
   178
1070
     0
1002
}
  0
LWPOLYLINE
  5
22E
330
2
100
AcDbEntity
  8
OBJECT
100
AcDbPolyline
 90
        2
 70
     0
 43
0.6
 10
84.85854772611856
 20
50.59786241532015
 10
88.85854772611855
 20
50.59786241532015
  0
LWPOLYLINE
  5
22F
330
2
100
AcDbEntity
  8
OBJECT
100
AcDbPolyline
 90
        2
 70
     0
 43
0.6
 10
84.85854772611856
 20
45.59786241532015
 10
88.85854772611855
 20
45.59786241532015
  0
LWPOLYLINE
  5
230
330
2
100
AcDbEntity
  8
OBJECT
100
AcDbPolyline
 90
        2
 70
     0
 43
0.6
 10
84.85854772611856
 20
48.09786241532015
 10
88.85854772611855
 20
48.09786241532015
  0
LWPOLYLINE
  5
231
330
2
100
AcDbEntity
  8
OBJECT
100
AcDbPolyline
 90
        2
 70
     0
 43
0.6
 10
84.85854772611856
 20
63.09786241532009
 10
88.85854772611855
 20
63.09786241532009
  0
LWPOLYLINE
  5
232
330
2
100
AcDbEntity
  8
OBJECT
100
AcDbPolyline
 90
        2
 70
     0
 43
0.6
 10
84.85854772611856
 20
60.59786241532015
 10
88.85854772611855
 20
60.59786241532015
  0
LWPOLYLINE
  5
233
330
2
100
AcDbEntity
  8
OBJECT
100
AcDbPolyline
 90
        2
 70
     0
 43
0.6
 10
84.85854772611856
 20
53.09786241532015
 10
88.85854772611855
 20
53.09786241532015
  0
LINE
  5
234
330
2
100
AcDbEntity
  8
OBJECT
100
AcDbLine
 10
158.4897824857541
 20
60.80092261763218
 30
0.0
 11
111.3882584026791
 21
60.80092261763218
 31
0.0
  0
LINE
  5
235
330
2
100
AcDbEntity
  8
OBJECT
100
AcDbLine
 10
111.3882584026791
 20
52.99092261763218
 30
0.0
 11
155.8846953848371
 21
52.99092261763224
 31
0.0
  0
LWPOLYLINE
  5
236
330
2
100
AcDbEntity
  8
OBJECT
100
AcDbPolyline
 90
        4
 70
     1
 43
0.0
 10
97.52242366421933
 20
61.55092261763218
 10
111.3882584026791
 20
61.55092261763218
 10
111.3882584026791
 20
52.24092261763217
 10
97.52242366421933
 20
52.24092261763217
  0
LINE
  5
237
330
2
100
AcDbEntity
  8
OBJECT
100
AcDbLine
 10
158.1743524466824
 20
52.99092261763229
 30
0.0
 11
205.9150504748543
 21
52.99092261763286
 31
0.0
  0
LINE
  5
238
330
2
100
AcDbEntity
  8
OBJECT
100
AcDbLine
 10
205.9150504748543
 20
60.8009226176324
 30
0.0
 11
160.7794395475996
 21
60.80092261763218
 31
0.0
  0
LINE
  5
239
330
2
100
AcDbEntity
  8
OBJECT
100
AcDbLine
 10
157.5072366717997
 20
50.99092261763224
 30
0.0
 11
161.4465553224824
 21
62.80092261763218
 31
0.0
  0
LINE
  5
23A
330
2
100
AcDbEntity
  8
OBJECT
100
AcDbLine
 10
155.2175796099543
 20
50.99092261763224
 30
0.0
 11
159.156898260637
 21
62.80092261763218
 31
0.0
  0
LINE
  5
23B
330
2
100
AcDbEntity
  8
OBJECT
 48
0.2
100
AcDbLine
 10
205.9150504748545
 20
60.80092261763212
 30
0.0
 11
205.9150504748543
 21
52.99092261763235
 31
0.0
  0
TEXT
  5
23C
330
2
100
AcDbEntity
  8
OBJECT
100
AcDbText
 10
29.23801592367408
 20
86.20346413524544
 30
0.0
 40
2.5
  1
XADR-20V　（JST）
100
AcDbText
  0
TEXT
  5
23D
330
2
100
AcDbEntity
  8
TEXT
100
AcDbText
 10
25.16594969396692
 20
67.97477184988247
 30
0.0
 40
1.5
  1
2
100
AcDbText
  0
TEXT
  5
23F
330
2
100
AcDbEntity
  8
TEXT
100
AcDbText
 10
43.160350385941
 20
67.79756138750769
 30
0.0
 40
1.5
  1
1
100
AcDbText
  0
LWPOLYLINE
  5
241
330
2
100
AcDbEntity
  8
OBJECT
100
AcDbPolyline
 90
        2
 70
     0
 43
0.6
 10
84.85854772611856
 20
68.09786241532009
 10
88.85854772611855
 20
68.09786241532009
  0
LWPOLYLINE
  5
242
330
2
100
AcDbEntity
  8
OBJECT
100
AcDbPolyline
 90
        2
 70
     0
 43
0.6
 10
84.85854772611856
 20
65.59786241532009
 10
88.85854772611855
 20
65.59786241532009
  0
LINE
  5
33E
330
2
100
AcDbEntity
  8
OBJECT
100
AcDbLine
 10
63.60854772611856
 20
63.84786241532004
 30
0.0
 11
63.60854772611856
 21
57.34786241532003
 31
0.0
  0
LINE
  5
33F
330
2
100
AcDbEntity
  8
OBJECT
100
AcDbLine
 10
63.35854772611856
 20
63.84786241532004
 30
0.0
 11
63.35854772611856
 21
49.84786241532003
 31
0.0
  0
LINE
  5
340
330
2
100
AcDbEntity
  8
OBJECT
100
AcDbLine
 10
63.85854772611856
 20
68.09786241532004
 30
0.0
 11
63.85854772611856
 21
45.59786241532004
 31
0.0
  0
LINE
  5
341
330
2
100
AcDbEntity
  8
OBJECT
100
AcDbLine
 10
84.85854772611856
 20
69.69786241532005
 30
0.0
 11
84.85854772611856
 21
43.99786241532001
 31
0.0
  0
LINE
  5
342
330
2
100
AcDbEntity
  8
OBJECT
100
AcDbLine
 10
71.35854772611856
 20
69.09786241532003
 30
0.0
 11
71.35854772611924
 21
44.59786241532003
 31
0.0
  0
LINE
  5
343
330
2
100
AcDbEntity
  8
OBJECT
100
AcDbLine
 10
73.35854772611856
 20
69.09786241531998
 30
0.0
 11
73.35854772611924
 21
44.59786241532003
 31
0.0
  0
LINE
  5
344
330
2
100
AcDbEntity
  8
OBJECT
100
AcDbLine
 10
74.9585477261187
 20
40.59786241532004
 30
0.0
 11
75.5585477261186
 21
40.59786241532004
 31
0.0
  0
LINE
  5
345
330
2
100
AcDbEntity
  8
OBJECT
100
AcDbLine
 10
69.35854772611856
 20
43.74786241532007
 30
0.0
 11
78.35854772611856
 21
43.74786241532024
 31
0.0
  0
LINE
  5
346
330
2
100
AcDbEntity
  8
OBJECT
100
AcDbLine
 10
73.35854772611856
 20
41.59786241532003
 30
0.0
 11
77.35854772611856
 21
41.59786241532003
 31
0.0
  0
LINE
  5
347
330
2
100
AcDbEntity
  8
OBJECT
100
AcDbLine
 10
63.35854772611856
 20
43.09786241532004
 30
0.0
 11
78.35854772611856
 21
43.09786241532004
 31
0.0
  0
LINE
  5
348
330
2
100
AcDbEntity
  8
OBJECT
100
AcDbLine
 10
69.35854772611856
 20
44.59786241532003
 30
0.0
 11
84.85854772611856
 21
44.59786241532003
 31
0.0
  0
LINE
  5
349
330
2
100
AcDbEntity
  8
OBJECT
100
AcDbLine
 10
63.35854772611856
 20
45.09786241532004
 30
0.0
 11
63.85854772611856
 21
45.59786241532004
 31
0.0
  0
POINT
  5
34A
330
2
100
AcDbEntity
  8
OBJECT
100
AcDbPoint
 10
63.85854772611856
 20
45.59786241532004
 30
0.0
  0
LINE
  5
34B
330
2
100
AcDbEntity
  8
OBJECT
100
AcDbLine
 10
74.35854772611879
 20
40.34786241532003
 30
0.0
 11
74.35854772611879
 21
40.09786241532004
 31
0.0
  0
LINE
  5
34C
330
2
100
AcDbEntity
  8
OBJECT
100
AcDbLine
 10
74.15854772611851
 20
40.09786241532004
 30
0.0
 11
74.35854772611879
 21
40.09786241532004
 31
0.0
  0
LINE
  5
34D
330
2
100
AcDbEntity
  8
OBJECT
100
AcDbLine
 10
74.9585477261187
 20
40.59786241532004
 30
0.0
 11
74.9585477261187
 21
40.34786241532003
 31
0.0
  0
LINE
  5
34E
330
2
100
AcDbEntity
  8
OBJECT
100
AcDbLine
 10
74.35854772611879
 20
40.34786241532003
 30
0.0
 11
74.9585477261187
 21
40.34786241532003
 31
0.0
  0
LINE
  5
34F
330
2
100
AcDbEntity
  8
OBJECT
100
AcDbLine
 10
70.85854772611924
 20
44.59786241532015
 30
0.0
 11
70.85854772611924
 21
43.74786241532001
 31
0.0
  0
LINE
  5
350
330
2
100
AcDbEntity
  8
OBJECT
100
AcDbLine
 10
71.35854772611924
 20
44.59786241532015
 30
0.0
 11
71.35854772611924
 21
43.74786241532001
 31
0.0
  0
ARC
  5
351
330
2
100
AcDbEntity
  8
OBJECT
100
AcDbCircle
 10
69.85854772611856
 20
43.44436264940248
 30
0.0
 40
0.5
100
AcDbArc
 50
223.86809375324
 51
249.4439547804249
  0
LINE
  5
352
330
2
100
AcDbEntity
  8
OBJECT
100
AcDbLine
 10
69.35854772611856
 20
43.74786241532001
 30
0.0
 11
69.35854772611856
 21
44.59786241532003
 31
0.0
  0
ARC
  5
353
330
2
100
AcDbEntity
  8
OBJECT
100
AcDbCircle
 10
68.15854772611874
 20
42.80026208760477
 30
0.0
 40
0.5
100
AcDbArc
 50
180.0
 51
249.4439547804249
  0
LINE
  5
354
330
2
100
AcDbEntity
  8
OBJECT
100
AcDbLine
 10
67.65854772611851
 20
43.09786241532004
 30
0.0
 11
67.65854772611874
 21
42.80026208760477
 31
0.0
  0
LINE
  5
355
330
2
100
AcDbEntity
  8
OBJECT
100
AcDbLine
 10
73.94094622799162
 20
40.09786241532004
 30
0.0
 11
67.98298600532439
 21
42.3320974988203
 31
0.0
  0
LINE
  5
356
330
2
100
AcDbEntity
  8
OBJECT
100
AcDbLine
 10
73.35854772611856
 20
41.59786241532003
 30
0.0
 11
69.68298600532444
 21
42.97619806061788
 31
0.0
  0
LINE
  5
357
330
2
100
AcDbEntity
  8
OBJECT
100
AcDbLine
 10
69.35854772611856
 20
44.59786241532003
 30
0.0
 11
71.35854772611924
 21
44.59786241532015
 31
0.0
  0
LINE
  5
358
330
2
100
AcDbEntity
  8
OBJECT
100
AcDbLine
 10
73.94094622799162
 20
40.09786241532004
 30
0.0
 11
74.35854772611879
 21
40.09786241532004
 31
0.0
  0
LINE
  5
359
330
2
100
AcDbEntity
  8
OBJECT
100
AcDbLine
 10
63.35854772611856
 20
43.09786241532004
 30
0.0
 11
63.35854772611856
 21
45.09786241532004
 31
0.0
  0
LINE
  5
35A
330
2
100
AcDbEntity
  8
OBJECT
100
AcDbLine
 10
84.65854772611852
 20
43.79786241532008
 30
0.0
 11
84.85854772611856
 21
43.99786241532001
 31
0.0
  0
LINE
  5
35B
330
2
100
AcDbEntity
  8
OBJECT
100
AcDbLine
 10
81.81869957368759
 20
41.89786241532004
 30
0.0
 11
79.0585477261186
 21
40.19786241532005
 31
0.0
  0
LINE
  5
35C
330
2
100
AcDbEntity
  8
OBJECT
100
AcDbLine
 10
81.81869957368759
 20
43.79786241532008
 30
0.0
 11
81.81869957368759
 21
41.89786241532004
 31
0.0
  0
LINE
  5
35D
330
2
100
AcDbEntity
  8
OBJECT
100
AcDbLine
 10
78.35854772611856
 20
43.09786241532004
 30
0.0
 11
78.35854772611856
 21
43.74786241532007
 31
0.0
  0
LINE
  5
35E
330
2
100
AcDbEntity
  8
OBJECT
100
AcDbLine
 10
76.75854772611865
 20
41.34786241532004
 30
0.0
 11
77.35854772611856
 21
41.34786241532004
 31
0.0
  0
LINE
  5
35F
330
2
100
AcDbEntity
  8
OBJECT
100
AcDbLine
 10
77.75010696756272
 20
43.09786241532004
 30
0.0
 11
77.75010696756272
 21
43.74786241532007
 31
0.0
  0
LINE
  5
360
330
2
100
AcDbEntity
  8
OBJECT
100
AcDbLine
 10
77.35854772611856
 20
43.09786241532004
 30
0.0
 11
77.35854772611856
 21
40.19786241532005
 31
0.0
  0
LINE
  5
361
330
2
100
AcDbEntity
  8
OBJECT
100
AcDbLine
 10
77.35854772611856
 20
41.59786241532003
 30
0.0
 11
77.35854772611856
 21
41.34786241532004
 31
0.0
  0
LINE
  5
362
330
2
100
AcDbEntity
  8
OBJECT
100
AcDbLine
 10
76.15854772611851
 20
41.09786241532003
 30
0.0
 11
76.75854772611865
 21
41.09786241532003
 31
0.0
  0
LINE
  5
363
330
2
100
AcDbEntity
  8
OBJECT
100
AcDbLine
 10
76.75854772611865
 20
41.34786241532004
 30
0.0
 11
76.75854772611865
 21
41.09786241532003
 31
0.0
  0
LINE
  5
364
330
2
100
AcDbEntity
  8
OBJECT
100
AcDbLine
 10
76.15854772611851
 20
41.09786241532003
 30
0.0
 11
76.15854772611851
 21
40.84786241532003
 31
0.0
  0
LINE
  5
365
330
2
100
AcDbEntity
  8
OBJECT
100
AcDbLine
 10
75.5585477261186
 20
40.84786241532003
 30
0.0
 11
76.15854772611851
 21
40.84786241532003
 31
0.0
  0
LINE
  5
366
330
2
100
AcDbEntity
  8
OBJECT
100
AcDbLine
 10
75.5585477261186
 20
40.84786241532003
 30
0.0
 11
75.5585477261186
 21
40.59786241532004
 31
0.0
  0
LINE
  5
367
330
2
100
AcDbEntity
  8
OBJECT
100
AcDbLine
 10
77.35854772611856
 20
40.19786241532005
 30
0.0
 11
79.0585477261186
 21
40.19786241532005
 31
0.0
  0
LINE
  5
368
330
2
100
AcDbEntity
  8
OBJECT
100
AcDbLine
 10
81.81869957368759
 20
43.79786241532008
 30
0.0
 11
84.65854772611852
 21
43.79786241532008
 31
0.0
  0
TEXT
  5
369
330
2
100
AcDbEntity
  8
OBJECT
100
AcDbText
 10
72.86258375307079
 20
50.85901882017004
 30
0.0
 40
1.0
  1
H　　　JST　　　20
 50
90.0
100
AcDbText
  0
LINE
  5
36B
330
2
100
AcDbEntity
  8
OBJECT
100
AcDbLine
 10
63.85854772611856
 20
57.34786241532003
 30
0.0
 11
63.35854772611856
 21
57.34786241532003
 31
0.0
  0
LINE
  5
36C
330
2
100
AcDbEntity
  8
OBJECT
100
AcDbLine
 10
63.85854772611856
 20
56.34786241532004
 30
0.0
 11
63.35854772611856
 21
56.34786241532004
 31
0.0
  0
LINE
  5
36D
330
2
100
AcDbEntity
  8
OBJECT
100
AcDbLine
 10
63.85854772611856
 20
49.84786241532003
 30
0.0
 11
63.35854772611856
 21
49.84786241532003
 31
0.0
  0
POINT
  5
36E
330
2
100
AcDbEntity
  8
OBJECT
100
AcDbPoint
 10
63.85854772611856
 20
48.09786241532004
 30
0.0
  0
LINE
  5
36F
330
2
100
AcDbEntity
  8
OBJECT
100
AcDbLine
 10
63.60854772611856
 20
49.84786241532003
 30
0.0
 11
63.60854772611856
 21
56.34786241532004
 31
0.0
  0
LINE
  5
370
330
2
100
AcDbEntity
  8
OBJECT
100
AcDbLine
 10
74.9585477261187
 20
73.09786241532004
 30
0.0
 11
75.5585477261186
 21
73.09786241532004
 31
0.0
  0
LINE
  5
371
330
2
100
AcDbEntity
  8
OBJECT
100
AcDbLine
 10
69.35854772611856
 20
69.94786241532001
 30
0.0
 11
81.81869957368759
 21
69.94786241532001
 31
0.0
  0
LINE
  5
372
330
2
100
AcDbEntity
  8
OBJECT
100
AcDbLine
 10
73.35854772611856
 20
72.09786241532004
 30
0.0
 11
77.35854772611856
 21
72.09786241532004
 31
0.0
  0
LINE
  5
373
330
2
100
AcDbEntity
  8
OBJECT
100
AcDbLine
 10
63.35854772611856
 20
70.59786241532004
 30
0.0
 11
78.35854772611856
 21
70.59786241532004
 31
0.0
  0
LINE
  5
374
330
2
100
AcDbEntity
  8
OBJECT
100
AcDbLine
 10
69.35854772611856
 20
69.09786241532003
 30
0.0
 11
84.85854772611856
 21
69.09786241532003
 31
0.0
  0
LINE
  5
375
330
2
100
AcDbEntity
  8
OBJECT
100
AcDbLine
 10
74.35854772611879
 20
73.34786241532004
 30
0.0
 11
74.35854772611879
 21
73.59786241532003
 31
0.0
  0
LINE
  5
376
330
2
100
AcDbEntity
  8
OBJECT
100
AcDbLine
 10
74.15854772611851
 20
73.59786241532003
 30
0.0
 11
74.35854772611879
 21
73.59786241532003
 31
0.0
  0
LINE
  5
377
330
2
100
AcDbEntity
  8
OBJECT
100
AcDbLine
 10
74.9585477261187
 20
73.09786241532004
 30
0.0
 11
74.9585477261187
 21
73.34786241532004
 31
0.0
  0
LINE
  5
378
330
2
100
AcDbEntity
  8
OBJECT
100
AcDbLine
 10
74.35854772611879
 20
73.34786241532004
 30
0.0
 11
74.9585477261187
 21
73.34786241532004
 31
0.0
  0
LINE
  5
379
330
2
100
AcDbEntity
  8
OBJECT
100
AcDbLine
 10
71.35854772611924
 20
69.09786241531993
 30
0.0
 11
71.35854772611924
 21
69.94786241532001
 31
0.0
  0
LINE
  5
37A
330
2
100
AcDbEntity
  8
OBJECT
100
AcDbLine
 10
70.85854772611924
 20
69.09786241531993
 30
0.0
 11
70.85854772611924
 21
69.94786241532001
 31
0.0
  0
ARC
  5
37B
330
2
100
AcDbEntity
  8
OBJECT
100
AcDbCircle
 10
69.85854772611856
 20
70.25136218123759
 30
0.0
 40
0.5
100
AcDbArc
 50
110.556045219575
 51
136.1319062467599
  0
LINE
  5
37C
330
2
100
AcDbEntity
  8
OBJECT
100
AcDbLine
 10
69.35854772611856
 20
69.94786241532001
 30
0.0
 11
69.35854772611856
 21
69.09786241532003
 31
0.0
  0
ARC
  5
37D
330
2
100
AcDbEntity
  8
OBJECT
100
AcDbCircle
 10
68.15854772611874
 20
70.89546274303529
 30
0.0
 40
0.5
100
AcDbArc
 50
110.556045219575
 51
180.0
  0
LINE
  5
37E
330
2
100
AcDbEntity
  8
OBJECT
100
AcDbLine
 10
67.65854772611851
 20
70.59786241532004
 30
0.0
 11
67.65854772611874
 21
70.89546274303529
 31
0.0
  0
LINE
  5
37F
330
2
100
AcDbEntity
  8
OBJECT
100
AcDbLine
 10
73.94094622799162
 20
73.59786241532003
 30
0.0
 11
67.98298600532439
 21
71.36362733181977
 31
0.0
  0
LINE
  5
380
330
2
100
AcDbEntity
  8
OBJECT
100
AcDbLine
 10
73.35854772611856
 20
72.09786241532004
 30
0.0
 11
69.68298600532444
 21
70.71952677002219
 31
0.0
  0
LINE
  5
381
330
2
100
AcDbEntity
  8
OBJECT
100
AcDbLine
 10
69.35854772611856
 20
69.09786241532003
 30
0.0
 11
71.35854772611924
 21
69.09786241531993
 31
0.0
  0
LINE
  5
382
330
2
100
AcDbEntity
  8
OBJECT
100
AcDbLine
 10
73.94094622799162
 20
73.59786241532003
 30
0.0
 11
74.35854772611879
 21
73.59786241532003
 31
0.0
  0
LINE
  5
383
330
2
100
AcDbEntity
  8
OBJECT
100
AcDbLine
 10
63.35854772611856
 20
70.59786241532004
 30
0.0
 11
63.35854772611856
 21
68.59786241532003
 31
0.0
  0
POINT
  5
384
330
2
100
AcDbEntity
  8
OBJECT
100
AcDbPoint
 10
63.85854772611856
 20
68.09786241532004
 30
0.0
  0
LINE
  5
385
330
2
100
AcDbEntity
  8
OBJECT
100
AcDbLine
 10
63.35854772611856
 20
68.59786241532003
 30
0.0
 11
63.85854772611856
 21
68.09786241532004
 31
0.0
  0
LINE
  5
387
330
2
100
AcDbEntity
  8
OBJECT
100
AcDbLine
 10
63.85854772611856
 20
63.84786241532004
 30
0.0
 11
63.35854772611856
 21
63.84786241532004
 31
0.0
  0
TEXT
  5
388
330
2
100
AcDbEntity
  8
TEXT
100
AcDbText
 10
80.35486117317214
 20
70.08463363808039
 30
0.0
 40
1.0
  1
1
 50
90.0
100
AcDbText
  0
LINE
  5
389
330
2
100
AcDbEntity
  8
OBJECT
100
AcDbLine
 10
84.65854772611852
 20
69.89786241531999
 30
0.0
 11
84.85854772611856
 21
69.69786241532005
 31
0.0
  0
LINE
  5
38A
330
2
100
AcDbEntity
  8
OBJECT
100
AcDbLine
 10
78.35854772611856
 20
70.02286241531999
 30
0.0
 11
81.81869957368759
 21
70.02286241531999
 31
0.0
  0
LINE
  5
38B
330
2
100
AcDbEntity
  8
OBJECT
100
AcDbLine
 10
78.35854772611856
 20
69.94786241532001
 30
0.0
 11
81.81869957368759
 21
69.94786241532001
 31
0.0
  0
LINE
  5
38C
330
2
100
AcDbEntity
  8
OBJECT
100
AcDbLine
 10
78.35854772611856
 20
70.52286241531999
 30
0.0
 11
81.81869957368759
 21
70.52286241531999
 31
0.0
  0
LINE
  5
38D
330
2
100
AcDbEntity
  8
OBJECT
100
AcDbLine
 10
81.81869957368759
 20
71.79786241532003
 30
0.0
 11
79.0585477261186
 21
73.49786241532001
 31
0.0
  0
LINE
  5
38E
330
2
100
AcDbEntity
  8
OBJECT
100
AcDbLine
 10
81.81869957368759
 20
69.89786241531999
 30
0.0
 11
81.81869957368759
 21
71.79786241532003
 31
0.0
  0
LINE
  5
38F
330
2
100
AcDbEntity
  8
OBJECT
100
AcDbLine
 10
78.35854772611856
 20
70.02286241531999
 30
0.0
 11
78.35854772611856
 21
69.94786241531994
 31
0.0
  0
ARC
  5
390
330
2
100
AcDbEntity
  8
OBJECT
100
AcDbCircle
 10
78.35854772611856
 20
70.27286241531999
 30
0.0
 40
0.2500000000000142
100
AcDbArc
 50
90.0
 51
270.0
  0
LINE
  5
391
330
2
100
AcDbEntity
  8
OBJECT
100
AcDbLine
 10
78.35854772611856
 20
70.59786241532004
 30
0.0
 11
78.35854772611856
 21
70.52286241531999
 31
0.0
  0
LINE
  5
392
330
2
100
AcDbEntity
  8
OBJECT
100
AcDbLine
 10
76.75854772611865
 20
72.34786241532003
 30
0.0
 11
77.35854772611856
 21
72.34786241532003
 31
0.0
  0
LINE
  5
393
330
2
100
AcDbEntity
  8
OBJECT
100
AcDbLine
 10
77.35854772611856
 20
70.59786241532004
 30
0.0
 11
77.35854772611856
 21
73.49786241532001
 31
0.0
  0
LINE
  5
394
330
2
100
AcDbEntity
  8
OBJECT
100
AcDbLine
 10
77.75010696756272
 20
70.59786241532004
 30
0.0
 11
77.75010696756272
 21
69.94786241532001
 31
0.0
  0
LINE
  5
395
330
2
100
AcDbEntity
  8
OBJECT
100
AcDbLine
 10
77.35854772611856
 20
72.09786241532004
 30
0.0
 11
77.35854772611856
 21
72.34786241532003
 31
0.0
  0
LINE
  5
396
330
2
100
AcDbEntity
  8
OBJECT
100
AcDbLine
 10
76.15854772611851
 20
72.59786241532004
 30
0.0
 11
76.75854772611865
 21
72.59786241532004
 31
0.0
  0
LINE
  5
397
330
2
100
AcDbEntity
  8
OBJECT
100
AcDbLine
 10
76.75854772611865
 20
72.34786241532003
 30
0.0
 11
76.75854772611865
 21
72.59786241532004
 31
0.0
  0
LINE
  5
398
330
2
100
AcDbEntity
  8
OBJECT
100
AcDbLine
 10
76.15854772611851
 20
72.59786241532004
 30
0.0
 11
76.15854772611851
 21
72.84786241532003
 31
0.0
  0
LINE
  5
399
330
2
100
AcDbEntity
  8
OBJECT
100
AcDbLine
 10
75.5585477261186
 20
72.84786241532003
 30
0.0
 11
76.15854772611851
 21
72.84786241532003
 31
0.0
  0
LINE
  5
39A
330
2
100
AcDbEntity
  8
OBJECT
100
AcDbLine
 10
75.5585477261186
 20
72.84786241532003
 30
0.0
 11
75.5585477261186
 21
73.09786241532004
 31
0.0
  0
LINE
  5
39B
330
2
100
AcDbEntity
  8
OBJECT
100
AcDbLine
 10
77.35854772611856
 20
73.49786241532001
 30
0.0
 11
79.0585477261186
 21
73.49786241532001
 31
0.0
  0
LINE
  5
39C
330
2
100
AcDbEntity
  8
OBJECT
100
AcDbLine
 10
81.81869957368759
 20
69.89786241531999
 30
0.0
 11
84.65854772611852
 21
69.89786241531999
 31
0.0
  0
LINE
  5
39D
330
2
100
AcDbEntity
  8
OBJECT
100
AcDbLine
 10
40.16263637426504
 20
43.59786241532003
 30
0.0
 11
40.16263637426504
 21
70.09786241532004
 31
0.0
  0
LINE
  5
39E
330
2
100
AcDbEntity
  8
OBJECT
100
AcDbLine
 10
29.76263637426495
 20
43.59786241532003
 30
0.0
 11
29.76263637426495
 21
70.09786241532004
 31
0.0
  0
LWPOLYLINE
  5
39F
330
2
100
AcDbEntity
  8
OBJECT
100
AcDbPolyline
 90
        4
 70
     0
 43
0.0
 10
36.79420297140655
 20
66.19786241532006
 10
37.79420297140655
 20
66.19786241532006
 10
37.79420297140655
 20
64.99786241532013
 10
36.79420297140655
 20
64.99786241532013
  0
LINE
  5
3A0
330
2
100
AcDbEntity
  8
OBJECT
100
AcDbLine
 10
39.06263637426491
 20
64.84786241532003
 30
0.0
 11
39.06263637426491
 21
69.69786241531989
 31
0.0
  0
LINE
  5
3A1
330
2
100
AcDbEntity
  8
OBJECT
100
AcDbLine
 10
30.462636374265
 20
65.84786241532009
 30
0.0
 11
30.462636374265
 21
64.84786241532003
 31
0.0
  0
LWPOLYLINE
  5
3A2
330
2
100
AcDbEntity
  8
OBJECT
100
AcDbPolyline
 90
        4
 70
     0
 43
0.0
 10
33.33106977712327
 20
66.19786241532006
 10
32.33106977712327
 20
66.19786241532006
 10
32.33106977712327
 20
64.99786241532001
 10
33.33106977712327
 20
64.99786241532007
  0
LINE
  5
3A3
330
2
100
AcDbEntity
  8
OBJECT
100
AcDbLine
 10
36.06263637426491
 20
43.69786241532006
 30
0.0
 11
36.06263637426491
 21
69.79786241531996
 31
0.0
  0
LINE
  5
3A4
330
2
100
AcDbEntity
  8
OBJECT
100
AcDbLine
 10
35.56263637426491
 20
43.69786241532006
 30
0.0
 11
35.56263637426491
 21
69.79786241531996
 31
0.0
  0
LINE
  5
3A5
330
2
100
AcDbEntity
  8
OBJECT
100
AcDbLine
 10
34.06263637426491
 20
43.69786241532006
 30
0.0
 11
34.06263637426491
 21
69.79786241531996
 31
0.0
  0
LINE
  5
3A6
330
2
100
AcDbEntity
  8
OBJECT
100
AcDbLine
 10
34.56263637426491
 20
43.69786241532006
 30
0.0
 11
34.56263637426491
 21
69.79786241531996
 31
0.0
  0
LWPOLYLINE
  5
3A7
330
2
100
AcDbEntity
  8
OBJECT
100
AcDbPolyline
 90
        4
 70
     0
 43
0.0
 10
36.79420297140655
 20
49.99786241532001
 10
37.79420297140655
 20
49.99786241532001
 10
37.79420297140655
 20
51.19786241531994
 10
36.79420297140655
 20
51.19786241531994
  0
LINE
  5
3A8
330
2
100
AcDbEntity
  8
OBJECT
100
AcDbLine
 10
30.56263637426491
 20
50.34786241531998
 30
0.0
 11
30.56263637426491
 21
55.74786241532001
 31
0.0
  0
LINE
  5
3A9
330
2
100
AcDbEntity
  8
OBJECT
100
AcDbLine
 10
36.212636374265
 20
50.44786241532
 30
0.0
 11
36.06263637426491
 21
50.19786241532
 31
0.0
  0
LINE
  5
3AA
330
2
100
AcDbEntity
  8
OBJECT
100
AcDbLine
 10
36.66263637426505
 20
50.19786241532
 30
0.0
 11
36.51263637426495
 21
50.44786241532
 31
0.0
  0
LWPOLYLINE
  5
3AB
330
2
100
AcDbEntity
  8
OBJECT
100
AcDbPolyline
 90
        4
 70
     1
 43
0.0
 10
36.66263637426505
 20
50.99786241531996
 10
36.06263637426491
 20
50.99786241531996
 10
36.06263637426491
 20
50.19786241532
 10
36.66263637426505
 20
50.19786241532
  0
LWPOLYLINE
  5
3AC
330
2
100
AcDbEntity
  8
OBJECT
100
AcDbPolyline
 90
        4
 70
     1
 43
0.0
 10
33.46263637426477
 20
50.99786241531996
 10
34.06263637426491
 20
50.99786241531996
 10
34.06263637426491
 20
50.19786241532
 10
33.46263637426477
 20
50.19786241532
  0
LINE
  5
3AD
330
2
100
AcDbEntity
  8
OBJECT
100
AcDbLine
 10
33.46263637426477
 20
50.19786241532
 30
0.0
 11
33.61263637426486
 21
50.44786241532
 31
0.0
  0
LINE
  5
3AE
330
2
100
AcDbEntity
  8
OBJECT
100
AcDbLine
 10
33.91263637426482
 20
50.44786241532
 30
0.0
 11
34.06263637426491
 21
50.19786241532
 31
0.0
  0
LWPOLYLINE
  5
3AF
330
2
100
AcDbEntity
  8
OBJECT
100
AcDbPolyline
 90
        4
 70
     0
 43
0.0
 10
33.33106977712327
 20
49.99786241532001
 10
32.33106977712327
 20
49.99786241532001
 10
32.33106977712327
 20
51.19786241531994
 10
33.33106977712327
 20
51.19786241531994
  0
LINE
  5
3B0
330
2
100
AcDbEntity
  8
OBJECT
100
AcDbLine
 10
39.06263637426491
 20
49.84786241531998
 30
0.0
 11
39.06263637426491
 21
63.84786241531998
 31
0.0
  0
LINE
  5
3B1
330
2
100
AcDbEntity
  8
OBJECT
100
AcDbLine
 10
30.86263637426486
 20
48.84786241531998
 30
0.0
 11
30.86263637426486
 21
64.84786241532003
 31
0.0
  0
LINE
  5
3B2
330
2
100
AcDbEntity
  8
OBJECT
100
AcDbLine
 10
39.66263637426505
 20
43.09786241532004
 30
0.0
 11
30.26263637426495
 21
43.09786241532004
 31
0.0
  0
ARC
  5
3B3
330
2
100
AcDbEntity
  8
OBJECT
100
AcDbCircle
 10
38.56263637426491
 20
40.69786241532
 30
0.0
 40
0.5
100
AcDbArc
 50
270.0
 51
0.0
  0
LINE
  5
3B4
330
2
100
AcDbEntity
  8
OBJECT
100
AcDbLine
 10
38.76263637426518
 20
43.69786241532
 30
0.0
 11
31.16263637426482
 21
43.69786241532006
 31
0.0
  0
LINE
  5
3B5
330
2
100
AcDbEntity
  8
OBJECT
100
AcDbLine
 10
30.86263637426486
 20
45.59786241532004
 30
0.0
 11
29.76263637426495
 21
45.59786241532004
 31
0.0
  0
LINE
  5
3B6
330
2
100
AcDbEntity
  8
OBJECT
100
AcDbLine
 10
30.462636374265
 20
49.84786241531992
 30
0.0
 11
29.76263637426473
 21
49.84786241532003
 31
0.0
  0
LINE
  5
3B7
330
2
100
AcDbEntity
  8
OBJECT
100
AcDbLine
 10
30.56263637426491
 20
50.34786241531998
 30
0.0
 11
29.76263637426495
 21
50.34786241531998
 31
0.0
  0
LINE
  5
3B8
330
2
100
AcDbEntity
  8
OBJECT
100
AcDbLine
 10
29.86263637426486
 20
43.29786241532019
 30
0.0
 11
29.86263637426486
 21
40.69786241532
 31
0.0
  0
ARC
  5
3B9
330
2
100
AcDbEntity
  8
OBJECT
100
AcDbCircle
 10
30.26263637426495
 20
43.59786241532003
 30
0.0
 40
0.5
100
AcDbArc
 50
180.0
 51
270.0
  0
ARC
  5
3BA
330
2
100
AcDbEntity
  8
OBJECT
100
AcDbCircle
 10
30.462636374265
 20
50.24786241531995
 30
0.0
 40
0.4
100
AcDbArc
 50
270.0
 51
0.0
  0
LINE
  5
3BB
330
2
100
AcDbEntity
  8
OBJECT
100
AcDbLine
 10
30.86263637426486
 20
48.84786241531998
 30
0.0
 11
30.462636374265
 21
48.84786241531998
 31
0.0
  0
LINE
  5
3BC
330
2
100
AcDbEntity
  8
OBJECT
100
AcDbLine
 10
35.56263637426491
 20
50.34786241531998
 30
0.0
 11
34.56263637426491
 21
50.34786241531998
 31
0.0
  0
LWPOLYLINE
  5
3BD
330
2
100
AcDbEntity
  8
OBJECT
100
AcDbPolyline
 90
        3
 70
     0
 43
0.0
 10
34.06263637426491
 20
49.69786241531995
 10
33.33106977712327
 20
49.69786241531995
 10
33.33106977712327
 20
49.99786241532001
  0
LWPOLYLINE
  5
3BE
330
2
100
AcDbEntity
  8
OBJECT
100
AcDbPolyline
 90
        3
 70
     0
 43
0.0
 10
33.33106977712327
 20
48.69786241531994
 10
33.33106977712327
 20
48.99786241532002
 10
34.06263637426491
 20
48.99786241532002
  0
LWPOLYLINE
  5
3BF
330
2
100
AcDbEntity
  8
OBJECT
100
AcDbPolyline
 90
        3
 70
     0
 43
0.0
 10
36.06263637426491
 20
49.69786241531995
 10
36.79420297140655
 20
49.69786241531995
 10
36.79420297140655
 20
49.99786241532001
  0
LWPOLYLINE
  5
3C0
330
2
100
AcDbEntity
  8
OBJECT
100
AcDbPolyline
 90
        3
 70
     0
 43
0.0
 10
36.79420297140655
 20
48.69786241531994
 10
36.79420297140655
 20
48.99786241532002
 10
36.06263637426491
 20
48.99786241532002
  0
LWPOLYLINE
  5
3C1
330
2
100
AcDbEntity
  8
OBJECT
100
AcDbPolyline
 90
        4
 70
     0
 43
0.0
 10
36.79420297140655
 20
44.99786241532001
 10
37.79420297140655
 20
44.99786241532001
 10
37.79420297140655
 20
46.19786241531994
 10
36.79420297140655
 20
46.19786241531994
  0
LINE
  5
3C2
330
2
100
AcDbEntity
  8
OBJECT
100
AcDbLine
 10
38.06263637426491
 20
40.19786241532005
 30
0.0
 11
38.56263637426491
 21
40.19786241532
 31
0.0
  0
LINE
  5
3C3
330
2
100
AcDbEntity
  8
OBJECT
100
AcDbLine
 10
37.86263637426509
 20
43.09786241532004
 30
0.0
 11
37.86263637426509
 21
40.09786241532004
 31
0.0
  0
LINE
  5
3C4
330
2
100
AcDbEntity
  8
OBJECT
100
AcDbLine
 10
38.06263637426491
 20
40.19786241532005
 30
0.0
 11
38.06263637426468
 21
43.09786241532004
 31
0.0
  0
LINE
  5
3C5
330
2
100
AcDbEntity
  8
OBJECT
100
AcDbLine
 10
36.86263637426509
 20
43.09786241532004
 30
0.0
 11
36.86263637426509
 21
43.69786241532006
 31
0.0
  0
ARC
  5
3C6
330
2
100
AcDbEntity
  8
OBJECT
100
AcDbCircle
 10
31.16263637426482
 20
43.99786241532001
 30
0.0
 40
0.3
100
AcDbArc
 50
180.0
 51
270.0
  0
LINE
  5
3C7
330
2
100
AcDbEntity
  8
OBJECT
100
AcDbLine
 10
34.462636374265
 20
42.51546466872349
 30
0.0
 11
31.06263637426491
 21
42.51546466872343
 31
0.0
  0
LINE
  5
3C8
330
2
100
AcDbEntity
  8
OBJECT
100
AcDbLine
 10
30.86263637426486
 20
43.99786241532001
 30
0.0
 11
30.86263637426486
 21
47.84786241531992
 31
0.0
  0
ARC
  5
3C9
330
2
100
AcDbEntity
  8
OBJECT
100
AcDbCircle
 10
30.36263637426486
 20
40.69786241532
 30
0.0
 40
0.5
100
AcDbArc
 50
180.0
 51
270.0
  0
LINE
  5
3CA
330
2
100
AcDbEntity
  8
OBJECT
100
AcDbLine
 10
30.86263637426464
 20
40.19786241532005
 30
0.0
 11
30.86263637426509
 21
43.09786241532004
 31
0.0
  0
LINE
  5
3CB
330
2
100
AcDbEntity
  8
OBJECT
100
AcDbLine
 10
31.06263637426446
 20
40.09786241532004
 30
0.0
 11
31.06263637426491
 21
43.09786241532004
 31
0.0
  0
LINE
  5
3CC
330
2
100
AcDbEntity
  8
OBJECT
100
AcDbLine
 10
30.86263637426464
 20
40.19786241532005
 30
0.0
 11
30.36263637426486
 21
40.19786241532
 31
0.0
  0
LINE
  5
3CD
330
2
100
AcDbEntity
  8
OBJECT
100
AcDbLine
 10
30.86263637426486
 20
47.84786241531992
 30
0.0
 11
30.462636374265
 21
47.84786241531992
 31
0.0
  0
LINE
  5
3CE
330
2
100
AcDbEntity
  8
OBJECT
100
AcDbLine
 10
36.66263637426505
 20
45.19786241532
 30
0.0
 11
36.51263637426495
 21
45.44786241532
 31
0.0
  0
LINE
  5
3CF
330
2
100
AcDbEntity
  8
OBJECT
100
AcDbLine
 10
36.212636374265
 20
45.44786241532
 30
0.0
 11
36.06263637426491
 21
45.19786241532
 31
0.0
  0
LINE
  5
3D0
330
2
100
AcDbEntity
  8
OBJECT
100
AcDbLine
 10
36.51263637426495
 20
45.74786241531995
 30
0.0
 11
36.66263637426505
 21
45.99786241531996
 31
0.0
  0
LINE
  5
3D1
330
2
100
AcDbEntity
  8
OBJECT
100
AcDbLine
 10
36.212636374265
 20
45.74786241531995
 30
0.0
 11
36.06263637426491
 21
45.99786241531996
 31
0.0
  0
LWPOLYLINE
  5
3D2
330
2
100
AcDbEntity
  8
OBJECT
100
AcDbPolyline
 90
        4
 70
     1
 43
0.0
 10
36.66263637426505
 20
45.99786241531996
 10
36.06263637426491
 20
45.99786241531996
 10
36.06263637426491
 20
45.19786241532
 10
36.66263637426505
 20
45.19786241532
  0
LWPOLYLINE
  5
3D3
330
2
100
AcDbEntity
  8
OBJECT
100
AcDbPolyline
 90
        4
 70
     1
 43
0.0
 10
36.51263637426495
 20
45.74786241531995
 10
36.212636374265
 20
45.74786241531995
 10
36.212636374265
 20
45.44786241532
 10
36.51263637426495
 20
45.44786241532
  0
LINE
  5
3D4
330
2
100
AcDbEntity
  8
OBJECT
100
AcDbLine
 10
33.91263637426482
 20
45.44786241532
 30
0.0
 11
34.06263637426491
 21
45.19786241532
 31
0.0
  0
LINE
  5
3D5
330
2
100
AcDbEntity
  8
OBJECT
100
AcDbLine
 10
33.46263637426477
 20
45.19786241532
 30
0.0
 11
33.61263637426486
 21
45.44786241532
 31
0.0
  0
LWPOLYLINE
  5
3D6
330
2
100
AcDbEntity
  8
OBJECT
100
AcDbPolyline
 90
        3
 70
     0
 43
0.0
 10
34.06263637426491
 20
44.69786241531994
 10
33.33106977712327
 20
44.69786241531994
 10
33.33106977712327
 20
44.99786241532001
  0
LWPOLYLINE
  5
3D7
330
2
100
AcDbEntity
  8
OBJECT
100
AcDbPolyline
 90
        3
 70
     0
 43
0.0
 10
33.33106977712327
 20
46.19786241531994
 10
33.33106977712327
 20
46.49786241532001
 10
34.06263637426491
 20
46.49786241532001
  0
LINE
  5
3D8
330
2
100
AcDbEntity
  8
OBJECT
100
AcDbLine
 10
33.91263637426482
 20
45.74786241531995
 30
0.0
 11
34.06263637426491
 21
45.99786241531996
 31
0.0
  0
LINE
  5
3D9
330
2
100
AcDbEntity
  8
OBJECT
100
AcDbLine
 10
33.61263637426486
 20
45.74786241531995
 30
0.0
 11
33.46263637426477
 21
45.99786241531996
 31
0.0
  0
LWPOLYLINE
  5
3DA
330
2
100
AcDbEntity
  8
OBJECT
100
AcDbPolyline
 90
        4
 70
     1
 43
0.0
 10
33.46263637426477
 20
45.99786241531996
 10
34.06263637426491
 20
45.99786241531996
 10
34.06263637426491
 20
45.19786241532
 10
33.46263637426477
 20
45.19786241532
  0
LWPOLYLINE
  5
3DB
330
2
100
AcDbEntity
  8
OBJECT
100
AcDbPolyline
 90
        4
 70
     1
 43
0.0
 10
33.61263637426486
 20
45.74786241531995
 10
33.91263637426482
 20
45.74786241531995
 10
33.91263637426482
 20
45.44786241532
 10
33.61263637426486
 20
45.44786241532
  0
LINE
  5
3DC
330
2
100
AcDbEntity
  8
OBJECT
100
AcDbLine
 10
35.66263637426482
 20
43.09786241532004
 30
0.0
 11
35.66263637426459
 21
41.34786241532004
 31
0.0
  0
LINE
  5
3DD
330
2
100
AcDbEntity
  8
OBJECT
100
AcDbLine
 10
34.462636374265
 20
43.09786241532004
 30
0.0
 11
34.462636374265
 21
41.34786241532004
 31
0.0
  0
LINE
  5
3DE
330
2
100
AcDbEntity
  8
OBJECT
100
AcDbLine
 10
35.66263637426482
 20
42.75120342577508
 30
0.0
 11
34.462636374265
 21
42.75120342577508
 31
0.0
  0
LINE
  5
3DF
330
2
100
AcDbEntity
  8
OBJECT
100
AcDbLine
 10
35.66263637426459
 20
41.34786241532004
 30
0.0
 11
34.46263637426477
 21
41.34786241532004
 31
0.0
  0
LINE
  5
3E0
330
2
100
AcDbEntity
  8
OBJECT
100
AcDbLine
 10
35.66263637426482
 20
43.09786241532004
 30
0.0
 11
35.66263637426482
 21
43.69786241532006
 31
0.0
  0
LINE
  5
3E1
330
2
100
AcDbEntity
  8
OBJECT
100
AcDbLine
 10
33.06263637426491
 20
43.09786241532004
 30
0.0
 11
33.06263637426491
 21
43.69786241532006
 31
0.0
  0
LINE
  5
3E2
330
2
100
AcDbEntity
  8
OBJECT
100
AcDbLine
 10
36.212636374265
 20
47.94786241532
 30
0.0
 11
36.06263637426491
 21
47.69786241532
 31
0.0
  0
LINE
  5
3E3
330
2
100
AcDbEntity
  8
OBJECT
100
AcDbLine
 10
36.66263637426505
 20
47.69786241532
 30
0.0
 11
36.51263637426495
 21
47.94786241532
 31
0.0
  0
LWPOLYLINE
  5
3E4
330
2
100
AcDbEntity
  8
OBJECT
100
AcDbPolyline
 90
        4
 70
     1
 43
0.0
 10
36.51263637426495
 20
48.24786241531995
 10
36.212636374265
 20
48.24786241531995
 10
36.212636374265
 20
47.94786241532
 10
36.51263637426495
 20
47.94786241532
  0
LWPOLYLINE
  5
3E5
330
2
100
AcDbEntity
  8
OBJECT
100
AcDbPolyline
 90
        3
 70
     0
 43
0.0
 10
34.06263637426491
 20
47.19786241531994
 10
33.33106977712327
 20
47.19786241531994
 10
33.33106977712327
 20
47.49786241532001
  0
LINE
  5
3E6
330
2
100
AcDbEntity
  8
OBJECT
100
AcDbLine
 10
35.56263637426491
 20
47.84786241531998
 30
0.0
 11
34.56263637426491
 21
47.84786241531998
 31
0.0
  0
LINE
  5
3E7
330
2
100
AcDbEntity
  8
OBJECT
100
AcDbLine
 10
35.56263637426491
 20
48.34786241531998
 30
0.0
 11
34.56263637426491
 21
48.34786241531998
 31
0.0
  0
LWPOLYLINE
  5
3E8
330
2
100
AcDbEntity
  8
OBJECT
100
AcDbPolyline
 90
        4
 70
     1
 43
0.0
 10
33.61263637426486
 20
48.24786241531995
 10
33.91263637426482
 20
48.24786241531995
 10
33.91263637426482
 20
47.94786241532
 10
33.61263637426486
 20
47.94786241532
  0
LINE
  5
3E9
330
2
100
AcDbEntity
  8
OBJECT
100
AcDbLine
 10
33.46263637426477
 20
47.69786241532
 30
0.0
 11
33.61263637426486
 21
47.94786241532
 31
0.0
  0
LINE
  5
3EA
330
2
100
AcDbEntity
  8
OBJECT
100
AcDbLine
 10
33.91263637426482
 20
47.94786241532
 30
0.0
 11
34.06263637426491
 21
47.69786241532
 31
0.0
  0
LWPOLYLINE
  5
3EB
330
2
100
AcDbEntity
  8
OBJECT
100
AcDbPolyline
 90
        4
 70
     0
 43
0.0
 10
33.33106977712327
 20
44.99786241532001
 10
32.33106977712327
 20
44.99786241532001
 10
32.33106977712327
 20
46.19786241531994
 10
33.33106977712327
 20
46.19786241531994
  0
LINE
  5
3EC
330
2
100
AcDbEntity
  8
OBJECT
100
AcDbLine
 10
37.86263637426509
 20
40.09786241532004
 30
0.0
 11
31.06263637426446
 21
40.09786241532004
 31
0.0
  0
LWPOLYLINE
  5
3ED
330
2
100
AcDbEntity
  8
OBJECT
100
AcDbPolyline
 90
        3
 70
     0
 43
0.0
 10
36.06263637426491
 20
44.69786241531994
 10
36.79420297140655
 20
44.69786241531994
 10
36.79420297140655
 20
44.99786241532001
  0
LWPOLYLINE
  5
3EE
330
2
100
AcDbEntity
  8
OBJECT
100
AcDbPolyline
 90
        3
 70
     0
 43
0.0
 10
36.79420297140655
 20
46.19786241531994
 10
36.79420297140655
 20
46.49786241532001
 10
36.06263637426491
 20
46.49786241532001
  0
LINE
  5
3EF
330
2
100
AcDbEntity
  8
OBJECT
100
AcDbLine
 10
37.86263637426509
 20
42.51546466872343
 30
0.0
 11
35.66263637426482
 21
42.51546466872343
 31
0.0
  0
LWPOLYLINE
  5
3F0
330
2
100
AcDbEntity
  8
OBJECT
100
AcDbPolyline
 90
        3
 70
     0
 43
0.0
 10
36.06263637426491
 20
47.19786241531994
 10
36.79420297140655
 20
47.19786241531994
 10
36.79420297140655
 20
47.49786241532001
  0
LINE
  5
3F1
330
2
100
AcDbEntity
  8
OBJECT
100
AcDbLine
 10
30.462636374265
 20
47.84786241531992
 30
0.0
 11
30.462636374265
 21
48.84786241531998
 31
0.0
  0
LINE
  5
3F2
330
2
100
AcDbEntity
  8
OBJECT
100
AcDbLine
 10
36.212636374265
 20
48.24786241531995
 30
0.0
 11
36.06263637426491
 21
48.49786241531996
 31
0.0
  0
LINE
  5
3F3
330
2
100
AcDbEntity
  8
OBJECT
100
AcDbLine
 10
36.51263637426495
 20
48.24786241531995
 30
0.0
 11
36.66263637426505
 21
48.49786241531996
 31
0.0
  0
LWPOLYLINE
  5
3F4
330
2
100
AcDbEntity
  8
OBJECT
100
AcDbPolyline
 90
        4
 70
     1
 43
0.0
 10
36.66263637426505
 20
48.49786241531996
 10
36.06263637426491
 20
48.49786241531996
 10
36.06263637426491
 20
47.69786241532
 10
36.66263637426505
 20
47.69786241532
  0
LWPOLYLINE
  5
3F5
330
2
100
AcDbEntity
  8
OBJECT
100
AcDbPolyline
 90
        4
 70
     0
 43
0.0
 10
36.79420297140655
 20
47.49786241532001
 10
37.79420297140655
 20
47.49786241532001
 10
37.79420297140655
 20
48.69786241531994
 10
36.79420297140655
 20
48.69786241531994
  0
LWPOLYLINE
  5
3F6
330
2
100
AcDbEntity
  8
OBJECT
100
AcDbPolyline
 90
        4
 70
     1
 43
0.0
 10
33.46263637426477
 20
48.49786241531996
 10
34.06263637426491
 20
48.49786241531996
 10
34.06263637426491
 20
47.69786241532
 10
33.46263637426477
 20
47.69786241532
  0
LINE
  5
3F7
330
2
100
AcDbEntity
  8
OBJECT
100
AcDbLine
 10
33.61263637426486
 20
48.24786241531995
 30
0.0
 11
33.46263637426477
 21
48.49786241531996
 31
0.0
  0
LINE
  5
3F8
330
2
100
AcDbEntity
  8
OBJECT
100
AcDbLine
 10
33.91263637426482
 20
48.24786241531995
 30
0.0
 11
34.06263637426491
 21
48.49786241531996
 31
0.0
  0
LWPOLYLINE
  5
3F9
330
2
100
AcDbEntity
  8
OBJECT
100
AcDbPolyline
 90
        4
 70
     0
 43
0.0
 10
33.33106977712327
 20
47.49786241532001
 10
32.33106977712327
 20
47.49786241532001
 10
32.33106977712327
 20
48.69786241531994
 10
33.33106977712327
 20
48.69786241531994
  0
LINE
  5
3FA
330
2
100
AcDbEntity
  8
OBJECT
100
AcDbLine
 10
39.06263637426491
 20
45.59786241532004
 30
0.0
 11
40.16263637426482
 21
45.59786241532004
 31
0.0
  0
ARC
  5
3FB
330
2
100
AcDbEntity
  8
OBJECT
100
AcDbCircle
 10
39.66263637426505
 20
43.59786241532003
 30
0.0
 40
0.5
100
AcDbArc
 50
270.0
 51
0.0
  0
LINE
  5
3FC
330
2
100
AcDbEntity
  8
OBJECT
100
AcDbLine
 10
39.462636374265
 20
49.84786241531998
 30
0.0
 11
39.06263637426537
 21
49.84786241531998
 31
0.0
  0
LINE
  5
3FD
330
2
100
AcDbEntity
  8
OBJECT
100
AcDbLine
 10
39.462636374265
 20
48.84786241531992
 30
0.0
 11
39.06263637426537
 21
48.84786241531992
 31
0.0
  0
LINE
  5
3FE
330
2
100
AcDbEntity
  8
OBJECT
100
AcDbLine
 10
39.462636374265
 20
49.84786241531998
 30
0.0
 11
39.462636374265
 21
48.84786241531992
 31
0.0
  0
ARC
  5
3FF
330
2
100
AcDbEntity
  8
OBJECT
100
AcDbCircle
 10
38.76263637426518
 20
43.99786241532001
 30
0.0
 40
0.3
100
AcDbArc
 50
270.0
 51
0.0
  0
LINE
  5
400
330
2
100
AcDbEntity
  8
OBJECT
100
AcDbLine
 10
39.06263637426491
 20
43.09786241532004
 30
0.0
 11
39.06263637426491
 21
40.69786241532
 31
0.0
  0
LINE
  5
401
330
2
100
AcDbEntity
  8
OBJECT
100
AcDbLine
 10
39.06263637426537
 20
43.99786241532001
 30
0.0
 11
39.06263637426491
 21
48.84786241531992
 31
0.0
  0
TEXT
  5
402
330
2
100
AcDbEntity
  8
TEXT
100
AcDbText
 10
38.92922643498195
 20
62.69797655247112
 30
0.0
 40
1.0
  1
5
 50
90.0
100
AcDbText
  0
LINE
  5
403
330
2
100
AcDbEntity
  8
OBJECT
100
AcDbLine
 10
30.56263637426491
 20
55.74786241532007
 30
0.0
 11
29.76263637426473
 21
55.74786241532001
 31
0.0
  0
LINE
  5
404
330
2
100
AcDbEntity
  8
OBJECT
100
AcDbLine
 10
30.56263637426491
 20
57.94786241532006
 30
0.0
 11
29.76263637426495
 21
57.94786241532006
 31
0.0
  0
LINE
  5
405
330
2
100
AcDbEntity
  8
OBJECT
100
AcDbLine
 10
30.56263637426491
 20
63.34786241532004
 30
0.0
 11
29.76263637426495
 21
63.34786241532004
 31
0.0
  0
LINE
  5
406
330
2
100
AcDbEntity
  8
OBJECT
100
AcDbLine
 10
30.462636374265
 20
63.84786241532004
 30
0.0
 11
29.76263637426473
 21
63.84786241531998
 31
0.0
  0
LWPOLYLINE
  5
407
330
2
100
AcDbEntity
  8
OBJECT
100
AcDbPolyline
 90
        3
 70
     0
 43
0.0
 10
34.06263637426491
 20
63.99786241532007
 10
33.33106977712327
 20
63.99786241532007
 10
33.33106977712327
 20
63.69786241532006
  0
LINE
  5
408
330
2
100
AcDbEntity
  8
OBJECT
100
AcDbLine
 10
30.86263637426486
 20
64.84786241532003
 30
0.0
 11
30.462636374265
 21
64.84786241532003
 31
0.0
  0
ARC
  5
409
330
2
100
AcDbEntity
  8
OBJECT
100
AcDbCircle
 10
30.462636374265
 20
63.44786241532005
 30
0.0
 40
0.4
100
AcDbArc
 50
0.0
 51
90.0
  0
LWPOLYLINE
  5
40A
330
2
100
AcDbEntity
  8
OBJECT
100
AcDbPolyline
 90
        3
 70
     0
 43
0.0
 10
33.33106977712327
 20
64.99786241532007
 10
33.33106977712327
 20
64.69786241532005
 10
34.06263637426491
 20
64.69786241532005
  0
LINE
  5
40B
330
2
100
AcDbEntity
  8
OBJECT
100
AcDbLine
 10
35.56263637426491
 20
63.34786241532004
 30
0.0
 11
34.56263637426491
 21
63.34786241532004
 31
0.0
  0
LINE
  5
40C
330
2
100
AcDbEntity
  8
OBJECT
100
AcDbLine
 10
35.56263637426491
 20
63.34786241531998
 30
0.0
 11
34.56263637426491
 21
63.34786241531998
 31
0.0
  0
LWPOLYLINE
  5
40D
330
2
100
AcDbEntity
  8
OBJECT
100
AcDbPolyline
 90
        3
 70
     0
 43
0.0
 10
36.79420297140655
 20
64.99786241532013
 10
36.79420297140655
 20
64.69786241532005
 10
36.06263637426491
 20
64.69786241532005
  0
LWPOLYLINE
  5
40E
330
2
100
AcDbEntity
  8
OBJECT
100
AcDbPolyline
 90
        3
 70
     0
 43
0.0
 10
36.06263637426491
 20
63.99786241532007
 10
36.79420297140655
 20
63.99786241532012
 10
36.79420297140655
 20
63.69786241532006
  0
LWPOLYLINE
  5
40F
330
2
100
AcDbEntity
  8
OBJECT
100
AcDbPolyline
 90
        4
 70
     0
 43
0.0
 10
36.79420297140655
 20
54.99786241532001
 10
37.79420297140655
 20
54.99786241532001
 10
37.79420297140655
 20
56.19786241531994
 10
36.79420297140655
 20
56.19786241531994
  0
LWPOLYLINE
  5
410
330
2
100
AcDbEntity
  8
OBJECT
100
AcDbPolyline
 90
        4
 70
     0
 43
0.0
 10
36.79420297140655
 20
58.69786241532006
 10
37.79420297140655
 20
58.69786241532006
 10
37.79420297140655
 20
57.49786241532013
 10
36.79420297140655
 20
57.49786241532013
  0
LWPOLYLINE
  5
411
330
2
100
AcDbEntity
  8
OBJECT
100
AcDbPolyline
 90
        4
 70
     0
 43
0.0
 10
36.79420297140655
 20
61.19786241532006
 10
37.79420297140655
 20
61.19786241532006
 10
37.79420297140655
 20
59.99786241532013
 10
36.79420297140655
 20
59.99786241532013
  0
LWPOLYLINE
  5
412
330
2
100
AcDbEntity
  8
OBJECT
100
AcDbPolyline
 90
        4
 70
     0
 43
0.0
 10
36.79420297140655
 20
52.49786241532001
 10
37.79420297140655
 20
52.49786241532001
 10
37.79420297140655
 20
53.69786241531994
 10
36.79420297140655
 20
53.69786241531994
  0
LINE
  5
413
330
2
100
AcDbEntity
  8
OBJECT
100
AcDbLine
 10
33.91263637426482
 20
62.94786241532006
 30
0.0
 11
34.06263637426491
 21
62.69786241532006
 31
0.0
  0
LINE
  5
414
330
2
100
AcDbEntity
  8
OBJECT
100
AcDbLine
 10
33.61263637426486
 20
62.94786241532006
 30
0.0
 11
33.46263637426477
 21
62.69786241532006
 31
0.0
  0
LWPOLYLINE
  5
415
330
2
100
AcDbEntity
  8
OBJECT
100
AcDbPolyline
 90
        3
 70
     0
 43
0.0
 10
33.33106977712327
 20
62.49786241532007
 10
33.33106977712327
 20
62.19786241532005
 10
34.06263637426491
 20
62.19786241532005
  0
LWPOLYLINE
  5
416
330
2
100
AcDbEntity
  8
OBJECT
100
AcDbPolyline
 90
        4
 70
     1
 43
0.0
 10
33.61263637426486
 20
62.94786241532006
 10
33.91263637426482
 20
62.94786241532006
 10
33.91263637426482
 20
63.24786241532001
 10
33.61263637426486
 20
63.24786241532001
  0
LINE
  5
417
330
2
100
AcDbEntity
  8
OBJECT
100
AcDbLine
 10
30.86263637426486
 20
56.34786241531992
 30
0.0
 11
30.462636374265
 21
56.34786241531998
 31
0.0
  0
LINE
  5
418
330
2
100
AcDbEntity
  8
OBJECT
100
AcDbLine
 10
30.86263637426486
 20
57.34786241531998
 30
0.0
 11
30.462636374265
 21
57.34786241532003
 31
0.0
  0
LINE
  5
419
330
2
100
AcDbEntity
  8
OBJECT
100
AcDbLine
 10
30.462636374265
 20
56.34786241531992
 30
0.0
 11
30.462636374265
 21
57.34786241531998
 31
0.0
  0
LINE
  5
41A
330
2
100
AcDbEntity
  8
OBJECT
100
AcDbLine
 10
36.212636374265
 20
60.74786241532001
 30
0.0
 11
36.06263637426491
 21
60.99786241532001
 31
0.0
  0
LINE
  5
41B
330
2
100
AcDbEntity
  8
OBJECT
100
AcDbLine
 10
36.66263637426505
 20
60.99786241532007
 30
0.0
 11
36.51263637426495
 21
60.74786241532001
 31
0.0
  0
LINE
  5
41C
330
2
100
AcDbEntity
  8
OBJECT
100
AcDbLine
 10
35.56263637426491
 20
60.84786241532004
 30
0.0
 11
34.56263637426491
 21
60.84786241532004
 31
0.0
  0
LINE
  5
41D
330
2
100
AcDbEntity
  8
OBJECT
100
AcDbLine
 10
35.56263637426491
 20
60.84786241531998
 30
0.0
 11
34.56263637426491
 21
60.84786241531998
 31
0.0
  0
LINE
  5
41E
330
2
100
AcDbEntity
  8
OBJECT
100
AcDbLine
 10
33.46263637426477
 20
60.99786241532001
 30
0.0
 11
33.61263637426486
 21
60.74786241532001
 31
0.0
  0
LINE
  5
41F
330
2
100
AcDbEntity
  8
OBJECT
100
AcDbLine
 10
33.91263637426482
 20
60.74786241532001
 30
0.0
 11
34.06263637426491
 21
60.99786241532001
 31
0.0
  0
LWPOLYLINE
  5
420
330
2
100
AcDbEntity
  8
OBJECT
100
AcDbPolyline
 90
        3
 70
     0
 43
0.0
 10
34.06263637426491
 20
61.49786241532007
 10
33.33106977712327
 20
61.49786241532007
 10
33.33106977712327
 20
61.19786241532006
  0
LINE
  5
421
330
2
100
AcDbEntity
  8
OBJECT
100
AcDbLine
 10
36.212636374265
 20
60.44786241532006
 30
0.0
 11
36.06263637426491
 21
60.19786241532006
 31
0.0
  0
LINE
  5
422
330
2
100
AcDbEntity
  8
OBJECT
100
AcDbLine
 10
36.51263637426495
 20
60.44786241532006
 30
0.0
 11
36.66263637426505
 21
60.19786241532012
 31
0.0
  0
LINE
  5
423
330
2
100
AcDbEntity
  8
OBJECT
100
AcDbLine
 10
36.212636374265
 20
55.74786241531995
 30
0.0
 11
36.06263637426491
 21
55.99786241531996
 31
0.0
  0
LINE
  5
424
330
2
100
AcDbEntity
  8
OBJECT
100
AcDbLine
 10
36.51263637426495
 20
55.74786241531995
 30
0.0
 11
36.66263637426505
 21
55.99786241531996
 31
0.0
  0
LINE
  5
425
330
2
100
AcDbEntity
  8
OBJECT
100
AcDbLine
 10
36.212636374265
 20
55.44786241532
 30
0.0
 11
36.06263637426491
 21
55.19786241532
 31
0.0
  0
LINE
  5
426
330
2
100
AcDbEntity
  8
OBJECT
100
AcDbLine
 10
36.66263637426505
 20
55.19786241532
 30
0.0
 11
36.51263637426495
 21
55.44786241532
 31
0.0
  0
LWPOLYLINE
  5
427
330
2
100
AcDbEntity
  8
OBJECT
100
AcDbPolyline
 90
        4
 70
     1
 43
0.0
 10
36.66263637426505
 20
55.99786241531996
 10
36.06263637426491
 20
55.99786241531996
 10
36.06263637426491
 20
55.19786241532
 10
36.66263637426505
 20
55.19786241532
  0
LWPOLYLINE
  5
428
330
2
100
AcDbEntity
  8
OBJECT
100
AcDbPolyline
 90
        4
 70
     1
 43
0.0
 10
36.51263637426495
 20
55.74786241531995
 10
36.212636374265
 20
55.74786241531995
 10
36.212636374265
 20
55.44786241532
 10
36.51263637426495
 20
55.44786241532
  0
LWPOLYLINE
  5
429
330
2
100
AcDbEntity
  8
OBJECT
100
AcDbPolyline
 90
        4
 70
     1
 43
0.0
 10
36.66263637426505
 20
57.69786241532012
 10
36.06263637426491
 20
57.69786241532006
 10
36.06263637426491
 20
58.49786241532001
 10
36.66263637426505
 20
58.49786241532007
  0
LINE
  5
42A
330
2
100
AcDbEntity
  8
OBJECT
100
AcDbLine
 10
36.51263637426495
 20
57.94786241532006
 30
0.0
 11
36.66263637426505
 21
57.69786241532012
 31
0.0
  0
LINE
  5
42B
330
2
100
AcDbEntity
  8
OBJECT
100
AcDbLine
 10
36.212636374265
 20
57.94786241532006
 30
0.0
 11
36.06263637426491
 21
57.69786241532006
 31
0.0
  0
LWPOLYLINE
  5
42C
330
2
100
AcDbEntity
  8
OBJECT
100
AcDbPolyline
 90
        4
 70
     1
 43
0.0
 10
36.51263637426495
 20
57.94786241532006
 10
36.212636374265
 20
57.94786241532006
 10
36.212636374265
 20
58.24786241532001
 10
36.51263637426495
 20
58.24786241532001
  0
LINE
  5
42D
330
2
100
AcDbEntity
  8
OBJECT
100
AcDbLine
 10
36.66263637426505
 20
58.49786241532007
 30
0.0
 11
36.51263637426495
 21
58.24786241532001
 31
0.0
  0
LINE
  5
42E
330
2
100
AcDbEntity
  8
OBJECT
100
AcDbLine
 10
36.212636374265
 20
58.24786241532001
 30
0.0
 11
36.06263637426491
 21
58.49786241532001
 31
0.0
  0
LWPOLYLINE
  5
42F
330
2
100
AcDbEntity
  8
OBJECT
100
AcDbPolyline
 90
        3
 70
     0
 43
0.0
 10
34.06263637426491
 20
58.99786241532007
 10
33.33106977712327
 20
58.99786241532007
 10
33.33106977712327
 20
58.69786241532006
  0
LINE
  5
430
330
2
100
AcDbEntity
  8
OBJECT
100
AcDbLine
 10
35.56263637426491
 20
60.34786241532003
 30
0.0
 11
34.56263637426491
 21
60.34786241532003
 31
0.0
  0
LINE
  5
431
330
2
100
AcDbEntity
  8
OBJECT
100
AcDbLine
 10
35.56263637426491
 20
60.34786241531998
 30
0.0
 11
34.56263637426491
 21
60.34786241531998
 31
0.0
  0
LINE
  5
432
330
2
100
AcDbEntity
  8
OBJECT
100
AcDbLine
 10
33.61263637426486
 20
60.44786241532006
 30
0.0
 11
33.46263637426477
 21
60.19786241532006
 31
0.0
  0
LINE
  5
433
330
2
100
AcDbEntity
  8
OBJECT
100
AcDbLine
 10
33.91263637426482
 20
60.44786241532006
 30
0.0
 11
34.06263637426491
 21
60.19786241532006
 31
0.0
  0
LWPOLYLINE
  5
434
330
2
100
AcDbEntity
  8
OBJECT
100
AcDbPolyline
 90
        3
 70
     0
 43
0.0
 10
33.33106977712327
 20
59.99786241532007
 10
33.33106977712327
 20
59.69786241532005
 10
34.06263637426491
 20
59.69786241532005
  0
LINE
  5
435
330
2
100
AcDbEntity
  8
OBJECT
100
AcDbLine
 10
35.56263637426491
 20
55.84786241531998
 30
0.0
 11
34.56263637426491
 21
55.84786241531998
 31
0.0
  0
LINE
  5
436
330
2
100
AcDbEntity
  8
OBJECT
100
AcDbLine
 10
35.56263637426491
 20
55.34786241531998
 30
0.0
 11
34.56263637426491
 21
55.34786241531998
 31
0.0
  0
LINE
  5
437
330
2
100
AcDbEntity
  8
OBJECT
100
AcDbLine
 10
35.56263637426491
 20
55.84786241531998
 30
0.0
 11
34.56263637426491
 21
55.84786241531998
 31
0.0
  0
LINE
  5
438
330
2
100
AcDbEntity
  8
OBJECT
100
AcDbLine
 10
35.56263637426491
 20
55.34786241531998
 30
0.0
 11
34.56263637426491
 21
55.34786241531998
 31
0.0
  0
LINE
  5
439
330
2
100
AcDbEntity
  8
OBJECT
100
AcDbLine
 10
35.56263637426491
 20
55.84786241532004
 30
0.0
 11
34.56263637426491
 21
55.84786241532004
 31
0.0
  0
LINE
  5
43A
330
2
100
AcDbEntity
  8
OBJECT
100
AcDbLine
 10
35.56263637426491
 20
57.84786241532003
 30
0.0
 11
34.56263637426491
 21
57.84786241532003
 31
0.0
  0
LINE
  5
43B
330
2
100
AcDbEntity
  8
OBJECT
100
AcDbLine
 10
35.56263637426491
 20
57.84786241531998
 30
0.0
 11
34.56263637426491
 21
57.84786241531998
 31
0.0
  0
LINE
  5
43C
330
2
100
AcDbEntity
  8
OBJECT
100
AcDbLine
 10
35.56263637426491
 20
57.84786241532003
 30
0.0
 11
34.56263637426491
 21
57.84786241532003
 31
0.0
  0
LINE
  5
43D
330
2
100
AcDbEntity
  8
OBJECT
100
AcDbLine
 10
35.56263637426491
 20
58.34786241532004
 30
0.0
 11
34.56263637426491
 21
58.34786241532004
 31
0.0
  0
LINE
  5
43E
330
2
100
AcDbEntity
  8
OBJECT
100
AcDbLine
 10
35.56263637426491
 20
58.34786241531998
 30
0.0
 11
34.56263637426491
 21
58.34786241531998
 31
0.0
  0
LINE
  5
43F
330
2
100
AcDbEntity
  8
OBJECT
100
AcDbLine
 10
35.56263637426491
 20
58.34786241532004
 30
0.0
 11
34.56263637426491
 21
58.34786241532004
 31
0.0
  0
LWPOLYLINE
  5
440
330
2
100
AcDbEntity
  8
OBJECT
100
AcDbPolyline
 90
        4
 70
     1
 43
0.0
 10
33.61263637426486
 20
55.74786241531995
 10
33.91263637426482
 20
55.74786241531995
 10
33.91263637426482
 20
55.44786241532
 10
33.61263637426486
 20
55.44786241532
  0
LWPOLYLINE
  5
441
330
2
100
AcDbEntity
  8
OBJECT
100
AcDbPolyline
 90
        4
 70
     1
 43
0.0
 10
33.46263637426477
 20
55.99786241531996
 10
34.06263637426491
 20
55.99786241531996
 10
34.06263637426491
 20
55.19786241532
 10
33.46263637426477
 20
55.19786241532
  0
LINE
  5
442
330
2
100
AcDbEntity
  8
OBJECT
100
AcDbLine
 10
33.46263637426477
 20
55.19786241532
 30
0.0
 11
33.61263637426486
 21
55.44786241532
 31
0.0
  0
LINE
  5
443
330
2
100
AcDbEntity
  8
OBJECT
100
AcDbLine
 10
33.91263637426482
 20
55.44786241532
 30
0.0
 11
34.06263637426491
 21
55.19786241532
 31
0.0
  0
LINE
  5
444
330
2
100
AcDbEntity
  8
OBJECT
100
AcDbLine
 10
33.61263637426486
 20
55.74786241531995
 30
0.0
 11
33.46263637426477
 21
55.99786241531996
 31
0.0
  0
LINE
  5
445
330
2
100
AcDbEntity
  8
OBJECT
100
AcDbLine
 10
33.91263637426482
 20
55.74786241531995
 30
0.0
 11
34.06263637426491
 21
55.99786241531996
 31
0.0
  0
LWPOLYLINE
  5
446
330
2
100
AcDbEntity
  8
OBJECT
100
AcDbPolyline
 90
        3
 70
     0
 43
0.0
 10
33.33106977712327
 20
56.19786241531994
 10
33.33106977712327
 20
56.49786241532002
 10
34.06263637426491
 20
56.49786241532002
  0
LINE
  5
447
330
2
100
AcDbEntity
  8
OBJECT
100
AcDbLine
 10
33.91263637426482
 20
57.94786241532006
 30
0.0
 11
34.06263637426491
 21
57.69786241532006
 31
0.0
  0
LINE
  5
448
330
2
100
AcDbEntity
  8
OBJECT
100
AcDbLine
 10
33.61263637426486
 20
57.94786241532006
 30
0.0
 11
33.46263637426477
 21
57.69786241532006
 31
0.0
  0
LWPOLYLINE
  5
449
330
2
100
AcDbEntity
  8
OBJECT
100
AcDbPolyline
 90
        4
 70
     1
 43
0.0
 10
33.46263637426477
 20
57.69786241532006
 10
34.06263637426491
 20
57.69786241532006
 10
34.06263637426491
 20
58.49786241532001
 10
33.46263637426477
 20
58.49786241532001
  0
LINE
  5
44A
330
2
100
AcDbEntity
  8
OBJECT
100
AcDbLine
 10
33.91263637426482
 20
58.24786241532001
 30
0.0
 11
34.06263637426491
 21
58.49786241532001
 31
0.0
  0
LINE
  5
44B
330
2
100
AcDbEntity
  8
OBJECT
100
AcDbLine
 10
33.46263637426477
 20
58.49786241532001
 30
0.0
 11
33.61263637426486
 21
58.24786241532001
 31
0.0
  0
LWPOLYLINE
  5
44C
330
2
100
AcDbEntity
  8
OBJECT
100
AcDbPolyline
 90
        4
 70
     1
 43
0.0
 10
33.61263637426486
 20
57.94786241532006
 10
33.91263637426482
 20
57.94786241532006
 10
33.91263637426482
 20
58.24786241532001
 10
33.61263637426486
 20
58.24786241532001
  0
LWPOLYLINE
  5
44D
330
2
100
AcDbEntity
  8
OBJECT
100
AcDbPolyline
 90
        3
 70
     0
 43
0.0
 10
33.33106977712327
 20
57.49786241532007
 10
33.33106977712327
 20
57.19786241532005
 10
34.06263637426491
 20
57.19786241532005
  0
LWPOLYLINE
  5
44E
330
2
100
AcDbEntity
  8
OBJECT
100
AcDbPolyline
 90
        4
 70
     1
 43
0.0
 10
36.66263637426505
 20
60.19786241532012
 10
36.06263637426491
 20
60.19786241532006
 10
36.06263637426491
 20
60.99786241532001
 10
36.66263637426505
 20
60.99786241532007
  0
LWPOLYLINE
  5
44F
330
2
100
AcDbEntity
  8
OBJECT
100
AcDbPolyline
 90
        4
 70
     1
 43
0.0
 10
36.51263637426495
 20
60.44786241532006
 10
36.212636374265
 20
60.44786241532006
 10
36.212636374265
 20
60.74786241532001
 10
36.51263637426495
 20
60.74786241532001
  0
LWPOLYLINE
  5
450
330
2
100
AcDbEntity
  8
OBJECT
100
AcDbPolyline
 90
        4
 70
     1
 43
0.0
 10
33.61263637426486
 20
60.44786241532006
 10
33.91263637426482
 20
60.44786241532006
 10
33.91263637426482
 20
60.74786241532001
 10
33.61263637426486
 20
60.74786241532001
  0
LWPOLYLINE
  5
451
330
2
100
AcDbEntity
  8
OBJECT
100
AcDbPolyline
 90
        4
 70
     1
 43
0.0
 10
33.46263637426477
 20
60.19786241532006
 10
34.06263637426491
 20
60.19786241532006
 10
34.06263637426491
 20
60.99786241532001
 10
33.46263637426477
 20
60.99786241532001
  0
LWPOLYLINE
  5
452
330
2
100
AcDbEntity
  8
OBJECT
100
AcDbPolyline
 90
        4
 70
     1
 43
0.0
 10
36.51263637426495
 20
53.24786241531995
 10
36.212636374265
 20
53.24786241531995
 10
36.212636374265
 20
52.94786241532
 10
36.51263637426495
 20
52.94786241532
  0
LWPOLYLINE
  5
453
330
2
100
AcDbEntity
  8
OBJECT
100
AcDbPolyline
 90
        4
 70
     1
 43
0.0
 10
36.66263637426505
 20
53.49786241531996
 10
36.06263637426491
 20
53.49786241531996
 10
36.06263637426491
 20
52.69786241532
 10
36.66263637426505
 20
52.69786241532
  0
LINE
  5
454
330
2
100
AcDbEntity
  8
OBJECT
100
AcDbLine
 10
36.51263637426495
 20
53.24786241531995
 30
0.0
 11
36.66263637426505
 21
53.49786241531996
 31
0.0
  0
LINE
  5
455
330
2
100
AcDbEntity
  8
OBJECT
100
AcDbLine
 10
36.212636374265
 20
53.24786241531995
 30
0.0
 11
36.06263637426491
 21
53.49786241531996
 31
0.0
  0
LINE
  5
456
330
2
100
AcDbEntity
  8
OBJECT
100
AcDbLine
 10
36.212636374265
 20
50.74786241531995
 30
0.0
 11
36.06263637426491
 21
50.99786241531996
 31
0.0
  0
LINE
  5
457
330
2
100
AcDbEntity
  8
OBJECT
100
AcDbLine
 10
36.51263637426495
 20
50.74786241531995
 30
0.0
 11
36.66263637426505
 21
50.99786241531996
 31
0.0
  0
LWPOLYLINE
  5
458
330
2
100
AcDbEntity
  8
OBJECT
100
AcDbPolyline
 90
        4
 70
     1
 43
0.0
 10
36.51263637426495
 20
50.74786241531995
 10
36.212636374265
 20
50.74786241531995
 10
36.212636374265
 20
50.44786241532
 10
36.51263637426495
 20
50.44786241532
  0
LINE
  5
459
330
2
100
AcDbEntity
  8
OBJECT
100
AcDbLine
 10
36.66263637426505
 20
52.69786241532
 30
0.0
 11
36.51263637426495
 21
52.94786241532
 31
0.0
  0
LINE
  5
45A
330
2
100
AcDbEntity
  8
OBJECT
100
AcDbLine
 10
36.212636374265
 20
52.94786241532
 30
0.0
 11
36.06263637426491
 21
52.69786241532
 31
0.0
  0
LWPOLYLINE
  5
45B
330
2
100
AcDbEntity
  8
OBJECT
100
AcDbPolyline
 90
        4
 70
     1
 43
0.0
 10
33.46263637426477
 20
53.49786241531996
 10
34.06263637426491
 20
53.49786241531996
 10
34.06263637426491
 20
52.69786241532
 10
33.46263637426477
 20
52.69786241532
  0
LWPOLYLINE
  5
45C
330
2
100
AcDbEntity
  8
OBJECT
100
AcDbPolyline
 90
        4
 70
     1
 43
0.0
 10
33.61263637426486
 20
53.24786241531995
 10
33.91263637426482
 20
53.24786241531995
 10
33.91263637426482
 20
52.94786241532
 10
33.61263637426486
 20
52.94786241532
  0
LINE
  5
45D
330
2
100
AcDbEntity
  8
OBJECT
100
AcDbLine
 10
35.56263637426491
 20
53.34786241531998
 30
0.0
 11
34.56263637426491
 21
53.34786241531998
 31
0.0
  0
LINE
  5
45E
330
2
100
AcDbEntity
  8
OBJECT
100
AcDbLine
 10
33.91263637426482
 20
53.24786241531995
 30
0.0
 11
34.06263637426491
 21
53.49786241531996
 31
0.0
  0
LINE
  5
45F
330
2
100
AcDbEntity
  8
OBJECT
100
AcDbLine
 10
33.61263637426486
 20
53.24786241531995
 30
0.0
 11
33.46263637426477
 21
53.49786241531996
 31
0.0
  0
LWPOLYLINE
  5
460
330
2
100
AcDbEntity
  8
OBJECT
100
AcDbPolyline
 90
        3
 70
     0
 43
0.0
 10
33.33106977712327
 20
53.69786241531994
 10
33.33106977712327
 20
53.99786241532002
 10
34.06263637426491
 20
53.99786241532002
  0
LINE
  5
461
330
2
100
AcDbEntity
  8
OBJECT
100
AcDbLine
 10
35.56263637426491
 20
50.84786241531998
 30
0.0
 11
34.56263637426491
 21
50.84786241531998
 31
0.0
  0
LINE
  5
462
330
2
100
AcDbEntity
  8
OBJECT
100
AcDbLine
 10
35.56263637426491
 20
52.84786241531998
 30
0.0
 11
34.56263637426491
 21
52.84786241531998
 31
0.0
  0
LWPOLYLINE
  5
463
330
2
100
AcDbEntity
  8
OBJECT
100
AcDbPolyline
 90
        3
 70
     0
 43
0.0
 10
33.33106977712327
 20
51.19786241531994
 10
33.33106977712327
 20
51.49786241532002
 10
34.06263637426491
 20
51.49786241532002
  0
LWPOLYLINE
  5
464
330
2
100
AcDbEntity
  8
OBJECT
100
AcDbPolyline
 90
        4
 70
     1
 43
0.0
 10
33.61263637426486
 20
50.74786241531995
 10
33.91263637426482
 20
50.74786241531995
 10
33.91263637426482
 20
50.44786241532
 10
33.61263637426486
 20
50.44786241532
  0
LINE
  5
465
330
2
100
AcDbEntity
  8
OBJECT
100
AcDbLine
 10
33.61263637426486
 20
50.74786241531995
 30
0.0
 11
33.46263637426477
 21
50.99786241531996
 31
0.0
  0
LINE
  5
466
330
2
100
AcDbEntity
  8
OBJECT
100
AcDbLine
 10
33.91263637426482
 20
50.74786241531995
 30
0.0
 11
34.06263637426491
 21
50.99786241531996
 31
0.0
  0
LINE
  5
467
330
2
100
AcDbEntity
  8
OBJECT
100
AcDbLine
 10
33.91263637426482
 20
52.94786241532
 30
0.0
 11
34.06263637426491
 21
52.69786241532
 31
0.0
  0
LINE
  5
468
330
2
100
AcDbEntity
  8
OBJECT
100
AcDbLine
 10
33.46263637426477
 20
52.69786241532
 30
0.0
 11
33.61263637426486
 21
52.94786241532
 31
0.0
  0
LWPOLYLINE
  5
469
330
2
100
AcDbEntity
  8
OBJECT
100
AcDbPolyline
 90
        3
 70
     0
 43
0.0
 10
34.06263637426491
 20
52.19786241531995
 10
33.33106977712327
 20
52.19786241531995
 10
33.33106977712327
 20
52.49786241532001
  0
LWPOLYLINE
  5
46A
330
2
100
AcDbEntity
  8
OBJECT
100
AcDbPolyline
 90
        3
 70
     0
 43
0.0
 10
34.06263637426491
 20
54.69786241531995
 10
33.33106977712327
 20
54.69786241531995
 10
33.33106977712327
 20
54.99786241532001
  0
LINE
  5
46B
330
2
100
AcDbEntity
  8
OBJECT
100
AcDbLine
 10
36.51263637426495
 20
62.94786241532006
 30
0.0
 11
36.66263637426505
 21
62.69786241532012
 31
0.0
  0
LINE
  5
46C
330
2
100
AcDbEntity
  8
OBJECT
100
AcDbLine
 10
36.212636374265
 20
62.94786241532006
 30
0.0
 11
36.06263637426491
 21
62.69786241532006
 31
0.0
  0
LWPOLYLINE
  5
46D
330
2
100
AcDbEntity
  8
OBJECT
100
AcDbPolyline
 90
        4
 70
     1
 43
0.0
 10
36.51263637426495
 20
62.94786241532006
 10
36.212636374265
 20
62.94786241532006
 10
36.212636374265
 20
63.24786241532001
 10
36.51263637426495
 20
63.24786241532001
  0
LINE
  5
46E
330
2
100
AcDbEntity
  8
OBJECT
100
AcDbLine
 10
35.56263637426491
 20
62.84786241532003
 30
0.0
 11
34.56263637426491
 21
62.84786241532003
 31
0.0
  0
LINE
  5
46F
330
2
100
AcDbEntity
  8
OBJECT
100
AcDbLine
 10
35.56263637426491
 20
62.84786241531998
 30
0.0
 11
34.56263637426491
 21
62.84786241531998
 31
0.0
  0
LWPOLYLINE
  5
470
330
2
100
AcDbEntity
  8
OBJECT
100
AcDbPolyline
 90
        4
 70
     0
 43
0.0
 10
33.33106977712327
 20
54.99786241532001
 10
32.33106977712327
 20
54.99786241532001
 10
32.33106977712327
 20
56.19786241531994
 10
33.33106977712327
 20
56.19786241531994
  0
LWPOLYLINE
  5
471
330
2
100
AcDbEntity
  8
OBJECT
100
AcDbPolyline
 90
        4
 70
     0
 43
0.0
 10
33.33106977712327
 20
58.69786241532006
 10
32.33106977712327
 20
58.69786241532006
 10
32.33106977712327
 20
57.49786241532001
 10
33.33106977712327
 20
57.49786241532007
  0
LWPOLYLINE
  5
472
330
2
100
AcDbEntity
  8
OBJECT
100
AcDbPolyline
 90
        4
 70
     0
 43
0.0
 10
33.33106977712327
 20
61.19786241532006
 10
32.33106977712327
 20
61.19786241532006
 10
32.33106977712327
 20
59.99786241532001
 10
33.33106977712327
 20
59.99786241532007
  0
LWPOLYLINE
  5
473
330
2
100
AcDbEntity
  8
OBJECT
100
AcDbPolyline
 90
        4
 70
     0
 43
0.0
 10
33.33106977712327
 20
52.49786241532001
 10
32.33106977712327
 20
52.49786241532001
 10
32.33106977712327
 20
53.69786241531994
 10
33.33106977712327
 20
53.69786241531994
  0
LWPOLYLINE
  5
474
330
2
100
AcDbEntity
  8
OBJECT
100
AcDbPolyline
 90
        3
 70
     0
 43
0.0
 10
36.06263637426491
 20
61.49786241532007
 10
36.79420297140655
 20
61.49786241532012
 10
36.79420297140655
 20
61.19786241532006
  0
LWPOLYLINE
  5
475
330
2
100
AcDbEntity
  8
OBJECT
100
AcDbPolyline
 90
        3
 70
     0
 43
0.0
 10
36.06263637426491
 20
58.99786241532007
 10
36.79420297140655
 20
58.99786241532012
 10
36.79420297140655
 20
58.69786241532006
  0
LWPOLYLINE
  5
476
330
2
100
AcDbEntity
  8
OBJECT
100
AcDbPolyline
 90
        3
 70
     0
 43
0.0
 10
36.79420297140655
 20
59.99786241532013
 10
36.79420297140655
 20
59.69786241532005
 10
36.06263637426491
 20
59.69786241532005
  0
LWPOLYLINE
  5
477
330
2
100
AcDbEntity
  8
OBJECT
100
AcDbPolyline
 90
        3
 70
     0
 43
0.0
 10
36.79420297140655
 20
56.19786241531994
 10
36.79420297140655
 20
56.49786241532002
 10
36.06263637426491
 20
56.49786241532002
  0
LWPOLYLINE
  5
478
330
2
100
AcDbEntity
  8
OBJECT
100
AcDbPolyline
 90
        3
 70
     0
 43
0.0
 10
36.79420297140655
 20
57.49786241532013
 10
36.79420297140655
 20
57.19786241532005
 10
36.06263637426491
 20
57.19786241532005
  0
LWPOLYLINE
  5
479
330
2
100
AcDbEntity
  8
OBJECT
100
AcDbPolyline
 90
        3
 70
     0
 43
0.0
 10
36.79420297140655
 20
53.69786241531994
 10
36.79420297140655
 20
53.99786241532002
 10
36.06263637426491
 20
53.99786241532002
  0
LWPOLYLINE
  5
47A
330
2
100
AcDbEntity
  8
OBJECT
100
AcDbPolyline
 90
        3
 70
     0
 43
0.0
 10
36.79420297140655
 20
51.19786241531994
 10
36.79420297140655
 20
51.49786241532002
 10
36.06263637426491
 20
51.49786241532002
  0
LWPOLYLINE
  5
47B
330
2
100
AcDbEntity
  8
OBJECT
100
AcDbPolyline
 90
        3
 70
     0
 43
0.0
 10
36.06263637426491
 20
52.19786241531995
 10
36.79420297140655
 20
52.19786241531995
 10
36.79420297140655
 20
52.49786241532001
  0
LWPOLYLINE
  5
47C
330
2
100
AcDbEntity
  8
OBJECT
100
AcDbPolyline
 90
        3
 70
     0
 43
0.0
 10
36.06263637426491
 20
54.69786241531995
 10
36.79420297140655
 20
54.69786241531995
 10
36.79420297140655
 20
54.99786241532001
  0
LWPOLYLINE
  5
47D
330
2
100
AcDbEntity
  8
OBJECT
100
AcDbPolyline
 90
        3
 70
     0
 43
0.0
 10
36.79420297140655
 20
62.49786241532013
 10
36.79420297140655
 20
62.19786241532005
 10
36.06263637426491
 20
62.19786241532005
  0
LINE
  5
47E
330
2
100
AcDbEntity
  8
OBJECT
100
AcDbLine
 10
33.91263637426482
 20
63.24786241532001
 30
0.0
 11
34.06263637426491
 21
63.49786241532001
 31
0.0
  0
LINE
  5
47F
330
2
100
AcDbEntity
  8
OBJECT
100
AcDbLine
 10
33.46263637426477
 20
63.49786241532001
 30
0.0
 11
33.61263637426486
 21
63.24786241532001
 31
0.0
  0
LWPOLYLINE
  5
480
330
2
100
AcDbEntity
  8
OBJECT
100
AcDbPolyline
 90
        4
 70
     1
 43
0.0
 10
33.46263637426477
 20
62.69786241532006
 10
34.06263637426491
 20
62.69786241532006
 10
34.06263637426491
 20
63.49786241532001
 10
33.46263637426477
 20
63.49786241532001
  0
LINE
  5
481
330
2
100
AcDbEntity
  8
OBJECT
100
AcDbLine
 10
30.56263637426491
 20
63.34786241532004
 30
0.0
 11
30.56263637426491
 21
57.94786241532006
 31
0.0
  0
LINE
  5
482
330
2
100
AcDbEntity
  8
OBJECT
100
AcDbLine
 10
36.66263637426505
 20
63.49786241532007
 30
0.0
 11
36.51263637426495
 21
63.24786241532001
 31
0.0
  0
LINE
  5
483
330
2
100
AcDbEntity
  8
OBJECT
100
AcDbLine
 10
36.212636374265
 20
63.24786241532001
 30
0.0
 11
36.06263637426491
 21
63.49786241532001
 31
0.0
  0
LWPOLYLINE
  5
484
330
2
100
AcDbEntity
  8
OBJECT
100
AcDbPolyline
 90
        4
 70
     0
 43
0.0
 10
36.79420297140655
 20
63.69786241532006
 10
37.79420297140655
 20
63.69786241532006
 10
37.79420297140655
 20
62.49786241532013
 10
36.79420297140655
 20
62.49786241532013
  0
LWPOLYLINE
  5
485
330
2
100
AcDbEntity
  8
OBJECT
100
AcDbPolyline
 90
        4
 70
     1
 43
0.0
 10
36.66263637426505
 20
62.69786241532012
 10
36.06263637426491
 20
62.69786241532006
 10
36.06263637426491
 20
63.49786241532001
 10
36.66263637426505
 20
63.49786241532007
  0
LWPOLYLINE
  5
486
330
2
100
AcDbEntity
  8
OBJECT
100
AcDbPolyline
 90
        4
 70
     0
 43
0.0
 10
33.33106977712327
 20
63.69786241532006
 10
32.33106977712327
 20
63.69786241532006
 10
32.33106977712327
 20
62.49786241532001
 10
33.33106977712327
 20
62.49786241532007
  0
LINE
  5
487
330
2
100
AcDbEntity
  8
OBJECT
100
AcDbLine
 10
39.462636374265
 20
63.84786241531998
 30
0.0
 11
39.462636374265
 21
64.84786241532003
 31
0.0
  0
LINE
  5
488
330
2
100
AcDbEntity
  8
OBJECT
100
AcDbLine
 10
39.462636374265
 20
64.84786241532003
 30
0.0
 11
39.06263637426537
 21
64.84786241532003
 31
0.0
  0
LINE
  5
489
330
2
100
AcDbEntity
  8
OBJECT
100
AcDbLine
 10
39.462636374265
 20
63.84786241531998
 30
0.0
 11
39.06263637426537
 21
63.84786241531998
 31
0.0
  0
LINE
  5
48A
330
2
100
AcDbEntity
  8
OBJECT
100
AcDbLine
 10
39.66263637426505
 20
70.59786241532004
 30
0.0
 11
30.26263637426495
 21
70.59786241532004
 31
0.0
  0
ARC
  5
48B
330
2
100
AcDbEntity
  8
OBJECT
100
AcDbCircle
 10
38.56263637426491
 20
72.99786241532001
 30
0.0
 40
0.5
100
AcDbArc
 50
0.0
 51
90.0
  0
TEXT
  5
48C
330
2
100
AcDbEntity
  8
TEXT
100
AcDbText
 10
38.92922643498195
 20
67.91552810711914
 30
0.0
 40
1.0
  1
1
 50
90.0
100
AcDbText
  0
LINE
  5
48D
330
2
100
AcDbEntity
  8
OBJECT
100
AcDbLine
 10
38.76263637426495
 20
69.99786241531996
 30
0.0
 11
31.16263637426482
 21
69.99786241531996
 31
0.0
  0
LINE
  5
48E
330
2
100
AcDbEntity
  8
OBJECT
100
AcDbLine
 10
30.86263637426486
 20
68.09786241532004
 30
0.0
 11
29.76263637426495
 21
68.09786241532004
 31
0.0
  0
LINE
  5
48F
330
2
100
AcDbEntity
  8
OBJECT
100
AcDbLine
 10
29.86263637426509
 20
70.3978624153201
 30
0.0
 11
29.86263637426486
 21
72.99786241532001
 31
0.0
  0
ARC
  5
490
330
2
100
AcDbEntity
  8
OBJECT
100
AcDbCircle
 10
30.26263637426495
 20
70.09786241532004
 30
0.0
 40
0.5
100
AcDbArc
 50
90.0
 51
180.0
  0
LINE
  5
491
330
2
100
AcDbEntity
  8
OBJECT
100
AcDbLine
 10
38.06263637426491
 20
73.49786241532001
 30
0.0
 11
38.56263637426491
 21
73.49786241532001
 31
0.0
  0
LINE
  5
492
330
2
100
AcDbEntity
  8
OBJECT
100
AcDbLine
 10
36.86263637426509
 20
70.59786241532004
 30
0.0
 11
36.86263637426509
 21
69.99786241532001
 31
0.0
  0
LWPOLYLINE
  5
493
330
2
100
AcDbEntity
  8
OBJECT
100
AcDbPolyline
 90
        4
 70
     0
 43
0.0
 10
36.79420297140655
 20
68.69786241532006
 10
37.79420297140655
 20
68.69786241532006
 10
37.79420297140655
 20
67.49786241532013
 10
36.79420297140655
 20
67.49786241532013
  0
LINE
  5
494
330
2
100
AcDbEntity
  8
OBJECT
100
AcDbLine
 10
38.06263637426491
 20
73.49786241532001
 30
0.0
 11
38.06263637426468
 21
70.59786241532004
 31
0.0
  0
LINE
  5
495
330
2
100
AcDbEntity
  8
OBJECT
100
AcDbLine
 10
37.86263637426509
 20
70.59786241532004
 30
0.0
 11
37.86263637426509
 21
73.59786241532003
 31
0.0
  0
LWPOLYLINE
  5
496
330
2
100
AcDbEntity
  8
OBJECT
100
AcDbPolyline
 90
        3
 70
     0
 43
0.0
 10
34.06263637426491
 20
66.49786241532007
 10
33.33106977712327
 20
66.49786241532007
 10
33.33106977712327
 20
66.19786241532006
  0
LINE
  5
497
330
2
100
AcDbEntity
  8
OBJECT
100
AcDbLine
 10
34.462636374265
 20
71.18026016191652
 30
0.0
 11
31.06263637426491
 21
71.18026016191652
 31
0.0
  0
TEXT
  5
498
330
2
100
AcDbEntity
  8
TEXT
100
AcDbText
 10
31.07023258113713
 20
68.44292187194003
 30
0.0
 40
1.0
  1
2
 50
270.0
100
AcDbText
  0
ARC
  5
499
330
2
100
AcDbEntity
  8
OBJECT
100
AcDbCircle
 10
30.36263637426509
 20
72.99786241532001
 30
0.0
 40
0.5
100
AcDbArc
 50
90.0
 51
180.0
  0
LINE
  5
49A
330
2
100
AcDbEntity
  8
OBJECT
100
AcDbLine
 10
30.86263637426464
 20
73.49786241532001
 30
0.0
 11
30.36263637426486
 21
73.49786241532001
 31
0.0
  0
LINE
  5
49B
330
2
100
AcDbEntity
  8
OBJECT
100
AcDbLine
 10
31.06263637426468
 20
73.59786241531998
 30
0.0
 11
31.06263637426491
 21
70.59786241532004
 31
0.0
  0
LINE
  5
49C
330
2
100
AcDbEntity
  8
OBJECT
100
AcDbLine
 10
30.86263637426464
 20
73.49786241532001
 30
0.0
 11
30.86263637426509
 21
70.59786241532004
 31
0.0
  0
LINE
  5
49D
330
2
100
AcDbEntity
  8
OBJECT
100
AcDbLine
 10
30.86263637426486
 20
65.84786241532009
 30
0.0
 11
30.462636374265
 21
65.84786241532009
 31
0.0
  0
LINE
  5
49E
330
2
100
AcDbEntity
  8
OBJECT
100
AcDbLine
 10
35.66263637426459
 20
72.34786241532003
 30
0.0
 11
34.46263637426477
 21
72.34786241532003
 31
0.0
  0
LINE
  5
49F
330
2
100
AcDbEntity
  8
OBJECT
100
AcDbLine
 10
36.212636374265
 20
67.94786241532006
 30
0.0
 11
36.06263637426491
 21
67.69786241532006
 31
0.0
  0
LINE
  5
4A0
330
2
100
AcDbEntity
  8
OBJECT
100
AcDbLine
 10
36.51263637426495
 20
67.94786241532006
 30
0.0
 11
36.66263637426505
 21
67.69786241532012
 31
0.0
  0
LINE
  5
4A1
330
2
100
AcDbEntity
  8
OBJECT
100
AcDbLine
 10
36.212636374265
 20
68.24786241532001
 30
0.0
 11
36.06263637426491
 21
68.49786241532001
 31
0.0
  0
LINE
  5
4A2
330
2
100
AcDbEntity
  8
OBJECT
100
AcDbLine
 10
36.66263637426505
 20
68.49786241532007
 30
0.0
 11
36.51263637426495
 21
68.24786241532001
 31
0.0
  0
LINE
  5
4A3
330
2
100
AcDbEntity
  8
OBJECT
100
AcDbLine
 10
36.212636374265
 20
68.24786241532001
 30
0.0
 11
36.06263637426491
 21
68.49786241532001
 31
0.0
  0
LINE
  5
4A4
330
2
100
AcDbEntity
  8
OBJECT
100
AcDbLine
 10
36.66263637426505
 20
68.49786241532001
 30
0.0
 11
36.51263637426495
 21
68.24786241532001
 31
0.0
  0
LWPOLYLINE
  5
4A5
330
2
100
AcDbEntity
  8
OBJECT
100
AcDbPolyline
 90
        4
 70
     1
 43
0.0
 10
36.66263637426505
 20
67.69786241532012
 10
36.06263637426491
 20
67.69786241532006
 10
36.06263637426491
 20
68.49786241532001
 10
36.66263637426505
 20
68.49786241532007
  0
LWPOLYLINE
  5
4A6
330
2
100
AcDbEntity
  8
OBJECT
100
AcDbPolyline
 90
        4
 70
     1
 43
0.0
 10
36.51263637426495
 20
67.94786241532006
 10
36.212636374265
 20
67.94786241532006
 10
36.212636374265
 20
68.24786241532001
 10
36.51263637426495
 20
68.24786241532001
  0
LWPOLYLINE
  5
4A7
330
2
100
AcDbEntity
  8
OBJECT
100
AcDbPolyline
 90
        4
 70
     1
 43
0.0
 10
36.51263637426495
 20
67.94786241532006
 10
36.212636374265
 20
67.94786241532006
 10
36.212636374265
 20
68.24786241532001
 10
36.51263637426495
 20
68.24786241532001
  0
LINE
  5
4A8
330
2
100
AcDbEntity
  8
OBJECT
100
AcDbLine
 10
33.06263637426491
 20
70.59786241532004
 30
0.0
 11
33.06263637426491
 21
69.99786241532001
 31
0.0
  0
LINE
  5
4A9
330
2
100
AcDbEntity
  8
OBJECT
100
AcDbLine
 10
35.66263637426505
 20
70.59786241532004
 30
0.0
 11
35.66263637426505
 21
69.99786241532001
 31
0.0
  0
LINE
  5
4AA
330
2
100
AcDbEntity
  8
OBJECT
100
AcDbLine
 10
35.66263637426482
 20
70.94452140486493
 30
0.0
 11
34.462636374265
 21
70.94452140486493
 31
0.0
  0
LWPOLYLINE
  5
4AB
330
2
100
AcDbEntity
  8
OBJECT
100
AcDbPolyline
 90
        3
 70
     0
 43
0.0
 10
33.33106977712327
 20
67.49786241532007
 10
33.33106977712327
 20
67.19786241532005
 10
34.06263637426491
 20
67.19786241532005
  0
LINE
  5
4AC
330
2
100
AcDbEntity
  8
OBJECT
100
AcDbLine
 10
33.61263637426486
 20
67.94786241532006
 30
0.0
 11
33.46263637426477
 21
67.69786241532006
 31
0.0
  0
LINE
  5
4AD
330
2
100
AcDbEntity
  8
OBJECT
100
AcDbLine
 10
33.91263637426482
 20
67.94786241532006
 30
0.0
 11
34.06263637426491
 21
67.69786241532006
 31
0.0
  0
LINE
  5
4AE
330
2
100
AcDbEntity
  8
OBJECT
100
AcDbLine
 10
33.46263637426477
 20
68.49786241532001
 30
0.0
 11
33.61263637426486
 21
68.24786241532001
 31
0.0
  0
LINE
  5
4AF
330
2
100
AcDbEntity
  8
OBJECT
100
AcDbLine
 10
33.91263637426482
 20
68.24786241532001
 30
0.0
 11
34.06263637426491
 21
68.49786241532001
 31
0.0
  0
LINE
  5
4B0
330
2
100
AcDbEntity
  8
OBJECT
100
AcDbLine
 10
33.46263637426477
 20
68.49786241532001
 30
0.0
 11
33.61263637426486
 21
68.24786241532001
 31
0.0
  0
LINE
  5
4B1
330
2
100
AcDbEntity
  8
OBJECT
100
AcDbLine
 10
33.91263637426482
 20
68.24786241532001
 30
0.0
 11
34.06263637426491
 21
68.49786241532001
 31
0.0
  0
LWPOLYLINE
  5
4B2
330
2
100
AcDbEntity
  8
OBJECT
100
AcDbPolyline
 90
        4
 70
     1
 43
0.0
 10
33.61263637426486
 20
67.94786241532006
 10
33.91263637426482
 20
67.94786241532006
 10
33.91263637426482
 20
68.24786241532001
 10
33.61263637426486
 20
68.24786241532001
  0
LWPOLYLINE
  5
4B3
330
2
100
AcDbEntity
  8
OBJECT
100
AcDbPolyline
 90
        4
 70
     1
 43
0.0
 10
33.46263637426477
 20
67.69786241532006
 10
34.06263637426491
 20
67.69786241532006
 10
34.06263637426491
 20
68.49786241532001
 10
33.46263637426477
 20
68.49786241532001
  0
LWPOLYLINE
  5
4B4
330
2
100
AcDbEntity
  8
OBJECT
100
AcDbPolyline
 90
        4
 70
     1
 43
0.0
 10
33.61263637426486
 20
67.94786241532006
 10
33.91263637426482
 20
67.94786241532006
 10
33.91263637426482
 20
68.24786241532001
 10
33.61263637426486
 20
68.24786241532001
  0
LWPOLYLINE
  5
4B5
330
2
100
AcDbEntity
  8
OBJECT
100
AcDbPolyline
 90
        3
 70
     0
 43
0.0
 10
34.06263637426491
 20
68.99786241532002
 10
33.33106977712327
 20
68.99786241532002
 10
33.33106977712327
 20
68.69786241532006
  0
LWPOLYLINE
  5
4B6
330
2
100
AcDbEntity
  8
OBJECT
100
AcDbPolyline
 90
        3
 70
     0
 43
0.0
 10
34.06263637426491
 20
68.99786241532007
 10
33.33106977712327
 20
68.99786241532007
 10
33.33106977712327
 20
68.69786241532006
  0
LINE
  5
4B7
330
2
100
AcDbEntity
  8
OBJECT
100
AcDbLine
 10
34.462636374265
 20
70.59786241532004
 30
0.0
 11
34.462636374265
 21
72.34786241531998
 31
0.0
  0
LINE
  5
4B8
330
2
100
AcDbEntity
  8
OBJECT
100
AcDbLine
 10
35.66263637426505
 20
70.59786241532004
 30
0.0
 11
35.66263637426459
 21
72.34786241532003
 31
0.0
  0
LWPOLYLINE
  5
4B9
330
2
100
AcDbEntity
  8
OBJECT
100
AcDbPolyline
 90
        4
 70
     1
 43
0.0
 10
36.51263637426495
 20
65.44786241532006
 10
36.212636374265
 20
65.44786241532006
 10
36.212636374265
 20
65.74786241532001
 10
36.51263637426495
 20
65.74786241532001
  0
LWPOLYLINE
  5
4BA
330
2
100
AcDbEntity
  8
OBJECT
100
AcDbPolyline
 90
        4
 70
     1
 43
0.0
 10
36.66263637426505
 20
65.19786241532012
 10
36.06263637426491
 20
65.19786241532006
 10
36.06263637426491
 20
65.99786241532001
 10
36.66263637426505
 20
65.99786241532007
  0
LINE
  5
4BB
330
2
100
AcDbEntity
  8
OBJECT
100
AcDbLine
 10
36.66263637426505
 20
65.99786241532007
 30
0.0
 11
36.51263637426495
 21
65.74786241532001
 31
0.0
  0
LINE
  5
4BC
330
2
100
AcDbEntity
  8
OBJECT
100
AcDbLine
 10
36.212636374265
 20
65.74786241532001
 30
0.0
 11
36.06263637426491
 21
65.99786241532001
 31
0.0
  0
LINE
  5
4BD
330
2
100
AcDbEntity
  8
OBJECT
100
AcDbLine
 10
36.51263637426495
 20
65.44786241532006
 30
0.0
 11
36.66263637426505
 21
65.19786241532012
 31
0.0
  0
LINE
  5
4BE
330
2
100
AcDbEntity
  8
OBJECT
100
AcDbLine
 10
36.212636374265
 20
65.44786241532006
 30
0.0
 11
36.06263637426491
 21
65.19786241532006
 31
0.0
  0
LINE
  5
4BF
330
2
100
AcDbEntity
  8
OBJECT
100
AcDbLine
 10
35.56263637426491
 20
65.84786241532004
 30
0.0
 11
34.56263637426491
 21
65.84786241532004
 31
0.0
  0
LINE
  5
4C0
330
2
100
AcDbEntity
  8
OBJECT
100
AcDbLine
 10
35.56263637426491
 20
65.34786241532003
 30
0.0
 11
34.56263637426491
 21
65.34786241532003
 31
0.0
  0
LINE
  5
4C1
330
2
100
AcDbEntity
  8
OBJECT
100
AcDbLine
 10
35.56263637426491
 20
65.84786241531998
 30
0.0
 11
34.56263637426491
 21
65.84786241531998
 31
0.0
  0
LINE
  5
4C2
330
2
100
AcDbEntity
  8
OBJECT
100
AcDbLine
 10
35.56263637426491
 20
65.34786241531998
 30
0.0
 11
34.56263637426491
 21
65.34786241531998
 31
0.0
  0
LINE
  5
4C3
330
2
100
AcDbEntity
  8
OBJECT
100
AcDbLine
 10
33.91263637426482
 20
65.44786241532006
 30
0.0
 11
34.06263637426491
 21
65.19786241532006
 31
0.0
  0
LINE
  5
4C4
330
2
100
AcDbEntity
  8
OBJECT
100
AcDbLine
 10
33.61263637426486
 20
65.44786241532006
 30
0.0
 11
33.46263637426477
 21
65.19786241532006
 31
0.0
  0
LINE
  5
4C5
330
2
100
AcDbEntity
  8
OBJECT
100
AcDbLine
 10
33.91263637426482
 20
65.74786241532001
 30
0.0
 11
34.06263637426491
 21
65.99786241532001
 31
0.0
  0
LINE
  5
4C6
330
2
100
AcDbEntity
  8
OBJECT
100
AcDbLine
 10
33.46263637426477
 20
65.99786241532001
 30
0.0
 11
33.61263637426486
 21
65.74786241532001
 31
0.0
  0
LWPOLYLINE
  5
4C7
330
2
100
AcDbEntity
  8
OBJECT
100
AcDbPolyline
 90
        4
 70
     1
 43
0.0
 10
33.46263637426477
 20
65.19786241532006
 10
34.06263637426491
 20
65.19786241532006
 10
34.06263637426491
 20
65.99786241532001
 10
33.46263637426477
 20
65.99786241532001
  0
LWPOLYLINE
  5
4C8
330
2
100
AcDbEntity
  8
OBJECT
100
AcDbPolyline
 90
        4
 70
     1
 43
0.0
 10
33.61263637426486
 20
65.44786241532006
 10
33.91263637426482
 20
65.44786241532006
 10
33.91263637426482
 20
65.74786241532001
 10
33.61263637426486
 20
65.74786241532001
  0
LWPOLYLINE
  5
4C9
330
2
100
AcDbEntity
  8
OBJECT
100
AcDbPolyline
 90
        4
 70
     0
 43
0.0
 10
33.33106977712327
 20
68.69786241532006
 10
32.33106977712327
 20
68.69786241532006
 10
32.33106977712327
 20
67.49786241532001
 10
33.33106977712327
 20
67.49786241532007
  0
ARC
  5
4CA
330
2
100
AcDbEntity
  8
OBJECT
100
AcDbCircle
 10
31.16263637426482
 20
69.69786241532
 30
0.0
 40
0.3
100
AcDbArc
 50
90.0
 51
180.0000000000032
  0
LINE
  5
4CB
330
2
100
AcDbEntity
  8
OBJECT
100
AcDbLine
 10
30.86263637426486
 20
65.84786241532004
 30
0.0
 11
30.86263637426464
 21
69.69786241532
 31
0.0
  0
LWPOLYLINE
  5
4CC
330
2
100
AcDbEntity
  8
OBJECT
100
AcDbPolyline
 90
        3
 70
     0
 43
0.0
 10
36.06263637426491
 20
66.49786241532007
 10
36.79420297140655
 20
66.49786241532012
 10
36.79420297140655
 20
66.19786241532006
  0
LINE
  5
4CD
330
2
100
AcDbEntity
  8
OBJECT
100
AcDbLine
 10
37.86263637426509
 20
73.59786241532003
 30
0.0
 11
31.06263637426468
 21
73.59786241531998
 31
0.0
  0
LWPOLYLINE
  5
4CE
330
2
100
AcDbEntity
  8
OBJECT
100
AcDbPolyline
 90
        3
 70
     0
 43
0.0
 10
36.79420297140655
 20
67.49786241532013
 10
36.79420297140655
 20
67.19786241532005
 10
36.06263637426491
 20
67.19786241532005
  0
LWPOLYLINE
  5
4CF
330
2
100
AcDbEntity
  8
OBJECT
100
AcDbPolyline
 90
        3
 70
     0
 43
0.0
 10
36.06263637426491
 20
68.99786241532002
 10
36.79420297140655
 20
68.99786241532002
 10
36.79420297140655
 20
68.69786241532006
  0
LWPOLYLINE
  5
4D0
330
2
100
AcDbEntity
  8
OBJECT
100
AcDbPolyline
 90
        3
 70
     0
 43
0.0
 10
36.06263637426491
 20
68.99786241532007
 10
36.79420297140655
 20
68.99786241532012
 10
36.79420297140655
 20
68.69786241532006
  0
LINE
  5
4D1
330
2
100
AcDbEntity
  8
OBJECT
100
AcDbLine
 10
37.86263637426509
 20
71.18026016191652
 30
0.0
 11
35.66263637426482
 21
71.18026016191652
 31
0.0
  0
LINE
  5
4D2
330
2
100
AcDbEntity
  8
OBJECT
100
AcDbLine
 10
39.06263637426491
 20
68.09786241532004
 30
0.0
 11
40.16263637426482
 21
68.09786241532004
 31
0.0
  0
ARC
  5
4D3
330
2
100
AcDbEntity
  8
OBJECT
100
AcDbCircle
 10
39.66263637426505
 20
70.09786241532004
 30
0.0
 40
0.5
100
AcDbArc
 50
0.0
 51
90.0
  0
LINE
  5
4D4
330
2
100
AcDbEntity
  8
OBJECT
100
AcDbLine
 10
39.06263637426491
 20
70.59786241532004
 30
0.0
 11
39.06263637426491
 21
72.99786241532001
 31
0.0
  0
ARC
  5
4D5
330
2
100
AcDbEntity
  8
OBJECT
100
AcDbCircle
 10
38.76263637426518
 20
69.69786241531989
 30
0.0
 40
0.3
100
AcDbArc
 50
0.0
 51
90.0
  0
ENDSEC
  0
SECTION
  2
OBJECTS
  0
DICTIONARY
  5
7
330
0
100
AcDbDictionary
  3
ACAD_GROUP
350
24
  3
ACAD_LAYOUT
350
B
  3
ACAD_MLINESTYLE
350
25
  3
ACAD_PLOTSETTINGS
350
26
  3
ACAD_PLOTSTYLENAME
350
6
  3
ACDBHEADERROUNDTRIPXREC
350
581
  3
ACDBVARIABLEDICTIONARY
350
246
  0
DICTIONARY
  5
11
330
10
100
AcDbDictionary
280
     1
  3
ACAD_LAYERFILTERS
360
12
  3
ACAD_LAYERSTATES
360
13
  0
DICTIONARY
  5
5A2
330
2
100
AcDbDictionary
280
     1
  3
ACAD_LAYOUTSELFREF
360
5A3
  0
DICTIONARY
  5
5A4
330
C
100
AcDbDictionary
280
     1
  3
ACAD_LAYOUTSELFREF
360
5A5
  0
DICTIONARY
  5
24
102
{ACAD_REACTORS
330
7
102
}
330
7
100
AcDbDictionary
  0
DICTIONARY
  5
B
102
{ACAD_REACTORS
330
7
102
}
330
7
100
AcDbDictionary
  0
DICTIONARY
  5
25
102
{ACAD_REACTORS
330
7
102
}
330
7
100
AcDbDictionary
  3
STANDARD
350
28
  0
DICTIONARY
  5
26
102
{ACAD_REACTORS
330
7
102
}
330
7
100
AcDbDictionary
  3
B5_PDF
350
57E
  0
ACDBDICTIONARYWDFLT
  5
6
102
{ACAD_REACTORS
330
7
102
}
330
7
100
AcDbDictionary
281
     1
  3
Normal
350
5
100
AcDbDictionaryWithDefault
340
5
  0
DICTIONARY
  5
581
102
{ACAD_REACTORS
330
7
102
}
330
7
100
AcDbDictionary
  3
CEPSNTYPE
350
58B
  3
DIMSTYLEDATA
350
58F
  3
FINGERPRINTGUID
350
58C
  3
HYPERLINKBASE
350
584
  3
INSUNITS
350
58A
  3
LAYOUTDICT
350
586
  3
LWETCUNION
350
589
  3
PLOTSETDICT
350
587
  3
PLOTSTYLNAMDICT
350
588
  3
PSVPSCALE
350
58E
  3
PUCSBASE
350
592
  3
PUCSORGBACK
350
598
  3
PUCSORGBOTTOM
350
594
  3
PUCSORGFRONT
350
597
  3
PUCSORGLEFT
350
595
  3
PUCSORGRIGHT
350
596
  3
PUCSORGTOP
350
593
  3
PUCSORTHOREF
350
590
  3
PUCSORTHOVIEW
350
591
  3
STYLESHEET
350
585
  3
TSTACKALIGN
350
582
  3
TSTACKSIZE
350
583
  3
UCSBASE
350
59B
  3
UCSORGBACK
350
5A1
  3
UCSORGBOTTOM
350
59D
  3
UCSORGFRONT
350
5A0
  3
UCSORGLEFT
350
59E
  3
UCSORGRIGHT
350
59F
  3
UCSORGTOP
350
59C
  3
UCSORTHOREF
350
599
  3
UCSORTHOVIEW
350
59A
  3
VERSIONGUID
350
58D
  0
DICTIONARY
  5
246
102
{ACAD_REACTORS
330
7
102
}
330
7
100
AcDbDictionary
  3
DIMASSOC
350
248
  3
HIDETEXT
350
247
  0
DICTIONARY
  5
12
102
{ACAD_REACTORS
330
11
102
}
330
11
100
AcDbDictionary
280
     1
  0
DICTIONARY
  5
13
102
{ACAD_REACTORS
330
11
102
}
330
11
100
AcDbDictionary
  0
XRECORD
  5
5A3
102
{ACAD_REACTORS
330
5A2
102
}
330
5A2
100
AcDbXrecord
340
2
  0
XRECORD
  5
5A5
102
{ACAD_REACTORS
330
5A4
102
}
330
5A4
100
AcDbXrecord
340
C
  0
MLINESTYLE
  5
28
102
{ACAD_REACTORS
330
25
102
}
330
25
100
AcDbMlineStyle
  2
STANDARD
 70
     0
  3

 62
   256
 51
90.0
 52
90.0
 71
     2
 49
0.5
 62
   256
  6
BYLAYER
 49
-0.5
 62
   256
  6
BYLAYER
  0
PLOTSETTINGS
  5
57E
102
{ACAD_REACTORS
330
26
102
}
330
26
100
AcDbPlotSettings
  1
B5_PDF
  2
クセロPDF2
  4
B5 (JIS)
  6

 40
3.174999952316284
 41
3.174999952316284
 42
3.175003051757812
 43
3.175003051757812
 44
181.9486694335937
 45
256.9633178710937
 46
33.2
 47
0.0
 48
-10.69241462323953
 49
-3.325751112950456
140
256.1359068550009
141
112.9291766578458
142
1.0
143
1.064701297374502
 70
  1684
 72
     1
 73
     1
 74
     4
  7

 75
     0
147
0.9392305639769084
148
10.69241462323953
149
3.325751112950456
  0
ACDBPLACEHOLDER
  5
5
102
{ACAD_REACTORS
330
6
102
}
330
6
100
AcDbPlaceHolder
280
     0
  0
XRECORD
  5
58B
102
{ACAD_REACTORS
330
581
102
}
330
581
100
AcDbXrecord
 90
        0
  0
XRECORD
  5
58F
102
{ACAD_REACTORS
330
581
102
}
330
581
100
AcDbXrecord
1000
DSTYLE
1002
{
1070
    79
 70
     2
1070
   179
 70
     2
1002
}
  0
XRECORD
  5
58C
102
{ACAD_REACTORS
330
581
102
}
330
581
100
AcDbXrecord
  1
{19C29E87-2D4A-44F5-9CA9-8E2C957C07B1}
  0
XRECORD
  5
584
102
{ACAD_REACTORS
330
581
102
}
330
581
100
AcDbXrecord
  1

  0
XRECORD
  5
58A
102
{ACAD_REACTORS
330
581
102
}
330
581
100
AcDbXrecord
 90
        0
  0
XRECORD
  5
586
102
{ACAD_REACTORS
330
581
102
}
330
581
100
AcDbXrecord
340
B
  0
XRECORD
  5
589
102
{ACAD_REACTORS
330
581
102
}
330
581
100
AcDbXrecord
 90
     2589
  0
XRECORD
  5
587
102
{ACAD_REACTORS
330
581
102
}
330
581
100
AcDbXrecord
340
26
  0
XRECORD
  5
588
102
{ACAD_REACTORS
330
581
102
}
330
581
100
AcDbXrecord
340
6
  0
XRECORD
  5
58E
102
{ACAD_REACTORS
330
581
102
}
330
581
100
AcDbXrecord
 40
0.0
  0
XRECORD
  5
592
102
{ACAD_REACTORS
330
581
102
}
330
581
100
AcDbXrecord
340
0
  0
XRECORD
  5
598
102
{ACAD_REACTORS
330
581
102
}
330
581
100
AcDbXrecord
 10
0.0
 20
0.0
 30
0.0
  0
XRECORD
  5
594
102
{ACAD_REACTORS
330
581
102
}
330
581
100
AcDbXrecord
 10
0.0
 20
0.0
 30
0.0
  0
XRECORD
  5
597
102
{ACAD_REACTORS
330
581
102
}
330
581
100
AcDbXrecord
 10
0.0
 20
0.0
 30
0.0
  0
XRECORD
  5
595
102
{ACAD_REACTORS
330
581
102
}
330
581
100
AcDbXrecord
 10
0.0
 20
0.0
 30
0.0
  0
XRECORD
  5
596
102
{ACAD_REACTORS
330
581
102
}
330
581
100
AcDbXrecord
 10
0.0
 20
0.0
 30
0.0
  0
XRECORD
  5
593
102
{ACAD_REACTORS
330
581
102
}
330
581
100
AcDbXrecord
 10
0.0
 20
0.0
 30
0.0
  0
XRECORD
  5
590
102
{ACAD_REACTORS
330
581
102
}
330
581
100
AcDbXrecord
340
0
  0
XRECORD
  5
591
102
{ACAD_REACTORS
330
581
102
}
330
581
100
AcDbXrecord
 70
     0
  0
XRECORD
  5
585
102
{ACAD_REACTORS
330
581
102
}
330
581
100
AcDbXrecord
  1

  0
XRECORD
  5
582
102
{ACAD_REACTORS
330
581
102
}
330
581
100
AcDbXrecord
 90
        1
  0
XRECORD
  5
583
102
{ACAD_REACTORS
330
581
102
}
330
581
100
AcDbXrecord
 90
       70
  0
XRECORD
  5
59B
102
{ACAD_REACTORS
330
581
102
}
330
581
100
AcDbXrecord
340
0
  0
XRECORD
  5
5A1
102
{ACAD_REACTORS
330
581
102
}
330
581
100
AcDbXrecord
 10
0.0
 20
0.0
 30
0.0
  0
XRECORD
  5
59D
102
{ACAD_REACTORS
330
581
102
}
330
581
100
AcDbXrecord
 10
0.0
 20
0.0
 30
0.0
  0
XRECORD
  5
5A0
102
{ACAD_REACTORS
330
581
102
}
330
581
100
AcDbXrecord
 10
0.0
 20
0.0
 30
0.0
  0
XRECORD
  5
59E
102
{ACAD_REACTORS
330
581
102
}
330
581
100
AcDbXrecord
 10
0.0
 20
0.0
 30
0.0
  0
XRECORD
  5
59F
102
{ACAD_REACTORS
330
581
102
}
330
581
100
AcDbXrecord
 10
0.0
 20
0.0
 30
0.0
  0
XRECORD
  5
59C
102
{ACAD_REACTORS
330
581
102
}
330
581
100
AcDbXrecord
 10
0.0
 20
0.0
 30
0.0
  0
XRECORD
  5
599
102
{ACAD_REACTORS
330
581
102
}
330
581
100
AcDbXrecord
340
0
  0
XRECORD
  5
59A
102
{ACAD_REACTORS
330
581
102
}
330
581
100
AcDbXrecord
 70
     0
  0
XRECORD
  5
58D
102
{ACAD_REACTORS
330
581
102
}
330
581
100
AcDbXrecord
  1
{F58136B9-D346-4059-8062-360E9876495A}
  0
DICTIONARYVAR
  5
248
102
{ACAD_REACTORS
330
246
102
}
330
246
100
DictionaryVariables
280
     0
  1
1
  0
DICTIONARYVAR
  5
247
102
{ACAD_REACTORS
330
246
102
}
330
246
100
DictionaryVariables
280
     0
  1
1
  0
ENDSEC
  0
EOF
