  0
SECTION
  2
HEADER
  9
$ACADVER
  1
AC1015
  9
$ACADMAINTVER
 70
    13
  9
$DWGCODEPAGE
  3
ANSI_932
  9
$INSBASE
 10
0.429351644210442
 20
10.50689285346499
 30
0.0
  9
$EXTMIN
 10
40.46044995735917
 20
31.42822318178161
 30
-3.500966096799956
  9
$EXTMAX
 10
246.1842505102794
 20
184.067230683364
 30
28.72598350345923
  9
$LIMMIN
 10
0.0
 20
0.0
  9
$LIMMAX
 10
297.0
 20
210.0
  9
$ORTHOMODE
 70
     1
  9
$REGENMODE
 70
     1
  9
$FILLMODE
 70
     1
  9
$QTEXTMODE
 70
     0
  9
$MIRRTEXT
 70
     1
  9
$LTSCALE
 40
1.0
  9
$ATTMODE
 70
     1
  9
$TEXTSIZE
 40
2.5
  9
$TRACEWID
 40
1.0
  9
$TEXTSTYLE
  7
Standard
  9
$CLAYER
  8
0
  9
$CELTYPE
  6
ByLayer
  9
$CECOLOR
 62
   256
  9
$CELTSCALE
 40
1.0
  9
$DISPSILH
 70
     0
  9
$DIMSCALE
 40
1.0
  9
$DIMASZ
 40
2.5
  9
$DIMEXO
 40
0.625
  9
$DIMDLI
 40
3.75
  9
$DIMRND
 40
0.0
  9
$DIMDLE
 40
0.0
  9
$DIMEXE
 40
1.25
  9
$DIMTP
 40
0.0
  9
$DIMTM
 40
0.0
  9
$DIMTXT
 40
2.5
  9
$DIMCEN
 40
2.5
  9
$DIMTSZ
 40
0.0
  9
$DIMTOL
 70
     0
  9
$DIMLIM
 70
     0
  9
$DIMTIH
 70
     0
  9
$DIMTOH
 70
     0
  9
$DIMSE1
 70
     0
  9
$DIMSE2
 70
     0
  9
$DIMTAD
 70
     1
  9
$DIMZIN
 70
     8
  9
$DIMBLK
  1

  9
$DIMASO
 70
     1
  9
$DIMSHO
 70
     1
  9
$DIMPOST
  1

  9
$DIMAPOST
  1

  9
$DIMALT
 70
     0
  9
$DIMALTD
 70
     3
  9
$DIMALTF
 40
0.0393700787
  9
$DIMLFAC
 40
1.0
  9
$DIMTOFL
 70
     1
  9
$DIMTVP
 40
0.0
  9
$DIMTIX
 70
     0
  9
$DIMSOXD
 70
     0
  9
$DIMSAH
 70
     0
  9
$DIMBLK1
  1

  9
$DIMBLK2
  1

  9
$DIMSTYLE
  2
ISO-25
  9
$DIMCLRD
 70
     0
  9
$DIMCLRE
 70
     0
  9
$DIMCLRT
 70
     0
  9
$DIMTFAC
 40
1.0
  9
$DIMGAP
 40
0.625
  9
$DIMJUST
 70
     0
  9
$DIMSD1
 70
     0
  9
$DIMSD2
 70
     0
  9
$DIMTOLJ
 70
     0
  9
$DIMTZIN
 70
     8
  9
$DIMALTZ
 70
     0
  9
$DIMALTTZ
 70
     0
  9
$DIMUPT
 70
     0
  9
$DIMDEC
 70
     2
  9
$DIMTDEC
 70
     2
  9
$DIMALTU
 70
     2
  9
$DIMALTTD
 70
     3
  9
$DIMTXSTY
  7
Standard
  9
$DIMAUNIT
 70
     0
  9
$DIMADEC
 70
     0
  9
$DIMALTRND
 40
0.0
  9
$DIMAZIN
 70
     0
  9
$DIMDSEP
 70
    44
  9
$DIMATFIT
 70
     3
  9
$DIMFRAC
 70
     0
  9
$DIMLDRBLK
  1

  9
$DIMLUNIT
 70
     2
  9
$DIMLWD
 70
    -2
  9
$DIMLWE
 70
    -2
  9
$DIMTMOVE
 70
     0
  9
$LUNITS
 70
     2
  9
$LUPREC
 70
     2
  9
$SKETCHINC
 40
1.0
  9
$FILLETRAD
 40
10.0
  9
$AUNITS
 70
     0
  9
$AUPREC
 70
     2
  9
$MENU
  1
.
  9
$ELEVATION
 40
0.0
  9
$PELEVATION
 40
0.0
  9
$THICKNESS
 40
0.0
  9
$LIMCHECK
 70
     0
  9
$CHAMFERA
 40
10.0
  9
$CHAMFERB
 40
10.0
  9
$CHAMFERC
 40
20.0
  9
$CHAMFERD
 40
0.0
  9
$SKPOLY
 70
     0
  9
$TDCREATE
 40
2455593.494975937
  9
$TDUCREATE
 40
2455593.119975937
  9
$TDUPDATE
 40
2455657.794136817
  9
$TDUUPDATE
 40
2455657.419136817
  9
$TDINDWG
 40
0.0977428704
  9
$TDUSRTIMER
 40
0.0977401620
  9
$USRTIMER
 70
     1
  9
$ANGBASE
 50
0.0
  9
$ANGDIR
 70
     0
  9
$PDMODE
 70
     0
  9
$PDSIZE
 40
-1.0
  9
$PLINEWID
 40
0.0
  9
$SPLFRAME
 70
     0
  9
$SPLINETYPE
 70
     6
  9
$SPLINESEGS
 70
     8
  9
$HANDSEED
  5
438
  9
$SURFTAB1
 70
     6
  9
$SURFTAB2
 70
     6
  9
$SURFTYPE
 70
     6
  9
$SURFU
 70
     6
  9
$SURFV
 70
     6
  9
$UCSBASE
  2

  9
$UCSNAME
  2

  9
$UCSORG
 10
0.0
 20
0.0
 30
0.0
  9
$UCSXDIR
 10
1.0
 20
0.0
 30
0.0
  9
$UCSYDIR
 10
0.0
 20
1.0
 30
0.0
  9
$UCSORTHOREF
  2

  9
$UCSORTHOVIEW
 70
     0
  9
$UCSORGTOP
 10
0.0
 20
0.0
 30
0.0
  9
$UCSORGBOTTOM
 10
0.0
 20
0.0
 30
0.0
  9
$UCSORGLEFT
 10
0.0
 20
0.0
 30
0.0
  9
$UCSORGRIGHT
 10
0.0
 20
0.0
 30
0.0
  9
$UCSORGFRONT
 10
0.0
 20
0.0
 30
0.0
  9
$UCSORGBACK
 10
0.0
 20
0.0
 30
0.0
  9
$PUCSBASE
  2

  9
$PUCSNAME
  2

  9
$PUCSORG
 10
0.0
 20
0.0
 30
0.0
  9
$PUCSXDIR
 10
1.0
 20
0.0
 30
0.0
  9
$PUCSYDIR
 10
0.0
 20
1.0
 30
0.0
  9
$PUCSORTHOREF
  2

  9
$PUCSORTHOVIEW
 70
     0
  9
$PUCSORGTOP
 10
0.0
 20
0.0
 30
0.0
  9
$PUCSORGBOTTOM
 10
0.0
 20
0.0
 30
0.0
  9
$PUCSORGLEFT
 10
0.0
 20
0.0
 30
0.0
  9
$PUCSORGRIGHT
 10
0.0
 20
0.0
 30
0.0
  9
$PUCSORGFRONT
 10
0.0
 20
0.0
 30
0.0
  9
$PUCSORGBACK
 10
0.0
 20
0.0
 30
0.0
  9
$USERI1
 70
     0
  9
$USERI2
 70
     0
  9
$USERI3
 70
     0
  9
$USERI4
 70
     0
  9
$USERI5
 70
     0
  9
$USERR1
 40
0.0
  9
$USERR2
 40
0.0
  9
$USERR3
 40
0.0
  9
$USERR4
 40
0.0
  9
$USERR5
 40
0.0
  9
$WORLDVIEW
 70
     1
  9
$SHADEDGE
 70
     3
  9
$SHADEDIF
 70
    70
  9
$TILEMODE
 70
     1
  9
$MAXACTVP
 70
    64
  9
$PINSBASE
 10
0.0
 20
0.0
 30
0.0
  9
$PLIMCHECK
 70
     0
  9
$PEXTMIN
 10
1.000000000000000E+20
 20
1.000000000000000E+20
 30
1.000000000000000E+20
  9
$PEXTMAX
 10
-1.000000000000000E+20
 20
-1.000000000000000E+20
 30
-1.000000000000000E+20
  9
$PLIMMIN
 10
0.0
 20
0.0
  9
$PLIMMAX
 10
420.0
 20
297.0
  9
$UNITMODE
 70
     0
  9
$VISRETAIN
 70
     1
  9
$PLINEGEN
 70
     0
  9
$PSLTSCALE
 70
     1
  9
$TREEDEPTH
 70
  3020
  9
$CMLSTYLE
  2
Standard
  9
$CMLJUST
 70
     0
  9
$CMLSCALE
 40
20.0
  9
$PROXYGRAPHICS
 70
     1
  9
$MEASUREMENT
 70
     1
  9
$CELWEIGHT
370
    -1
  9
$ENDCAPS
280
     0
  9
$JOINSTYLE
280
     0
  9
$LWDISPLAY
290
     0
  9
$INSUNITS
 70
     4
  9
$HYPERLINKBASE
  1

  9
$STYLESHEET
  1

  9
$XEDIT
290
     1
  9
$CEPSNTYPE
380
     0
  9
$PSTYLEMODE
290
     1
  9
$FINGERPRINTGUID
  2
{4B403645-AED9-4B7D-9C4B-5805C7FC0C25}
  9
$VERSIONGUID
  2
{BBBBA2F9-78A3-45AE-948C-304646074F95}
  9
$EXTNAMES
290
     1
  9
$PSVPSCALE
 40
0.0
  9
$OLESTARTUP
290
     0
  0
ENDSEC
  0
SECTION
  2
CLASSES
  0
CLASS
  1
ACDBDICTIONARYWDFLT
  2
AcDbDictionaryWithDefault
  3
AutoCAD 2000
 90
        0
280
     0
281
     0
  0
CLASS
  1
VISUALSTYLE
  2
AcDbVisualStyle
  3
ObjectDBX Classes
 90
    36863
280
     1
281
     0
  0
CLASS
  1
SCALE
  2
AcDbScale
  3
ObjectDBX Classes
 90
    33921
280
     1
281
     0
  0
CLASS
  1
DICTIONARYVAR
  2
AcDbDictionaryVar
  3
AutoCAD 2000
 90
        0
280
     0
281
     0
  0
CLASS
  1
ACDBPLACEHOLDER
  2
AcDbPlaceHolder
  3
AutoCAD 2000
 90
        0
280
     0
281
     0
  0
CLASS
  1
LAYOUT
  2
AcDbLayout
  3
AutoCAD 2000
 90
        0
280
     0
281
     0
  0
CLASS
  1
DIMASSOC
  2
AcDbDimAssoc
  3
"AcDbDimAssoc|Product Desc:     AcDim ARX App For Dimension|Company:          Autodesk, Inc.|WEB Address:      www.autodesk.com"
 90
    32768
280
     0
281
     0
  0
ENDSEC
  0
SECTION
  2
TABLES
  0
TABLE
  2
VPORT
  5
19
330
0
100
AcDbSymbolTable
 70
     2
  0
VPORT
  5
437
330
19
100
AcDbSymbolTableRecord
100
AcDbViewportTableRecord
  2
*Active
 70
     0
 10
0.0
 20
0.0
 11
1.0
 21
1.0
 12
125.756493583187
 22
103.3251404553909
 13
0.0
 23
0.0
 14
10.0
 24
10.0
 15
10.0
 25
10.0
 16
0.0
 26
0.0
 36
1.0
 17
0.0
 27
0.0
 37
0.0
 40
275.5662291405771
 41
1.518709677419354
 42
50.0
 43
0.0
 44
0.0
 50
0.0
 51
0.0
 71
     0
 72
  2000
 73
     1
 74
     3
 75
     0
 76
     0
 77
     0
 78
     0
281
     0
 65
     1
110
0.0
120
0.0
130
0.0
111
1.0
121
0.0
131
0.0
112
0.0
122
1.0
132
0.0
 79
     0
146
0.0
  0
ENDTAB
  0
TABLE
  2
LTYPE
  5
14
330
0
100
AcDbSymbolTable
 70
     3
  0
LTYPE
  5
15
330
14
100
AcDbSymbolTableRecord
100
AcDbLinetypeTableRecord
  2
ByBlock
 70
     0
  3

 72
    65
 73
     0
 40
0.0
  0
LTYPE
  5
16
330
14
100
AcDbSymbolTableRecord
100
AcDbLinetypeTableRecord
  2
ByLayer
 70
     0
  3

 72
    65
 73
     0
 40
0.0
  0
LTYPE
  5
8
330
14
100
AcDbSymbolTableRecord
100
AcDbLinetypeTableRecord
  2
Continuous
 70
     0
  3
Solid line
 72
    65
 73
     0
 40
0.0
  0
LTYPE
  5
32
330
14
100
AcDbSymbolTableRecord
100
AcDbLinetypeTableRecord
  2
CENTER
 70
     0
  3
Center ____ _ ____ _ ____ _ ____ _ ____ _ ____
 72
    65
 73
     4
 40
10.16
 49
6.349999999999997
 74
     0
 49
-1.27
 74
     0
 49
1.27
 74
     0
 49
-1.27
 74
     0
  0
LTYPE
  5
33
330
14
100
AcDbSymbolTableRecord
100
AcDbLinetypeTableRecord
  2
CENTERX2
 70
     0
  3
Center (2x) ________  __  ________  __  _____
 72
    65
 73
     4
 40
20.32
 49
12.7
 74
     0
 49
-2.54
 74
     0
 49
2.54
 74
     0
 49
-2.54
 74
     0
  0
ENDTAB
  0
TABLE
  2
LAYER
  5
10
330
0
100
AcDbSymbolTable
 70
     4
  0
LAYER
  5
4
330
10
100
AcDbSymbolTableRecord
100
AcDbLayerTableRecord
  2
0
 70
     0
 62
     7
  6
Continuous
370
    -3
390
5
  0
LAYER
  5
35
330
10
100
AcDbSymbolTableRecord
100
AcDbLayerTableRecord
  2
DIMS
 70
     0
 62
     6
  6
Continuous
370
    -3
390
5
  0
LAYER
  5
31
330
10
100
AcDbSymbolTableRecord
100
AcDbLayerTableRecord
  2
CENTER
 70
     0
 62
     1
  6
CENTER
370
    -3
390
5
  0
LAYER
  5
235
330
10
100
AcDbSymbolTableRecord
100
AcDbLayerTableRecord
  2
Defpoints
 70
     0
 62
     2
  6
Continuous
290
     0
370
    -3
390
5
  0
ENDTAB
  0
TABLE
  2
STYLE
  5
11
330
0
100
AcDbSymbolTable
 70
     2
  0
STYLE
  5
12
330
11
100
AcDbSymbolTableRecord
100
AcDbTextStyleTableRecord
  2
Standard
 70
     0
 40
0.0
 41
1.0
 50
0.0
 71
     0
 42
2.5
  3
txt
  4
bigfont
  0
STYLE
  5
20
330
11
100
AcDbSymbolTableRecord
100
AcDbTextStyleTableRecord
  2
SLDTEXTSTYLE1
 70
     0
 40
0.0
 41
0.7
 50
0.0
 71
     0
 42
0.2
  3
TXT
  4
bigfont
  0
ENDTAB
  0
TABLE
  2
VIEW
  5
17
330
0
100
AcDbSymbolTable
 70
     0
  0
ENDTAB
  0
TABLE
  2
UCS
  5
18
330
0
100
AcDbSymbolTable
 70
     0
  0
ENDTAB
  0
TABLE
  2
APPID
  5
1B
330
0
100
AcDbSymbolTable
 70
     1
  0
APPID
  5
1C
330
1B
100
AcDbSymbolTableRecord
100
AcDbRegAppTableRecord
  2
ACAD
 70
     0
  0
ENDTAB
  0
TABLE
  2
DIMSTYLE
  5
1D
330
0
100
AcDbSymbolTable
 70
    14
100
AcDbDimStyleTable
 71
     6
340
1E
340
1F
340
27
340
28
340
29
340
2A
  0
DIMSTYLE
105
1E
330
1D
100
AcDbSymbolTableRecord
100
AcDbDimStyleTableRecord
  2
ISO-25
 70
     0
 41
2.5
 42
0.625
 43
3.75
 44
1.25
 73
     0
 74
     0
 77
     1
 78
     8
140
2.5
141
2.5
143
0.0393700787
147
0.625
171
     3
172
     1
271
     2
272
     2
274
     3
278
    44
283
     0
284
     8
340
12
  0
DIMSTYLE
105
28
102
{ACAD_REACTORS
330
85
102
}
330
1D
100
AcDbSymbolTableRecord
100
AcDbDimStyleTableRecord
  2
SLDDIMSTYLE0
 70
     0
 41
2.5
 44
0.0
 45
0.000000001
 48
0.013
 71
     1
 73
     0
 74
     0
 77
     2
 78
    12
140
3.2
147
0.8
173
     1
271
     2
272
     2
284
     8
340
20
341
21
343
21
344
21
  0
DIMSTYLE
105
29
102
{ACAD_REACTORS
330
C3
102
}
330
1D
100
AcDbSymbolTableRecord
100
AcDbDimStyleTableRecord
  2
SLDDIMSTYLE1
 70
     0
 41
2.5
 44
0.0
 45
0.000000001
 47
0.1
 48
0.1
 71
     1
 73
     0
 74
     0
 77
     2
 78
    12
140
3.2
147
0.8
173
     1
271
     2
272
     1
284
     8
340
20
341
21
343
21
344
21
  0
DIMSTYLE
105
7A
102
{ACAD_REACTORS
330
79
102
}
330
1D
100
AcDbSymbolTableRecord
100
AcDbDimStyleTableRecord
  2
SLDDIMSTYLE2
 70
     0
 41
2.5
 44
0.0
 45
0.000000001
 47
0.2
 48
0.2
 71
     1
 73
     0
 74
     0
 77
     2
 78
    12
140
3.2
147
0.8
173
     1
271
     2
272
     1
284
     8
340
20
341
21
343
21
344
21
  0
DIMSTYLE
105
6C
102
{ACAD_REACTORS
330
161
330
6B
102
}
330
1D
100
AcDbSymbolTableRecord
100
AcDbDimStyleTableRecord
  2
SLDDIMSTYLE3
 70
     0
 41
2.5
 44
0.0
 45
0.000000001
 47
0.3
 48
0.3
 71
     1
 73
     0
 74
     0
 77
     2
 78
    12
140
3.2
147
0.8
173
     1
271
     2
272
     1
284
     8
340
20
341
21
343
21
344
21
  0
DIMSTYLE
105
5E
102
{ACAD_REACTORS
330
5D
102
}
330
1D
100
AcDbSymbolTableRecord
100
AcDbDimStyleTableRecord
  2
SLDDIMSTYLE4
 70
     0
 41
2.5
 44
0.0
 45
0.000000001
 47
0.76
 48
0.76
 71
     1
 73
     0
 74
     0
 77
     2
 78
    12
140
3.2
147
0.8
173
     1
271
     2
272
     2
284
     8
340
20
341
21
343
21
344
21
  0
DIMSTYLE
105
52
102
{ACAD_REACTORS
330
51
102
}
330
1D
100
AcDbSymbolTableRecord
100
AcDbDimStyleTableRecord
  2
SLDDIMSTYLE5
 70
     0
 41
2.5
 44
0.0
 45
0.000000001
 47
0.5
 48
0.5
 71
     1
 73
     0
 74
     0
 77
     2
 78
    12
140
3.2
147
0.8
173
     1
271
     3
272
     1
284
     8
340
20
341
21
343
21
344
21
  0
DIMSTYLE
105
247
102
{ACAD_REACTORS
330
246
102
}
330
1D
100
AcDbSymbolTableRecord
100
AcDbDimStyleTableRecord
  2
SLDDIMSTYLE6
 70
     0
 41
2.5
 44
0.0
 45
0.000000001
 73
     0
 74
     0
 77
     2
 78
    12
140
3.2
147
0.8
173
     1
271
     2
272
     1
284
    12
340
20
341
21
343
21
344
21
  0
DIMSTYLE
105
27
102
{ACAD_REACTORS
330
2A1
330
260
330
215
330
185
102
}
330
1D
100
AcDbSymbolTableRecord
100
AcDbDimStyleTableRecord
  2
SLDDIMSTYLE7
 70
     0
 41
2.5
 44
0.0
 45
0.000000001
 73
     0
 74
     0
 77
     2
 78
    12
140
3.2
147
0.8
173
     1
271
     2
272
     2
284
    12
340
20
341
21
343
21
344
21
  0
DIMSTYLE
105
23B
102
{ACAD_REACTORS
330
23A
102
}
330
1D
100
AcDbSymbolTableRecord
100
AcDbDimStyleTableRecord
  2
SLDDIMSTYLE8
 70
     0
 41
2.5
 44
0.0
 45
0.000000001
 47
1.0
 48
1.0
 71
     1
 73
     0
 74
     0
 77
     2
 78
    12
140
3.2
147
0.8
173
     1
271
     2
272
     1
284
    12
340
20
341
21
343
21
344
21
  0
DIMSTYLE
105
1F
102
{ACAD_REACTORS
330
43
102
}
330
1D
100
AcDbSymbolTableRecord
100
AcDbDimStyleTableRecord
  2
SLDDIMSTYLE9
 70
     0
 41
2.5
 44
0.0
 45
0.000000001
 48
0.05
 71
     1
 73
     0
 74
     0
 77
     2
 78
    12
140
3.2
147
0.8
173
     1
271
     2
272
     2
284
     8
340
20
341
21
343
21
344
21
  0
DIMSTYLE
105
2A
102
{ACAD_REACTORS
330
DC
330
AE
330
A3
102
}
330
1D
100
AcDbSymbolTableRecord
100
AcDbDimStyleTableRecord
  2
SLDDIMSTYLE10
 70
     0
 41
2.5
 44
0.0
 45
0.000000001
 47
0.25
 48
0.25
 71
     1
 73
     0
 74
     0
 77
     2
 78
    12
140
3.2
147
0.8
173
     1
271
     2
272
     2
284
     8
340
20
341
21
343
21
344
21
  0
DIMSTYLE
105
D1
102
{ACAD_REACTORS
330
D0
102
}
330
1D
100
AcDbSymbolTableRecord
100
AcDbDimStyleTableRecord
  2
SLDDIMSTYLE11
 70
     0
 41
2.5
 44
0.0
 45
0.000000001
 47
0.25
 48
0.25
 71
     1
 73
     0
 74
     0
 77
     2
 78
    12
140
3.2
147
0.8
173
     1
271
     3
272
     2
284
     8
340
20
341
21
343
21
344
21
  0
DIMSTYLE
105
17A
102
{ACAD_REACTORS
330
179
102
}
330
1D
100
AcDbSymbolTableRecord
100
AcDbDimStyleTableRecord
  2
SLDDIMSTYLE12
 70
     0
  3
<>
 41
2.5
 44
0.0
 45
0.000000001
 78
    12
140
3.2
147
0.8
172
     1
173
     1
271
     2
272
     2
284
    12
340
20
341
21
343
21
344
21
  0
ENDTAB
  0
TABLE
  2
BLOCK_RECORD
  5
1
330
0
100
AcDbSymbolTable
 70
    27
  0
BLOCK_RECORD
  5
2
330
1
100
AcDbSymbolTableRecord
100
AcDbBlockTableRecord
  2
*Model_Space
340
A
  0
BLOCK_RECORD
  5
C
330
1
100
AcDbSymbolTableRecord
100
AcDbBlockTableRecord
  2
*Paper_Space
340
F
  0
BLOCK_RECORD
  5
21
330
1
100
AcDbSymbolTableRecord
100
AcDbBlockTableRecord
  2
_OPEN30
340
0
102
{BLKREFS
331
87
331
88
331
C5
331
C6
331
7C
331
7D
331
163
331
164
331
6E
331
6F
331
60
331
61
331
54
331
55
331
249
331
24A
331
2A5
331
2A6
331
23D
331
23E
331
262
331
263
331
217
331
218
331
45
331
46
331
DE
331
DF
331
B0
331
B1
331
D3
331
D4
331
A5
331
A6
331
187
331
188
331
17C
102
}
  0
BLOCK_RECORD
  5
86
330
1
100
AcDbSymbolTableRecord
100
AcDbBlockTableRecord
  2
*D1
340
0
  0
BLOCK_RECORD
  5
C4
330
1
100
AcDbSymbolTableRecord
100
AcDbBlockTableRecord
  2
*D2
340
0
  0
BLOCK_RECORD
  5
7B
330
1
100
AcDbSymbolTableRecord
100
AcDbBlockTableRecord
  2
*D3
340
0
  0
BLOCK_RECORD
  5
162
330
1
100
AcDbSymbolTableRecord
100
AcDbBlockTableRecord
  2
*D4
340
0
  0
BLOCK_RECORD
  5
6D
330
1
100
AcDbSymbolTableRecord
100
AcDbBlockTableRecord
  2
*D5
340
0
  0
BLOCK_RECORD
  5
5F
330
1
100
AcDbSymbolTableRecord
100
AcDbBlockTableRecord
  2
*D6
340
0
  0
BLOCK_RECORD
  5
53
330
1
100
AcDbSymbolTableRecord
100
AcDbBlockTableRecord
  2
*D7
340
0
  0
BLOCK_RECORD
  5
248
330
1
100
AcDbSymbolTableRecord
100
AcDbBlockTableRecord
  2
*D8
340
0
  0
BLOCK_RECORD
  5
2A2
330
1
100
AcDbSymbolTableRecord
100
AcDbBlockTableRecord
  2
*D9
340
0
  0
BLOCK_RECORD
  5
23C
330
1
100
AcDbSymbolTableRecord
100
AcDbBlockTableRecord
  2
*D10
340
0
  0
BLOCK_RECORD
  5
261
330
1
100
AcDbSymbolTableRecord
100
AcDbBlockTableRecord
  2
*D11
340
0
  0
BLOCK_RECORD
  5
216
330
1
100
AcDbSymbolTableRecord
100
AcDbBlockTableRecord
  2
*D12
340
0
  0
BLOCK_RECORD
  5
44
330
1
100
AcDbSymbolTableRecord
100
AcDbBlockTableRecord
  2
*D13
340
0
  0
BLOCK_RECORD
  5
DD
330
1
100
AcDbSymbolTableRecord
100
AcDbBlockTableRecord
  2
*D14
340
0
  0
BLOCK_RECORD
  5
AF
330
1
100
AcDbSymbolTableRecord
100
AcDbBlockTableRecord
  2
*D15
340
0
  0
BLOCK_RECORD
  5
D2
330
1
100
AcDbSymbolTableRecord
100
AcDbBlockTableRecord
  2
*D16
340
0
  0
BLOCK_RECORD
  5
A4
330
1
100
AcDbSymbolTableRecord
100
AcDbBlockTableRecord
  2
*D17
340
0
  0
BLOCK_RECORD
  5
186
330
1
100
AcDbSymbolTableRecord
100
AcDbBlockTableRecord
  2
*D18
340
0
  0
BLOCK_RECORD
  5
17B
330
1
100
AcDbSymbolTableRecord
100
AcDbBlockTableRecord
  2
*D19
340
0
  0
BLOCK_RECORD
  5
98
330
1
100
AcDbSymbolTableRecord
100
AcDbBlockTableRecord
  2
SW_CENTERMARKSYMBOL_0
340
0
102
{BLKREFS
331
97
102
}
  0
BLOCK_RECORD
  5
1D1
330
1
100
AcDbSymbolTableRecord
100
AcDbBlockTableRecord
  2
SW_CENTERMARKSYMBOL_1
340
0
102
{BLKREFS
331
1D0
102
}
  0
BLOCK_RECORD
  5
19B
330
1
100
AcDbSymbolTableRecord
100
AcDbBlockTableRecord
  2
SW_CENTERMARKSYMBOL_2
340
0
102
{BLKREFS
331
19A
102
}
  0
BLOCK_RECORD
  5
107
330
1
100
AcDbSymbolTableRecord
100
AcDbBlockTableRecord
  2
SW_CENTERMARKSYMBOL_3
340
0
102
{BLKREFS
331
106
102
}
  0
BLOCK_RECORD
  5
134
330
1
100
AcDbSymbolTableRecord
100
AcDbBlockTableRecord
  2
SW_CENTERMARKSYMBOL_4
340
0
102
{BLKREFS
331
133
102
}
  0
BLOCK_RECORD
  5
36
330
1
100
AcDbSymbolTableRecord
100
AcDbBlockTableRecord
  2
_DOT
340
0
102
{BLKREFS
331
34
102
}
  0
ENDTAB
  0
ENDSEC
  0
SECTION
  2
BLOCKS
  0
BLOCK
  5
3
330
2
100
AcDbEntity
  8
0
100
AcDbBlockBegin
  2
*Model_Space
 70
     0
 10
0.0
 20
0.0
 30
0.0
  3
*Model_Space
  1

  0
ENDBLK
  5
9
330
2
100
AcDbEntity
  8
0
100
AcDbBlockEnd
  0
BLOCK
  5
D
330
C
100
AcDbEntity
 67
     1
  8
0
100
AcDbBlockBegin
  2
*Paper_Space
 70
     0
 10
0.0
 20
0.0
 30
0.0
  3
*Paper_Space
  1

  0
ENDBLK
  5
E
330
C
100
AcDbEntity
 67
     1
  8
0
100
AcDbBlockEnd
  0
BLOCK
  5
25
330
21
100
AcDbEntity
  8
0
100
AcDbBlockBegin
  2
_OPEN30
 70
     0
 10
0.0
 20
0.0
 30
0.0
  3
_OPEN30
  1

  0
LINE
  5
22
330
21
100
AcDbEntity
  8
0
  6
ByBlock
 62
     0
370
    -2
100
AcDbLine
 10
-1.0
 20
0.267949
 30
0.0
 11
0.0
 21
0.0
 31
0.0
  0
LINE
  5
23
330
21
100
AcDbEntity
  8
0
  6
ByBlock
 62
     0
370
    -2
100
AcDbLine
 10
0.0
 20
0.0
 30
0.0
 11
-1.0
 21
-0.267949
 31
0.0
  0
LINE
  5
24
330
21
100
AcDbEntity
  8
0
  6
ByBlock
 62
     0
370
    -2
100
AcDbLine
 10
0.0
 20
0.0
 30
0.0
 11
-1.0
 21
0.0
 31
0.0
  0
ENDBLK
  5
26
330
21
100
AcDbEntity
  8
0
100
AcDbBlockEnd
  0
BLOCK
  5
93
330
86
100
AcDbEntity
  8
0
100
AcDbBlockBegin
  2
*D1
 70
     1
 10
0.0
 20
0.0
 30
0.0
  3
*D1
  1

  0
INSERT
  5
87
330
86
100
AcDbEntity
  8
DIMS
100
AcDbBlockReference
  2
_OPEN30
 10
127.1972451186
 20
101.4359674298999
 30
0.1
 41
2.5
 42
2.5
 50
270.0
  0
INSERT
  5
88
330
86
100
AcDbEntity
  8
DIMS
100
AcDbBlockReference
  2
_OPEN30
 10
127.1972451186
 20
96.4359674299
 30
0.1
 41
2.5
 42
2.5
 50
90.0
  0
LINE
  5
89
330
86
100
AcDbEntity
  8
DIMS
100
AcDbLine
 10
157.5972451186
 20
101.4359674298999
 30
0.0
 11
126.1972451186
 21
101.4359674298999
 31
0.0
  0
LINE
  5
8A
330
86
100
AcDbEntity
  8
DIMS
100
AcDbLine
 10
142.8972451186
 20
96.4359674299
 30
0.0
 11
126.1972451186
 21
96.4359674299
 31
0.0
  0
LINE
  5
8B
330
86
100
AcDbEntity
  8
DIMS
100
AcDbLine
 10
127.1972451186
 20
101.4359674298999
 30
0.0
 11
127.1972451186
 21
106.4359674299
 31
0.0
  0
LINE
  5
8C
330
86
100
AcDbEntity
  8
DIMS
100
AcDbLine
 10
127.1972451186
 20
101.4359674298999
 30
0.0
 11
127.1972451186
 21
96.4359674299
 31
0.0
  0
LINE
  5
8D
330
86
100
AcDbEntity
  8
DIMS
100
AcDbLine
 10
127.1972451186
 20
96.4359674299
 30
0.0
 11
127.1972451186
 21
91.4359674299
 31
0.0
  0
MTEXT
  5
8E
330
86
100
AcDbEntity
  8
DIMS
100
AcDbMText
 10
123.072228526
 20
92.0385808848
 30
0.0
 40
3.2
 41
0.0
 71
     1
 72
     1
  1
%%c
  7
SLDTEXTSTYLE1
 11
-0.000000000000007
 21
1.0
 31
0.0
 73
     1
 44
1.0
  0
MTEXT
  5
8F
330
86
100
AcDbEntity
  8
DIMS
100
AcDbMText
 10
123.0722282931999
 20
95.57520118129998
 30
0.0
 40
3.2
 41
0.0
 71
     1
 72
     1
  1
5
  7
SLDTEXTSTYLE1
 11
-0.000000000000007
 21
1.0
 31
0.0
 73
     1
 44
1.0
  0
MTEXT
  5
90
330
86
100
AcDbEntity
  8
DIMS
100
AcDbMText
 10
123.9740345992
 20
98.28628441959999
 30
0.0
 40
2.399999999999999
 41
0.0
 71
     1
 72
     1
  1
-
  7
SLDTEXTSTYLE1
 11
-0.000000000000007
 21
1.0
 31
0.0
 73
     1
 44
1.0
  0
MTEXT
  5
91
330
86
100
AcDbEntity
  8
DIMS
100
AcDbMText
 10
123.9740345992
 20
99.6809047161
 30
0.0
 40
2.399999999999999
 41
0.0
 71
     1
 72
     1
  1
0.013
  7
SLDTEXTSTYLE1
 11
-0.000000000000007
 21
1.0
 31
0.0
 73
     1
 44
1.0
  0
MTEXT
  5
92
330
86
100
AcDbEntity
  8
DIMS
100
AcDbMText
 10
121.1823515889999
 20
99.6809047161
 30
0.0
 40
2.399999999999999
 41
0.0
 71
     1
 72
     1
  1
0
  7
SLDTEXTSTYLE1
 11
-0.000000000000007
 21
1.0
 31
0.0
 73
     1
 44
1.0
  0
ENDBLK
  5
94
330
86
100
AcDbEntity
  8
0
100
AcDbBlockEnd
  0
BLOCK
  5
CE
330
C4
100
AcDbEntity
  8
0
100
AcDbBlockBegin
  2
*D2
 70
     1
 10
0.0
 20
0.0
 30
0.0
  3
*D2
  1

  0
INSERT
  5
C5
330
C4
100
AcDbEntity
  8
DIMS
100
AcDbBlockReference
  2
_OPEN30
 10
133.1972451186
 20
100.9359674299
 30
0.1
 41
2.5
 42
2.5
 50
270.0
  0
INSERT
  5
C6
330
C4
100
AcDbEntity
  8
DIMS
100
AcDbBlockReference
  2
_OPEN30
 10
133.1972451186
 20
96.4359674299
 30
0.1
 41
2.5
 42
2.5
 50
90.0
  0
LINE
  5
C7
330
C4
100
AcDbEntity
  8
DIMS
100
AcDbLine
 10
142.8972451186
 20
100.9359674299
 30
0.0
 11
132.1972451186
 21
100.9359674299
 31
0.0
  0
LINE
  5
C8
330
C4
100
AcDbEntity
  8
DIMS
100
AcDbLine
 10
142.8972451186
 20
96.4359674299
 30
0.0
 11
132.1972451186
 21
96.4359674299
 31
0.0
  0
LINE
  5
C9
330
C4
100
AcDbEntity
  8
DIMS
100
AcDbLine
 10
133.1972451186
 20
100.9359674299
 30
0.0
 11
133.1972451186
 21
105.9359674299
 31
0.0
  0
LINE
  5
CA
330
C4
100
AcDbEntity
  8
DIMS
100
AcDbLine
 10
133.1972451186
 20
100.9359674299
 30
0.0
 11
133.1972451186
 21
96.4359674299
 31
0.0
  0
LINE
  5
CB
330
C4
100
AcDbEntity
  8
DIMS
100
AcDbLine
 10
133.1972451186
 20
96.4359674299
 30
0.0
 11
133.1972451186
 21
81.20351427050001
 31
0.0
  0
MTEXT
  5
CC
330
C4
100
AcDbEntity
  8
DIMS
100
AcDbMText
 10
129.0722282931999
 20
82.79101427049999
 30
0.0
 40
3.2
 41
0.0
 71
     1
 72
     1
  1
4.5
  7
SLDTEXTSTYLE1
 11
-0.000000000000007
 21
1.0
 31
0.0
 73
     1
 44
1.0
  0
MTEXT
  5
CD
330
C4
100
AcDbEntity
  8
DIMS
100
AcDbMText
 10
129.9740345992
 20
88.403689299
 30
0.0
 40
2.399999999999999
 41
0.0
 71
     1
 72
     1
  1
±0.1
  7
SLDTEXTSTYLE1
 11
-0.000000000000007
 21
1.0
 31
0.0
 73
     1
 44
1.0
  0
ENDBLK
  5
CF
330
C4
100
AcDbEntity
  8
0
100
AcDbBlockEnd
  0
BLOCK
  5
83
330
7B
100
AcDbEntity
  8
0
100
AcDbBlockBegin
  2
*D3
 70
     1
 10
0.0
 20
0.0
 30
0.0
  3
*D3
  1

  0
INSERT
  5
7C
330
7B
100
AcDbEntity
  8
DIMS
100
AcDbBlockReference
  2
_OPEN30
 10
143.1972451185998
 20
119.7128112819
 30
0.1
 41
2.5
 42
2.5
 50
180.0
  0
INSERT
  5
7D
330
7B
100
AcDbEntity
  8
DIMS
100
AcDbBlockReference
  2
_OPEN30
 10
158.1972451186
 20
119.7128112819
 30
0.1
 41
2.5
 42
2.5
  0
LINE
  5
7E
330
7B
100
AcDbEntity
  8
DIMS
100
AcDbLine
 10
143.1972451185998
 20
101.5359674299
 30
0.0
 11
143.1972451185998
 21
120.7128112819
 31
0.0
  0
LINE
  5
7F
330
7B
100
AcDbEntity
  8
DIMS
100
AcDbLine
 10
158.1972451186
 20
102.0359674298999
 30
0.0
 11
158.1972451186
 21
120.7128112819
 31
0.0
  0
LINE
  5
80
330
7B
100
AcDbEntity
  8
DIMS
100
AcDbLine
 10
143.1972451185998
 20
119.7128112819
 30
0.0
 11
158.1972451186
 21
119.7128112819
 31
0.0
  0
MTEXT
  5
81
330
7B
100
AcDbEntity
  8
DIMS
100
AcDbMText
 10
145.3361390753
 20
123.8378281074
 30
0.0
 40
3.2
 41
0.0
 71
     1
 72
     1
  1
15
  7
SLDTEXTSTYLE1
 73
     1
 44
1.0
  0
MTEXT
  5
82
330
7B
100
AcDbEntity
  8
DIMS
100
AcDbMText
 10
150.191664731
 20
122.9360218012999
 30
0.0
 40
2.399999999999999
 41
0.0
 71
     1
 72
     1
  1
±0.2
  7
SLDTEXTSTYLE1
 73
     1
 44
1.0
  0
ENDBLK
  5
84
330
7B
100
AcDbEntity
  8
0
100
AcDbBlockEnd
  0
BLOCK
  5
16C
330
162
100
AcDbEntity
  8
0
100
AcDbBlockBegin
  2
*D4
 70
     1
 10
0.0
 20
0.0
 30
0.0
  3
*D4
  1

  0
INSERT
  5
163
330
162
100
AcDbEntity
  8
DIMS
100
AcDbBlockReference
  2
_OPEN30
 10
138.9940353976
 20
98.43596742990001
 30
0.1
 41
2.5
 42
2.5
 50
90.0
  0
INSERT
  5
164
330
162
100
AcDbEntity
  8
DIMS
100
AcDbBlockReference
  2
_OPEN30
 10
138.9940353976
 20
99.43596742990001
 30
0.1
 41
2.5
 42
2.5
 50
270.0
  0
LINE
  5
165
330
162
100
AcDbEntity
  8
DIMS
100
AcDbLine
 10
142.8972451186
 20
98.43596742990001
 30
0.0
 11
137.9940353976
 21
98.43596742990001
 31
0.0
  0
LINE
  5
166
330
162
100
AcDbEntity
  8
DIMS
100
AcDbLine
 10
142.8972451186
 20
99.43596742990001
 30
0.0
 11
137.9940353976
 21
99.43596742990001
 31
0.0
  0
LINE
  5
167
330
162
100
AcDbEntity
  8
DIMS
100
AcDbLine
 10
138.9940353976
 20
98.43596742990001
 30
0.0
 11
138.9940353976
 21
83.98917250430001
 31
0.0
  0
LINE
  5
168
330
162
100
AcDbEntity
  8
DIMS
100
AcDbLine
 10
138.9940353976
 20
98.43596742990001
 30
0.0
 11
138.9940353976
 21
99.43596742990001
 31
0.0
  0
LINE
  5
169
330
162
100
AcDbEntity
  8
DIMS
100
AcDbLine
 10
138.9940353976
 20
99.43596742990001
 30
0.0
 11
138.9940353976
 21
104.4359674299
 31
0.0
  0
MTEXT
  5
16A
330
162
100
AcDbEntity
  8
DIMS
100
AcDbMText
 10
134.8690185721
 20
85.5766725043
 30
0.0
 40
3.2
 41
0.0
 71
     1
 72
     1
  1
1
  7
SLDTEXTSTYLE1
 11
0.0000000000000001
 21
1.0
 31
0.0
 73
     1
 44
1.0
  0
MTEXT
  5
16B
330
162
100
AcDbEntity
  8
DIMS
100
AcDbMText
 10
135.7708248781999
 20
88.57107615309997
 30
0.0
 40
2.399999999999999
 41
0.0
 71
     1
 72
     1
  1
±0.3
  7
SLDTEXTSTYLE1
 11
0.0000000000000001
 21
1.0
 31
0.0
 73
     1
 44
1.0
  0
ENDBLK
  5
16D
330
162
100
AcDbEntity
  8
0
100
AcDbBlockEnd
  0
BLOCK
  5
77
330
6D
100
AcDbEntity
  8
0
100
AcDbBlockBegin
  2
*D5
 70
     1
 10
0.0
 20
0.0
 30
0.0
  3
*D5
  1

  0
INSERT
  5
6E
330
6D
100
AcDbEntity
  8
DIMS
100
AcDbBlockReference
  2
_OPEN30
 10
144.1972451185999
 20
113.8590141739999
 30
0.1
 41
2.5
 42
2.5
 50
180.0
  0
INSERT
  5
6F
330
6D
100
AcDbEntity
  8
DIMS
100
AcDbBlockReference
  2
_OPEN30
 10
143.1972451185998
 20
113.8590141739999
 30
0.1
 41
2.5
 42
2.5
 50
360.0
  0
LINE
  5
70
330
6D
100
AcDbEntity
  8
DIMS
100
AcDbLine
 10
144.1972451185999
 20
100.0359674298999
 30
0.0
 11
144.1972451185999
 21
114.8590141739999
 31
0.0
  0
LINE
  5
71
330
6D
100
AcDbEntity
  8
DIMS
100
AcDbLine
 10
143.1972451185998
 20
99.0359674299
 30
0.0
 11
143.1972451185998
 21
114.8590141739999
 31
0.0
  0
LINE
  5
72
330
6D
100
AcDbEntity
  8
DIMS
100
AcDbLine
 10
144.1972451185999
 20
113.8590141739999
 30
0.0
 11
156.7152901585999
 21
113.8590141739999
 31
0.0
  0
LINE
  5
73
330
6D
100
AcDbEntity
  8
DIMS
100
AcDbLine
 10
144.1972451185999
 20
113.8590141739999
 30
0.0
 11
143.1972451185998
 21
113.8590141739999
 31
0.0
  0
LINE
  5
74
330
6D
100
AcDbEntity
  8
DIMS
100
AcDbLine
 10
143.1972451185998
 20
113.8590141739999
 30
0.0
 11
138.1972451185999
 21
113.8590141739999
 31
0.0
  0
MTEXT
  5
75
330
6D
100
AcDbEntity
  8
DIMS
100
AcDbMText
 10
146.2667000787
 20
117.9840309994
 30
0.0
 40
3.2
 41
0.0
 71
     1
 72
     1
  1
1
  7
SLDTEXTSTYLE1
 73
     1
 44
1.0
  0
MTEXT
  5
76
330
6D
100
AcDbEntity
  8
DIMS
100
AcDbMText
 10
149.2611037275
 20
117.0822246934
 30
0.0
 40
2.399999999999999
 41
0.0
 71
     1
 72
     1
  1
±0.3
  7
SLDTEXTSTYLE1
 73
     1
 44
1.0
  0
ENDBLK
  5
78
330
6D
100
AcDbEntity
  8
0
100
AcDbBlockEnd
  0
BLOCK
  5
69
330
5F
100
AcDbEntity
  8
0
100
AcDbBlockBegin
  2
*D6
 70
     1
 10
0.0
 20
0.0
 30
0.0
  3
*D6
  1

  0
INSERT
  5
60
330
5F
100
AcDbEntity
  8
DIMS
100
AcDbBlockReference
  2
_OPEN30
 10
159.6972451185999
 20
69.88790473909999
 30
0.1
 41
2.5
 42
2.5
  0
INSERT
  5
61
330
5F
100
AcDbEntity
  8
DIMS
100
AcDbBlockReference
  2
_OPEN30
 10
161.1972451186
 20
69.88790473909999
 30
0.1
 41
2.5
 42
2.5
 50
180.0
  0
LINE
  5
62
330
5F
100
AcDbEntity
  8
DIMS
100
AcDbLine
 10
159.6972451185999
 20
87.3359674299
 30
0.0
 11
159.6972451185999
 21
68.88790473909999
 31
0.0
  0
LINE
  5
63
330
5F
100
AcDbEntity
  8
DIMS
100
AcDbLine
 10
161.1972451186
 20
78.03596742989999
 30
0.0
 11
161.1972451186
 21
68.88790473909999
 31
0.0
  0
LINE
  5
64
330
5F
100
AcDbEntity
  8
DIMS
100
AcDbLine
 10
159.6972451185999
 20
69.88790473909999
 30
0.0
 11
143.2342011603999
 21
69.88790473909999
 31
0.0
  0
LINE
  5
65
330
5F
100
AcDbEntity
  8
DIMS
100
AcDbLine
 10
159.6972451185999
 20
69.88790473909999
 30
0.0
 11
161.1972451186
 21
69.88790473909999
 31
0.0
  0
LINE
  5
66
330
5F
100
AcDbEntity
  8
DIMS
100
AcDbLine
 10
161.1972451186
 20
69.88790473909999
 30
0.0
 11
166.1972451185999
 21
69.88790473909999
 31
0.0
  0
MTEXT
  5
67
330
5F
100
AcDbEntity
  8
DIMS
100
AcDbMText
 10
144.8217011604
 20
74.01292156450002
 30
0.0
 40
3.2
 41
0.0
 71
     1
 72
     1
  1
1.5
  7
SLDTEXTSTYLE1
 73
     1
 44
1.0
  0
MTEXT
  5
68
330
5F
100
AcDbEntity
  8
DIMS
100
AcDbMText
 10
150.4343761888993
 20
73.11111525850001
 30
0.0
 40
2.399999999999999
 41
0.0
 71
     1
 72
     1
  1
±0.76
  7
SLDTEXTSTYLE1
 73
     1
 44
1.0
  0
ENDBLK
  5
6A
330
5F
100
AcDbEntity
  8
0
100
AcDbBlockEnd
  0
BLOCK
  5
5B
330
53
100
AcDbEntity
  8
0
100
AcDbBlockBegin
  2
*D7
 70
     1
 10
0.0
 20
0.0
 30
0.0
  3
*D7
  1

  0
INSERT
  5
54
330
53
100
AcDbEntity
  8
DIMS
100
AcDbBlockReference
  2
_OPEN30
 10
161.1972451186
 20
64.05283497380001
 30
0.1
 41
2.5
 42
2.5
 50
360.0
  0
INSERT
  5
55
330
53
100
AcDbEntity
  8
DIMS
100
AcDbBlockReference
  2
_OPEN30
 10
143.1972451185998
 20
64.05283497380001
 30
0.1
 41
2.5
 42
2.5
 50
180.0
  0
LINE
  5
56
330
53
100
AcDbEntity
  8
DIMS
100
AcDbLine
 10
161.1972451186
 20
78.03596742989999
 30
0.0
 11
161.1972451186
 21
63.0528349738
 31
0.0
  0
LINE
  5
57
330
53
100
AcDbEntity
  8
DIMS
100
AcDbLine
 10
143.1972451185998
 20
96.13596742989999
 30
0.0
 11
143.1972451185998
 21
63.0528349738
 31
0.0
  0
LINE
  5
58
330
53
100
AcDbEntity
  8
DIMS
100
AcDbLine
 10
161.1972451186
 20
64.05283497380001
 30
0.0
 11
143.1972451185998
 21
64.05283497380001
 31
0.0
  0
MTEXT
  5
59
330
53
100
AcDbEntity
  8
DIMS
100
AcDbMText
 10
146.8361390752999
 20
68.1778517993
 30
0.0
 40
3.2
 41
0.0
 71
     1
 72
     1
  1
18
  7
SLDTEXTSTYLE1
 73
     1
 44
1.0
  0
MTEXT
  5
5A
330
53
100
AcDbEntity
  8
DIMS
100
AcDbMText
 10
151.6916647309999
 20
67.2760454932
 30
0.0
 40
2.399999999999999
 41
0.0
 71
     1
 72
     1
  1
±0.5
  7
SLDTEXTSTYLE1
 73
     1
 44
1.0
  0
ENDBLK
  5
5C
330
53
100
AcDbEntity
  8
0
100
AcDbBlockEnd
  0
BLOCK
  5
24F
330
248
100
AcDbEntity
  8
0
100
AcDbBlockBegin
  2
*D8
 70
     1
 10
0.0
 20
0.0
 30
0.0
  3
*D8
  1

  0
INSERT
  5
249
330
248
100
AcDbEntity
  8
DIMS
100
AcDbBlockReference
  2
_OPEN30
 10
161.1972451186
 20
69.88790473909999
 30
0.1
 41
2.5
 42
2.5
 50
180.0
  0
INSERT
  5
24A
330
248
100
AcDbEntity
  8
DIMS
100
AcDbBlockReference
  2
_OPEN30
 10
212.4972451186
 20
69.88790473909999
 30
0.1
 41
2.5
 42
2.5
  0
LINE
  5
24B
330
248
100
AcDbEntity
  8
DIMS
100
AcDbLine
 10
161.1972451186
 20
78.03596742989999
 30
0.0
 11
161.1972451186
 21
68.88790473909999
 31
0.0
  0
LINE
  5
24C
330
248
100
AcDbEntity
  8
DIMS
100
AcDbLine
 10
212.4972451186
 20
77.33596742989999
 30
0.0
 11
212.4972451186
 21
68.88790473909999
 31
0.0
  0
LINE
  5
24D
330
248
100
AcDbEntity
  8
DIMS
100
AcDbLine
 10
161.1972451186
 20
69.88790473909999
 30
0.0
 11
212.4972451186
 21
69.88790473909999
 31
0.0
  0
MTEXT
  5
24E
330
248
100
AcDbEntity
  8
DIMS
100
AcDbMText
 10
184.9128505918999
 20
74.01292156450002
 30
0.0
 40
3.2
 41
0.0
 71
     1
 72
     1
  1
L1
  7
SLDTEXTSTYLE1
 73
     1
 44
1.0
  0
ENDBLK
  5
250
330
248
100
AcDbEntity
  8
0
100
AcDbBlockEnd
  0
BLOCK
  5
2AB
330
2A2
100
AcDbEntity
  8
0
100
AcDbBlockBegin
  2
*D9
 70
     1
 10
0.0
 20
0.0
 30
0.0
  3
*D9
  1

  0
ARC
  5
2A3
330
2A2
100
AcDbEntity
  8
DIMS
100
AcDbCircle
 10
217.0208671255
 20
136.1057339262993
 30
0.0
 40
4.161595321718428
100
AcDbArc
 50
153.4349488229
 51
206.5650511771
  0
ARC
  5
2A4
330
2A2
100
AcDbEntity
  8
DIMS
100
AcDbCircle
 10
216.4736231118
 20
136.1057339262993
 30
0.0
 40
4.161595321718404
100
AcDbArc
 50
333.4349488229
 51
26.5650511771
  0
INSERT
  5
2A5
330
2A2
100
AcDbEntity
  8
DIMS
100
AcDbBlockReference
  2
_OPEN30
 10
196.9972451186
 20
134.2446119195
 30
0.1
 41
2.5
 42
2.5
 50
180.0
  0
INSERT
  5
2A6
330
2A2
100
AcDbEntity
  8
DIMS
100
AcDbBlockReference
  2
_OPEN30
 10
236.4972451185999
 20
134.2446119195
 30
0.1
 41
2.5
 42
2.5
  0
LINE
  5
2A7
330
2A2
100
AcDbEntity
  8
DIMS
100
AcDbLine
 10
196.9972451186
 20
130.3359674298999
 30
0.0
 11
196.9972451186
 21
135.2446119195
 31
0.0
  0
LINE
  5
2A8
330
2A2
100
AcDbEntity
  8
DIMS
100
AcDbLine
 10
236.4972451185999
 20
131.5359829166
 30
0.0
 11
236.4972451185999
 21
135.2446119195
 31
0.0
  0
LINE
  5
2A9
330
2A2
100
AcDbEntity
  8
DIMS
100
AcDbLine
 10
196.9972451186
 20
134.2446119195
 30
0.0
 11
236.4972451185999
 21
134.2446119195
 31
0.0
  0
MTEXT
  5
2AA
330
2A2
100
AcDbEntity
  8
DIMS
100
AcDbMText
 10
214.8861231117999
 20
138.3696287448999
 30
0.0
 40
3.2
 41
0.0
 71
     1
 72
     1
  1
40
  7
SLDTEXTSTYLE1
 73
     1
 44
1.0
  0
ENDBLK
  5
2AC
330
2A2
100
AcDbEntity
  8
0
100
AcDbBlockEnd
  0
BLOCK
  5
244
330
23C
100
AcDbEntity
  8
0
100
AcDbBlockBegin
  2
*D10
 70
     1
 10
0.0
 20
0.0
 30
0.0
  3
*D10
  1

  0
INSERT
  5
23D
330
23C
100
AcDbEntity
  8
DIMS
100
AcDbBlockReference
  2
_OPEN30
 10
161.1972451186
 20
64.05283497380001
 30
0.1
 41
2.5
 42
2.5
 50
180.0
  0
INSERT
  5
23E
330
23C
100
AcDbEntity
  8
DIMS
100
AcDbBlockReference
  2
_OPEN30
 10
236.4972451185999
 20
64.05283497380001
 30
0.1
 41
2.5
 42
2.5
  0
LINE
  5
23F
330
23C
100
AcDbEntity
  8
DIMS
100
AcDbLine
 10
161.1972451186
 20
78.03596742989999
 30
0.0
 11
161.1972451186
 21
63.0528349738
 31
0.0
  0
LINE
  5
240
330
23C
100
AcDbEntity
  8
DIMS
100
AcDbLine
 10
236.4972451185999
 20
77.3359829166
 30
0.0
 11
236.4972451185999
 21
63.0528349738
 31
0.0
  0
LINE
  5
241
330
23C
100
AcDbEntity
  8
DIMS
100
AcDbLine
 10
161.1972451186
 20
64.05283497380001
 30
0.0
 11
236.4972451185999
 21
64.05283497380001
 31
0.0
  0
MTEXT
  5
242
330
23C
100
AcDbEntity
  8
DIMS
100
AcDbMText
 10
195.3252793261999
 20
68.1778517993
 30
0.0
 40
3.2
 41
0.0
 71
     1
 72
     1
  1
L
  7
SLDTEXTSTYLE1
 73
     1
 44
1.0
  0
MTEXT
  5
243
330
23C
100
AcDbEntity
  8
DIMS
100
AcDbMText
 10
198.4662280149
 20
67.2760454932
 30
0.0
 40
2.399999999999999
 41
0.0
 71
     1
 72
     1
  1
±1
  7
SLDTEXTSTYLE1
 73
     1
 44
1.0
  0
ENDBLK
  5
245
330
23C
100
AcDbEntity
  8
0
100
AcDbBlockEnd
  0
BLOCK
  5
268
330
261
100
AcDbEntity
  8
0
100
AcDbBlockBegin
  2
*D11
 70
     1
 10
0.0
 20
0.0
 30
0.0
  3
*D11
  1

  0
INSERT
  5
262
330
261
100
AcDbEntity
  8
DIMS
100
AcDbBlockReference
  2
_OPEN30
 10
212.4972451186
 20
69.88790473909999
 30
0.1
 41
2.5
 42
2.5
 50
180.0
  0
INSERT
  5
263
330
261
100
AcDbEntity
  8
DIMS
100
AcDbBlockReference
  2
_OPEN30
 10
236.4972451185999
 20
69.88790473909999
 30
0.1
 41
2.5
 42
2.5
  0
LINE
  5
264
330
261
100
AcDbEntity
  8
DIMS
100
AcDbLine
 10
212.4972451186
 20
77.33596742989999
 30
0.0
 11
212.4972451186
 21
68.88790473909999
 31
0.0
  0
LINE
  5
265
330
261
100
AcDbEntity
  8
DIMS
100
AcDbLine
 10
236.4972451185999
 20
77.3359829166
 30
0.0
 11
236.4972451185999
 21
68.88790473909999
 31
0.0
  0
LINE
  5
266
330
261
100
AcDbEntity
  8
DIMS
100
AcDbLine
 10
212.4972451186
 20
69.88790473909999
 30
0.0
 11
236.4972451185999
 21
69.88790473909999
 31
0.0
  0
MTEXT
  5
267
330
261
100
AcDbEntity
  8
DIMS
100
AcDbMText
 10
222.6361231118
 20
74.01292156450002
 30
0.0
 40
3.2
 41
0.0
 71
     1
 72
     1
  1
24
  7
SLDTEXTSTYLE1
 73
     1
 44
1.0
  0
ENDBLK
  5
269
330
261
100
AcDbEntity
  8
0
100
AcDbBlockEnd
  0
BLOCK
  5
21D
330
216
100
AcDbEntity
  8
0
100
AcDbBlockBegin
  2
*D12
 70
     1
 10
0.0
 20
0.0
 30
0.0
  3
*D12
  1

  0
INSERT
  5
217
330
216
100
AcDbEntity
  8
DIMS
100
AcDbBlockReference
  2
_OPEN30
 10
245.1651940129
 20
130.9359829166
 30
0.1
 41
2.5
 42
2.5
 50
90.0
  0
INSERT
  5
218
330
216
100
AcDbEntity
  8
DIMS
100
AcDbBlockReference
  2
_OPEN30
 10
245.1651940129
 20
77.9359829166
 30
0.1
 41
2.5
 42
2.5
 50
270.0
  0
LINE
  5
219
330
216
100
AcDbEntity
  8
DIMS
100
AcDbLine
 10
237.0972451186
 20
130.9359829166
 30
0.0
 11
246.1651940129
 21
130.9359829166
 31
0.0
  0
LINE
  5
21A
330
216
100
AcDbEntity
  8
DIMS
100
AcDbLine
 10
237.0972451186
 20
77.9359829166
 30
0.0
 11
246.1651940129
 21
77.9359829166
 31
0.0
  0
LINE
  5
21B
330
216
100
AcDbEntity
  8
DIMS
100
AcDbLine
 10
245.1651940129
 20
130.9359829166
 30
0.0
 11
245.1651940129
 21
77.9359829166
 31
0.0
  0
MTEXT
  5
21C
330
216
100
AcDbEntity
  8
DIMS
100
AcDbMText
 10
241.0401771874
 20
102.5748609097999
 30
0.0
 40
3.2
 41
0.0
 71
     1
 72
     1
  1
53
  7
SLDTEXTSTYLE1
 11
-0.000000000000007
 21
1.0
 31
0.0
 73
     1
 44
1.0
  0
ENDBLK
  5
21E
330
216
100
AcDbEntity
  8
0
100
AcDbBlockEnd
  0
BLOCK
  5
4F
330
44
100
AcDbEntity
  8
0
100
AcDbBlockBegin
  2
*D13
 70
     1
 10
0.0
 20
0.0
 30
0.0
  3
*D13
  1

  0
INSERT
  5
45
330
44
100
AcDbEntity
  8
DIMS
100
AcDbBlockReference
  2
_OPEN30
 10
119.5157058142999
 20
87.93596742990002
 30
0.1
 41
2.5
 42
2.5
 50
270.0
  0
INSERT
  5
46
330
44
100
AcDbEntity
  8
DIMS
100
AcDbBlockReference
  2
_OPEN30
 10
119.5157058142999
 20
109.9359674299
 30
0.1
 41
2.5
 42
2.5
 50
90.0
  0
LINE
  5
47
330
44
100
AcDbEntity
  8
DIMS
100
AcDbLine
 10
159.0972451185999
 20
87.93596742990002
 30
0.0
 11
118.5157058142999
 21
87.93596742990002
 31
0.0
  0
LINE
  5
48
330
44
100
AcDbEntity
  8
DIMS
100
AcDbLine
 10
159.0972451185999
 20
109.9359674299
 30
0.0
 11
118.5157058142999
 21
109.9359674299
 31
0.0
  0
LINE
  5
49
330
44
100
AcDbEntity
  8
DIMS
100
AcDbLine
 10
119.5157058142999
 20
87.93596742990002
 30
0.0
 11
119.5157058142999
 21
109.9359674299
 31
0.0
  0
MTEXT
  5
4A
330
44
100
AcDbEntity
  8
DIMS
100
AcDbMText
 10
115.3906892216
 20
91.8065512383
 30
0.0
 40
3.2
 41
0.0
 71
     1
 72
     1
  1
%%c
  7
SLDTEXTSTYLE1
 11
0.0000000000000001
 21
1.0
 31
0.0
 73
     1
 44
1.0
  0
MTEXT
  5
4B
330
44
100
AcDbEntity
  8
DIMS
100
AcDbMText
 10
115.3906889888
 20
95.34317153479999
 30
0.0
 40
3.2
 41
0.0
 71
     1
 72
     1
  1
22
  7
SLDTEXTSTYLE1
 11
0.0000000000000001
 21
1.0
 31
0.0
 73
     1
 44
1.0
  0
MTEXT
  5
4C
330
44
100
AcDbEntity
  8
DIMS
100
AcDbMText
 10
116.2924952947999
 20
99.91537677990001
 30
0.0
 40
2.399999999999999
 41
0.0
 71
     1
 72
     1
  1
-
  7
SLDTEXTSTYLE1
 11
0.0000000000000001
 21
1.0
 31
0.0
 73
     1
 44
1.0
  0
MTEXT
  5
4D
330
44
100
AcDbEntity
  8
DIMS
100
AcDbMText
 10
116.2924952947999
 20
101.3099970764
 30
0.0
 40
2.399999999999999
 41
0.0
 71
     1
 72
     1
  1
0.05
  7
SLDTEXTSTYLE1
 11
0.0000000000000001
 21
1.0
 31
0.0
 73
     1
 44
1.0
  0
MTEXT
  5
4E
330
44
100
AcDbEntity
  8
DIMS
100
AcDbMText
 10
113.5008122845999
 20
101.3099970764
 30
0.0
 40
2.399999999999999
 41
0.0
 71
     1
 72
     1
  1
0
  7
SLDTEXTSTYLE1
 11
0.0000000000000001
 21
1.0
 31
0.0
 73
     1
 44
1.0
  0
ENDBLK
  5
50
330
44
100
AcDbEntity
  8
0
100
AcDbBlockEnd
  0
BLOCK
  5
E5
330
DD
100
AcDbEntity
  8
0
100
AcDbBlockBegin
  2
*D14
 70
     1
 10
0.0
 20
0.0
 30
0.0
  3
*D14
  1

  0
INSERT
  5
DE
330
DD
100
AcDbEntity
  8
DIMS
100
AcDbBlockReference
  2
_OPEN30
 10
61.9382280031
 20
70.2986276285
 30
28.725
 41
2.5
 42
2.5
 50
180.0
  0
INSERT
  5
DF
330
DD
100
AcDbEntity
  8
DIMS
100
AcDbBlockReference
  2
_OPEN30
 10
92.9382280031
 20
70.2986276285
 30
28.725
 41
2.5
 42
2.5
 50
360.0
  0
LINE
  5
E0
330
DD
100
AcDbEntity
  8
DIMS
100
AcDbLine
 10
61.9382280031
 20
79.08596742989999
 30
0.0
 11
61.9382280031
 21
69.2986276285
 31
0.0
  0
LINE
  5
E1
330
DD
100
AcDbEntity
  8
DIMS
100
AcDbLine
 10
92.9382280031
 20
79.08596742989999
 30
0.0
 11
92.9382280031
 21
69.2986276285
 31
0.0
  0
LINE
  5
E2
330
DD
100
AcDbEntity
  8
DIMS
100
AcDbLine
 10
61.9382280031
 20
70.2986276285
 30
0.0
 11
92.9382280031
 21
70.2986276285
 31
0.0
  0
MTEXT
  5
E3
330
DD
100
AcDbEntity
  8
DIMS
100
AcDbMText
 10
71.37859060290002
 20
74.42364445390001
 30
0.0
 40
3.2
 41
0.0
 71
     1
 72
     1
  1
31
  7
SLDTEXTSTYLE1
 73
     1
 44
1.0
  0
MTEXT
  5
E4
330
DD
100
AcDbEntity
  8
DIMS
100
AcDbMText
 10
76.2341162586
 20
73.5218381479
 30
0.0
 40
2.399999999999999
 41
0.0
 71
     1
 72
     1
  1
±0.25
  7
SLDTEXTSTYLE1
 73
     1
 44
1.0
  0
ENDBLK
  5
E6
330
DD
100
AcDbEntity
  8
0
100
AcDbBlockEnd
  0
BLOCK
  5
B7
330
AF
100
AcDbEntity
  8
0
100
AcDbBlockBegin
  2
*D15
 70
     1
 10
0.0
 20
0.0
 30
0.0
  3
*D15
  1

  0
INSERT
  5
B0
330
AF
100
AcDbEntity
  8
DIMS
100
AcDbBlockReference
  2
_OPEN30
 10
51.5067025023
 20
114.4359674299
 30
28.725
 41
2.5
 42
2.5
 50
90.0
  0
INSERT
  5
B1
330
AF
100
AcDbEntity
  8
DIMS
100
AcDbBlockReference
  2
_OPEN30
 10
51.5067025023
 20
83.43596742989999
 30
28.725
 41
2.5
 42
2.5
 50
270.0
  0
LINE
  5
B2
330
AF
100
AcDbEntity
  8
DIMS
100
AcDbLine
 10
57.5882280031
 20
114.4359674299
 30
0.0
 11
50.50670250229999
 21
114.4359674299
 31
0.0
  0
LINE
  5
B3
330
AF
100
AcDbEntity
  8
DIMS
100
AcDbLine
 10
57.5882280031
 20
83.43596742989999
 30
0.0
 11
50.50670250229999
 21
83.43596742989999
 31
0.0
  0
LINE
  5
B4
330
AF
100
AcDbEntity
  8
DIMS
100
AcDbLine
 10
51.5067025023
 20
114.4359674299
 30
0.0
 11
51.5067025023
 21
83.43596742989999
 31
0.0
  0
MTEXT
  5
B5
330
AF
100
AcDbEntity
  8
DIMS
100
AcDbMText
 10
47.3816856768
 20
92.87633002959998
 30
0.0
 40
3.2
 41
0.0
 71
     1
 72
     1
  1
31
  7
SLDTEXTSTYLE1
 11
-0.000000000000007
 21
1.0
 31
0.0
 73
     1
 44
1.0
  0
MTEXT
  5
B6
330
AF
100
AcDbEntity
  8
DIMS
100
AcDbMText
 10
48.28349198279997
 20
97.73185568530001
 30
0.0
 40
2.399999999999999
 41
0.0
 71
     1
 72
     1
  1
±0.25
  7
SLDTEXTSTYLE1
 11
-0.000000000000007
 21
1.0
 31
0.0
 73
     1
 44
1.0
  0
ENDBLK
  5
B8
330
AF
100
AcDbEntity
  8
0
100
AcDbBlockEnd
  0
BLOCK
  5
DA
330
D2
100
AcDbEntity
  8
0
100
AcDbBlockBegin
  2
*D16
 70
     1
 10
0.0
 20
0.0
 30
0.0
  3
*D16
  1

  0
INSERT
  5
D3
330
D2
100
AcDbEntity
  8
DIMS
100
AcDbBlockReference
  2
_OPEN30
 10
56.4382280031
 20
65.27641796489999
 30
28.725
 41
2.5
 42
2.5
 50
180.0
  0
INSERT
  5
D4
330
D2
100
AcDbEntity
  8
DIMS
100
AcDbBlockReference
  2
_OPEN30
 10
98.4382280031
 20
65.27641796489999
 30
28.725
 41
2.5
 42
2.5
  0
LINE
  5
D5
330
D2
100
AcDbEntity
  8
DIMS
100
AcDbLine
 10
56.4382280031
 20
82.83596742989999
 30
0.0
 11
56.4382280031
 21
64.27641796489999
 31
0.0
  0
LINE
  5
D6
330
D2
100
AcDbEntity
  8
DIMS
100
AcDbLine
 10
98.4382280031
 20
81.33596742989999
 30
0.0
 11
98.4382280031
 21
64.27641796489999
 31
0.0
  0
LINE
  5
D7
330
D2
100
AcDbEntity
  8
DIMS
100
AcDbLine
 10
56.4382280031
 20
65.27641796489999
 30
0.0
 11
98.4382280031
 21
65.27641796489999
 31
0.0
  0
MTEXT
  5
D8
330
D2
100
AcDbEntity
  8
DIMS
100
AcDbMText
 10
71.37859060290002
 20
69.4014347904
 30
0.0
 40
3.2
 41
0.0
 71
     1
 72
     1
  1
42
  7
SLDTEXTSTYLE1
 73
     1
 44
1.0
  0
MTEXT
  5
D9
330
D2
100
AcDbEntity
  8
DIMS
100
AcDbMText
 10
76.2341162586
 20
68.4996284843
 30
0.0
 40
2.399999999999999
 41
0.0
 71
     1
 72
     1
  1
±0.25
  7
SLDTEXTSTYLE1
 73
     1
 44
1.0
  0
ENDBLK
  5
DB
330
D2
100
AcDbEntity
  8
0
100
AcDbBlockEnd
  0
BLOCK
  5
AC
330
A4
100
AcDbEntity
  8
0
100
AcDbBlockBegin
  2
*D17
 70
     1
 10
0.0
 20
0.0
 30
0.0
  3
*D17
  1

  0
INSERT
  5
A5
330
A4
100
AcDbEntity
  8
DIMS
100
AcDbBlockReference
  2
_OPEN30
 10
44.5981228679
 20
119.9359674299
 30
28.725
 41
2.5
 42
2.5
 50
90.0
  0
INSERT
  5
A6
330
A4
100
AcDbEntity
  8
DIMS
100
AcDbBlockReference
  2
_OPEN30
 10
44.5981228679
 20
77.93596742990001
 30
28.725
 41
2.5
 42
2.5
 50
270.0
  0
LINE
  5
A7
330
A4
100
AcDbEntity
  8
DIMS
100
AcDbLine
 10
61.3382280031
 20
119.9359674299
 30
0.0
 11
43.5981228679
 21
119.9359674299
 31
0.0
  0
LINE
  5
A8
330
A4
100
AcDbEntity
  8
DIMS
100
AcDbLine
 10
61.3382280031
 20
77.93596742990001
 30
0.0
 11
43.5981228679
 21
77.93596742990001
 31
0.0
  0
LINE
  5
A9
330
A4
100
AcDbEntity
  8
DIMS
100
AcDbLine
 10
44.5981228679
 20
119.9359674299
 30
0.0
 11
44.5981228679
 21
77.93596742990001
 31
0.0
  0
MTEXT
  5
AA
330
A4
100
AcDbEntity
  8
DIMS
100
AcDbMText
 10
40.47310604239997
 20
92.87633002959998
 30
0.0
 40
3.2
 41
0.0
 71
     1
 72
     1
  1
42
  7
SLDTEXTSTYLE1
 11
-0.000000000000007
 21
1.0
 31
0.0
 73
     1
 44
1.0
  0
MTEXT
  5
AB
330
A4
100
AcDbEntity
  8
DIMS
100
AcDbMText
 10
41.3749123484
 20
97.73185568530001
 30
0.0
 40
2.399999999999999
 41
0.0
 71
     1
 72
     1
  1
±0.25
  7
SLDTEXTSTYLE1
 11
-0.000000000000007
 21
1.0
 31
0.0
 73
     1
 44
1.0
  0
ENDBLK
  5
AD
330
A4
100
AcDbEntity
  8
0
100
AcDbBlockEnd
  0
BLOCK
  5
18D
330
186
100
AcDbEntity
  8
0
100
AcDbBlockBegin
  2
*D18
 70
     1
 10
0.0
 20
0.0
 30
0.0
  3
*D18
  1

  0
INSERT
  5
187
330
186
100
AcDbEntity
  8
DIMS
100
AcDbBlockReference
  2
_OPEN30
 10
63.5382280031
 20
135.356024577
 30
28.725
 41
2.5
 42
2.5
 50
180.0
  0
INSERT
  5
188
330
186
100
AcDbEntity
  8
DIMS
100
AcDbBlockReference
  2
_OPEN30
 10
91.33822800309999
 20
135.356024577
 30
28.725
 41
2.5
 42
2.5
  0
LINE
  5
189
330
186
100
AcDbEntity
  8
DIMS
100
AcDbLine
 10
63.5382280031
 20
130.9459674299
 30
0.0
 11
63.5382280031
 21
136.356024577
 31
0.0
  0
LINE
  5
18A
330
186
100
AcDbEntity
  8
DIMS
100
AcDbLine
 10
91.33822800309999
 20
130.9459674299
 30
0.0
 11
91.33822800309999
 21
136.356024577
 31
0.0
  0
LINE
  5
18B
330
186
100
AcDbEntity
  8
DIMS
100
AcDbLine
 10
63.5382280031
 20
135.356024577
 30
0.0
 11
91.33822800309999
 21
135.356024577
 31
0.0
  0
MTEXT
  5
18C
330
186
100
AcDbEntity
  8
DIMS
100
AcDbMText
 10
74.2679703064
 20
139.4810414025
 30
0.0
 40
3.2
 41
0.0
 71
     1
 72
     1
  1
27.8
  7
SLDTEXTSTYLE1
 73
     1
 44
1.0
  0
ENDBLK
  5
18E
330
186
100
AcDbEntity
  8
0
100
AcDbBlockEnd
  0
BLOCK
  5
183
330
17B
100
AcDbEntity
  8
0
100
AcDbBlockBegin
  2
*D19
 70
     1
 10
0.0
 20
0.0
 30
0.0
  3
*D19
  1

  0
INSERT
  5
17C
330
17B
100
AcDbEntity
  8
DIMS
100
AcDbBlockReference
  2
_OPEN30
 10
93.70549976639999
 20
115.4227774629
 30
28.725
 41
2.5
 42
2.5
 50
232.1339585877999
  0
LINE
  5
17D
330
17B
100
AcDbEntity
  8
DIMS
100
AcDbLine
 10
93.70549976639999
 20
115.4227774629
 30
0.0
 11
106.1244538713999
 21
131.3951474838
 31
0.0
  0
LINE
  5
17E
330
17B
100
AcDbEntity
  8
DIMS
100
AcDbLine
 10
92.17095623979998
 20
113.4491573969
 30
0.0
 11
93.70549976639999
 21
115.4227774629
 31
0.0
  0
LINE
  5
17F
330
17B
100
AcDbEntity
  8
DIMS
100
AcDbLine
 10
106.1244538713999
 20
131.3951474838
 30
0.0
 11
126.9392161290999
 21
131.3951474838
 31
0.0
  0
MTEXT
  5
180
330
17B
100
AcDbEntity
  8
DIMS
100
AcDbMText
 10
108.7994538713999
 20
135.5201643091999
 30
0.0
 40
3.2
 41
0.0
 71
     1
 72
     1
  1
4-M
  7
SLDTEXTSTYLE1
 73
     1
 44
1.0
  0
MTEXT
  5
181
330
17B
100
AcDbEntity
  8
DIMS
100
AcDbMText
 10
115.2865143047
 20
135.5201643091999
 30
0.0
 40
3.2
 41
0.0
 71
     1
 72
     1
  1
3
  7
SLDTEXTSTYLE1
 73
     1
 44
1.0
  0
MTEXT
  5
182
330
17B
100
AcDbEntity
  8
DIMS
100
AcDbMText
 10
117.1476363115
 20
135.5201643091999
 30
0.0
 40
3.2
 41
0.0
 71
     1
 72
     1
  1
х0.5
  7
SLDTEXTSTYLE1
 73
     1
 44
1.0
  0
ENDBLK
  5
184
330
17B
100
AcDbEntity
  8
0
100
AcDbBlockEnd
  0
BLOCK
  5
A1
330
98
100
AcDbEntity
  8
0
100
AcDbBlockBegin
  2
SW_CENTERMARKSYMBOL_0
 70
     0
 10
0.0
 20
0.0
 30
0.0
  3
SW_CENTERMARKSYMBOL_0
  1

  0
LINE
  5
99
330
98
100
AcDbEntity
  8
CENTER
 62
     0
100
AcDbLine
 10
0.0
 20
0.0
 30
0.0
 11
0.0
 21
2.5
 31
0.0
  0
LINE
  5
9A
330
98
100
AcDbEntity
  8
CENTER
 62
     0
100
AcDbLine
 10
0.0
 20
0.0
 30
0.0
 11
-2.5
 21
0.0
 31
0.0
  0
LINE
  5
9B
330
98
100
AcDbEntity
  8
CENTER
 62
     0
100
AcDbLine
 10
0.0
 20
0.0
 30
0.0
 11
0.0
 21
-2.5
 31
0.0
  0
LINE
  5
9C
330
98
100
AcDbEntity
  8
CENTER
 62
     0
100
AcDbLine
 10
0.0
 20
0.0
 30
0.0
 11
2.5
 21
0.0
 31
0.0
  0
LINE
  5
9D
330
98
100
AcDbEntity
  8
CENTER
 62
     0
100
AcDbLine
 10
0.0
 20
5.0
 30
0.0
 11
0.0
 21
32.506058506
 31
0.0
  0
LINE
  5
9E
330
98
100
AcDbEntity
  8
CENTER
 62
     0
100
AcDbLine
 10
-5.0
 20
0.0
 30
0.0
 11
-22.0851725803
 21
0.0
 31
0.0
  0
LINE
  5
9F
330
98
100
AcDbEntity
  8
CENTER
 62
     0
100
AcDbLine
 10
0.0
 20
-5.0
 30
0.0
 11
0.0
 21
-22.4841948034
 31
0.0
  0
LINE
  5
A0
330
98
100
AcDbEntity
  8
CENTER
 62
     0
100
AcDbLine
 10
5.0
 20
0.0
 30
0.0
 11
21.7761008926
 21
0.0
 31
0.0
  0
ENDBLK
  5
A2
330
98
100
AcDbEntity
  8
0
100
AcDbBlockEnd
  0
BLOCK
  5
1DA
330
1D1
100
AcDbEntity
  8
0
100
AcDbBlockBegin
  2
SW_CENTERMARKSYMBOL_1
 70
     0
 10
0.0
 20
0.0
 30
0.0
  3
SW_CENTERMARKSYMBOL_1
  1

  0
LINE
  5
1D2
330
1D1
100
AcDbEntity
  8
CENTER
 62
     0
100
AcDbLine
 10
0.0
 20
0.0
 30
0.0
 11
0.0
 21
2.5
 31
0.0
  0
LINE
  5
1D3
330
1D1
100
AcDbEntity
  8
CENTER
 62
     0
100
AcDbLine
 10
0.0
 20
0.0
 30
0.0
 11
-2.5
 21
0.0
 31
0.0
  0
LINE
  5
1D4
330
1D1
100
AcDbEntity
  8
CENTER
 62
     0
100
AcDbLine
 10
0.0
 20
0.0
 30
0.0
 11
0.0
 21
-2.5
 31
0.0
  0
LINE
  5
1D5
330
1D1
100
AcDbEntity
  8
CENTER
 62
     0
100
AcDbLine
 10
0.0
 20
0.0
 30
0.0
 11
2.5
 21
0.0
 31
0.0
  0
LINE
  5
1D6
330
1D1
100
AcDbEntity
  8
CENTER
 62
     0
100
AcDbLine
 10
0.0
 20
2.5
 30
0.0
 11
0.0
 21
3.75
 31
0.0
  0
LINE
  5
1D7
330
1D1
100
AcDbEntity
  8
CENTER
 62
     0
100
AcDbLine
 10
-2.5
 20
0.0
 30
0.0
 11
-3.75
 21
0.0
 31
0.0
  0
LINE
  5
1D8
330
1D1
100
AcDbEntity
  8
CENTER
 62
     0
100
AcDbLine
 10
0.0
 20
-2.5
 30
0.0
 11
0.0
 21
-3.75
 31
0.0
  0
LINE
  5
1D9
330
1D1
100
AcDbEntity
  8
CENTER
 62
     0
100
AcDbLine
 10
2.5
 20
0.0
 30
0.0
 11
3.75
 21
0.0
 31
0.0
  0
ENDBLK
  5
1DB
330
1D1
100
AcDbEntity
  8
0
100
AcDbBlockEnd
  0
BLOCK
  5
1A4
330
19B
100
AcDbEntity
  8
0
100
AcDbBlockBegin
  2
SW_CENTERMARKSYMBOL_2
 70
     0
 10
0.0
 20
0.0
 30
0.0
  3
SW_CENTERMARKSYMBOL_2
  1

  0
LINE
  5
19C
330
19B
100
AcDbEntity
  8
CENTER
 62
     0
100
AcDbLine
 10
0.0
 20
0.0
 30
0.0
 11
0.0
 21
2.5
 31
0.0
  0
LINE
  5
19D
330
19B
100
AcDbEntity
  8
CENTER
 62
     0
100
AcDbLine
 10
0.0
 20
0.0
 30
0.0
 11
-2.5
 21
0.0
 31
0.0
  0
LINE
  5
19E
330
19B
100
AcDbEntity
  8
CENTER
 62
     0
100
AcDbLine
 10
0.0
 20
0.0
 30
0.0
 11
0.0
 21
-2.5
 31
0.0
  0
LINE
  5
19F
330
19B
100
AcDbEntity
  8
CENTER
 62
     0
100
AcDbLine
 10
0.0
 20
0.0
 30
0.0
 11
2.5
 21
0.0
 31
0.0
  0
LINE
  5
1A0
330
19B
100
AcDbEntity
  8
CENTER
 62
     0
100
AcDbLine
 10
0.0
 20
2.5
 30
0.0
 11
0.0
 21
3.75
 31
0.0
  0
LINE
  5
1A1
330
19B
100
AcDbEntity
  8
CENTER
 62
     0
100
AcDbLine
 10
-2.5
 20
0.0
 30
0.0
 11
-3.75
 21
0.0
 31
0.0
  0
LINE
  5
1A2
330
19B
100
AcDbEntity
  8
CENTER
 62
     0
100
AcDbLine
 10
0.0
 20
-2.5
 30
0.0
 11
0.0
 21
-3.75
 31
0.0
  0
LINE
  5
1A3
330
19B
100
AcDbEntity
  8
CENTER
 62
     0
100
AcDbLine
 10
2.5
 20
0.0
 30
0.0
 11
3.75
 21
0.0
 31
0.0
  0
ENDBLK
  5
1A5
330
19B
100
AcDbEntity
  8
0
100
AcDbBlockEnd
  0
BLOCK
  5
110
330
107
100
AcDbEntity
  8
0
100
AcDbBlockBegin
  2
SW_CENTERMARKSYMBOL_3
 70
     0
 10
0.0
 20
0.0
 30
0.0
  3
SW_CENTERMARKSYMBOL_3
  1

  0
LINE
  5
108
330
107
100
AcDbEntity
  8
CENTER
 62
     0
100
AcDbLine
 10
0.0
 20
0.0
 30
0.0
 11
0.0
 21
2.5
 31
0.0
  0
LINE
  5
109
330
107
100
AcDbEntity
  8
CENTER
 62
     0
100
AcDbLine
 10
0.0
 20
0.0
 30
0.0
 11
-2.5
 21
0.0
 31
0.0
  0
LINE
  5
10A
330
107
100
AcDbEntity
  8
CENTER
 62
     0
100
AcDbLine
 10
0.0
 20
0.0
 30
0.0
 11
0.0
 21
-2.5
 31
0.0
  0
LINE
  5
10B
330
107
100
AcDbEntity
  8
CENTER
 62
     0
100
AcDbLine
 10
0.0
 20
0.0
 30
0.0
 11
2.5
 21
0.0
 31
0.0
  0
LINE
  5
10C
330
107
100
AcDbEntity
  8
CENTER
 62
     0
100
AcDbLine
 10
0.0
 20
2.5
 30
0.0
 11
0.0
 21
3.75
 31
0.0
  0
LINE
  5
10D
330
107
100
AcDbEntity
  8
CENTER
 62
     0
100
AcDbLine
 10
-2.5
 20
0.0
 30
0.0
 11
-3.75
 21
0.0
 31
0.0
  0
LINE
  5
10E
330
107
100
AcDbEntity
  8
CENTER
 62
     0
100
AcDbLine
 10
0.0
 20
-2.5
 30
0.0
 11
0.0
 21
-3.75
 31
0.0
  0
LINE
  5
10F
330
107
100
AcDbEntity
  8
CENTER
 62
     0
100
AcDbLine
 10
2.5
 20
0.0
 30
0.0
 11
3.75
 21
0.0
 31
0.0
  0
ENDBLK
  5
111
330
107
100
AcDbEntity
  8
0
100
AcDbBlockEnd
  0
BLOCK
  5
13D
330
134
100
AcDbEntity
  8
0
100
AcDbBlockBegin
  2
SW_CENTERMARKSYMBOL_4
 70
     0
 10
0.0
 20
0.0
 30
0.0
  3
SW_CENTERMARKSYMBOL_4
  1

  0
LINE
  5
135
330
134
100
AcDbEntity
  8
CENTER
 62
     0
100
AcDbLine
 10
0.0
 20
0.0
 30
0.0
 11
0.0
 21
2.5
 31
0.0
  0
LINE
  5
136
330
134
100
AcDbEntity
  8
CENTER
 62
     0
100
AcDbLine
 10
0.0
 20
0.0
 30
0.0
 11
-2.5
 21
0.0
 31
0.0
  0
LINE
  5
137
330
134
100
AcDbEntity
  8
CENTER
 62
     0
100
AcDbLine
 10
0.0
 20
0.0
 30
0.0
 11
0.0
 21
-2.5
 31
0.0
  0
LINE
  5
138
330
134
100
AcDbEntity
  8
CENTER
 62
     0
100
AcDbLine
 10
0.0
 20
0.0
 30
0.0
 11
2.5
 21
0.0
 31
0.0
  0
LINE
  5
139
330
134
100
AcDbEntity
  8
CENTER
 62
     0
100
AcDbLine
 10
0.0
 20
2.5
 30
0.0
 11
0.0
 21
3.75
 31
0.0
  0
LINE
  5
13A
330
134
100
AcDbEntity
  8
CENTER
 62
     0
100
AcDbLine
 10
-2.5
 20
0.0
 30
0.0
 11
-3.75
 21
0.0
 31
0.0
  0
LINE
  5
13B
330
134
100
AcDbEntity
  8
CENTER
 62
     0
100
AcDbLine
 10
0.0
 20
-2.5
 30
0.0
 11
0.0
 21
-3.75
 31
0.0
  0
LINE
  5
13C
330
134
100
AcDbEntity
  8
CENTER
 62
     0
100
AcDbLine
 10
2.5
 20
0.0
 30
0.0
 11
3.75
 21
0.0
 31
0.0
  0
ENDBLK
  5
13E
330
134
100
AcDbEntity
  8
0
100
AcDbBlockEnd
  0
BLOCK
  5
3C
330
36
100
AcDbEntity
  8
0
100
AcDbBlockBegin
  2
_DOT
 70
     0
 10
0.0
 20
0.0
 30
0.0
  3
_DOT
  1

  0
POLYLINE
  5
37
330
36
100
AcDbEntity
  8
0
  6
ByBlock
 62
     0
100
AcDb2dPolyline
 66
     1
 10
0.0
 20
0.0
 30
0.0
 70
     1
 40
0.5
 41
0.5
  0
VERTEX
  5
38
330
37
100
AcDbEntity
  8
0
  6
ByBlock
 62
     0
100
AcDbVertex
100
AcDb2dVertex
 10
-0.25
 20
0.0
 30
0.0
 42
1.0
  0
VERTEX
  5
39
330
37
100
AcDbEntity
  8
0
  6
ByBlock
 62
     0
100
AcDbVertex
100
AcDb2dVertex
 10
0.25
 20
0.0
 30
0.0
 42
1.0
  0
SEQEND
  5
3A
330
37
100
AcDbEntity
  8
0
  6
ByBlock
 62
     0
  0
LINE
  5
3B
330
36
100
AcDbEntity
  8
0
  6
ByBlock
 62
     0
370
    -2
100
AcDbLine
 10
-0.5
 20
0.0
 30
0.0
 11
-1.0
 21
0.0
 31
0.0
  0
ENDBLK
  5
3D
330
36
100
AcDbEntity
  8
0
100
AcDbBlockEnd
  0
ENDSEC
  0
SECTION
  2
ENTITIES
  0
LINE
  5
30
330
2
100
AcDbEntity
  8
CENTER
  6
CENTERX2
370
     0
100
AcDbLine
 10
238.0142176572
 20
163.0638016574
 30
0.0
 11
142.1972451185999
 21
163.0638016574
 31
0.0
  0
INSERT
  5
34
330
2
100
AcDbEntity
  8
DIMS
100
AcDbBlockReference
  2
_DOT
 10
147.6024812869
 20
163.2046458640999
 30
-3.499982743399998
 41
2.5
 42
2.5
 50
57.22189571569999
  0
LINE
  5
3E
330
2
100
AcDbEntity
  8
0
  6
Continuous
100
AcDbLine
 10
158.1972450926
 20
164.5638016704
 30
0.0
 11
143.4972453838998
 21
164.5638016704
 31
0.0
  0
LINE
  5
3F
330
2
100
AcDbEntity
  8
0
  6
Continuous
100
AcDbLine
 10
158.1972450926
 20
161.5638016444
 30
0.0
 11
143.4972453838998
 21
161.5638016444
 31
0.0
  0
LINE
  5
40
330
2
100
AcDbEntity
  8
0
  6
Continuous
100
AcDbLine
 10
144.1972441947999
 20
160.5638017132999
 30
0.0
 11
159.6972451055999
 21
160.5638017132999
 31
0.0
  0
LINE
  5
41
330
2
100
AcDbEntity
  8
0
  6
Continuous
100
AcDbLine
 10
159.6972451055999
 20
165.5638016014999
 30
0.0
 11
144.1972441947999
 21
165.5638016014999
 31
0.0
  0
LINE
  5
42
330
2
100
AcDbEntity
  8
CENTER
  6
CENTERX2
370
     0
100
AcDbLine
 10
237.0322987138
 20
98.9359674299
 30
0.0
 11
140.8017401074
 21
98.9359674299
 31
0.0
  0
DIMENSION
  5
43
330
2
100
AcDbEntity
  8
DIMS
100
AcDbDimension
  2
*D13
 10
119.5157058142999
 20
109.9359674299
 30
0.0
 11
119.5157058142999
 21
98.9359674299
 31
0.0
 70
   128
  1
%%c<>
 71
     2
 42
-1.0
  3
SLDDIMSTYLE9
100
AcDbAlignedDimension
 13
159.6972451185999
 23
87.93596742990002
 33
0.0
 14
159.6972451185999
 24
109.9359674299
 34
0.0
 50
90.0
100
AcDbRotatedDimension
  0
DIMENSION
  5
51
330
2
100
AcDbEntity
  8
DIMS
100
AcDbDimension
  2
*D7
 10
143.1972451185998
 20
64.05283497380001
 30
0.0
 11
152.1972451185999
 21
64.05283497380001
 31
0.0
 70
   128
 71
     2
 42
-1.0
  3
SLDDIMSTYLE5
100
AcDbAlignedDimension
 13
161.1972451186
 23
78.63596742989999
 33
0.0
 14
143.1972451185998
 24
96.7359674299
 34
0.0
100
AcDbRotatedDimension
  0
DIMENSION
  5
5D
330
2
100
AcDbEntity
  8
DIMS
100
AcDbDimension
  2
*D6
 10
161.1972451186
 20
69.88790473909999
 30
0.0
 11
151.2599132471
 21
69.88790473909999
 31
0.0
 70
   128
 71
     2
 42
-1.0
  3
SLDDIMSTYLE4
100
AcDbAlignedDimension
 13
159.6972451185999
 23
87.93596742990002
 33
0.0
 14
161.1972451186
 24
78.63596742989999
 34
0.0
100
AcDbRotatedDimension
  0
DIMENSION
  5
6B
330
2
100
AcDbEntity
  8
DIMS
100
AcDbDimension
  2
*D5
 10
143.1972451185998
 20
113.8590141739999
 30
0.0
 11
150.6972451185999
 21
113.8590141739999
 31
0.0
 70
   128
 71
     2
 42
-1.0
  3
SLDDIMSTYLE3
100
AcDbAlignedDimension
 13
144.1972451185999
 23
99.43596742990001
 33
0.0
 14
143.1972451185998
 24
98.43596742990001
 34
0.0
100
AcDbRotatedDimension
  0
DIMENSION
  5
79
330
2
100
AcDbEntity
  8
DIMS
100
AcDbDimension
  2
*D3
 10
158.1972451186
 20
119.7128112819
 30
0.0
 11
150.6972451185999
 21
119.7128112819
 31
0.0
 70
   128
 71
     2
 42
-1.0
  3
SLDDIMSTYLE2
100
AcDbAlignedDimension
 13
143.1972451185998
 23
100.9359674299
 33
0.0
 14
158.1972451186
 24
101.4359674298999
 34
0.0
100
AcDbRotatedDimension
  0
DIMENSION
  5
85
330
2
100
AcDbEntity
  8
DIMS
100
AcDbDimension
  2
*D1
 10
127.1972451186
 20
96.4359674299
 30
0.0
 11
127.1972451186
 21
98.9359674299
 31
0.0
 70
   128
  1
%%c<>
 71
     2
 42
-1.0
  3
SLDDIMSTYLE0
100
AcDbAlignedDimension
 13
158.1972451186
 23
101.4359674298999
 33
0.0
 14
143.4972451185999
 24
96.4359674299
 34
0.0
 50
90.0
100
AcDbRotatedDimension
  0
LINE
  5
95
330
2
100
AcDbEntity
  8
0
  6
Continuous
100
AcDbLine
 10
158.1972450926
 20
100.9359675248999
 30
0.0
 11
143.4972453838998
 21
100.9359675248999
 31
0.0
  0
LINE
  5
96
330
2
100
AcDbEntity
  8
0
  6
Continuous
100
AcDbLine
 10
143.4972453838998
 20
96.43596748569999
 30
0.0
 11
159.6972451055999
 21
96.43596748569999
 31
0.0
  0
INSERT
  5
97
330
2
100
AcDbEntity
  8
CENTER
100
AcDbBlockReference
  2
SW_CENTERMARKSYMBOL_0
 10
77.43822800310001
 20
98.9359674299
 30
0.0
  0
DIMENSION
  5
A3
330
2
100
AcDbEntity
  8
DIMS
100
AcDbDimension
  2
*D17
 10
44.5981228679
 20
77.93596742990001
 30
0.0
 11
44.5981228679
 21
98.9359674299
 31
0.0
 70
   128
 71
     2
 42
-1.0
  3
SLDDIMSTYLE10
100
AcDbAlignedDimension
 13
61.9382280031
 23
119.9359674299
 33
0.0
 14
61.9382280031
 24
77.93596742990001
 34
0.0
 50
90.0
100
AcDbRotatedDimension
  0
DIMENSION
  5
AE
330
2
100
AcDbEntity
  8
DIMS
100
AcDbDimension
  2
*D15
 10
51.5067025023
 20
83.43596742989999
 30
0.0
 11
51.5067025023
 21
98.9359674299
 31
0.0
 70
   128
 71
     2
 42
-1.0
  3
SLDDIMSTYLE10
100
AcDbAlignedDimension
 13
58.1882280031
 23
114.4359674299
 33
0.0
 14
58.1882280031
 24
83.43596742989999
 34
0.0
 50
90.0
100
AcDbRotatedDimension
  0
LINE
  5
B9
330
2
100
AcDbEntity
  8
0
  6
Continuous
100
AcDbLine
 10
56.4382282863
 20
83.43596768319999
 30
0.0
 11
56.4382282863
 21
114.4359671764999
 31
0.0
  0
LINE
  5
BA
330
2
100
AcDbEntity
  8
0
  6
Continuous
100
AcDbLine
 10
98.43822772000001
 20
114.4359671764999
 30
0.0
 11
98.43822772000001
 21
83.43596768319999
 31
0.0
  0
LINE
  5
BB
330
2
100
AcDbEntity
  8
0
  6
Continuous
100
AcDbLine
 10
57.1382270971
 20
114.4359671764999
 30
0.0
 11
57.1382270971
 21
83.43596768319999
 31
0.0
  0
LINE
  5
BC
330
2
100
AcDbEntity
  8
0
  6
Continuous
100
AcDbLine
 10
97.7382289091
 20
83.43596768319999
 30
0.0
 11
97.7382289091
 21
114.4359671764999
 31
0.0
  0
CIRCLE
  5
BD
330
2
100
AcDbEntity
  8
0
  6
Continuous
100
AcDbCircle
 10
77.43822800310001
 20
98.9359674299
 30
0.0
 40
16.5
  0
LINE
  5
BE
330
2
100
AcDbEntity
  8
0
  6
Continuous
100
AcDbLine
 10
73.06733604840001
 20
106.073140751
 30
0.0
 11
74.18629660589998
 21
104.9541804262999
 31
0.0
  0
LINE
  5
BF
330
2
100
AcDbEntity
  8
0
  6
Continuous
100
AcDbLine
 10
80.69015940040001
 20
104.9541804262999
 30
0.0
 11
81.80911995789998
 21
106.073140751
 31
0.0
  0
ARC
  5
C0
330
2
100
AcDbEntity
  8
0
  6
Continuous
100
AcDbCircle
 10
77.43822800310001
 20
98.9359674299
 30
0.0
 40
6.499999999999992
100
AcDbArc
 50
65.54024254939999
 51
114.4597574505999
  0
CIRCLE
  5
C1
330
2
100
AcDbEntity
  8
0
  6
Continuous
100
AcDbCircle
 10
77.43822800310001
 20
98.9359674299
 30
0.0
 40
11.0
  0
CIRCLE
  5
C2
330
2
100
AcDbEntity
  8
0
  6
Continuous
100
AcDbCircle
 10
77.43822800310001
 20
98.9359674299
 30
0.0
 40
10.7
  0
DIMENSION
  5
C3
330
2
100
AcDbEntity
  8
DIMS
100
AcDbDimension
  2
*D2
 10
133.1972451186
 20
96.4359674299
 30
0.0
 11
133.1972451186
 21
88.53069500030001
 31
0.0
 70
   128
 71
     2
 42
-1.0
  3
SLDDIMSTYLE1
100
AcDbAlignedDimension
 13
143.4972451185999
 23
100.9359674299
 33
0.0
 14
143.4972451185999
 24
96.4359674299
 34
0.0
 50
90.0
100
AcDbRotatedDimension
  0
DIMENSION
  5
D0
330
2
100
AcDbEntity
  8
DIMS
100
AcDbDimension
  2
*D16
 10
98.4382280031
 20
65.27641796489999
 30
0.0
 11
77.43822800310001
 21
65.27641796489999
 31
0.0
 70
   128
 71
     2
 42
-1.0
  3
SLDDIMSTYLE11
100
AcDbAlignedDimension
 13
56.4382280031
 23
83.43596742989999
 33
0.0
 14
98.4382280031
 24
81.93596742990001
 34
0.0
100
AcDbRotatedDimension
  0
DIMENSION
  5
DC
330
2
100
AcDbEntity
  8
DIMS
100
AcDbDimension
  2
*D14
 10
92.9382280031
 20
70.2986276285
 30
0.0
 11
77.43822800310001
 21
70.2986276285
 31
0.0
 70
   128
 71
     2
 42
-1.0
  3
SLDDIMSTYLE10
100
AcDbAlignedDimension
 13
61.9382280031
 23
79.6859674299
 33
0.0
 14
92.9382280031
 24
79.6859674299
 34
0.0
100
AcDbRotatedDimension
  0
MTEXT
  5
E7
330
2
100
AcDbEntity
  8
0
 62
     0
100
AcDbMText
 10
53.91384471250001
 20
37.26370490829999
 30
0.0
 40
3.2
 41
0.0
 71
     1
 72
     1
  1
CM1-□-17S30C
  7
SLDTEXTSTYLE1
 73
     1
 44
1.0
  0
MTEXT
  5
E8
330
2
100
AcDbEntity
  8
0
 62
     0
100
AcDbMText
 10
54.0294004236
 20
44.86146620199998
 30
0.0
 40
3.2
 41
0.0
 71
     1
 72
     1
  1
CM1-□-17L30C
  7
SLDTEXTSTYLE1
 73
     1
 44
1.0
  0
LINE
  5
E9
330
2
100
AcDbEntity
  8
0
 62
     0
100
AcDbLine
 10
47.26717852100001
 20
39.03684909489999
 30
0.0
 11
127.267178521
 21
39.03684909489999
 31
0.0
  0
LINE
  5
EA
330
2
100
AcDbEntity
  8
0
 62
     0
100
AcDbLine
 10
47.26717852100001
 20
46.63461038859999
 30
0.0
 11
127.267178521
 21
46.63461038859999
 31
0.0
  0
LINE
  5
EB
330
2
100
AcDbEntity
  8
0
 62
     0
100
AcDbLine
 10
127.267178521
 20
54.2323716823
 30
0.0
 11
47.26717852100001
 21
54.2323716823
 31
0.0
  0
LINE
  5
EC
330
2
100
AcDbEntity
  8
0
 62
     0
100
AcDbLine
 10
47.26717852100001
 20
31.4390878011
 30
0.0
 11
127.267178521
 21
31.4390878011
 31
0.0
  0
ARC
  5
ED
330
2
100
AcDbEntity
  8
0
  6
Continuous
100
AcDbCircle
 10
61.9382280031
 20
83.43596742989999
 30
0.0
 40
5.500000000000013
100
AcDbArc
 50
180.0
 51
270.0
  0
LINE
  5
EE
330
2
100
AcDbEntity
  8
0
 62
     0
100
AcDbLine
 10
47.26717852100001
 20
54.2323716823
 30
0.0
 11
47.26717852100001
 21
31.4390878011
 31
0.0
  0
LINE
  5
EF
330
2
100
AcDbEntity
  8
0
 62
     0
100
AcDbLine
 10
107.267178521
 20
54.2323716823
 30
0.0
 11
107.267178521
 21
31.4390878011
 31
0.0
  0
LINE
  5
F0
330
2
100
AcDbEntity
  8
0
 62
     0
100
AcDbLine
 10
87.267178521
 20
54.2323716823
 30
0.0
 11
87.267178521
 21
31.4390878011
 31
0.0
  0
LINE
  5
F1
330
2
100
AcDbEntity
  8
0
 62
     0
100
AcDbLine
 10
127.267178521
 20
31.4390878011
 30
0.0
 11
127.267178521
 21
54.2323716823
 31
0.0
  0
MTEXT
  5
F2
330
2
100
AcDbEntity
  8
0
 62
     0
100
AcDbMText
 10
94.0960672968
 20
37.26370490829999
 30
0.0
 40
3.2
 41
0.0
 71
     1
 72
     1
  1
36.5
  7
SLDTEXTSTYLE1
 73
     1
 44
1.0
  0
MTEXT
  5
F3
330
2
100
AcDbEntity
  8
0
 62
     0
100
AcDbMText
 10
114.0960672967999
 20
37.26370490829999
 30
0.0
 40
3.2
 41
0.0
 71
     1
 72
     1
  1
60.5
  7
SLDTEXTSTYLE1
 73
     1
 44
1.0
  0
MTEXT
  5
F4
330
2
100
AcDbEntity
  8
0
 62
     0
100
AcDbMText
 10
57.07606762690001
 20
52.4592274958
 30
0.0
 40
3.2
 41
0.0
 71
     1
 72
     1
  1
Model　Name
  7
SLDTEXTSTYLE1
 73
     1
 44
1.0
  0
MTEXT
  5
F5
330
2
100
AcDbEntity
  8
0
 62
     0
100
AcDbMText
 10
94.0960672968
 20
44.86146620199998
 30
0.0
 40
3.2
 41
0.0
 71
     1
 72
     1
  1
51.5
  7
SLDTEXTSTYLE1
 73
     1
 44
1.0
  0
MTEXT
  5
F6
330
2
100
AcDbEntity
  8
0
 62
     0
100
AcDbMText
 10
95.3316229214
 20
52.4592274958
 30
0.0
 40
3.2
 41
0.0
 71
     1
 72
     1
  1
L1
  7
SLDTEXTSTYLE1
 73
     1
 44
1.0
  0
ARC
  5
F7
330
2
100
AcDbEntity
  8
0
  6
Continuous
100
AcDbCircle
 10
77.43822800310001
 20
98.9359674299
 30
0.0
 40
2.5
100
AcDbArc
 50
53.1301023542
 51
126.8698976457999
  0
ARC
  5
F8
330
2
100
AcDbEntity
  8
0
  6
Continuous
100
AcDbCircle
 10
77.43822800310001
 20
98.9359674299
 30
0.0
 40
2.500000000000008
100
AcDbArc
 50
191.5369590327999
 51
348.4630409672
  0
SPLINE
  5
F9
330
2
100
AcDbEntity
  8
0
  6
Continuous
100
AcDbSpline
210
0.0
220
0.0
230
1.0
 70
    24
 71
     3
 72
     8
 73
     4
 74
     0
 42
0.0000000001
 43
0.0000000001
 40
0.0
 40
0.0
 40
0.0
 40
0.0
 40
1.0
 40
1.0
 40
1.0
 40
1.0
 10
78.3547431421278
 20
100.9359674298587
 30
0.0
 10
78.55727258734848
 20
100.9359674298587
 30
0.0
 10
78.75029387590425
 20
100.9359674298587
 30
0.0
 10
78.93822800313663
 20
100.9359674298587
 30
0.0
  0
LINE
  5
FA
330
2
100
AcDbEntity
  8
0
  6
Continuous
100
AcDbLine
 10
75.2957995827
 20
98.43596740610001
 30
0.0
 11
79.58065642359999
 21
98.43596740610001
 31
0.0
  0
ARC
  5
FB
330
2
100
AcDbEntity
  8
0
  6
Continuous
100
AcDbCircle
 10
77.43822800310001
 20
98.9359674299
 30
0.0
 40
2.200000000000001
100
AcDbArc
 50
193.1365587868999
 51
346.8634412130999
  0
LINE
  5
FC
330
2
100
AcDbEntity
  8
0
  6
Continuous
100
AcDbLine
 10
79.58065642359999
 20
99.4359674536
 30
0.0
 11
75.2957995827
 21
99.4359674536
 31
0.0
  0
ARC
  5
FD
330
2
100
AcDbEntity
  8
0
  6
Continuous
100
AcDbCircle
 10
77.43822800310001
 20
98.9359674299
 30
0.0
 40
2.200000000000001
100
AcDbArc
 50
13.1365587869
 51
65.3800226713
  0
ARC
  5
FE
330
2
100
AcDbEntity
  8
0
  6
Continuous
100
AcDbCircle
 10
77.43822800310001
 20
98.9359674299
 30
0.0
 40
4.000000000000006
100
AcDbArc
 50
239.9999999999999
 51
300.0
  0
ARC
  5
FF
330
2
100
AcDbEntity
  8
0
  6
Continuous
100
AcDbCircle
 10
77.43822800310001
 20
98.9359674299
 30
0.0
 40
3.999999999999996
100
AcDbArc
 50
60.0
 51
119.9999999999999
  0
LINE
  5
100
330
2
100
AcDbEntity
  8
0
  6
Continuous
100
AcDbLine
 10
92.93822774979998
 20
77.93596771299998
 30
0.0
 11
61.93822825649999
 21
77.93596771299998
 31
0.0
  0
LINE
  5
101
330
2
100
AcDbEntity
  8
0
  6
Continuous
100
AcDbLine
 10
61.93822825649999
 20
78.6359665239
 30
0.0
 11
92.93822774979998
 21
78.6359665239
 31
0.0
  0
ARC
  5
102
330
2
100
AcDbEntity
  8
0
  6
Continuous
100
AcDbCircle
 10
77.43822800310001
 20
98.9359674299
 30
0.0
 40
6.500000000000002
100
AcDbArc
 50
245.5402425493999
 51
294.4597574506
  0
ARC
  5
103
330
2
100
AcDbEntity
  8
0
  6
Continuous
100
AcDbCircle
 10
77.43822800310001
 20
98.9359674299
 30
0.0
 40
9.000000000000001
100
AcDbArc
 50
241.7949725779
 51
298.2050274220998
  0
ARC
  5
104
330
2
100
AcDbEntity
  8
0
  6
Continuous
100
AcDbCircle
 10
77.43822800310001
 20
98.9359674299
 30
0.0
 40
5.500000000000002
100
AcDbArc
 50
68.67631373649999
 51
111.3236862635
  0
ARC
  5
105
330
2
100
AcDbEntity
  8
0
  6
Continuous
100
AcDbCircle
 10
77.43822800310001
 20
98.9359674299
 30
0.0
 40
5.500000000000002
100
AcDbArc
 50
248.6763137365
 51
291.3236862635
  0
INSERT
  5
106
330
2
100
AcDbEntity
  8
CENTER
100
AcDbBlockReference
  2
SW_CENTERMARKSYMBOL_3
 10
61.9382280031
 20
83.43596742989999
 30
0.0
  0
ARC
  5
112
330
2
100
AcDbEntity
  8
0
  6
Continuous
100
AcDbCircle
 10
61.9382280031
 20
83.43596742989999
 30
0.0
 40
4.800000000000026
100
AcDbArc
 50
180.0
 51
270.0
  0
LINE
  5
113
330
2
100
AcDbEntity
  8
0
  6
Continuous
100
AcDbLine
 10
60.43822707930001
 20
77.93596771299998
 30
0.0
 11
61.93822825649999
 21
77.93596771299998
 31
0.0
  0
LINE
  5
114
330
2
100
AcDbEntity
  8
0
  6
Continuous
100
AcDbLine
 10
60.1338112572
 20
78.2403853977
 30
0.0
 11
60.43822707930001
 21
77.93596771299998
 31
0.0
  0
CIRCLE
  5
115
330
2
100
AcDbEntity
  8
0
  6
Continuous
100
AcDbCircle
 10
61.9382280031
 20
83.43596742989999
 30
0.0
 40
1.249999999999985
  0
LINE
  5
116
330
2
100
AcDbEntity
  8
0
  6
Continuous
100
AcDbLine
 10
56.4382282863
 20
83.43596768319999
 30
0.0
 11
56.4382282863
 21
81.93596650599998
 31
0.0
  0
LINE
  5
117
330
2
100
AcDbEntity
  8
0
  6
Continuous
100
AcDbLine
 10
56.4382282863
 20
81.93596650599998
 30
0.0
 11
56.7426459709
 21
81.631550684
 31
0.0
  0
ARC
  5
118
330
2
100
AcDbEntity
  8
0
  6
Continuous
100
AcDbCircle
 10
77.43822800310001
 20
98.9359674299
 30
0.0
 40
9.000000000000008
100
AcDbArc
 50
151.7949725779
 51
208.2050274220998
  0
ARC
  5
119
330
2
100
AcDbEntity
  8
0
  6
Continuous
100
AcDbCircle
 10
77.43822800310001
 20
98.9359674299
 30
0.0
 40
6.499999999999997
100
AcDbArc
 50
155.5402425493999
 51
204.4597574506
  0
ARC
  5
11A
330
2
100
AcDbEntity
  8
0
  6
Continuous
100
AcDbCircle
 10
77.43822800310001
 20
98.9359674299
 30
0.0
 40
4.000000000000006
100
AcDbArc
 50
210.0
 51
239.9999999999999
  0
LINE
  5
11B
330
2
100
AcDbEntity
  8
0
  6
Continuous
100
AcDbLine
 10
74.18629660589998
 20
92.9177544334
 30
0.0
 11
73.06733604840001
 21
91.79879410879999
 31
0.0
  0
ARC
  5
11C
330
2
100
AcDbEntity
  8
0
  6
Continuous
100
AcDbCircle
 10
73.42088921189999
 20
91.4452405601
 30
0.0
 40
0.5000000000000142
100
AcDbArc
 50
135.0
 51
241.7949725779
  0
ARC
  5
11D
330
2
100
AcDbEntity
  8
0
  6
Continuous
100
AcDbCircle
 10
69.9475011334
 20
94.91862863870002
 30
0.0
 40
0.5000000000000068
100
AcDbArc
 50
208.2050274220998
 51
315.0
  0
ARC
  5
11E
330
2
100
AcDbEntity
  8
0
  6
Continuous
100
AcDbCircle
 10
71.0664618162
 20
96.0375893215
 30
0.0
 40
0.4999999999999944
100
AcDbArc
 50
315.0
 51
24.4597574506
  0
LINE
  5
11F
330
2
100
AcDbEntity
  8
0
  6
Continuous
100
AcDbLine
 10
70.301054682
 20
94.5650754751
 30
0.0
 11
71.4200150067
 21
95.6840360326
 31
0.0
  0
ARC
  5
120
330
2
100
AcDbEntity
  8
0
  6
Continuous
100
AcDbCircle
 10
74.5398498947
 20
92.5642012429
 30
0.0
 40
0.5000000000000016
100
AcDbArc
 50
65.54024254939999
 51
135.0
  0
LINE
  5
121
330
2
100
AcDbEntity
  8
0
  6
Continuous
100
AcDbLine
 10
75.43822790810001
 20
95.471865849
 30
0.0
 11
75.43822790810001
 21
93.81249186339999
 31
0.0
  0
LINE
  5
122
330
2
100
AcDbEntity
  8
0
  6
Continuous
100
AcDbLine
 10
72.3147524366
 20
96.9359673349
 30
0.0
 11
73.9741264222
 21
96.9359673349
 31
0.0
  0
LINE
  5
123
330
2
100
AcDbEntity
  8
0
  6
Continuous
100
AcDbLine
 10
73.9741264222
 20
100.9359675248999
 30
0.0
 11
72.3147524366
 21
100.9359675248999
 31
0.0
  0
ARC
  5
124
330
2
100
AcDbEntity
  8
0
  6
Continuous
100
AcDbCircle
 10
77.43822800310001
 20
98.9359674299
 30
0.0
 40
5.499999999999992
100
AcDbArc
 50
158.6763137364999
 51
201.3236862634999
  0
ARC
  5
125
330
2
100
AcDbEntity
  8
0
  6
Continuous
100
AcDbCircle
 10
69.9475011334
 20
102.9533062211
 30
0.0
 40
0.5000000000000001
100
AcDbArc
 50
45.0
 51
151.7949725779
  0
LINE
  5
126
330
2
100
AcDbEntity
  8
0
  6
Continuous
100
AcDbLine
 10
71.4200150067
 20
102.1878988270999
 30
0.0
 11
70.301054682
 21
103.3068593845999
 31
0.0
  0
ARC
  5
127
330
2
100
AcDbEntity
  8
0
  6
Continuous
100
AcDbCircle
 10
71.0664618162
 20
101.8343455382999
 30
0.0
 40
0.4999999999999944
100
AcDbArc
 50
335.5402425493998
 51
45.0
  0
ARC
  5
128
330
2
100
AcDbEntity
  8
0
  6
Continuous
100
AcDbCircle
 10
77.43822800310001
 20
98.9359674299
 30
0.0
 40
2.500000000000008
100
AcDbArc
 50
126.8698976457999
 51
168.4630409672
  0
ARC
  5
129
330
2
100
AcDbEntity
  8
0
  6
Continuous
100
AcDbCircle
 10
77.43822800310001
 20
98.9359674299
 30
0.0
 40
2.199999999999996
100
AcDbArc
 50
114.6199773286999
 51
166.8634412131
  0
ARC
  5
12A
330
2
100
AcDbEntity
  8
0
  6
Continuous
100
AcDbCircle
 10
77.43822800310001
 20
98.9359674299
 30
0.0
 40
4.000000000000006
100
AcDbArc
 50
150.0
 51
210.0
  0
ARC
  5
12B
330
2
100
AcDbEntity
  8
0
  6
Continuous
100
AcDbCircle
 10
77.43822800310001
 20
98.9359674299
 30
0.0
 40
2.500000000000008
100
AcDbArc
 50
168.4630409672
 51
191.5369590327999
  0
SPLINE
  5
12C
330
2
100
AcDbEntity
  8
0
  6
Continuous
100
AcDbSpline
210
0.0
220
0.0
230
1.0
 70
    24
 71
     3
 72
     8
 73
     4
 74
     0
 42
0.0000000001
 43
0.0000000001
 40
0.0
 40
0.0
 40
0.0
 40
0.0
 40
0.0004292861391641
 40
0.0004292861391641
 40
0.0004292861391641
 40
0.0004292861391641
 10
74.98873826035344
 20
98.43596742985877
 30
0.0
 10
75.09094924586872
 20
98.43596742985877
 30
0.0
 10
75.1932832872704
 20
98.43596742985877
 30
0.0
 10
75.29579947457378
 20
98.43596742985877
 30
0.0
  0
SPLINE
  5
12D
330
2
100
AcDbEntity
  8
0
  6
Continuous
100
AcDbSpline
210
0.0
220
0.0
230
1.0
 70
    24
 71
     3
 72
     8
 73
     4
 74
     0
 42
0.0000000001
 43
0.0000000001
 40
0.0
 40
0.0
 40
0.0
 40
0.0
 40
0.0004292861391642
 40
0.0004292861391642
 40
0.0004292861391642
 40
0.0004292861391642
 10
75.29579947457378
 20
99.43596742985876
 30
0.0
 10
75.19328328727045
 20
99.43596742985876
 30
0.0
 10
75.09094924586872
 20
99.43596742985876
 30
0.0
 10
74.98873826035344
 20
99.43596742985876
 30
0.0
  0
SPLINE
  5
12E
330
2
100
AcDbEntity
  8
0
  6
Continuous
100
AcDbSpline
210
0.0
220
0.0
230
1.0
 70
    24
 71
     3
 72
     8
 73
     4
 74
     0
 42
0.0000000001
 43
0.0000000001
 40
0.0
 40
0.0
 40
0.0
 40
0.0
 40
1.0
 40
1.0
 40
1.0
 40
1.0
 10
75.93822800313663
 20
100.9359674298587
 30
0.0
 10
76.12616213036901
 20
100.9359674298587
 30
0.0
 10
76.31918341892476
 20
100.9359674298587
 30
0.0
 10
76.52171286414547
 20
100.9359674298587
 30
0.0
  0
ARC
  5
12F
330
2
100
AcDbEntity
  8
0
  6
Continuous
100
AcDbCircle
 10
74.5398498947
 20
105.3077336168
 30
0.0
 40
0.5000000000000016
100
AcDbArc
 50
225.0
 51
294.4597574506
  0
ARC
  5
130
330
2
100
AcDbEntity
  8
0
  6
Continuous
100
AcDbCircle
 10
77.43822800310001
 20
98.9359674299
 30
0.0
 40
4.000000000000006
100
AcDbArc
 50
119.9999999999999
 51
150.0
  0
LINE
  5
131
330
2
100
AcDbEntity
  8
0
  6
Continuous
100
AcDbLine
 10
75.43822790810001
 20
104.0594429963998
 30
0.0
 11
75.43822790810001
 21
102.4000690107999
 31
0.0
  0
LINE
  5
132
330
2
100
AcDbEntity
  8
0
  6
Continuous
100
AcDbLine
 10
76.52171287539998
 20
100.9359675248999
 30
0.0
 11
78.3547431309
 21
100.9359675248999
 31
0.0
  0
INSERT
  5
133
330
2
100
AcDbEntity
  8
CENTER
100
AcDbBlockReference
  2
SW_CENTERMARKSYMBOL_4
 10
92.9382280031
 20
83.43596742989999
 30
0.0
  0
ARC
  5
13F
330
2
100
AcDbEntity
  8
0
  6
Continuous
100
AcDbCircle
 10
92.9382280031
 20
83.43596742989999
 30
0.0
 40
5.500000000000013
100
AcDbArc
 50
270.0
 51
0.0
  0
ARC
  5
140
330
2
100
AcDbEntity
  8
0
  6
Continuous
100
AcDbCircle
 10
92.9382280031
 20
83.43596742989999
 30
0.0
 40
4.800000000000026
100
AcDbArc
 50
270.0
 51
0.0
  0
LINE
  5
141
330
2
100
AcDbEntity
  8
0
  6
Continuous
100
AcDbLine
 10
92.93822774979998
 20
77.93596771299998
 30
0.0
 11
94.43822892700001
 21
77.93596771299998
 31
0.0
  0
LINE
  5
142
330
2
100
AcDbEntity
  8
0
  6
Continuous
100
AcDbLine
 10
94.43822892700001
 20
77.93596771299998
 30
0.0
 11
94.742644749
 21
78.2403853977
 31
0.0
  0
CIRCLE
  5
143
330
2
100
AcDbEntity
  8
0
  6
Continuous
100
AcDbCircle
 10
92.9382280031
 20
83.43596742989999
 30
0.0
 40
1.249999999999985
  0
LINE
  5
144
330
2
100
AcDbEntity
  8
0
  6
Continuous
100
AcDbLine
 10
98.1338100353
 20
81.631550684
 30
0.0
 11
98.43822772000001
 21
81.93596650599998
 31
0.0
  0
LINE
  5
145
330
2
100
AcDbEntity
  8
0
  6
Continuous
100
AcDbLine
 10
98.43822772000001
 20
81.93596650599998
 30
0.0
 11
98.43822772000001
 21
83.43596768319999
 31
0.0
  0
ARC
  5
146
330
2
100
AcDbEntity
  8
0
  6
Continuous
100
AcDbCircle
 10
77.43822800310001
 20
98.9359674299
 30
0.0
 40
6.499999999999997
100
AcDbArc
 50
335.5402425493998
 51
24.4597574506
  0
ARC
  5
147
330
2
100
AcDbEntity
  8
0
  6
Continuous
100
AcDbCircle
 10
77.43822800310001
 20
98.9359674299
 30
0.0
 40
8.999999999999991
100
AcDbArc
 50
331.7949725779
 51
28.20502742209999
  0
ARC
  5
148
330
2
100
AcDbEntity
  8
0
  6
Continuous
100
AcDbCircle
 10
77.43822800310001
 20
98.9359674299
 30
0.0
 40
4.000000000000006
100
AcDbArc
 50
300.0
 51
330.0
  0
ARC
  5
149
330
2
100
AcDbEntity
  8
0
  6
Continuous
100
AcDbCircle
 10
84.92895487289997
 20
94.91862863870002
 30
0.0
 40
0.500000000000004
100
AcDbArc
 50
225.0
 51
331.7949725779
  0
LINE
  5
14A
330
2
100
AcDbEntity
  8
0
  6
Continuous
100
AcDbLine
 10
81.80911995789998
 20
91.79879410879999
 30
0.0
 11
80.69015940040001
 21
92.9177544334
 31
0.0
  0
ARC
  5
14B
330
2
100
AcDbEntity
  8
0
  6
Continuous
100
AcDbCircle
 10
81.45556679429999
 20
91.4452405601
 30
0.0
 40
0.5000000000000142
100
AcDbArc
 50
298.2050274220998
 51
45.0
  0
ARC
  5
14C
330
2
100
AcDbEntity
  8
0
  6
Continuous
100
AcDbCircle
 10
80.33660611149999
 20
92.5642012429
 30
0.0
 40
0.5000000000000071
100
AcDbArc
 50
45.0
 51
114.4597574505999
  0
LINE
  5
14D
330
2
100
AcDbEntity
  8
0
  6
Continuous
100
AcDbLine
 10
79.4382280981
 20
93.81249186339999
 30
0.0
 11
79.4382280981
 21
95.471865849
 31
0.0
  0
ARC
  5
14E
330
2
100
AcDbEntity
  8
0
  6
Continuous
100
AcDbCircle
 10
83.80999419010001
 20
96.0375893215
 30
0.0
 40
0.5000000000000142
100
AcDbArc
 50
155.5402425493999
 51
225.0
  0
LINE
  5
14F
330
2
100
AcDbEntity
  8
0
  6
Continuous
100
AcDbLine
 10
83.45644099960003
 20
95.6840360326
 30
0.0
 11
84.5754013242
 21
94.5650754751
 31
0.0
  0
ARC
  5
150
330
2
100
AcDbEntity
  8
0
  6
Continuous
100
AcDbCircle
 10
84.92895487289997
 20
102.9533062211
 30
0.0
 40
0.500000000000004
100
AcDbArc
 50
28.20502742209999
 51
135.0
  0
ARC
  5
151
330
2
100
AcDbEntity
  8
0
  6
Continuous
100
AcDbCircle
 10
77.43822800310001
 20
98.9359674299
 30
0.0
 40
2.500000000000008
100
AcDbArc
 50
11.5369590328
 51
53.1301023542
  0
ARC
  5
152
330
2
100
AcDbEntity
  8
0
  6
Continuous
100
AcDbCircle
 10
77.43822800310001
 20
98.9359674299
 30
0.0
 40
4.0
100
AcDbArc
 50
0.0
 51
30.0
  0
ARC
  5
153
330
2
100
AcDbEntity
  8
0
  6
Continuous
100
AcDbCircle
 10
77.43822800310001
 20
98.9359674299
 30
0.0
 40
5.500000000000002
100
AcDbArc
 50
338.6763137365
 51
21.32368626349998
  0
LINE
  5
154
330
2
100
AcDbEntity
  8
0
  6
Continuous
100
AcDbLine
 10
80.90232958399999
 20
96.9359673349
 30
0.0
 11
82.5617035696
 21
96.9359673349
 31
0.0
  0
ARC
  5
155
330
2
100
AcDbEntity
  8
0
  6
Continuous
100
AcDbCircle
 10
77.43822800310001
 20
98.9359674299
 30
0.0
 40
2.500000000000008
100
AcDbArc
 50
348.4630409672
 51
11.5369590328
  0
SPLINE
  5
156
330
2
100
AcDbEntity
  8
0
  6
Continuous
100
AcDbSpline
210
0.0
220
0.0
230
1.0
 70
    24
 71
     3
 72
     8
 73
     4
 74
     0
 42
0.0000000001
 43
0.0000000001
 40
0.0
 40
0.0
 40
0.0
 40
0.0
 40
0.0004292861391641
 40
0.0004292861391641
 40
0.0004292861391641
 40
0.0004292861391641
 10
79.58065653169949
 20
98.43596742985877
 30
0.0
 10
79.68317271900286
 20
98.43596742985877
 30
0.0
 10
79.78550676040453
 20
98.43596742985877
 30
0.0
 10
79.88771774591981
 20
98.43596742985877
 30
0.0
  0
SPLINE
  5
157
330
2
100
AcDbEntity
  8
0
  6
Continuous
100
AcDbSpline
210
0.0
220
0.0
230
1.0
 70
    24
 71
     3
 72
     8
 73
     4
 74
     0
 42
0.0000000001
 43
0.0000000001
 40
0.0
 40
0.0
 40
0.0
 40
0.0
 40
0.0004292861391641
 40
0.0004292861391641
 40
0.0004292861391641
 40
0.0004292861391641
 10
79.88771774591981
 20
99.43596742985876
 30
0.0
 10
79.78550676040453
 20
99.43596742985876
 30
0.0
 10
79.68317271900286
 20
99.43596742985876
 30
0.0
 10
79.58065653169949
 20
99.43596742985876
 30
0.0
  0
ARC
  5
158
330
2
100
AcDbEntity
  8
0
  6
Continuous
100
AcDbCircle
 10
77.43822800310001
 20
98.9359674299
 30
0.0
 40
4.0
100
AcDbArc
 50
330.0
 51
0.0
  0
LINE
  5
159
330
2
100
AcDbEntity
  8
0
  6
Continuous
100
AcDbLine
 10
82.5617035696
 20
100.9359675248999
 30
0.0
 11
80.90232958399999
 21
100.9359675248999
 31
0.0
  0
ARC
  5
15A
330
2
100
AcDbEntity
  8
0
  6
Continuous
100
AcDbCircle
 10
80.33660611149999
 20
105.3077336168
 30
0.0
 40
0.500000000000004
100
AcDbArc
 50
245.5402425493999
 51
315.0
  0
LINE
  5
15B
330
2
100
AcDbEntity
  8
0
  6
Continuous
100
AcDbLine
 10
79.4382280981
 20
102.4000690107999
 30
0.0
 11
79.4382280981
 21
104.0594429963998
 31
0.0
  0
ARC
  5
15C
330
2
100
AcDbEntity
  8
0
  6
Continuous
100
AcDbCircle
 10
77.43822800310001
 20
98.9359674299
 30
0.0
 40
3.999999999999996
100
AcDbArc
 50
30.0
 51
60.0
  0
LINE
  5
15D
330
2
100
AcDbEntity
  8
0
  6
Continuous
100
AcDbLine
 10
84.5754013242
 20
103.3068593845999
 30
0.0
 11
83.45644099960003
 21
102.1878988270999
 31
0.0
  0
ARC
  5
15E
330
2
100
AcDbEntity
  8
0
  6
Continuous
100
AcDbCircle
 10
83.80999419010001
 20
101.8343455382999
 30
0.0
 40
0.5000000000000071
100
AcDbArc
 50
135.0
 51
204.4597574506
  0
MTEXT
  5
15F
330
2
100
AcDbEntity
  8
0
 62
     0
100
AcDbMText
 10
114.0960672967999
 20
44.86146620199998
 30
0.0
 40
3.2
 41
0.0
 71
     1
 72
     1
  1
75.5
  7
SLDTEXTSTYLE1
 73
     1
 44
1.0
  0
MTEXT
  5
160
330
2
100
AcDbEntity
  8
0
 62
     0
100
AcDbMText
 10
116.2627340858
 20
52.4592274958
 30
0.0
 40
3.2
 41
0.0
 71
     1
 72
     1
  1
L
  7
SLDTEXTSTYLE1
 73
     1
 44
1.0
  0
DIMENSION
  5
161
330
2
100
AcDbEntity
  8
DIMS
100
AcDbDimension
  2
*D4
 10
138.9940353976
 20
99.43596742990001
 30
0.0
 11
138.9940353976
 21
90.0072175442
 31
0.0
 70
   128
 71
     2
 42
-1.0
  3
SLDDIMSTYLE3
100
AcDbAlignedDimension
 13
143.4972451185999
 23
98.43596742990001
 33
0.0
 14
143.4972451185999
 24
99.43596742990001
 34
0.0
 50
90.0
100
AcDbRotatedDimension
  0
LINE
  5
16E
330
2
100
AcDbEntity
  8
0
  6
Continuous
100
AcDbLine
 10
143.1972458935
 20
96.73596744180001
 30
0.0
 11
143.1972458935
 21
98.43596740610001
 31
0.0
  0
LINE
  5
16F
330
2
100
AcDbEntity
  8
0
  6
Continuous
100
AcDbLine
 10
143.4972453838998
 20
98.43596740610001
 30
0.0
 11
143.4972453838998
 21
96.43596748569999
 31
0.0
  0
LINE
  5
170
330
2
100
AcDbEntity
  8
0
  6
Continuous
100
AcDbLine
 10
143.1972458935
 20
96.73596744180001
 30
0.0
 11
143.4972453838998
 21
96.43596748569999
 31
0.0
  0
LINE
  5
171
330
2
100
AcDbEntity
  8
0
  6
Continuous
100
AcDbLine
 10
143.1972458935
 20
99.4359674536
 30
0.0
 11
143.1972458935
 21
100.9359675248999
 31
0.0
  0
LINE
  5
172
330
2
100
AcDbEntity
  8
0
  6
Continuous
100
AcDbLine
 10
143.4972453838998
 20
100.9359675248999
 30
0.0
 11
143.4972453838998
 21
99.4359674536
 31
0.0
  0
SPLINE
  5
173
330
2
100
AcDbEntity
  8
0
  6
Continuous
100
AcDbSpline
210
0.0
220
0.0
230
1.0
 70
    24
 71
     3
 72
     8
 73
     4
 74
     0
 42
0.0000000001
 43
0.0000000001
 40
0.0
 40
0.0
 40
0.0
 40
0.0
 40
0.0004292861391641
 40
0.0004292861391641
 40
0.0004292861391641
 40
0.0004292861391641
 10
143.1972451186495
 20
98.43596742985877
 30
0.0
 10
143.2970785751578
 20
98.43596742985877
 30
0.0
 10
143.3970992144014
 20
98.43596742985877
 30
0.0
 10
143.4972451186494
 20
98.43596742985877
 30
0.0
  0
SPLINE
  5
174
330
2
100
AcDbEntity
  8
0
  6
Continuous
100
AcDbSpline
210
0.0
220
0.0
230
1.0
 70
    24
 71
     3
 72
     8
 73
     4
 74
     0
 42
0.0000000001
 43
0.0000000001
 40
0.0
 40
0.0
 40
0.0
 40
0.0
 40
0.0004292861391641
 40
0.0004292861391641
 40
0.0004292861391641
 40
0.0004292861391641
 10
143.4972451186494
 20
99.43596742985876
 30
0.0
 10
143.3970992144014
 20
99.43596742985876
 30
0.0
 10
143.2970785751578
 20
99.43596742985876
 30
0.0
 10
143.1972451186495
 20
99.43596742985876
 30
0.0
  0
LINE
  5
175
330
2
100
AcDbEntity
  8
0
  6
Continuous
100
AcDbLine
 10
144.1972441947999
 20
98.43596740610001
 30
0.0
 11
144.1972441947999
 21
99.4359674536
 31
0.0
  0
LINE
  5
176
330
2
100
AcDbEntity
  8
0
  6
Continuous
100
AcDbLine
 10
144.1972441947999
 20
98.43596740610001
 30
0.0
 11
143.4972453838998
 21
98.43596740610001
 31
0.0
  0
LINE
  5
177
330
2
100
AcDbEntity
  8
0
  6
Continuous
100
AcDbLine
 10
144.1972441947999
 20
99.4359674536
 30
0.0
 11
143.4972453838998
 21
99.4359674536
 31
0.0
  0
SPLINE
  5
178
330
2
100
AcDbEntity
  8
0
  6
Continuous
100
AcDbSpline
210
0.0
220
0.0
230
1.0
 70
    24
 71
     3
 72
     8
 73
     4
 74
     0
 42
0.0000000001
 43
0.0000000001
 40
0.0
 40
0.0
 40
0.0
 40
0.0
 40
1.0
 40
1.0
 40
1.0
 40
1.0
 10
143.1972451186495
 20
100.9359674298587
 30
0.0
 10
143.2816184380295
 20
100.9359674298587
 30
0.0
 10
143.3844846423101
 20
100.9359674298587
 30
0.0
 10
143.4972451186494
 20
100.9359674298587
 30
0.0
  0
DIMENSION
  5
179
330
2
100
AcDbEntity
  8
DIMS
100
AcDbDimension
  2
*D19
 10
92.17095623979998
 20
113.4491573969
 30
0.0
 11
117.0755850002
 21
133.2562694906
 31
0.0
 70
   131
  1
4-M<>х0.5
 71
     5
 42
-1.0
  3
SLDDIMSTYLE12
100
AcDbDiametricDimension
 15
93.70549976639999
 25
115.4227774629
 35
0.0
 40
0.0
  0
DIMENSION
  5
185
330
2
100
AcDbEntity
  8
DIMS
100
AcDbDimension
  2
*D18
 10
91.33822800309999
 20
135.356024577
 30
0.0
 11
77.43822800310001
 21
135.356024577
 31
0.0
 70
   128
 71
     2
 42
-1.0
  3
SLDDIMSTYLE7
100
AcDbAlignedDimension
 13
63.5382280031
 23
130.3459674298999
 33
0.0
 14
91.33822800309999
 24
130.3459674298999
 34
0.0
100
AcDbRotatedDimension
  0
MTEXT
  5
18F
330
2
100
AcDbEntity
  8
0
 62
     0
100
AcDbMText
 10
53.63626675069999
 20
175.7342023634999
 30
0.0
 40
3.7041666667
 41
0.0
 71
     1
 72
     1
  1
単位　：　ｍｍ
  7
SLDTEXTSTYLE1
 73
     1
 44
1.0
  0
MTEXT
  5
190
330
2
100
AcDbEntity
  8
0
 62
     0
100
AcDbMText
 10
53.63626675069999
 20
180.6730911926998
 30
0.0
 40
3.7041666667
 41
0.0
 71
     1
 72
     1
  1
CM1-□-17□30C　外形寸法
  7
SLDTEXTSTYLE1
 73
     1
 44
1.0
  0
ARC
  5
191
330
2
100
AcDbEntity
  8
0
  6
Continuous
100
AcDbCircle
 10
61.9382280031
 20
114.4359674299
 30
0.0
 40
5.5
100
AcDbArc
 50
90.0
 51
180.0
  0
LINE
  5
192
330
2
100
AcDbEntity
  8
0
  6
Continuous
100
AcDbLine
 10
61.93822825649999
 20
119.9359671467
 30
0.0
 11
92.93822774979998
 21
119.9359671467
 31
0.0
  0
LINE
  5
193
330
2
100
AcDbEntity
  8
0
  6
Continuous
100
AcDbLine
 10
92.93822774979998
 20
119.2359683357999
 30
0.0
 11
61.93822825649999
 21
119.2359683357999
 31
0.0
  0
ARC
  5
194
330
2
100
AcDbEntity
  8
0
  6
Continuous
100
AcDbCircle
 10
77.43822800310001
 20
98.9359674299
 30
0.0
 40
8.999999999999991
100
AcDbArc
 50
61.7949725779
 51
118.2050274220999
  0
LINE
  5
195
330
2
100
AcDbEntity
  8
0
  6
Continuous
100
AcDbLine
 10
94.43822892700001
 20
130.9359689497999
 30
0.0
 11
60.43822707930001
 21
130.9359689497999
 31
0.0
  0
LINE
  5
196
330
2
100
AcDbEntity
  8
0
  6
Continuous
100
AcDbLine
 10
64.148227855
 20
130.3459686482
 30
0.0
 11
90.72822815129999
 21
130.3459686482
 31
0.0
  0
LINE
  5
197
330
2
100
AcDbEntity
  8
0
  6
Continuous
100
AcDbLine
 10
90.7382277617
 20
120.2359666370999
 30
0.0
 11
64.1382282445
 21
120.2359666370999
 31
0.0
  0
LINE
  5
198
330
2
100
AcDbEntity
  8
0
  6
Continuous
100
AcDbLine
 10
56.4382282863
 20
124.735968306
 30
0.0
 11
56.4382282863
 21
114.4359671764999
 31
0.0
  0
LINE
  5
199
330
2
100
AcDbEntity
  8
0
  6
Continuous
100
AcDbLine
 10
63.53822833249999
 20
120.2359666370999
 30
0.0
 11
63.53822833249999
 21
129.7359672629999
 31
0.0
  0
INSERT
  5
19A
330
2
100
AcDbEntity
  8
CENTER
100
AcDbBlockReference
  2
SW_CENTERMARKSYMBOL_2
 10
61.9382280031
 20
114.4359674299
 30
0.0
  0
CIRCLE
  5
1A6
330
2
100
AcDbEntity
  8
0
  6
Continuous
100
AcDbCircle
 10
61.9382280031
 20
114.4359674299
 30
0.0
 40
1.249999999999985
  0
ARC
  5
1A7
330
2
100
AcDbEntity
  8
0
  6
Continuous
100
AcDbCircle
 10
61.9382280031
 20
114.4359674299
 30
0.0
 40
4.800000000000018
100
AcDbArc
 50
90.0
 51
180.0
  0
LINE
  5
1A8
330
2
100
AcDbEntity
  8
0
  6
Continuous
100
AcDbLine
 10
64.1382282445
 20
120.2359666370999
 30
0.0
 11
63.53822833249999
 21
120.2359666370999
 31
0.0
  0
LINE
  5
1A9
330
2
100
AcDbEntity
  8
0
  6
Continuous
100
AcDbLine
 10
64.43822773489998
 20
120.2359666370999
 30
0.0
 11
64.43822773489998
 21
119.9359671467
 31
0.0
  0
ARC
  5
1AA
330
2
100
AcDbEntity
  8
0
  6
Continuous
100
AcDbCircle
 10
73.42088921189999
 20
106.4266942995999
 30
0.0
 40
0.5000000000000142
100
AcDbArc
 50
118.2050274220999
 51
225.0
  0
LINE
  5
1AB
330
2
100
AcDbEntity
  8
0
  6
Continuous
100
AcDbLine
 10
60.43822707930001
 20
130.9359689497999
 30
0.0
 11
56.4382282863
 21
126.9359682940999
 31
0.0
  0
CIRCLE
  5
1AC
330
2
100
AcDbEntity
  8
0
  6
Continuous
100
AcDbCircle
 10
60.9382280031
 20
127.7359674299
 30
0.0
 40
2.499999999999993
  0
ARC
  5
1AD
330
2
100
AcDbEntity
  8
0
  6
Continuous
100
AcDbCircle
 10
60.9382280031
 20
127.7359674299
 30
0.0
 40
2.450000000000009
100
AcDbArc
 50
187.0334613154
 51
180.0
  0
CIRCLE
  5
1AE
330
2
100
AcDbEntity
  8
0
  6
Continuous
100
AcDbCircle
 10
60.9382280031
 20
127.7359674299
 30
0.0
 40
2.25
  0
LINE
  5
1AF
330
2
100
AcDbEntity
  8
0
  6
Continuous
100
AcDbLine
 10
56.4382282863
 20
124.735968306
 30
0.0
 11
63.53822833249999
 21
124.735968306
 31
0.0
  0
LINE
  5
1B0
330
2
100
AcDbEntity
  8
0
  6
Continuous
100
AcDbLine
 10
61.1382277528
 20
125.1359676265999
 30
0.0
 11
63.53822833249999
 21
125.1359676265999
 31
0.0
  0
CIRCLE
  5
1B1
330
2
100
AcDbEntity
  8
0
  6
Continuous
100
AcDbCircle
 10
60.9382280031
 20
127.7359674299
 30
0.0
 40
1.75
  0
ARC
  5
1B2
330
2
100
AcDbEntity
  8
0
  6
Continuous
100
AcDbCircle
 10
61.58822800310001
 20
128.3859674299
 30
0.0
 40
0.4000000000000057
100
AcDbArc
 50
180.0
 51
270.0
  0
ARC
  5
1B3
330
2
100
AcDbEntity
  8
0
  6
Continuous
100
AcDbCircle
 10
61.58822800310001
 20
127.0859674298999
 30
0.0
 40
0.4000000000000057
100
AcDbArc
 50
90.0
 51
180.0
  0
LINE
  5
1B4
330
2
100
AcDbEntity
  8
0
  6
Continuous
100
AcDbLine
 10
56.4382282863
 20
126.9359682940999
 30
0.0
 11
56.4382282863
 21
124.735968306
 31
0.0
  0
ARC
  5
1B5
330
2
100
AcDbEntity
  8
0
  6
Continuous
100
AcDbCircle
 10
61.1382280031
 20
127.7359674299
 30
0.0
 40
2.600000000000004
100
AcDbArc
 50
238.0724727954
 51
270.0
  0
LINE
  5
1B6
330
2
100
AcDbEntity
  8
0
  6
Continuous
100
AcDbLine
 10
58.48822759779999
 20
127.7359669351
 30
0.0
 11
58.67822857890001
 21
127.7359669351
 31
0.0
  0
LINE
  5
1B7
330
2
100
AcDbEntity
  8
0
  6
Continuous
100
AcDbLine
 10
58.5066640595
 20
127.4359674447999
 30
0.0
 11
58.69822779989998
 21
127.4359674447999
 31
0.0
  0
ARC
  5
1B8
330
2
100
AcDbEntity
  8
0
  6
Continuous
100
AcDbCircle
 10
60.9382280031
 20
127.7359674299
 30
0.0
 40
2.260000000000006
100
AcDbArc
 50
180.0
 51
187.6281496685995
  0
ARC
  5
1B9
330
2
100
AcDbEntity
  8
0
  6
Continuous
100
AcDbCircle
 10
60.2882280031
 20
127.0859674298999
 30
0.0
 40
0.4000000000000057
100
AcDbArc
 50
0.0
 51
90.0
  0
LINE
  5
1BA
330
2
100
AcDbEntity
  8
0
  6
Continuous
100
AcDbLine
 10
59.688227422
 20
127.4859682911
 30
0.0
 11
60.2882282654
 21
127.4859682911
 31
0.0
  0
ARC
  5
1BB
330
2
100
AcDbEntity
  8
0
  6
Continuous
100
AcDbCircle
 10
59.6882280031
 20
127.7359674299
 30
0.0
 40
0.25
100
AcDbArc
 50
90.0
 51
270.0
  0
LINE
  5
1BC
330
2
100
AcDbEntity
  8
0
  6
Continuous
100
AcDbLine
 10
60.2882282654
 20
127.9859674417999
 30
0.0
 11
59.688227422
 21
127.9859674417999
 31
0.0
  0
ARC
  5
1BD
330
2
100
AcDbEntity
  8
0
  6
Continuous
100
AcDbCircle
 10
60.2882280031
 20
128.3859674299
 30
0.0
 40
0.4000000000000057
100
AcDbArc
 50
270.0
 51
0.0
  0
LINE
  5
1BE
330
2
100
AcDbEntity
  8
0
  6
Continuous
100
AcDbLine
 10
60.6882275859
 20
128.9859676056998
 30
0.0
 11
60.6882275859
 21
128.3859667623
 31
0.0
  0
ARC
  5
1BF
330
2
100
AcDbEntity
  8
0
  6
Continuous
100
AcDbCircle
 10
60.93829251989999
 20
128.9859674281998
 30
0.0
 40
0.2500645168003857
100
AcDbArc
 50
1.840694350699999
 51
180.0
  0
LINE
  5
1C0
330
2
100
AcDbEntity
  8
0
  6
Continuous
100
AcDbLine
 10
61.1882285992
 20
128.3859667623
 30
0.0
 11
61.1882285992
 21
128.9939993316
 31
0.0
  0
LINE
  5
1C1
330
2
100
AcDbEntity
  8
0
  6
Continuous
100
AcDbLine
 10
61.1882285992
 20
126.4859681271998
 30
0.0
 11
61.1882285992
 21
127.0859671079998
 31
0.0
  0
ARC
  5
1C2
330
2
100
AcDbEntity
  8
0
  6
Continuous
100
AcDbCircle
 10
60.9382280031
 20
126.4859674298999
 30
0.0
 40
0.25
100
AcDbArc
 50
180.0
 51
0.0
  0
LINE
  5
1C3
330
2
100
AcDbEntity
  8
0
  6
Continuous
100
AcDbLine
 10
60.6882275859
 20
127.0859671079998
 30
0.0
 11
60.6882275859
 21
126.4859681271998
 31
0.0
  0
LINE
  5
1C4
330
2
100
AcDbEntity
  8
0
  6
Continuous
100
AcDbLine
 10
62.18822783180001
 20
127.9859674417999
 30
0.0
 11
61.5882279197
 21
127.9859674417999
 31
0.0
  0
ARC
  5
1C5
330
2
100
AcDbEntity
  8
0
  6
Continuous
100
AcDbCircle
 10
62.1882280031
 20
127.7359674299
 30
0.0
 40
0.25
100
AcDbArc
 50
270.0
 51
90.0
  0
LINE
  5
1C6
330
2
100
AcDbEntity
  8
0
  6
Continuous
100
AcDbLine
 10
61.5882279197
 20
127.4859682911
 30
0.0
 11
62.18822783180001
 21
127.4859682911
 31
0.0
  0
LINE
  5
1C7
330
2
100
AcDbEntity
  8
0
  6
Continuous
100
AcDbLine
 10
63.53822833249999
 20
130.3359662437
 30
0.0
 11
61.1382277528
 21
130.3359662437
 31
0.0
  0
ARC
  5
1C8
330
2
100
AcDbEntity
  8
0
  6
Continuous
100
AcDbCircle
 10
61.1382280031
 20
127.7359674299
 30
0.0
 40
2.600000000000004
100
AcDbArc
 50
90.0
 51
121.9275272077
  0
LINE
  5
1C9
330
2
100
AcDbEntity
  8
0
  6
Continuous
100
AcDbLine
 10
63.53822833249999
 20
129.7359672629999
 30
0.0
 11
63.53822833249999
 21
129.7459678047998
 31
0.0
  0
LINE
  5
1CA
330
2
100
AcDbEntity
  8
0
  6
Continuous
100
AcDbLine
 10
63.53822833249999
 20
129.7459678047998
 30
0.0
 11
64.148227855
 21
129.7459678047998
 31
0.0
  0
LINE
  5
1CB
330
2
100
AcDbEntity
  8
0
  6
Continuous
100
AcDbLine
 10
63.53822833249999
 20
130.3459686482
 30
0.0
 11
64.148227855
 21
130.3459686482
 31
0.0
  0
LINE
  5
1CC
330
2
100
AcDbEntity
  8
0
  6
Continuous
100
AcDbLine
 10
63.53822833249999
 20
130.3459686482
 30
0.0
 11
63.53822833249999
 21
129.7459678047998
 31
0.0
  0
LINE
  5
1CD
330
2
100
AcDbEntity
  8
0
  6
Continuous
100
AcDbLine
 10
64.148227855
 20
129.7459678047998
 30
0.0
 11
64.148227855
 21
130.3459686482
 31
0.0
  0
LINE
  5
1CE
330
2
100
AcDbEntity
  8
0
  6
Continuous
100
AcDbLine
 10
98.43822772000001
 20
114.4359671764999
 30
0.0
 11
98.43822772000001
 21
124.735968306
 31
0.0
  0
LINE
  5
1CF
330
2
100
AcDbEntity
  8
0
  6
Continuous
100
AcDbLine
 10
91.33822767379999
 20
120.2359666370999
 30
0.0
 11
91.33822767379999
 21
129.7359672629999
 31
0.0
  0
INSERT
  5
1D0
330
2
100
AcDbEntity
  8
CENTER
100
AcDbBlockReference
  2
SW_CENTERMARKSYMBOL_1
 10
92.9382280031
 20
114.4359674299
 30
0.0
  0
ARC
  5
1DC
330
2
100
AcDbEntity
  8
0
  6
Continuous
100
AcDbCircle
 10
81.45556679429999
 20
106.4266942995999
 30
0.0
 40
0.5000000000000142
100
AcDbArc
 50
315.0
 51
61.7949725779
  0
LINE
  5
1DD
330
2
100
AcDbEntity
  8
0
  6
Continuous
100
AcDbLine
 10
90.43822827139999
 20
119.9359671467
 30
0.0
 11
90.43822827139999
 21
120.2359666370999
 31
0.0
  0
CIRCLE
  5
1DE
330
2
100
AcDbEntity
  8
0
  6
Continuous
100
AcDbCircle
 10
92.9382280031
 20
114.4359674299
 30
0.0
 40
1.249999999999985
  0
ARC
  5
1DF
330
2
100
AcDbEntity
  8
0
  6
Continuous
100
AcDbCircle
 10
92.9382280031
 20
114.4359674299
 30
0.0
 40
5.499999999999986
100
AcDbArc
 50
0.0
 51
90.0
  0
ARC
  5
1E0
330
2
100
AcDbEntity
  8
0
  6
Continuous
100
AcDbCircle
 10
92.9382280031
 20
114.4359674299
 30
0.0
 40
4.800000000000012
100
AcDbArc
 50
0.0
 51
90.0
  0
LINE
  5
1E1
330
2
100
AcDbEntity
  8
0
  6
Continuous
100
AcDbLine
 10
91.33822767379999
 20
120.2359666370999
 30
0.0
 11
90.7382277617
 21
120.2359666370999
 31
0.0
  0
LINE
  5
1E2
330
2
100
AcDbEntity
  8
0
  6
Continuous
100
AcDbLine
 10
98.43822772000001
 20
126.9359682940999
 30
0.0
 11
94.43822892700001
 21
130.9359689497999
 31
0.0
  0
CIRCLE
  5
1E3
330
2
100
AcDbEntity
  8
0
  6
Continuous
100
AcDbCircle
 10
93.93822800309999
 20
127.7359674299
 30
0.0
 40
2.5
  0
ARC
  5
1E4
330
2
100
AcDbEntity
  8
0
  6
Continuous
100
AcDbCircle
 10
93.93822800309999
 20
127.7359674299
 30
0.0
 40
2.450000000000001
100
AcDbArc
 50
187.0334613154
 51
180.0
  0
CIRCLE
  5
1E5
330
2
100
AcDbEntity
  8
0
  6
Continuous
100
AcDbCircle
 10
93.93822800309999
 20
127.7359674299
 30
0.0
 40
2.25
  0
LINE
  5
1E6
330
2
100
AcDbEntity
  8
0
  6
Continuous
100
AcDbLine
 10
91.33822767379999
 20
124.735968306
 30
0.0
 11
98.43822772000001
 21
124.735968306
 31
0.0
  0
ARC
  5
1E7
330
2
100
AcDbEntity
  8
0
  6
Continuous
100
AcDbCircle
 10
93.7382280031
 20
127.7359674299
 30
0.0
 40
2.60000000000002
100
AcDbArc
 50
270.0
 51
301.9275272597
  0
LINE
  5
1E8
330
2
100
AcDbEntity
  8
0
  6
Continuous
100
AcDbLine
 10
93.7382282535
 20
125.1359676265999
 30
0.0
 11
91.33822767379999
 21
125.1359676265999
 31
0.0
  0
CIRCLE
  5
1E9
330
2
100
AcDbEntity
  8
0
  6
Continuous
100
AcDbCircle
 10
93.93822800309999
 20
127.7359674299
 30
0.0
 40
1.75
  0
ARC
  5
1EA
330
2
100
AcDbEntity
  8
0
  6
Continuous
100
AcDbCircle
 10
93.28822800309998
 20
127.0859674298999
 30
0.0
 40
0.4000000000000199
100
AcDbArc
 50
0.0
 51
90.0
  0
ARC
  5
1EB
330
2
100
AcDbEntity
  8
0
  6
Continuous
100
AcDbCircle
 10
93.28822800309998
 20
128.3859674299
 30
0.0
 40
0.4000000000000199
100
AcDbArc
 50
270.0
 51
0.0
  0
ARC
  5
1EC
330
2
100
AcDbEntity
  8
0
  6
Continuous
100
AcDbCircle
 10
93.93822800309999
 20
127.7359674299
 30
0.0
 40
2.260000000000017
100
AcDbArc
 50
180.0
 51
187.6281496685995
  0
LINE
  5
1ED
330
2
100
AcDbEntity
  8
0
  6
Continuous
100
AcDbLine
 10
91.48822835030001
 20
127.7359669351
 30
0.0
 11
91.6782284001
 21
127.7359669351
 31
0.0
  0
LINE
  5
1EE
330
2
100
AcDbEntity
  8
0
  6
Continuous
100
AcDbLine
 10
91.50666481200001
 20
127.4359674447999
 30
0.0
 11
91.69822762109999
 21
127.4359674447999
 31
0.0
  0
LINE
  5
1EF
330
2
100
AcDbEntity
  8
0
  6
Continuous
100
AcDbLine
 10
92.68822817450001
 20
127.4859682911
 30
0.0
 11
93.2882280866
 21
127.4859682911
 31
0.0
  0
ARC
  5
1F0
330
2
100
AcDbEntity
  8
0
  6
Continuous
100
AcDbCircle
 10
92.68822800309999
 20
127.7359674299
 30
0.0
 40
0.25
100
AcDbArc
 50
90.0
 51
270.0
  0
LINE
  5
1F1
330
2
100
AcDbEntity
  8
0
  6
Continuous
100
AcDbLine
 10
93.2882280866
 20
127.9859674417999
 30
0.0
 11
92.68822817450001
 21
127.9859674417999
 31
0.0
  0
LINE
  5
1F2
330
2
100
AcDbEntity
  8
0
  6
Continuous
100
AcDbLine
 10
93.68822740709999
 20
127.0859671079998
 30
0.0
 11
93.68822740709999
 21
126.4859681271998
 31
0.0
  0
LINE
  5
1F3
330
2
100
AcDbEntity
  8
0
  6
Continuous
100
AcDbLine
 10
93.68822740709999
 20
128.9859676056998
 30
0.0
 11
93.68822740709999
 21
128.3859667623
 31
0.0
  0
ARC
  5
1F4
330
2
100
AcDbEntity
  8
0
  6
Continuous
100
AcDbCircle
 10
93.9382925199
 20
128.9859674281998
 30
0.0
 40
0.2500645168003928
100
AcDbArc
 50
1.840694350599999
 51
180.0
  0
LINE
  5
1F5
330
2
100
AcDbEntity
  8
0
  6
Continuous
100
AcDbLine
 10
94.1882284204
 20
128.3859667623
 30
0.0
 11
94.1882284204
 21
128.9939993316
 31
0.0
  0
ARC
  5
1F6
330
2
100
AcDbEntity
  8
0
  6
Continuous
100
AcDbCircle
 10
94.5882280031
 20
128.3859674299
 30
0.0
 40
0.4000000000000057
100
AcDbArc
 50
180.0
 51
270.0
  0
LINE
  5
1F7
330
2
100
AcDbEntity
  8
0
  6
Continuous
100
AcDbLine
 10
95.1882285843
 20
127.9859674417999
 30
0.0
 11
94.5882277409
 21
127.9859674417999
 31
0.0
  0
ARC
  5
1F8
330
2
100
AcDbEntity
  8
0
  6
Continuous
100
AcDbCircle
 10
95.18822800309999
 20
127.7359674299
 30
0.0
 40
0.25
100
AcDbArc
 50
270.0
 51
90.0
  0
LINE
  5
1F9
330
2
100
AcDbEntity
  8
0
  6
Continuous
100
AcDbLine
 10
94.5882277409
 20
127.4859682911
 30
0.0
 11
95.1882285843
 21
127.4859682911
 31
0.0
  0
ARC
  5
1FA
330
2
100
AcDbEntity
  8
0
  6
Continuous
100
AcDbCircle
 10
94.5882280031
 20
127.0859674298999
 30
0.0
 40
0.3999999999999915
100
AcDbArc
 50
90.0
 51
180.0
  0
LINE
  5
1FB
330
2
100
AcDbEntity
  8
0
  6
Continuous
100
AcDbLine
 10
94.1882284204
 20
126.4859681271998
 30
0.0
 11
94.1882284204
 21
127.0859671079998
 31
0.0
  0
ARC
  5
1FC
330
2
100
AcDbEntity
  8
0
  6
Continuous
100
AcDbCircle
 10
93.93822800309999
 20
126.4859674298999
 30
0.0
 40
0.25
100
AcDbArc
 50
180.0
 51
0.0
  0
LINE
  5
1FD
330
2
100
AcDbEntity
  8
0
  6
Continuous
100
AcDbLine
 10
98.43822772000001
 20
124.735968306
 30
0.0
 11
98.43822772000001
 21
126.9359682940999
 31
0.0
  0
LINE
  5
1FE
330
2
100
AcDbEntity
  8
0
  6
Continuous
100
AcDbLine
 10
91.33822767379999
 20
130.3359662437
 30
0.0
 11
93.7382282535
 21
130.3359662437
 31
0.0
  0
LINE
  5
1FF
330
2
100
AcDbEntity
  8
0
  6
Continuous
100
AcDbLine
 10
91.33822767379999
 20
129.7359672629999
 30
0.0
 11
91.33822767379999
 21
129.7459678047998
 31
0.0
  0
LINE
  5
200
330
2
100
AcDbEntity
  8
0
  6
Continuous
100
AcDbLine
 10
90.72822815129999
 20
129.7459678047998
 30
0.0
 11
91.33822767379999
 21
129.7459678047998
 31
0.0
  0
LINE
  5
201
330
2
100
AcDbEntity
  8
0
  6
Continuous
100
AcDbLine
 10
90.72822815129999
 20
130.3459686482
 30
0.0
 11
91.33822767379999
 21
130.3459686482
 31
0.0
  0
LINE
  5
202
330
2
100
AcDbEntity
  8
0
  6
Continuous
100
AcDbLine
 10
91.33822767379999
 20
130.3459686482
 30
0.0
 11
91.33822767379999
 21
129.7459678047998
 31
0.0
  0
LINE
  5
203
330
2
100
AcDbEntity
  8
0
  6
Continuous
100
AcDbLine
 10
90.72822815129999
 20
129.7459678047998
 30
0.0
 11
90.72822815129999
 21
130.3459686482
 31
0.0
  0
ARC
  5
204
330
2
100
AcDbEntity
  8
0
  6
Continuous
100
AcDbCircle
 10
93.7382280031
 20
127.7359674299
 30
0.0
 40
2.59999999999999
100
AcDbArc
 50
58.0724727172
 51
90.0
  0
MTEXT
  5
205
330
2
100
AcDbEntity
  8
DIMS
100
AcDbMText
 10
109.4822512789999
 20
130.7921745927
 30
0.0
 40
3.2
 41
0.0
 71
     1
 72
     1
  1
Dep 4MIN
  7
SLDTEXTSTYLE1
 73
     1
 44
1.0
  0
LINE
  5
206
330
2
100
AcDbEntity
  8
DIMS
100
AcDbLine
 10
147.6024812869
 20
163.2046458640999
 30
0.0
 11
140.6433191562
 21
152.3970718358
 31
0.0
  0
MTEXT
  5
207
330
2
100
AcDbEntity
  8
DIMS
100
AcDbMText
 10
131.3328752623
 20
154.4240730472999
 30
0.0
 40
3.2
 41
0.0
 71
     1
 72
     1
  1
D-cut
  7
SLDTEXTSTYLE1
 73
     1
 44
1.0
  0
LINE
  5
208
330
2
100
AcDbEntity
  8
0
  6
Continuous
100
AcDbLine
 10
143.1972458935
 20
163.9803167852
 30
0.0
 11
143.1972458935
 21
162.1472865295999
 31
0.0
  0
SPLINE
  5
209
330
2
100
AcDbEntity
  8
0
  6
Continuous
100
AcDbSpline
210
0.0
220
0.0
230
1.0
 70
     8
 71
     3
 72
     8
 73
     4
 74
     0
 42
0.0000000001
 43
0.0000000001
 40
0.0
 40
0.0
 40
0.0
 40
0.0
 40
0.0004292861391641
 40
0.0004292861391641
 40
0.0004292861391641
 40
0.0004292861391641
 10
143.4972451186494
 20
160.6143119146139
 30
0.0
 10
143.3970992144014
 20
160.716522900129
 30
0.0
 10
143.2970785751578
 20
160.8188569415308
 30
0.0
 10
143.1972451186495
 20
160.921373128834
 30
0.0
  0
SPLINE
  5
20A
330
2
100
AcDbEntity
  8
0
  6
Continuous
100
AcDbSpline
210
0.0
220
0.0
230
1.0
 70
     8
 71
     3
 72
     8
 73
     4
 74
     0
 42
0.0000000001
 43
0.0000000001
 40
0.0
 40
0.0
 40
0.0
 40
0.0
 40
1.0
 40
1.0
 40
1.0
 40
1.0
 10
143.1972451186495
 20
162.1472865184059
 30
0.0
 10
143.2816184380295
 20
161.9447570731852
 30
0.0
 10
143.3844846423101
 20
161.7517357846294
 30
0.0
 10
143.4972451186494
 20
161.5638016573971
 30
0.0
  0
LINE
  5
20B
330
2
100
AcDbEntity
  8
0
  6
Continuous
100
AcDbLine
 10
143.1972458935
 20
160.9213732368999
 30
0.0
 11
143.1972458935
 21
162.1472865295999
 31
0.0
  0
LINE
  5
20C
330
2
100
AcDbEntity
  8
0
  6
Continuous
100
AcDbLine
 10
143.4972453838998
 20
161.5638016444
 30
0.0
 11
143.4972453838998
 21
160.6143119930995
 31
0.0
  0
LINE
  5
20D
330
2
100
AcDbEntity
  8
0
  6
Continuous
100
AcDbLine
 10
144.1972441947999
 20
160.6143119930995
 30
0.0
 11
143.4972453838998
 21
160.6143119930995
 31
0.0
  0
LINE
  5
20E
330
2
100
AcDbEntity
  8
0
  6
Continuous
100
AcDbLine
 10
144.1972441947999
 20
160.5638017132999
 30
0.0
 11
144.1972441947999
 21
160.6143119930995
 31
0.0
  0
LINE
  5
20F
330
2
100
AcDbEntity
  8
0
  6
Continuous
100
AcDbLine
 10
143.1972458935
 20
163.9803167852
 30
0.0
 11
143.1972458935
 21
165.2062300779
 31
0.0
  0
SPLINE
  5
210
330
2
100
AcDbEntity
  8
0
  6
Continuous
100
AcDbSpline
210
0.0
220
0.0
230
1.0
 70
     8
 71
     3
 72
     8
 73
     4
 74
     0
 42
0.0000000001
 43
0.0000000001
 40
0.0
 40
0.0
 40
0.0
 40
0.0
 40
1.0
 40
1.0
 40
1.0
 40
1.0
 10
143.4972451186494
 20
164.5638016573968
 30
0.0
 10
143.3844846423101
 20
164.3758675301645
 30
0.0
 10
143.2816184380295
 20
164.1828462416088
 30
0.0
 10
143.1972451186495
 20
163.9803167963882
 30
0.0
  0
SPLINE
  5
211
330
2
100
AcDbEntity
  8
0
  6
Continuous
100
AcDbSpline
210
0.0
220
0.0
230
1.0
 70
     8
 71
     3
 72
     8
 73
     4
 74
     0
 42
0.0000000001
 43
0.0000000001
 40
0.0
 40
0.0
 40
0.0
 40
0.0
 40
0.0004292861391642
 40
0.0004292861391642
 40
0.0004292861391642
 40
0.0004292861391642
 10
143.1972451186495
 20
165.2062301859599
 30
0.0
 10
143.2970785751578
 20
165.3087463732633
 30
0.0
 10
143.3970992144018
 20
165.4110804146649
 30
0.0
 10
143.4972451186494
 20
165.51329140018
 30
0.0
  0
LINE
  5
212
330
2
100
AcDbEntity
  8
0
  6
Continuous
100
AcDbLine
 10
144.1972441947999
 20
165.5132913217
 30
0.0
 11
144.1972441947999
 21
165.5638016014999
 31
0.0
  0
LINE
  5
213
330
2
100
AcDbEntity
  8
0
  6
Continuous
100
AcDbLine
 10
144.1972441947999
 20
165.5132913217
 30
0.0
 11
143.4972453838998
 21
165.5132913217
 31
0.0
  0
LINE
  5
214
330
2
100
AcDbEntity
  8
0
  6
Continuous
100
AcDbLine
 10
143.4972453838998
 20
165.5132913217
 30
0.0
 11
143.4972453838998
 21
164.5638016704
 31
0.0
  0
DIMENSION
  5
215
330
2
100
AcDbEntity
  8
DIMS
100
AcDbDimension
  2
*D12
 10
245.1651940129
 20
77.9359829166
 30
0.0
 11
245.1651940129
 21
104.4359829165999
 31
0.0
 70
   128
 71
     2
 42
-1.0
  3
SLDDIMSTYLE7
100
AcDbAlignedDimension
 13
236.4972451185999
 23
130.9359829166
 33
0.0
 14
236.4972451185999
 24
77.9359829166
 34
0.0
 50
90.0
100
AcDbRotatedDimension
  0
LINE
  5
21F
330
2
100
AcDbEntity
  8
0
  6
Continuous
100
AcDbLine
 10
201.2972459174
 20
113.6859675193
 30
0.0
 11
201.2972459174
 21
84.1859673405
 31
0.0
  0
LINE
  5
220
330
2
100
AcDbEntity
  8
0
  6
Continuous
100
AcDbLine
 10
211.9972445046998
 20
83.43596768319999
 30
0.0
 11
211.9972445046998
 21
114.4359671764999
 31
0.0
  0
LINE
  5
221
330
2
100
AcDbEntity
  8
0
  6
Continuous
100
AcDbLine
 10
159.9972450617
 20
109.9359673703
 30
0.0
 11
159.9972450617
 21
98.9359674299
 31
0.0
  0
LINE
  5
222
330
2
100
AcDbEntity
  8
0
  6
Continuous
100
AcDbLine
 10
159.6972451055999
 20
98.9359674299
 30
0.0
 11
159.6972451055999
 21
109.6359678798999
 31
0.0
  0
LINE
  5
223
330
2
100
AcDbEntity
  8
0
  6
Continuous
100
AcDbLine
 10
161.1972451186
 20
83.43596768319999
 30
0.0
 11
161.1972451186
 21
114.4359671764999
 31
0.0
  0
LINE
  5
224
330
2
100
AcDbEntity
  8
0
  6
Continuous
100
AcDbLine
 10
161.8972450937
 20
114.4359671764999
 30
0.0
 11
161.8972450937
 21
83.43596768319999
 31
0.0
  0
LINE
  5
225
330
2
100
AcDbEntity
  8
0
  6
Continuous
100
AcDbLine
 10
169.3972451589
 20
84.1859673405
 30
0.0
 11
169.3972451589
 21
113.6859675193
 31
0.0
  0
LINE
  5
226
330
2
100
AcDbEntity
  8
0
  6
Continuous
100
AcDbLine
 10
229.6972423768
 20
126.9359682940999
 30
0.0
 11
229.6972423768
 21
81.93596650599998
 31
0.0
  0
LINE
  5
227
330
2
100
AcDbEntity
  8
0
  6
Continuous
100
AcDbLine
 10
212.4972455179999
 20
81.93596650599998
 30
0.0
 11
212.4972455179999
 21
124.735968306
 31
0.0
  0
LINE
  5
228
330
2
100
AcDbEntity
  8
0
  6
Continuous
100
AcDbLine
 10
230.1972433900999
 20
81.9359832698
 30
0.0
 11
230.1972433900999
 21
126.9359831953
 31
0.0
  0
LINE
  5
229
330
2
100
AcDbEntity
  8
0
  6
Continuous
100
AcDbLine
 10
236.4972457266
 20
81.9359832698
 30
0.0
 11
236.4972457266
 21
126.9359831953
 31
0.0
  0
DIMENSION
  5
23A
330
2
100
AcDbEntity
  8
DIMS
100
AcDbDimension
  2
*D10
 10
236.4972451185999
 20
64.05283497380001
 30
0.0
 11
198.8472451186
 21
64.05283497380001
 31
0.0
 70
   128
 71
     2
 42
-1.0
  3
SLDDIMSTYLE8
100
AcDbAlignedDimension
 13
161.1972451186
 23
78.63596742989999
 33
0.0
 14
236.4972451185999
 24
77.9359829166
 34
0.0
100
AcDbRotatedDimension
  0
DIMENSION
  5
246
330
2
100
AcDbEntity
  8
DIMS
100
AcDbDimension
  2
*D8
 10
212.4972451186
 20
69.88790473909999
 30
0.0
 11
186.8472451186
 21
69.88790473909999
 31
0.0
 70
   128
 71
     2
 42
-1.0
  3
SLDDIMSTYLE6
100
AcDbAlignedDimension
 13
161.1972451186
 23
78.63596742989999
 33
0.0
 14
212.4972451186
 24
77.93596742990001
 34
0.0
100
AcDbRotatedDimension
  0
LINE
  5
251
330
2
100
AcDbEntity
  8
0
  6
Continuous
100
AcDbLine
 10
199.5472460961996
 20
77.93596771299998
 30
0.0
 11
171.1472449801
 21
77.93596771299998
 31
0.0
  0
LINE
  5
252
330
2
100
AcDbEntity
  8
0
  6
Continuous
100
AcDbLine
 10
201.2972459174
 20
85.2222155103
 30
0.0
 11
169.3972451589
 21
85.2222155103
 31
0.0
  0
LINE
  5
253
330
2
100
AcDbEntity
  8
0
  6
Continuous
100
AcDbLine
 10
159.9972450617
 20
98.9359674299
 30
0.0
 11
159.9972450617
 21
87.93596748949999
 31
0.0
  0
LINE
  5
254
330
2
100
AcDbEntity
  8
0
  6
Continuous
100
AcDbLine
 10
159.6972451055999
 20
88.23596697979999
 30
0.0
 11
159.6972451055999
 21
98.9359674299
 31
0.0
  0
LINE
  5
255
330
2
100
AcDbEntity
  8
0
  6
Continuous
100
AcDbLine
 10
159.9972450617
 20
87.93596748949999
 30
0.0
 11
161.1972451186
 21
87.93596748949999
 31
0.0
  0
LINE
  5
256
330
2
100
AcDbEntity
  8
0
  6
Continuous
100
AcDbLine
 10
159.6972451055999
 20
88.23596697979999
 30
0.0
 11
159.9972450617
 21
87.93596748949999
 31
0.0
  0
LINE
  5
257
330
2
100
AcDbEntity
  8
0
  6
Continuous
100
AcDbLine
 10
171.1472449801
 20
83.43596768319999
 30
0.0
 11
171.1472449801
 21
77.93596771299998
 31
0.0
  0
LINE
  5
258
330
2
100
AcDbEntity
  8
0
  6
Continuous
100
AcDbLine
 10
161.8972450937
 20
83.43596768319999
 30
0.0
 11
161.8972450937
 21
77.93596771299998
 31
0.0
  0
LINE
  5
259
330
2
100
AcDbEntity
  8
0
  6
Continuous
100
AcDbLine
 10
161.1972451186
 20
78.6359665239
 30
0.0
 11
161.1972451186
 21
83.43596768319999
 31
0.0
  0
LINE
  5
25A
330
2
100
AcDbEntity
  8
0
  6
Continuous
100
AcDbLine
 10
171.1472449801
 20
77.93596771299998
 30
0.0
 11
161.8972450937
 21
77.93596771299998
 31
0.0
  0
LINE
  5
25B
330
2
100
AcDbEntity
  8
0
  6
Continuous
100
AcDbLine
 10
161.8972450937
 20
77.93596771299998
 30
0.0
 11
161.1972451186
 21
78.6359665239
 31
0.0
  0
LINE
  5
25C
330
2
100
AcDbEntity
  8
0
  6
Continuous
100
AcDbLine
 10
171.1472449801
 20
84.1859673405
 30
0.0
 11
171.1472449801
 21
83.43596768319999
 31
0.0
  0
LINE
  5
25D
330
2
100
AcDbEntity
  8
0
  6
Continuous
100
AcDbLine
 10
171.1472449801
 20
84.1859673405
 30
0.0
 11
169.3972451589
 21
84.1859673405
 31
0.0
  0
LINE
  5
25E
330
2
100
AcDbEntity
  8
0
  6
Continuous
100
AcDbLine
 10
158.1972450926
 20
100.9359675248999
 30
0.0
 11
158.1972450926
 21
101.435967374
 31
0.0
  0
LINE
  5
25F
330
2
100
AcDbEntity
  8
0
  6
Continuous
100
AcDbLine
 10
159.6972451055999
 20
101.435967374
 30
0.0
 11
158.1972450926
 21
101.435967374
 31
0.0
  0
DIMENSION
  5
260
330
2
100
AcDbEntity
  8
DIMS
100
AcDbDimension
  2
*D11
 10
236.4972451185999
 20
69.88790473909999
 30
0.0
 11
224.4972451186
 21
69.88790473909999
 31
0.0
 70
   128
 71
     2
 42
-1.0
  3
SLDDIMSTYLE7
100
AcDbAlignedDimension
 13
212.4972451186
 23
77.93596742990001
 33
0.0
 14
236.4972451185999
 24
77.9359829166
 34
0.0
100
AcDbRotatedDimension
  0
LINE
  5
26A
330
2
100
AcDbEntity
  8
0
  6
Continuous
100
AcDbLine
 10
212.4972455179999
 20
77.93596771299998
 30
0.0
 11
229.6972423768
 21
77.93596771299998
 31
0.0
  0
LINE
  5
26B
330
2
100
AcDbEntity
  8
0
  6
Continuous
100
AcDbLine
 10
212.4972455179999
 20
81.93596650599998
 30
0.0
 11
229.6972423768
 21
81.93596650599998
 31
0.0
  0
LINE
  5
26C
330
2
100
AcDbEntity
  8
0
  6
Continuous
100
AcDbLine
 10
211.9972445046998
 20
77.93596771299998
 30
0.0
 11
199.5472460961996
 21
77.93596771299998
 31
0.0
  0
LINE
  5
26D
330
2
100
AcDbEntity
  8
0
  6
Continuous
100
AcDbLine
 10
199.5472460961996
 20
77.93596771299998
 30
0.0
 11
199.5472460961996
 21
83.43596768319999
 31
0.0
  0
LINE
  5
26E
330
2
100
AcDbEntity
  8
0
  6
Continuous
100
AcDbLine
 10
199.5472460961996
 20
84.1859673405
 30
0.0
 11
201.2972459174
 21
84.1859673405
 31
0.0
  0
LINE
  5
26F
330
2
100
AcDbEntity
  8
0
  6
Continuous
100
AcDbLine
 10
199.5472460961996
 20
83.43596768319999
 30
0.0
 11
199.5472460961996
 21
84.1859673405
 31
0.0
  0
LINE
  5
270
330
2
100
AcDbEntity
  8
0
  6
Continuous
100
AcDbLine
 10
212.4972455179999
 20
80.43596719140001
 30
0.0
 11
212.4972455179999
 21
79.43596702749998
 31
0.0
  0
LINE
  5
271
330
2
100
AcDbEntity
  8
0
  6
Continuous
100
AcDbLine
 10
211.9972445046998
 20
77.93596771299998
 30
0.0
 11
211.9972445046998
 21
83.43596768319999
 31
0.0
  0
LINE
  5
272
330
2
100
AcDbEntity
  8
0
  6
Continuous
100
AcDbLine
 10
211.9972445046998
 20
77.93596771299998
 30
0.0
 11
212.4972455179999
 21
78.4359668636
 31
0.0
  0
LINE
  5
273
330
2
100
AcDbEntity
  8
0
  6
Continuous
100
AcDbLine
 10
212.4972455179999
 20
77.93596771299998
 30
0.0
 11
212.4972455179999
 21
79.43596702749998
 31
0.0
  0
LINE
  5
274
330
2
100
AcDbEntity
  8
0
  6
Continuous
100
AcDbLine
 10
212.4972455179999
 20
80.43596719140001
 30
0.0
 11
212.4972455179999
 21
81.93596650599998
 31
0.0
  0
LINE
  5
275
330
2
100
AcDbEntity
  8
0
  6
Continuous
100
AcDbLine
 10
229.6972423768
 20
78.43598362739999
 30
0.0
 11
230.1972433900999
 21
78.43598362739999
 31
0.0
  0
LINE
  5
276
330
2
100
AcDbEntity
  8
0
  6
Continuous
100
AcDbLine
 10
229.6972423768
 20
82.1430889213
 30
0.0
 11
230.1972433900999
 21
82.1430889213
 31
0.0
  0
LINE
  5
277
330
2
100
AcDbEntity
  8
0
  6
Continuous
100
AcDbLine
 10
229.6972423768
 20
81.93596650599998
 30
0.0
 11
229.6972423768
 21
77.93596771299998
 31
0.0
  0
LINE
  5
278
330
2
100
AcDbEntity
  8
0
  6
Continuous
100
AcDbLine
 10
230.1972433900999
 20
77.9359826141
 30
0.0
 11
230.1972433900999
 21
81.9359832698
 31
0.0
  0
LINE
  5
279
330
2
100
AcDbEntity
  8
0
  6
Continuous
100
AcDbLine
 10
236.4972457266
 20
77.9359826141
 30
0.0
 11
236.4972457266
 21
81.9359832698
 31
0.0
  0
LINE
  5
27A
330
2
100
AcDbEntity
  8
0
  6
Continuous
100
AcDbLine
 10
236.4972457266
 20
77.9359826141
 30
0.0
 11
230.1972433900999
 21
77.9359826141
 31
0.0
  0
LINE
  5
27B
330
2
100
AcDbEntity
  8
0
  6
Continuous
100
AcDbLine
 10
236.4972457266
 20
81.9359832698
 30
0.0
 11
230.1972433900999
 21
81.9359832698
 31
0.0
  0
LINE
  5
27C
330
2
100
AcDbEntity
  8
0
  6
Continuous
100
AcDbLine
 10
159.9972450617
 20
174.0638015977999
 30
0.0
 11
159.9972450617
 21
152.063801717
 31
0.0
  0
LINE
  5
27D
330
2
100
AcDbEntity
  8
0
  6
Continuous
100
AcDbLine
 10
159.6972451055999
 20
152.3638012074
 30
0.0
 11
159.6972451055999
 21
173.7638021074
 31
0.0
  0
LINE
  5
27E
330
2
100
AcDbEntity
  8
0
  6
Continuous
100
AcDbLine
 10
169.3972451589
 20
148.3138015679998
 30
0.0
 11
169.3972451589
 21
177.8138017468
 31
0.0
  0
LINE
  5
27F
330
2
100
AcDbEntity
  8
0
  6
Continuous
100
AcDbLine
 10
161.8972450937
 20
178.5638014040999
 30
0.0
 11
161.8972450937
 21
147.5638019106999
 31
0.0
  0
LINE
  5
280
330
2
100
AcDbEntity
  8
0
  6
Continuous
100
AcDbLine
 10
161.1972451186
 20
147.5638019106999
 30
0.0
 11
161.1972451186
 21
178.5638014040999
 31
0.0
  0
LINE
  5
281
330
2
100
AcDbEntity
  8
0
  6
Continuous
100
AcDbLine
 10
214.4972458458
 20
146.0638007335
 30
0.0
 11
214.4972458458
 21
180.0638025813
 31
0.0
  0
LINE
  5
282
330
2
100
AcDbEntity
  8
0
  6
Continuous
100
AcDbLine
 10
230.4972484683999
 20
175.3638012520999
 30
0.0
 11
230.4972484683999
 21
150.7638020626998
 31
0.0
  0
LINE
  5
283
330
2
100
AcDbEntity
  8
0
  6
Continuous
100
AcDbLine
 10
234.3972474312999
 20
150.5138015561
 30
0.0
 11
234.3972474312999
 21
175.6138017587
 31
0.0
  0
LINE
  5
284
330
2
100
AcDbEntity
  8
0
  6
Continuous
100
AcDbLine
 10
234.9972426868
 20
149.8638017289
 30
0.0
 11
234.9972426868
 21
176.2638015859
 31
0.0
  0
LINE
  5
285
330
2
100
AcDbEntity
  8
0
  6
Continuous
100
AcDbLine
 10
236.4972457266
 20
146.0638007335
 30
0.0
 11
236.4972457266
 21
180.0638025813
 31
0.0
  0
LINE
  5
286
330
2
100
AcDbEntity
  8
0
  6
Continuous
100
AcDbLine
 10
231.2472462631
 20
150.5138015561
 30
0.0
 11
231.2472462631
 21
175.6138017587
 31
0.0
  0
LINE
  5
287
330
2
100
AcDbEntity
  8
0
  6
Continuous
100
AcDbLine
 10
230.6972444033999
 20
175.6138017587
 30
0.0
 11
230.6972444033999
 21
150.5138015561
 31
0.0
  0
LINE
  5
288
330
2
100
AcDbEntity
  8
0
  6
Continuous
100
AcDbLine
 10
231.1472445703
 20
150.4138017259
 30
0.0
 11
231.1472445703
 21
175.7138015888999
 31
0.0
  0
LINE
  5
289
330
2
100
AcDbEntity
  8
0
  6
Continuous
100
AcDbLine
 10
196.9972439087
 20
176.3538018054999
 30
0.0
 11
196.9972439087
 21
149.7738015092999
 31
0.0
  0
LINE
  5
28A
330
2
100
AcDbEntity
  8
0
  6
Continuous
100
AcDbLine
 10
197.162725029
 20
149.3500497378
 30
0.0
 11
169.3972451589
 21
149.3500497378
 31
0.0
  0
LINE
  5
28B
330
2
100
AcDbEntity
  8
0
  6
Continuous
100
AcDbLine
 10
199.5472460961996
 20
142.0638019404998
 30
0.0
 11
171.1472449801
 21
142.0638019404998
 31
0.0
  0
LINE
  5
28C
330
2
100
AcDbEntity
  8
0
  6
Continuous
100
AcDbLine
 10
199.5472460961996
 20
119.9359671467
 30
0.0
 11
171.1472449801
 21
119.9359671467
 31
0.0
  0
LINE
  5
28D
330
2
100
AcDbEntity
  8
0
  6
Continuous
100
AcDbLine
 10
201.2972459174
 20
112.6579531723
 30
0.0
 11
169.3972451589
 21
112.6579531723
 31
0.0
  0
LINE
  5
28E
330
2
100
AcDbEntity
  8
0
  6
Continuous
100
AcDbLine
 10
161.1972451186
 20
109.9359673703
 30
0.0
 11
159.9972450617
 21
109.9359673703
 31
0.0
  0
LINE
  5
28F
330
2
100
AcDbEntity
  8
0
  6
Continuous
100
AcDbLine
 10
159.9972450617
 20
109.9359673703
 30
0.0
 11
159.6972451055999
 21
109.6359678798999
 31
0.0
  0
LINE
  5
290
330
2
100
AcDbEntity
  8
0
  6
Continuous
100
AcDbLine
 10
171.1472449801
 20
119.9359671467
 30
0.0
 11
161.8972450937
 21
119.9359671467
 31
0.0
  0
LINE
  5
291
330
2
100
AcDbEntity
  8
0
  6
Continuous
100
AcDbLine
 10
161.1972451186
 20
114.4359671764999
 30
0.0
 11
161.1972451186
 21
119.2359683357999
 31
0.0
  0
LINE
  5
292
330
2
100
AcDbEntity
  8
0
  6
Continuous
100
AcDbLine
 10
161.8972450937
 20
119.9359671467
 30
0.0
 11
161.8972450937
 21
114.4359671764999
 31
0.0
  0
LINE
  5
293
330
2
100
AcDbEntity
  8
0
  6
Continuous
100
AcDbLine
 10
161.1972451186
 20
119.2359683357999
 30
0.0
 11
161.8972450937
 21
119.9359671467
 31
0.0
  0
LINE
  5
294
330
2
100
AcDbEntity
  8
0
  6
Continuous
100
AcDbLine
 10
171.1472449801
 20
119.9359671467
 30
0.0
 11
171.1472449801
 21
114.4359671764999
 31
0.0
  0
LINE
  5
295
330
2
100
AcDbEntity
  8
0
  6
Continuous
100
AcDbLine
 10
171.1472449801
 20
113.6859675193
 30
0.0
 11
169.3972451589
 21
113.6859675193
 31
0.0
  0
LINE
  5
296
330
2
100
AcDbEntity
  8
0
  6
Continuous
100
AcDbLine
 10
171.1472449801
 20
114.4359671764999
 30
0.0
 11
171.1472449801
 21
113.6859675193
 31
0.0
  0
LINE
  5
297
330
2
100
AcDbEntity
  8
0
  6
Continuous
100
AcDbLine
 10
159.9972450617
 20
152.063801717
 30
0.0
 11
161.1972451186
 21
152.063801717
 31
0.0
  0
LINE
  5
298
330
2
100
AcDbEntity
  8
0
  6
Continuous
100
AcDbLine
 10
159.6972451055999
 20
152.3638012074
 30
0.0
 11
159.9972450617
 21
152.063801717
 31
0.0
  0
LINE
  5
299
330
2
100
AcDbEntity
  8
0
  6
Continuous
100
AcDbLine
 10
171.1472449801
 20
147.5638019106999
 30
0.0
 11
171.1472449801
 21
142.0638019404998
 31
0.0
  0
LINE
  5
29A
330
2
100
AcDbEntity
  8
0
  6
Continuous
100
AcDbLine
 10
161.8972450937
 20
147.5638019106999
 30
0.0
 11
161.8972450937
 21
142.0638019404998
 31
0.0
  0
LINE
  5
29B
330
2
100
AcDbEntity
  8
0
  6
Continuous
100
AcDbLine
 10
161.1972451186
 20
142.7638007514
 30
0.0
 11
161.1972451186
 21
147.5638019106999
 31
0.0
  0
LINE
  5
29C
330
2
100
AcDbEntity
  8
0
  6
Continuous
100
AcDbLine
 10
171.1472449801
 20
142.0638019404998
 30
0.0
 11
161.8972450937
 21
142.0638019404998
 31
0.0
  0
LINE
  5
29D
330
2
100
AcDbEntity
  8
0
  6
Continuous
100
AcDbLine
 10
161.1972451186
 20
142.7638007514
 30
0.0
 11
161.8972450937
 21
142.0638019404998
 31
0.0
  0
LINE
  5
29E
330
2
100
AcDbEntity
  8
0
  6
Continuous
100
AcDbLine
 10
171.1472449801
 20
148.3138015679998
 30
0.0
 11
171.1472449801
 21
147.5638019106999
 31
0.0
  0
LINE
  5
29F
330
2
100
AcDbEntity
  8
0
  6
Continuous
100
AcDbLine
 10
171.1472449801
 20
148.3138015679998
 30
0.0
 11
169.3972451589
 21
148.3138015679998
 31
0.0
  0
LINE
  5
2A0
330
2
100
AcDbEntity
  8
0
  6
Continuous
100
AcDbLine
 10
158.1972450926
 20
161.5638016444
 30
0.0
 11
158.1972450926
 21
164.5638016704
 31
0.0
  0
DIMENSION
  5
2A1
330
2
100
AcDbEntity
  8
DIMS
100
AcDbDimension
  2
*D9
 10
236.4972451185999
 20
134.2446119195
 30
0.0
 11
216.7472451186
 21
134.2446119195
 31
0.0
 70
   128
  1
(<>)
 71
     2
 42
-1.0
  3
SLDDIMSTYLE7
100
AcDbAlignedDimension
 13
196.9972451186
 23
129.7359674299
 33
0.0
 14
236.4972451185999
 24
130.9359829166
 34
0.0
100
AcDbRotatedDimension
  0
LINE
  5
2AD
330
2
100
AcDbEntity
  8
0
  6
Continuous
100
AcDbLine
 10
214.4972458458
 20
130.9359689497999
 30
0.0
 11
229.6972423768
 21
130.9359689497999
 31
0.0
  0
LINE
  5
2AE
330
2
100
AcDbEntity
  8
0
  6
Continuous
100
AcDbLine
 10
214.4972458458
 20
126.9359682940999
 30
0.0
 11
229.6972423768
 21
126.9359682940999
 31
0.0
  0
LINE
  5
2AF
330
2
100
AcDbEntity
  8
0
  6
Continuous
100
AcDbLine
 10
212.197244165
 20
120.2359666370999
 30
0.0
 11
212.197244165
 21
125.1359676265999
 31
0.0
  0
LINE
  5
2B0
330
2
100
AcDbEntity
  8
0
  6
Continuous
100
AcDbLine
 10
196.9972439087
 20
120.2359666370999
 30
0.0
 11
196.9972439087
 21
129.7359672629999
 31
0.0
  0
LINE
  5
2B1
330
2
100
AcDbEntity
  8
0
  6
Continuous
100
AcDbLine
 10
211.9972445046998
 20
119.9359671467
 30
0.0
 11
199.5472460961996
 21
119.9359671467
 31
0.0
  0
LINE
  5
2B2
330
2
100
AcDbEntity
  8
0
  6
Continuous
100
AcDbLine
 10
212.197244165
 20
120.2359666370999
 30
0.0
 11
197.5972466147
 21
120.2359666370999
 31
0.0
  0
LINE
  5
2B3
330
2
100
AcDbEntity
  8
0
  6
Continuous
100
AcDbLine
 10
199.5472460961996
 20
113.6859675193
 30
0.0
 11
201.2972459174
 21
113.6859675193
 31
0.0
  0
LINE
  5
2B4
330
2
100
AcDbEntity
  8
0
  6
Continuous
100
AcDbLine
 10
199.5472460961996
 20
114.4359671764999
 30
0.0
 11
199.5472460961996
 21
119.9359671467
 31
0.0
  0
LINE
  5
2B5
330
2
100
AcDbEntity
  8
0
  6
Continuous
100
AcDbLine
 10
199.5472460961996
 20
113.6859675193
 30
0.0
 11
199.5472460961996
 21
114.4359671764999
 31
0.0
  0
LINE
  5
2B6
330
2
100
AcDbEntity
  8
0
  6
Continuous
100
AcDbLine
 10
197.5972466147
 20
120.2359666370999
 30
0.0
 11
196.9972439087
 21
120.2359666370999
 31
0.0
  0
LINE
  5
2B7
330
2
100
AcDbEntity
  8
0
  6
Continuous
100
AcDbLine
 10
212.4972455179999
 20
119.4359679961
 30
0.0
 11
211.9972445046998
 21
119.9359671467
 31
0.0
  0
LINE
  5
2B8
330
2
100
AcDbEntity
  8
0
  6
Continuous
100
AcDbLine
 10
211.9972445046998
 20
114.4359671764999
 30
0.0
 11
211.9972445046998
 21
119.9359671467
 31
0.0
  0
LINE
  5
2B9
330
2
100
AcDbEntity
  8
0
  6
Continuous
100
AcDbLine
 10
197.6072452939
 20
129.7459678047998
 30
0.0
 11
209.9972441768996
 21
129.7459678047998
 31
0.0
  0
LINE
  5
2BA
330
2
100
AcDbEntity
  8
0
  6
Continuous
100
AcDbLine
 10
197.6072452939
 20
130.3459686482
 30
0.0
 11
209.9972441768996
 21
130.3459686482
 31
0.0
  0
LINE
  5
2BB
330
2
100
AcDbEntity
  8
0
  6
Continuous
100
AcDbLine
 10
197.5972466147
 20
129.7459678047998
 30
0.0
 11
197.6072452939
 21
129.7459678047998
 31
0.0
  0
LINE
  5
2BC
330
2
100
AcDbEntity
  8
0
  6
Continuous
100
AcDbLine
 10
197.5972466147
 20
130.3459686482
 30
0.0
 11
197.6072452939
 21
130.3459686482
 31
0.0
  0
ARC
  5
2BD
330
2
100
AcDbEntity
  8
0
  6
Continuous
100
AcDbCircle
 10
197.5972451186
 20
129.7459674298997
 30
0.0
 40
0.5999999999999944
100
AcDbArc
 50
90.0
 51
180.0
  0
LINE
  5
2BE
330
2
100
AcDbEntity
  8
0
  6
Continuous
100
AcDbLine
 10
197.5972466147
 20
130.3459686482
 30
0.0
 11
197.5972466147
 21
129.7459678047998
 31
0.0
  0
LINE
  5
2BF
330
2
100
AcDbEntity
  8
0
  6
Continuous
100
AcDbLine
 10
196.9972439087
 20
129.7459678047998
 30
0.0
 11
196.9972439087
 21
129.7359672629999
 31
0.0
  0
LINE
  5
2C0
330
2
100
AcDbEntity
  8
0
  6
Continuous
100
AcDbLine
 10
196.9972439087
 20
129.7459678047998
 30
0.0
 11
197.5972466147
 21
129.7459678047998
 31
0.0
  0
LINE
  5
2C1
330
2
100
AcDbEntity
  8
0
  6
Continuous
100
AcDbLine
 10
214.4972458458
 20
126.9359682940999
 30
0.0
 11
214.4972458458
 21
130.9359689497999
 31
0.0
  0
LINE
  5
2C2
330
2
100
AcDbEntity
  8
0
  6
Continuous
100
AcDbLine
 10
212.7972468709999
 20
130.1859674298997
 30
0.0
 11
212.7972468709999
 21
125.2859683030999
 31
0.0
  0
LINE
  5
2C3
330
2
100
AcDbEntity
  8
0
  6
Continuous
100
AcDbLine
 10
213.3972458517998
 20
130.2359682762
 30
0.0
 11
213.3972458517998
 21
125.2359674567
 31
0.0
  0
LINE
  5
2C4
330
2
100
AcDbEntity
  8
0
  6
Continuous
100
AcDbLine
 10
213.8972468651
 20
129.9426333302
 30
0.0
 11
213.8972468651
 21
125.5293005401
 31
0.0
  0
ARC
  5
2C5
330
2
100
AcDbEntity
  8
0
  6
Continuous
100
AcDbCircle
 10
211.5972451185998
 20
129.4859674298999
 30
0.0
 40
0.5
100
AcDbArc
 50
90.0
 51
180.0
  0
LINE
  5
2C6
330
2
100
AcDbEntity
  8
0
  6
Continuous
100
AcDbLine
 10
212.197244165
 20
125.1359676265999
 30
0.0
 11
213.8972468651
 21
125.1359676265999
 31
0.0
  0
LINE
  5
2C7
330
2
100
AcDbEntity
  8
0
  6
Continuous
100
AcDbLine
 10
211.5972451842
 20
125.4859679633
 30
0.0
 11
212.7972468709999
 21
125.4859679633
 31
0.0
  0
ARC
  5
2C8
330
2
100
AcDbEntity
  8
0
  6
Continuous
100
AcDbCircle
 10
211.5972451185998
 20
125.9859674299
 30
0.0
 40
0.5
100
AcDbArc
 50
180.0
 51
270.0
  0
LINE
  5
2C9
330
2
100
AcDbEntity
  8
0
  6
Continuous
100
AcDbLine
 10
211.0972441709
 20
125.9859671139998
 30
0.0
 11
211.0972441709
 21
127.7359669351
 31
0.0
  0
LINE
  5
2CA
330
2
100
AcDbEntity
  8
0
  6
Continuous
100
AcDbLine
 10
211.0972441709
 20
127.7359669351
 30
0.0
 11
211.0972441709
 21
129.4859667562999
 31
0.0
  0
LINE
  5
2CB
330
2
100
AcDbEntity
  8
0
  6
Continuous
100
AcDbLine
 10
214.4972458458
 20
124.735968306
 30
0.0
 11
214.4972458458
 21
126.9359682940999
 31
0.0
  0
LINE
  5
2CC
330
2
100
AcDbEntity
  8
0
  6
Continuous
100
AcDbLine
 10
213.8972468651
 20
125.5293005401
 30
0.0
 11
213.8972468651
 21
125.1359676265999
 31
0.0
  0
LINE
  5
2CD
330
2
100
AcDbEntity
  8
0
  6
Continuous
100
AcDbLine
 10
214.4972458458
 20
124.735968306
 30
0.0
 11
212.4972455179999
 21
124.735968306
 31
0.0
  0
LINE
  5
2CE
330
2
100
AcDbEntity
  8
0
  6
Continuous
100
AcDbLine
 10
214.4972458458
 20
125.1359676265999
 30
0.0
 11
213.8972468651
 21
125.1359676265999
 31
0.0
  0
LINE
  5
2CF
330
2
100
AcDbEntity
  8
0
  6
Continuous
100
AcDbLine
 10
212.7972468709999
 20
125.2859683030999
 30
0.0
 11
213.3972458517998
 21
125.2859683030999
 31
0.0
  0
LINE
  5
2D0
330
2
100
AcDbEntity
  8
0
  6
Continuous
100
AcDbLine
 10
213.3972458517998
 20
125.2359674567
 30
0.0
 11
213.8972468651
 21
125.2359674567
 31
0.0
  0
LINE
  5
2D1
330
2
100
AcDbEntity
  8
0
  6
Continuous
100
AcDbLine
 10
209.9972441768996
 20
130.3459686482
 30
0.0
 11
214.4972458458
 21
130.3459686482
 31
0.0
  0
LINE
  5
2D2
330
2
100
AcDbEntity
  8
0
  6
Continuous
100
AcDbLine
 10
212.7972468709999
 20
129.9859677696
 30
0.0
 11
211.5972451842
 21
129.9859677696
 31
0.0
  0
LINE
  5
2D3
330
2
100
AcDbEntity
  8
0
  6
Continuous
100
AcDbLine
 10
209.9972441768996
 20
129.7459678047998
 30
0.0
 11
210.4972451901998
 21
129.7459678047998
 31
0.0
  0
LINE
  5
2D4
330
2
100
AcDbEntity
  8
0
  6
Continuous
100
AcDbLine
 10
209.9972441768996
 20
130.3459686482
 30
0.0
 11
209.9972441768996
 21
129.7459678047998
 31
0.0
  0
LINE
  5
2D5
330
2
100
AcDbEntity
  8
0
  6
Continuous
100
AcDbLine
 10
210.4972451901998
 20
129.7459678047998
 30
0.0
 11
210.4972451901998
 21
130.3359662437
 31
0.0
  0
LINE
  5
2D6
330
2
100
AcDbEntity
  8
0
  6
Continuous
100
AcDbLine
 10
213.8972468651
 20
130.3359662437
 30
0.0
 11
213.8972468651
 21
129.9426333302
 31
0.0
  0
LINE
  5
2D7
330
2
100
AcDbEntity
  8
0
  6
Continuous
100
AcDbLine
 10
213.3972458517998
 20
130.1859674298997
 30
0.0
 11
212.7972468709999
 21
130.1859674298997
 31
0.0
  0
LINE
  5
2D8
330
2
100
AcDbEntity
  8
0
  6
Continuous
100
AcDbLine
 10
213.8972468651
 20
130.2359682762
 30
0.0
 11
213.3972458517998
 21
130.2359682762
 31
0.0
  0
LINE
  5
2D9
330
2
100
AcDbEntity
  8
0
  6
Continuous
100
AcDbLine
 10
230.1972433900999
 20
130.9359689497999
 30
0.0
 11
229.6972423768
 21
130.9359689497999
 31
0.0
  0
LINE
  5
2DA
330
2
100
AcDbEntity
  8
0
  6
Continuous
100
AcDbLine
 10
229.6972423768
 20
130.4359828377
 30
0.0
 11
230.1972433900999
 21
130.4359828377
 31
0.0
  0
LINE
  5
2DB
330
2
100
AcDbEntity
  8
0
  6
Continuous
100
AcDbLine
 10
229.6972423768
 20
126.7288756811
 30
0.0
 11
230.1972433900999
 21
126.7288756811
 31
0.0
  0
LINE
  5
2DC
330
2
100
AcDbEntity
  8
0
  6
Continuous
100
AcDbLine
 10
229.6972423768
 20
130.9359689497999
 30
0.0
 11
229.6972423768
 21
126.9359682940999
 31
0.0
  0
LINE
  5
2DD
330
2
100
AcDbEntity
  8
0
  6
Continuous
100
AcDbLine
 10
236.4972457266
 20
126.9359831953
 30
0.0
 11
236.4972457266
 21
130.9359838509
 31
0.0
  0
LINE
  5
2DE
330
2
100
AcDbEntity
  8
0
  6
Continuous
100
AcDbLine
 10
230.1972433900999
 20
126.9359831953
 30
0.0
 11
230.1972433900999
 21
130.9359838509
 31
0.0
  0
LINE
  5
2DF
330
2
100
AcDbEntity
  8
0
  6
Continuous
100
AcDbLine
 10
236.4972457266
 20
126.9359831953
 30
0.0
 11
230.1972433900999
 21
126.9359831953
 31
0.0
  0
LINE
  5
2E0
330
2
100
AcDbEntity
  8
0
  6
Continuous
100
AcDbLine
 10
236.4972457266
 20
130.9359838509
 30
0.0
 11
230.1972433900999
 21
130.9359838509
 31
0.0
  0
LINE
  5
2E1
330
2
100
AcDbEntity
  8
0
  6
Continuous
100
AcDbLine
 10
214.4972458458
 20
146.0638007335
 30
0.0
 11
229.6972423768
 21
146.0638007335
 31
0.0
  0
LINE
  5
2E2
330
2
100
AcDbEntity
  8
0
  6
Continuous
100
AcDbLine
 10
214.4972458458
 20
142.0638019404998
 30
0.0
 11
229.6972423768
 21
142.0638019404998
 31
0.0
  0
LINE
  5
2E3
330
2
100
AcDbEntity
  8
0
  6
Continuous
100
AcDbLine
 10
211.9972445046998
 20
142.0638019404998
 30
0.0
 11
199.5472460961996
 21
142.0638019404998
 31
0.0
  0
LINE
  5
2E4
330
2
100
AcDbEntity
  8
0
  6
Continuous
100
AcDbLine
 10
197.6072452939
 20
149.1638019867
 30
0.0
 11
209.9972441768996
 21
149.1638019867
 31
0.0
  0
LINE
  5
2E5
330
2
100
AcDbEntity
  8
0
  6
Continuous
100
AcDbLine
 10
199.5472460961996
 20
142.0638019404998
 30
0.0
 11
199.5472460961996
 21
147.5638019106999
 31
0.0
  0
LINE
  5
2E6
330
2
100
AcDbEntity
  8
0
  6
Continuous
100
AcDbLine
 10
199.5472460961996
 20
148.3138015679998
 30
0.0
 11
201.2972459174
 21
148.3138015679998
 31
0.0
  0
LINE
  5
2E7
330
2
100
AcDbEntity
  8
0
  6
Continuous
100
AcDbLine
 10
197.6072452939
 20
149.1638019867
 30
0.0
 11
197.5972466147
 21
149.1638019867
 31
0.0
  0
LINE
  5
2E8
330
2
100
AcDbEntity
  8
0
  6
Continuous
100
AcDbLine
 10
197.5972466147
 20
149.7638018987999
 30
0.0
 11
197.5972466147
 21
149.1638019867
 31
0.0
  0
ARC
  5
2E9
330
2
100
AcDbEntity
  8
0
  6
Continuous
100
AcDbCircle
 10
197.5972451186
 20
149.7638016574
 30
0.0
 40
0.5999999999999944
100
AcDbArc
 50
180.0
 51
270.0
  0
LINE
  5
2EA
330
2
100
AcDbEntity
  8
0
  6
Continuous
100
AcDbLine
 10
196.9972439087
 20
149.7638018987999
 30
0.0
 11
196.9972439087
 21
149.7738015092999
 31
0.0
  0
LINE
  5
2EB
330
2
100
AcDbEntity
  8
0
  6
Continuous
100
AcDbLine
 10
197.5972466147
 20
149.7638018987999
 30
0.0
 11
196.9972439087
 21
149.7638018987999
 31
0.0
  0
LINE
  5
2EC
330
2
100
AcDbEntity
  8
0
  6
Continuous
100
AcDbLine
 10
199.5472460961996
 20
147.5638019106999
 30
0.0
 11
199.5472460961996
 21
148.3138015679998
 31
0.0
  0
LINE
  5
2ED
330
2
100
AcDbEntity
  8
0
  6
Continuous
100
AcDbLine
 10
201.2972459174
 20
149.1638019867
 30
0.0
 11
201.2972459174
 21
148.3138015679998
 31
0.0
  0
LINE
  5
2EE
330
2
100
AcDbEntity
  8
0
  6
Continuous
100
AcDbLine
 10
214.4972458458
 20
142.0638019404998
 30
0.0
 11
214.4972458458
 21
146.0638007335
 31
0.0
  0
LINE
  5
2EF
330
2
100
AcDbEntity
  8
0
  6
Continuous
100
AcDbLine
 10
213.8972468651
 20
146.7638014071
 30
0.0
 11
213.8972468651
 21
145.3888023458
 31
0.0
  0
LINE
  5
2F0
330
2
100
AcDbEntity
  8
0
  6
Continuous
100
AcDbLine
 10
211.0972441709
 20
144.8138019255999
 30
0.0
 11
211.0972441709
 21
148.3138015679998
 31
0.0
  0
LINE
  5
2F1
330
2
100
AcDbEntity
  8
0
  6
Continuous
100
AcDbLine
 10
212.7972468709999
 20
149.0138013101999
 30
0.0
 11
212.7972468709999
 21
144.1138012520999
 31
0.0
  0
LINE
  5
2F2
330
2
100
AcDbEntity
  8
0
  6
Continuous
100
AcDbLine
 10
213.3972458517998
 20
149.0638012253
 30
0.0
 11
213.3972458517998
 21
144.0638022683
 31
0.0
  0
LINE
  5
2F3
330
2
100
AcDbEntity
  8
0
  6
Continuous
100
AcDbLine
 10
211.9972445046998
 20
142.0638019404998
 30
0.0
 11
212.4972455179999
 21
142.5638010912
 31
0.0
  0
LINE
  5
2F4
330
2
100
AcDbEntity
  8
0
  6
Continuous
100
AcDbLine
 10
211.5972451842
 20
144.3138009122999
 30
0.0
 11
212.7972468709999
 21
144.3138009122999
 31
0.0
  0
LINE
  5
2F5
330
2
100
AcDbEntity
  8
0
  6
Continuous
100
AcDbLine
 10
211.9972445046998
 20
142.0638019404998
 30
0.0
 11
211.9972445046998
 21
144.3138009122999
 31
0.0
  0
ARC
  5
2F6
330
2
100
AcDbEntity
  8
0
  6
Continuous
100
AcDbCircle
 10
211.5972451185998
 20
144.8138016574
 30
0.0
 40
0.5
100
AcDbArc
 50
180.0
 51
270.0
  0
LINE
  5
2F7
330
2
100
AcDbEntity
  8
0
  6
Continuous
100
AcDbLine
 10
214.4972458458
 20
142.0638019404998
 30
0.0
 11
212.4972455179999
 21
142.0638019404998
 31
0.0
  0
LINE
  5
2F8
330
2
100
AcDbEntity
  8
0
  6
Continuous
100
AcDbLine
 10
212.4972455179999
 20
144.3138009122999
 30
0.0
 11
212.4972455179999
 21
142.0638019404998
 31
0.0
  0
LINE
  5
2F9
330
2
100
AcDbEntity
  8
0
  6
Continuous
100
AcDbLine
 10
213.8972468651
 20
145.3888023458
 30
0.0
 11
213.8972468651
 21
144.0638022683
 31
0.0
  0
LINE
  5
2FA
330
2
100
AcDbEntity
  8
0
  6
Continuous
100
AcDbLine
 10
213.8972468651
 20
144.1638020985
 30
0.0
 11
214.4972458458
 21
144.1638020985
 31
0.0
  0
LINE
  5
2FB
330
2
100
AcDbEntity
  8
0
  6
Continuous
100
AcDbLine
 10
212.7972468709999
 20
144.1138012520999
 30
0.0
 11
213.3972458517998
 21
144.1138012520999
 31
0.0
  0
LINE
  5
2FC
330
2
100
AcDbEntity
  8
0
  6
Continuous
100
AcDbLine
 10
213.3972458517998
 20
144.0638022683
 30
0.0
 11
213.8972468651
 21
144.0638022683
 31
0.0
  0
LINE
  5
2FD
330
2
100
AcDbEntity
  8
0
  6
Continuous
100
AcDbLine
 10
210.4972451901998
 20
149.7638018987999
 30
0.0
 11
213.8972468651
 21
149.7638018987999
 31
0.0
  0
LINE
  5
2FE
330
2
100
AcDbEntity
  8
0
  6
Continuous
100
AcDbLine
 10
210.4972451901998
 20
149.1638019867
 30
0.0
 11
213.8972468651
 21
149.1638019867
 31
0.0
  0
LINE
  5
2FF
330
2
100
AcDbEntity
  8
0
  6
Continuous
100
AcDbLine
 10
212.7972468709999
 20
148.8138016499
 30
0.0
 11
211.5972451842
 21
148.8138016499
 31
0.0
  0
LINE
  5
300
330
2
100
AcDbEntity
  8
0
  6
Continuous
100
AcDbLine
 10
211.9972445046998
 20
148.8138016499
 30
0.0
 11
211.9972445046998
 21
149.1638019867
 31
0.0
  0
LINE
  5
301
330
2
100
AcDbEntity
  8
0
  6
Continuous
100
AcDbLine
 10
210.4972451901998
 20
149.7638018987999
 30
0.0
 11
209.9972441768996
 21
149.7638018987999
 31
0.0
  0
LINE
  5
302
330
2
100
AcDbEntity
  8
0
  6
Continuous
100
AcDbLine
 10
210.4972451901998
 20
149.1638019867
 30
0.0
 11
209.9972441768996
 21
149.1638019867
 31
0.0
  0
LINE
  5
303
330
2
100
AcDbEntity
  8
0
  6
Continuous
100
AcDbLine
 10
210.4972451901998
 20
149.7638018987999
 30
0.0
 11
210.4972451901998
 21
149.1638019867
 31
0.0
  0
LINE
  5
304
330
2
100
AcDbEntity
  8
0
  6
Continuous
100
AcDbLine
 10
209.9972441768996
 20
149.1638019867
 30
0.0
 11
209.9972441768996
 21
149.7638018987999
 31
0.0
  0
ARC
  5
305
330
2
100
AcDbEntity
  8
0
  6
Continuous
100
AcDbCircle
 10
211.5972451185998
 20
148.3138016574
 30
0.0
 40
0.5
100
AcDbArc
 50
90.0
 51
180.0
  0
LINE
  5
306
330
2
100
AcDbEntity
  8
0
  6
Continuous
100
AcDbLine
 10
212.4972455179999
 20
149.1638019867
 30
0.0
 11
212.4972455179999
 21
148.8138016499
 31
0.0
  0
ARC
  5
307
330
2
100
AcDbEntity
  8
0
  6
Continuous
100
AcDbCircle
 10
213.8972451185999
 20
149.1638016573999
 30
0.0
 40
0.6000000000000229
100
AcDbArc
 50
0.0
 51
90.0
  0
LINE
  5
308
330
2
100
AcDbEntity
  8
0
  6
Continuous
100
AcDbLine
 10
213.8972468651
 20
149.7638018987999
 30
0.0
 11
213.8972468651
 21
149.1638019867
 31
0.0
  0
LINE
  5
309
330
2
100
AcDbEntity
  8
0
  6
Continuous
100
AcDbLine
 10
213.8972468651
 20
149.1638019867
 30
0.0
 11
213.8972468651
 21
146.7638014071
 31
0.0
  0
LINE
  5
30A
330
2
100
AcDbEntity
  8
0
  6
Continuous
100
AcDbLine
 10
214.4972458458
 20
149.1638019867
 30
0.0
 11
213.8972468651
 21
149.1638019867
 31
0.0
  0
LINE
  5
30B
330
2
100
AcDbEntity
  8
0
  6
Continuous
100
AcDbLine
 10
213.3972458517998
 20
149.0138013101999
 30
0.0
 11
212.7972468709999
 21
149.0138013101999
 31
0.0
  0
LINE
  5
30C
330
2
100
AcDbEntity
  8
0
  6
Continuous
100
AcDbLine
 10
213.8972468651
 20
149.0638012253
 30
0.0
 11
213.3972458517998
 21
149.0638012253
 31
0.0
  0
LINE
  5
30D
330
2
100
AcDbEntity
  8
0
  6
Continuous
100
AcDbLine
 10
231.9222465134
 20
153.7388011998999
 30
0.0
 11
231.9222465134
 21
154.3888019583999
 31
0.0
  0
LINE
  5
30E
330
2
100
AcDbEntity
  8
0
  6
Continuous
100
AcDbLine
 10
232.5722426152998
 20
154.3888019583999
 30
0.0
 11
232.5722426152998
 21
153.7388011998999
 31
0.0
  0
LINE
  5
30F
330
2
100
AcDbEntity
  8
0
  6
Continuous
100
AcDbLine
 10
232.4972450709998
 20
153.8138015382
 30
0.0
 11
232.4972450709998
 21
154.3138016201
 31
0.0
  0
LINE
  5
310
330
2
100
AcDbEntity
  8
0
  6
Continuous
100
AcDbLine
 10
231.9972440577
 20
154.3138016201
 30
0.0
 11
231.9972440577
 21
153.8138015382
 31
0.0
  0
LINE
  5
311
330
2
100
AcDbEntity
  8
0
  6
Continuous
100
AcDbLine
 10
230.4972484683999
 20
150.7638020626998
 30
0.0
 11
229.6972423768
 21
150.7638020626998
 31
0.0
  0
LINE
  5
312
330
2
100
AcDbEntity
  8
0
  6
Continuous
100
AcDbLine
 10
229.6972423768
 20
142.5638010912
 30
0.0
 11
230.1972433900999
 21
142.5638010912
 31
0.0
  0
LINE
  5
313
330
2
100
AcDbEntity
  8
0
  6
Continuous
100
AcDbLine
 10
229.6972423768
 20
149.8638017289
 30
0.0
 11
230.1972433900999
 21
149.8638017289
 31
0.0
  0
LINE
  5
314
330
2
100
AcDbEntity
  8
0
  6
Continuous
100
AcDbLine
 10
229.6972423768
 20
146.2709082476999
 30
0.0
 11
230.1972433900999
 21
146.2709082476999
 31
0.0
  0
LINE
  5
315
330
2
100
AcDbEntity
  8
0
  6
Continuous
100
AcDbLine
 10
229.6972423768
 20
146.0638007335
 30
0.0
 11
229.6972423768
 21
142.0638019404998
 31
0.0
  0
LINE
  5
316
330
2
100
AcDbEntity
  8
0
  6
Continuous
100
AcDbLine
 10
229.6972423768
 20
150.7638020626998
 30
0.0
 11
229.6972423768
 21
146.0638007335
 31
0.0
  0
LINE
  5
317
330
2
100
AcDbEntity
  8
0
  6
Continuous
100
AcDbLine
 10
230.1972433900999
 20
142.0638019404998
 30
0.0
 11
230.1972433900999
 21
146.0638007335
 31
0.0
  0
LINE
  5
318
330
2
100
AcDbEntity
  8
0
  6
Continuous
100
AcDbLine
 10
236.4972457266
 20
142.0638019404998
 30
0.0
 11
236.4972457266
 21
146.0638007335
 31
0.0
  0
LINE
  5
319
330
2
100
AcDbEntity
  8
0
  6
Continuous
100
AcDbLine
 10
236.4972457266
 20
142.0638019404998
 30
0.0
 11
230.1972433900999
 21
142.0638019404998
 31
0.0
  0
LINE
  5
31A
330
2
100
AcDbEntity
  8
0
  6
Continuous
100
AcDbLine
 10
236.4972457266
 20
146.0638007335
 30
0.0
 11
230.1972433900999
 21
146.0638007335
 31
0.0
  0
LINE
  5
31B
330
2
100
AcDbEntity
  8
0
  6
Continuous
100
AcDbLine
 10
234.3972474312999
 20
150.4138017259
 30
0.0
 11
234.3972474312999
 21
150.0638013891999
 31
0.0
  0
LINE
  5
31C
330
2
100
AcDbEntity
  8
0
  6
Continuous
100
AcDbLine
 10
230.1972433900999
 20
150.5138015561
 30
0.0
 11
230.1972433900999
 21
150.0638013891999
 31
0.0
  0
LINE
  5
31D
330
2
100
AcDbEntity
  8
0
  6
Continuous
100
AcDbLine
 10
234.9972426868
 20
149.8638017289
 30
0.0
 11
230.1972433900999
 21
149.8638017289
 31
0.0
  0
LINE
  5
31E
330
2
100
AcDbEntity
  8
0
  6
Continuous
100
AcDbLine
 10
230.1972433900999
 20
150.0638013891999
 30
0.0
 11
234.3972474312999
 21
150.0638013891999
 31
0.0
  0
LINE
  5
31F
330
2
100
AcDbEntity
  8
0
  6
Continuous
100
AcDbLine
 10
230.1972433900999
 20
150.0638013891999
 30
0.0
 11
230.1972433900999
 21
149.8638017289
 31
0.0
  0
LINE
  5
320
330
2
100
AcDbEntity
  8
0
  6
Continuous
100
AcDbLine
 10
230.1972433900999
 20
146.0638007335
 30
0.0
 11
230.1972433900999
 21
149.8638017289
 31
0.0
  0
LINE
  5
321
330
2
100
AcDbEntity
  8
0
  6
Continuous
100
AcDbLine
 10
233.0072447634
 20
150.9138018078999
 30
0.0
 11
231.9672480202
 21
150.9138018078999
 31
0.0
  0
LINE
  5
322
330
2
100
AcDbEntity
  8
0
  6
Continuous
100
AcDbLine
 10
232.9072430706
 20
150.8138019778
 30
0.0
 11
232.0672422624
 21
150.8138019778
 31
0.0
  0
LINE
  5
323
330
2
100
AcDbEntity
  8
0
  6
Continuous
100
AcDbLine
 10
231.9972440577
 20
153.8138015382
 30
0.0
 11
231.9222465134
 21
153.7388011998999
 31
0.0
  0
LINE
  5
324
330
2
100
AcDbEntity
  8
0
  6
Continuous
100
AcDbLine
 10
232.4972450709998
 20
153.8138015382
 30
0.0
 11
232.5722426152998
 21
153.7388011998999
 31
0.0
  0
LINE
  5
325
330
2
100
AcDbEntity
  8
0
  6
Continuous
100
AcDbLine
 10
231.9972440577
 20
152.3138012922998
 30
0.0
 11
231.9222465134
 21
152.3888016306
 31
0.0
  0
LINE
  5
326
330
2
100
AcDbEntity
  8
0
  6
Continuous
100
AcDbLine
 10
232.5722426152998
 20
152.3888016306
 30
0.0
 11
232.4972450709998
 21
152.3138012922998
 31
0.0
  0
LINE
  5
327
330
2
100
AcDbEntity
  8
0
  6
Continuous
100
AcDbLine
 10
232.4972450709998
 20
151.8138012104
 30
0.0
 11
232.5722426152998
 21
151.7388018034
 31
0.0
  0
LINE
  5
328
330
2
100
AcDbEntity
  8
0
  6
Continuous
100
AcDbLine
 10
231.9972440577
 20
151.8138012104
 30
0.0
 11
231.9222465134
 21
151.7388018034
 31
0.0
  0
LINE
  5
329
330
2
100
AcDbEntity
  8
0
  6
Continuous
100
AcDbLine
 10
231.9222465134
 20
151.7388018034
 30
0.0
 11
231.9222465134
 21
152.3888016306
 31
0.0
  0
LINE
  5
32A
330
2
100
AcDbEntity
  8
0
  6
Continuous
100
AcDbLine
 10
231.9222465134
 20
152.3888016306
 30
0.0
 11
232.5722426152998
 21
152.3888016306
 31
0.0
  0
LINE
  5
32B
330
2
100
AcDbEntity
  8
0
  6
Continuous
100
AcDbLine
 10
232.5722426152998
 20
152.3888016306
 30
0.0
 11
232.5722426152998
 21
151.7388018034
 31
0.0
  0
LINE
  5
32C
330
2
100
AcDbEntity
  8
0
  6
Continuous
100
AcDbLine
 10
232.5722426152998
 20
151.7388018034
 30
0.0
 11
231.9222465134
 21
151.7388018034
 31
0.0
  0
LINE
  5
32D
330
2
100
AcDbEntity
  8
0
  6
Continuous
100
AcDbLine
 10
232.5722426152998
 20
153.7388011998999
 30
0.0
 11
231.9222465134
 21
153.7388011998999
 31
0.0
  0
LINE
  5
32E
330
2
100
AcDbEntity
  8
0
  6
Continuous
100
AcDbLine
 10
230.1972433900999
 20
150.7638020626998
 30
0.0
 11
230.1972433900999
 21
150.6765920855
 31
0.0
  0
LINE
  5
32F
330
2
100
AcDbEntity
  8
0
  6
Continuous
100
AcDbLine
 10
232.4972450709998
 20
153.8138015382
 30
0.0
 11
231.9972440577
 21
153.8138015382
 31
0.0
  0
LINE
  5
330
330
2
100
AcDbEntity
  8
0
  6
Continuous
100
AcDbLine
 10
232.4972450709998
 20
151.8138012104
 30
0.0
 11
231.9972440577
 21
151.8138012104
 31
0.0
  0
LINE
  5
331
330
2
100
AcDbEntity
  8
0
  6
Continuous
100
AcDbLine
 10
232.4972450709998
 20
151.8138012104
 30
0.0
 11
232.4972450709998
 21
152.3138012922998
 31
0.0
  0
LINE
  5
332
330
2
100
AcDbEntity
  8
0
  6
Continuous
100
AcDbLine
 10
232.4972450709998
 20
152.3138012922998
 30
0.0
 11
231.9972440577
 21
152.3138012922998
 31
0.0
  0
LINE
  5
333
330
2
100
AcDbEntity
  8
0
  6
Continuous
100
AcDbLine
 10
231.9972440577
 20
152.3138012922998
 30
0.0
 11
231.9972440577
 21
151.8138012104
 31
0.0
  0
LINE
  5
334
330
2
100
AcDbEntity
  8
0
  6
Continuous
100
AcDbLine
 10
230.1972433900999
 20
150.5138015561
 30
0.0
 11
230.1972433900999
 21
150.6765920855
 31
0.0
  0
LINE
  5
335
330
2
100
AcDbEntity
  8
0
  6
Continuous
100
AcDbLine
 10
231.9672480202
 20
150.9138018078999
 30
0.0
 11
232.0672422624
 21
150.8138019778
 31
0.0
  0
LINE
  5
336
330
2
100
AcDbEntity
  8
0
  6
Continuous
100
AcDbLine
 10
231.2472462631
 20
150.5138015561
 30
0.0
 11
232.1272417879
 21
150.5138015561
 31
0.0
  0
LINE
  5
337
330
2
100
AcDbEntity
  8
0
  6
Continuous
100
AcDbLine
 10
231.1472445703
 20
150.4138017259
 30
0.0
 11
231.2472462631
 21
150.5138015561
 31
0.0
  0
LINE
  5
338
330
2
100
AcDbEntity
  8
0
  6
Continuous
100
AcDbLine
 10
230.6972444033999
 20
150.5138015561
 30
0.0
 11
230.1972433900999
 21
150.5138015561
 31
0.0
  0
LINE
  5
339
330
2
100
AcDbEntity
  8
0
  6
Continuous
100
AcDbLine
 10
232.0672422624
 20
150.8138019778
 30
0.0
 11
232.1272417879
 21
150.7538015209
 31
0.0
  0
LINE
  5
33A
330
2
100
AcDbEntity
  8
0
  6
Continuous
100
AcDbLine
 10
232.1272417879
 20
150.7538015209
 30
0.0
 11
232.1272417879
 21
150.4138017259
 31
0.0
  0
LINE
  5
33B
330
2
100
AcDbEntity
  8
0
  6
Continuous
100
AcDbLine
 10
232.1272417879
 20
150.4138017259
 30
0.0
 11
231.1472445703
 21
150.4138017259
 31
0.0
  0
LINE
  5
33C
330
2
100
AcDbEntity
  8
0
  6
Continuous
100
AcDbLine
 10
232.9072430706
 20
150.8138019778
 30
0.0
 11
233.0072447634
 21
150.9138018078999
 31
0.0
  0
LINE
  5
33D
330
2
100
AcDbEntity
  8
0
  6
Continuous
100
AcDbLine
 10
234.3972474312999
 20
150.5138015561
 30
0.0
 11
234.3972474312999
 21
150.4138017259
 31
0.0
  0
LINE
  5
33E
330
2
100
AcDbEntity
  8
0
  6
Continuous
100
AcDbLine
 10
234.3972474312999
 20
150.5138015561
 30
0.0
 11
232.8472435450998
 21
150.5138015561
 31
0.0
  0
LINE
  5
33F
330
2
100
AcDbEntity
  8
0
  6
Continuous
100
AcDbLine
 10
234.3972474312999
 20
150.4138017259
 30
0.0
 11
232.8472435450998
 21
150.4138017259
 31
0.0
  0
LINE
  5
340
330
2
100
AcDbEntity
  8
0
  6
Continuous
100
AcDbLine
 10
232.8472435450998
 20
150.4138017259
 30
0.0
 11
232.8472435450998
 21
150.7538015209
 31
0.0
  0
LINE
  5
341
330
2
100
AcDbEntity
  8
0
  6
Continuous
100
AcDbLine
 10
232.8472435450998
 20
150.7538015209
 30
0.0
 11
232.9072430706
 21
150.8138019778
 31
0.0
  0
LINE
  5
342
330
2
100
AcDbEntity
  8
0
  6
Continuous
100
AcDbLine
 10
231.9972440577
 20
158.3138018100999
 30
0.0
 11
231.9222465134
 21
158.3888016827
 31
0.0
  0
LINE
  5
343
330
2
100
AcDbEntity
  8
0
  6
Continuous
100
AcDbLine
 10
232.5722426152998
 20
158.3888016827
 30
0.0
 11
232.4972450709998
 21
158.3138018100999
 31
0.0
  0
LINE
  5
344
330
2
100
AcDbEntity
  8
0
  6
Continuous
100
AcDbLine
 10
231.9222465134
 20
157.7388018556
 30
0.0
 11
231.9222465134
 21
158.3888016827
 31
0.0
  0
LINE
  5
345
330
2
100
AcDbEntity
  8
0
  6
Continuous
100
AcDbLine
 10
232.5722426152998
 20
158.3888016827
 30
0.0
 11
232.5722426152998
 21
157.7388018556
 31
0.0
  0
LINE
  5
346
330
2
100
AcDbEntity
  8
0
  6
Continuous
100
AcDbLine
 10
232.4972450709998
 20
157.8138017281998
 30
0.0
 11
232.5722426152998
 21
157.7388018556
 31
0.0
  0
LINE
  5
347
330
2
100
AcDbEntity
  8
0
  6
Continuous
100
AcDbLine
 10
231.9972440577
 20
157.8138017281998
 30
0.0
 11
231.9222465134
 21
157.7388018556
 31
0.0
  0
LINE
  5
348
330
2
100
AcDbEntity
  8
0
  6
Continuous
100
AcDbLine
 10
231.9972440577
 20
155.813801866
 30
0.0
 11
231.9222465134
 21
155.7388015278
 31
0.0
  0
LINE
  5
349
330
2
100
AcDbEntity
  8
0
  6
Continuous
100
AcDbLine
 10
231.9972440577
 20
156.3138014823
 30
0.0
 11
231.9222465134
 21
156.3888018206
 31
0.0
  0
LINE
  5
34A
330
2
100
AcDbEntity
  8
0
  6
Continuous
100
AcDbLine
 10
232.5722426152998
 20
156.3888018206
 30
0.0
 11
232.4972450709998
 21
156.3138014823
 31
0.0
  0
LINE
  5
34B
330
2
100
AcDbEntity
  8
0
  6
Continuous
100
AcDbLine
 10
232.4972450709998
 20
155.813801866
 30
0.0
 11
232.5722426152998
 21
155.7388015278
 31
0.0
  0
LINE
  5
34C
330
2
100
AcDbEntity
  8
0
  6
Continuous
100
AcDbLine
 10
231.9972440577
 20
154.3138016201
 30
0.0
 11
231.9222465134
 21
154.3888019583999
 31
0.0
  0
LINE
  5
34D
330
2
100
AcDbEntity
  8
0
  6
Continuous
100
AcDbLine
 10
232.5722426152998
 20
154.3888019583999
 30
0.0
 11
232.4972450709998
 21
154.3138016201
 31
0.0
  0
LINE
  5
34E
330
2
100
AcDbEntity
  8
0
  6
Continuous
100
AcDbLine
 10
231.9222465134
 20
154.3888019583999
 30
0.0
 11
232.5722426152998
 21
154.3888019583999
 31
0.0
  0
LINE
  5
34F
330
2
100
AcDbEntity
  8
0
  6
Continuous
100
AcDbLine
 10
231.9222465134
 20
155.7388015278
 30
0.0
 11
231.9222465134
 21
156.3888018206
 31
0.0
  0
LINE
  5
350
330
2
100
AcDbEntity
  8
0
  6
Continuous
100
AcDbLine
 10
231.9222465134
 20
156.3888018206
 30
0.0
 11
232.5722426152998
 21
156.3888018206
 31
0.0
  0
LINE
  5
351
330
2
100
AcDbEntity
  8
0
  6
Continuous
100
AcDbLine
 10
232.5722426152998
 20
156.3888018206
 30
0.0
 11
232.5722426152998
 21
155.7388015278
 31
0.0
  0
LINE
  5
352
330
2
100
AcDbEntity
  8
0
  6
Continuous
100
AcDbLine
 10
232.5722426152998
 20
155.7388015278
 30
0.0
 11
231.9222465134
 21
155.7388015278
 31
0.0
  0
LINE
  5
353
330
2
100
AcDbEntity
  8
0
  6
Continuous
100
AcDbLine
 10
232.5722426152998
 20
157.7388018556
 30
0.0
 11
231.9222465134
 21
157.7388018556
 31
0.0
  0
LINE
  5
354
330
2
100
AcDbEntity
  8
0
  6
Continuous
100
AcDbLine
 10
232.4972450709998
 20
157.8138017281998
 30
0.0
 11
232.4972450709998
 21
158.3138018100999
 31
0.0
  0
LINE
  5
355
330
2
100
AcDbEntity
  8
0
  6
Continuous
100
AcDbLine
 10
232.4972450709998
 20
157.8138017281998
 30
0.0
 11
231.9972440577
 21
157.8138017281998
 31
0.0
  0
LINE
  5
356
330
2
100
AcDbEntity
  8
0
  6
Continuous
100
AcDbLine
 10
231.9972440577
 20
158.3138018100999
 30
0.0
 11
231.9972440577
 21
157.8138017281998
 31
0.0
  0
LINE
  5
357
330
2
100
AcDbEntity
  8
0
  6
Continuous
100
AcDbLine
 10
232.4972450709998
 20
158.3138018100999
 30
0.0
 11
231.9972440577
 21
158.3138018100999
 31
0.0
  0
LINE
  5
358
330
2
100
AcDbEntity
  8
0
  6
Continuous
100
AcDbLine
 10
231.9972440577
 20
156.3138014823
 30
0.0
 11
231.9972440577
 21
155.813801866
 31
0.0
  0
LINE
  5
359
330
2
100
AcDbEntity
  8
0
  6
Continuous
100
AcDbLine
 10
232.4972450709998
 20
155.813801866
 30
0.0
 11
232.4972450709998
 21
156.3138014823
 31
0.0
  0
LINE
  5
35A
330
2
100
AcDbEntity
  8
0
  6
Continuous
100
AcDbLine
 10
232.4972450709998
 20
156.3138014823
 30
0.0
 11
231.9972440577
 21
156.3138014823
 31
0.0
  0
LINE
  5
35B
330
2
100
AcDbEntity
  8
0
  6
Continuous
100
AcDbLine
 10
232.4972450709998
 20
155.813801866
 30
0.0
 11
231.9972440577
 21
155.813801866
 31
0.0
  0
LINE
  5
35C
330
2
100
AcDbEntity
  8
0
  6
Continuous
100
AcDbLine
 10
232.4972450709998
 20
154.3138016201
 30
0.0
 11
231.9972440577
 21
154.3138016201
 31
0.0
  0
LINE
  5
35D
330
2
100
AcDbEntity
  8
0
  6
Continuous
100
AcDbLine
 10
231.9972440577
 20
162.3138016508999
 30
0.0
 11
231.9222465134
 21
162.3888016399
 31
0.0
  0
LINE
  5
35E
330
2
100
AcDbEntity
  8
0
  6
Continuous
100
AcDbLine
 10
231.9972440577
 20
161.8138016853
 30
0.0
 11
231.9222465134
 21
161.7388016962999
 31
0.0
  0
LINE
  5
35F
330
2
100
AcDbEntity
  8
0
  6
Continuous
100
AcDbLine
 10
232.5722426152998
 20
162.3888016399
 30
0.0
 11
232.4972450709998
 21
162.3138016508999
 31
0.0
  0
LINE
  5
360
330
2
100
AcDbEntity
  8
0
  6
Continuous
100
AcDbLine
 10
232.4972450709998
 20
161.8138016853
 30
0.0
 11
232.5722426152998
 21
161.7388016962999
 31
0.0
  0
LINE
  5
361
330
2
100
AcDbEntity
  8
0
  6
Continuous
100
AcDbLine
 10
231.9972440577
 20
159.8138015903
 30
0.0
 11
231.9222465134
 21
159.7388017177
 31
0.0
  0
LINE
  5
362
330
2
100
AcDbEntity
  8
0
  6
Continuous
100
AcDbLine
 10
231.9972440577
 20
160.3138016723
 30
0.0
 11
231.9222465134
 21
160.3888015448999
 31
0.0
  0
LINE
  5
363
330
2
100
AcDbEntity
  8
0
  6
Continuous
100
AcDbLine
 10
232.5722426152998
 20
160.3888015448999
 30
0.0
 11
232.4972450709998
 21
160.3138016723
 31
0.0
  0
LINE
  5
364
330
2
100
AcDbEntity
  8
0
  6
Continuous
100
AcDbLine
 10
232.4972450709998
 20
159.8138015903
 30
0.0
 11
232.5722426152998
 21
159.7388017177
 31
0.0
  0
LINE
  5
365
330
2
100
AcDbEntity
  8
0
  6
Continuous
100
AcDbLine
 10
231.9222465134
 20
158.3888016827
 30
0.0
 11
232.5722426152998
 21
158.3888016827
 31
0.0
  0
LINE
  5
366
330
2
100
AcDbEntity
  8
0
  6
Continuous
100
AcDbLine
 10
231.9222465134
 20
159.7388017177
 30
0.0
 11
231.9222465134
 21
160.3888015448999
 31
0.0
  0
LINE
  5
367
330
2
100
AcDbEntity
  8
0
  6
Continuous
100
AcDbLine
 10
231.9222465134
 20
160.3888015448999
 30
0.0
 11
232.5722426152998
 21
160.3888015448999
 31
0.0
  0
LINE
  5
368
330
2
100
AcDbEntity
  8
0
  6
Continuous
100
AcDbLine
 10
232.5722426152998
 20
160.3888015448999
 30
0.0
 11
232.5722426152998
 21
159.7388017177
 31
0.0
  0
LINE
  5
369
330
2
100
AcDbEntity
  8
0
  6
Continuous
100
AcDbLine
 10
232.5722426152998
 20
159.7388017177
 30
0.0
 11
231.9222465134
 21
159.7388017177
 31
0.0
  0
LINE
  5
36A
330
2
100
AcDbEntity
  8
0
  6
Continuous
100
AcDbLine
 10
231.9222465134
 20
161.7388016962999
 30
0.0
 11
231.9222465134
 21
162.3888016399
 31
0.0
  0
LINE
  5
36B
330
2
100
AcDbEntity
  8
0
  6
Continuous
100
AcDbLine
 10
231.9222465134
 20
162.3888016399
 30
0.0
 11
232.5722426152998
 21
162.3888016399
 31
0.0
  0
LINE
  5
36C
330
2
100
AcDbEntity
  8
0
  6
Continuous
100
AcDbLine
 10
232.5722426152998
 20
162.3888016399
 30
0.0
 11
232.5722426152998
 21
161.7388016962999
 31
0.0
  0
LINE
  5
36D
330
2
100
AcDbEntity
  8
0
  6
Continuous
100
AcDbLine
 10
232.5722426152998
 20
161.7388016962999
 30
0.0
 11
231.9222465134
 21
161.7388016962999
 31
0.0
  0
LINE
  5
36E
330
2
100
AcDbEntity
  8
0
  6
Continuous
100
AcDbLine
 10
231.9972440577
 20
162.3138016508999
 30
0.0
 11
231.9972440577
 21
161.8138016853
 31
0.0
  0
LINE
  5
36F
330
2
100
AcDbEntity
  8
0
  6
Continuous
100
AcDbLine
 10
232.4972450709998
 20
161.8138016853
 30
0.0
 11
232.4972450709998
 21
162.3138016508999
 31
0.0
  0
LINE
  5
370
330
2
100
AcDbEntity
  8
0
  6
Continuous
100
AcDbLine
 10
232.4972450709998
 20
162.3138016508999
 30
0.0
 11
231.9972440577
 21
162.3138016508999
 31
0.0
  0
LINE
  5
371
330
2
100
AcDbEntity
  8
0
  6
Continuous
100
AcDbLine
 10
232.4972450709998
 20
161.8138016853
 30
0.0
 11
231.9972440577
 21
161.8138016853
 31
0.0
  0
LINE
  5
372
330
2
100
AcDbEntity
  8
0
  6
Continuous
100
AcDbLine
 10
232.4972450709998
 20
159.8138015903
 30
0.0
 11
232.4972450709998
 21
160.3138016723
 31
0.0
  0
LINE
  5
373
330
2
100
AcDbEntity
  8
0
  6
Continuous
100
AcDbLine
 10
232.4972450709998
 20
160.3138016723
 30
0.0
 11
231.9972440577
 21
160.3138016723
 31
0.0
  0
LINE
  5
374
330
2
100
AcDbEntity
  8
0
  6
Continuous
100
AcDbLine
 10
231.9972440577
 20
160.3138016723
 30
0.0
 11
231.9972440577
 21
159.8138015903
 31
0.0
  0
LINE
  5
375
330
2
100
AcDbEntity
  8
0
  6
Continuous
100
AcDbLine
 10
232.4972450709998
 20
159.8138015903
 30
0.0
 11
231.9972440577
 21
159.8138015903
 31
0.0
  0
LINE
  5
376
330
2
100
AcDbEntity
  8
0
  6
Continuous
100
AcDbLine
 10
232.5722426152998
 20
166.388801597
 30
0.0
 11
232.4972450709998
 21
166.3138017245
 31
0.0
  0
LINE
  5
377
330
2
100
AcDbEntity
  8
0
  6
Continuous
100
AcDbLine
 10
232.4972450709998
 20
165.8138016425
 30
0.0
 11
232.5722426152998
 21
165.7388017698995
 31
0.0
  0
LINE
  5
378
330
2
100
AcDbEntity
  8
0
  6
Continuous
100
AcDbLine
 10
231.9972440577
 20
165.8138016425
 30
0.0
 11
231.9222465134
 21
165.7388017698995
 31
0.0
  0
LINE
  5
379
330
2
100
AcDbEntity
  8
0
  6
Continuous
100
AcDbLine
 10
231.9972440577
 20
166.3138017245
 30
0.0
 11
231.9222465134
 21
166.388801597
 31
0.0
  0
LINE
  5
37A
330
2
100
AcDbEntity
  8
0
  6
Continuous
100
AcDbLine
 10
231.9972440577
 20
163.8138016639
 30
0.0
 11
231.9222465134
 21
163.7388016749
 31
0.0
  0
LINE
  5
37B
330
2
100
AcDbEntity
  8
0
  6
Continuous
100
AcDbLine
 10
231.9972440577
 20
164.3138016295
 30
0.0
 11
231.9222465134
 21
164.3888016185
 31
0.0
  0
LINE
  5
37C
330
2
100
AcDbEntity
  8
0
  6
Continuous
100
AcDbLine
 10
232.5722426152998
 20
164.3888016185
 30
0.0
 11
232.4972450709998
 21
164.3138016295
 31
0.0
  0
LINE
  5
37D
330
2
100
AcDbEntity
  8
0
  6
Continuous
100
AcDbLine
 10
232.4972450709998
 20
163.8138016639
 30
0.0
 11
232.5722426152998
 21
163.7388016749
 31
0.0
  0
LINE
  5
37E
330
2
100
AcDbEntity
  8
0
  6
Continuous
100
AcDbLine
 10
231.9222465134
 20
163.7388016749
 30
0.0
 11
231.9222465134
 21
164.3888016185
 31
0.0
  0
LINE
  5
37F
330
2
100
AcDbEntity
  8
0
  6
Continuous
100
AcDbLine
 10
231.9222465134
 20
164.3888016185
 30
0.0
 11
232.5722426152998
 21
164.3888016185
 31
0.0
  0
LINE
  5
380
330
2
100
AcDbEntity
  8
0
  6
Continuous
100
AcDbLine
 10
232.5722426152998
 20
164.3888016185
 30
0.0
 11
232.5722426152998
 21
163.7388016749
 31
0.0
  0
LINE
  5
381
330
2
100
AcDbEntity
  8
0
  6
Continuous
100
AcDbLine
 10
232.5722426152998
 20
163.7388016749
 30
0.0
 11
231.9222465134
 21
163.7388016749
 31
0.0
  0
LINE
  5
382
330
2
100
AcDbEntity
  8
0
  6
Continuous
100
AcDbLine
 10
231.9222465134
 20
165.7388017698995
 30
0.0
 11
231.9222465134
 21
166.388801597
 31
0.0
  0
LINE
  5
383
330
2
100
AcDbEntity
  8
0
  6
Continuous
100
AcDbLine
 10
231.9222465134
 20
166.388801597
 30
0.0
 11
232.5722426152998
 21
166.388801597
 31
0.0
  0
LINE
  5
384
330
2
100
AcDbEntity
  8
0
  6
Continuous
100
AcDbLine
 10
232.5722426152998
 20
166.388801597
 30
0.0
 11
232.5722426152998
 21
165.7388017698995
 31
0.0
  0
LINE
  5
385
330
2
100
AcDbEntity
  8
0
  6
Continuous
100
AcDbLine
 10
232.5722426152998
 20
165.7388017698995
 30
0.0
 11
231.9222465134
 21
165.7388017698995
 31
0.0
  0
LINE
  5
386
330
2
100
AcDbEntity
  8
0
  6
Continuous
100
AcDbLine
 10
232.4972450709998
 20
165.8138016425
 30
0.0
 11
232.4972450709998
 21
166.3138017245
 31
0.0
  0
LINE
  5
387
330
2
100
AcDbEntity
  8
0
  6
Continuous
100
AcDbLine
 10
232.4972450709998
 20
166.3138017245
 30
0.0
 11
231.9972440577
 21
166.3138017245
 31
0.0
  0
LINE
  5
388
330
2
100
AcDbEntity
  8
0
  6
Continuous
100
AcDbLine
 10
231.9972440577
 20
166.3138017245
 30
0.0
 11
231.9972440577
 21
165.8138016425
 31
0.0
  0
LINE
  5
389
330
2
100
AcDbEntity
  8
0
  6
Continuous
100
AcDbLine
 10
232.4972450709998
 20
165.8138016425
 30
0.0
 11
231.9972440577
 21
165.8138016425
 31
0.0
  0
LINE
  5
38A
330
2
100
AcDbEntity
  8
0
  6
Continuous
100
AcDbLine
 10
232.4972450709998
 20
163.8138016639
 30
0.0
 11
232.4972450709998
 21
164.3138016295
 31
0.0
  0
LINE
  5
38B
330
2
100
AcDbEntity
  8
0
  6
Continuous
100
AcDbLine
 10
232.4972450709998
 20
164.3138016295
 30
0.0
 11
231.9972440577
 21
164.3138016295
 31
0.0
  0
LINE
  5
38C
330
2
100
AcDbEntity
  8
0
  6
Continuous
100
AcDbLine
 10
231.9972440577
 20
164.3138016295
 30
0.0
 11
231.9972440577
 21
163.8138016639
 31
0.0
  0
LINE
  5
38D
330
2
100
AcDbEntity
  8
0
  6
Continuous
100
AcDbLine
 10
232.4972450709998
 20
163.8138016639
 30
0.0
 11
231.9972440577
 21
163.8138016639
 31
0.0
  0
LINE
  5
38E
330
2
100
AcDbEntity
  8
0
  6
Continuous
100
AcDbLine
 10
231.9972440577
 20
169.8138018324998
 30
0.0
 11
231.9222465134
 21
169.7388014941999
 31
0.0
  0
LINE
  5
38F
330
2
100
AcDbEntity
  8
0
  6
Continuous
100
AcDbLine
 10
231.9972440577
 20
170.3138014487999
 30
0.0
 11
231.9222465134
 21
170.3888017869999
 31
0.0
  0
LINE
  5
390
330
2
100
AcDbEntity
  8
0
  6
Continuous
100
AcDbLine
 10
232.5722426152998
 20
170.3888017869999
 30
0.0
 11
232.4972450709998
 21
170.3138014487999
 31
0.0
  0
LINE
  5
391
330
2
100
AcDbEntity
  8
0
  6
Continuous
100
AcDbLine
 10
232.4972450709998
 20
169.8138018324998
 30
0.0
 11
232.5722426152998
 21
169.7388014941999
 31
0.0
  0
LINE
  5
392
330
2
100
AcDbEntity
  8
0
  6
Continuous
100
AcDbLine
 10
232.5722426152998
 20
168.3888014592
 30
0.0
 11
232.4972450709998
 21
168.3138015865999
 31
0.0
  0
LINE
  5
393
330
2
100
AcDbEntity
  8
0
  6
Continuous
100
AcDbLine
 10
232.4972450709998
 20
167.8138015046999
 30
0.0
 11
232.5722426152998
 21
167.7388016320999
 31
0.0
  0
LINE
  5
394
330
2
100
AcDbEntity
  8
0
  6
Continuous
100
AcDbLine
 10
231.9972440577
 20
167.8138015046999
 30
0.0
 11
231.9222465134
 21
167.7388016320999
 31
0.0
  0
LINE
  5
395
330
2
100
AcDbEntity
  8
0
  6
Continuous
100
AcDbLine
 10
231.9972440577
 20
168.3138015865999
 30
0.0
 11
231.9222465134
 21
168.3888014592
 31
0.0
  0
LINE
  5
396
330
2
100
AcDbEntity
  8
0
  6
Continuous
100
AcDbLine
 10
231.9222465134
 20
167.7388016320999
 30
0.0
 11
231.9222465134
 21
168.3888014592
 31
0.0
  0
LINE
  5
397
330
2
100
AcDbEntity
  8
0
  6
Continuous
100
AcDbLine
 10
231.9222465134
 20
168.3888014592
 30
0.0
 11
232.5722426152998
 21
168.3888014592
 31
0.0
  0
LINE
  5
398
330
2
100
AcDbEntity
  8
0
  6
Continuous
100
AcDbLine
 10
232.5722426152998
 20
168.3888014592
 30
0.0
 11
232.5722426152998
 21
167.7388016320999
 31
0.0
  0
LINE
  5
399
330
2
100
AcDbEntity
  8
0
  6
Continuous
100
AcDbLine
 10
232.5722426152998
 20
167.7388016320999
 30
0.0
 11
231.9222465134
 21
167.7388016320999
 31
0.0
  0
LINE
  5
39A
330
2
100
AcDbEntity
  8
0
  6
Continuous
100
AcDbLine
 10
231.9222465134
 20
169.7388014941999
 30
0.0
 11
231.9222465134
 21
170.3888017869999
 31
0.0
  0
LINE
  5
39B
330
2
100
AcDbEntity
  8
0
  6
Continuous
100
AcDbLine
 10
231.9222465134
 20
170.3888017869999
 30
0.0
 11
232.5722426152998
 21
170.3888017869999
 31
0.0
  0
LINE
  5
39C
330
2
100
AcDbEntity
  8
0
  6
Continuous
100
AcDbLine
 10
232.5722426152998
 20
170.3888017869999
 30
0.0
 11
232.5722426152998
 21
169.7388014941999
 31
0.0
  0
LINE
  5
39D
330
2
100
AcDbEntity
  8
0
  6
Continuous
100
AcDbLine
 10
232.5722426152998
 20
169.7388014941999
 30
0.0
 11
231.9222465134
 21
169.7388014941999
 31
0.0
  0
LINE
  5
39E
330
2
100
AcDbEntity
  8
0
  6
Continuous
100
AcDbLine
 10
232.4972450709998
 20
169.8138018324998
 30
0.0
 11
231.9972440577
 21
169.8138018324998
 31
0.0
  0
LINE
  5
39F
330
2
100
AcDbEntity
  8
0
  6
Continuous
100
AcDbLine
 10
231.9972440577
 20
170.3138014487999
 30
0.0
 11
231.9972440577
 21
169.8138018324998
 31
0.0
  0
LINE
  5
3A0
330
2
100
AcDbEntity
  8
0
  6
Continuous
100
AcDbLine
 10
232.4972450709998
 20
169.8138018324998
 30
0.0
 11
232.4972450709998
 21
170.3138014487999
 31
0.0
  0
LINE
  5
3A1
330
2
100
AcDbEntity
  8
0
  6
Continuous
100
AcDbLine
 10
232.4972450709998
 20
170.3138014487999
 30
0.0
 11
231.9972440577
 21
170.3138014487999
 31
0.0
  0
LINE
  5
3A2
330
2
100
AcDbEntity
  8
0
  6
Continuous
100
AcDbLine
 10
231.9972440577
 20
168.3138015865999
 30
0.0
 11
231.9972440577
 21
167.8138015046999
 31
0.0
  0
LINE
  5
3A3
330
2
100
AcDbEntity
  8
0
  6
Continuous
100
AcDbLine
 10
232.4972450709998
 20
167.8138015046999
 30
0.0
 11
232.4972450709998
 21
168.3138015865999
 31
0.0
  0
LINE
  5
3A4
330
2
100
AcDbEntity
  8
0
  6
Continuous
100
AcDbLine
 10
232.4972450709998
 20
168.3138015865999
 30
0.0
 11
231.9972440577
 21
168.3138015865999
 31
0.0
  0
LINE
  5
3A5
330
2
100
AcDbEntity
  8
0
  6
Continuous
100
AcDbLine
 10
232.4972450709998
 20
167.8138015046999
 30
0.0
 11
231.9972440577
 21
167.8138015046999
 31
0.0
  0
LINE
  5
3A6
330
2
100
AcDbEntity
  8
0
  6
Continuous
100
AcDbLine
 10
197.162725029
 20
176.777553577
 30
0.0
 11
169.3972451589
 21
176.777553577
 31
0.0
  0
LINE
  5
3A7
330
2
100
AcDbEntity
  8
0
  6
Continuous
100
AcDbLine
 10
199.5472460961996
 20
184.0638013743
 30
0.0
 11
171.1472449801
 21
184.0638013743
 31
0.0
  0
LINE
  5
3A8
330
2
100
AcDbEntity
  8
0
  6
Continuous
100
AcDbLine
 10
161.1972451186
 20
174.0638015977999
 30
0.0
 11
159.9972450617
 21
174.0638015977999
 31
0.0
  0
LINE
  5
3A9
330
2
100
AcDbEntity
  8
0
  6
Continuous
100
AcDbLine
 10
159.9972450617
 20
174.0638015977999
 30
0.0
 11
159.6972451055999
 21
173.7638021074
 31
0.0
  0
LINE
  5
3AA
330
2
100
AcDbEntity
  8
0
  6
Continuous
100
AcDbLine
 10
171.1472449801
 20
184.0638013743
 30
0.0
 11
171.1472449801
 21
178.5638014040999
 31
0.0
  0
LINE
  5
3AB
330
2
100
AcDbEntity
  8
0
  6
Continuous
100
AcDbLine
 10
161.8972450937
 20
184.0638013743
 30
0.0
 11
161.8972450937
 21
178.5638014040999
 31
0.0
  0
LINE
  5
3AC
330
2
100
AcDbEntity
  8
0
  6
Continuous
100
AcDbLine
 10
161.1972451186
 20
178.5638014040999
 30
0.0
 11
161.1972451186
 21
183.3638025634
 31
0.0
  0
LINE
  5
3AD
330
2
100
AcDbEntity
  8
0
  6
Continuous
100
AcDbLine
 10
171.1472449801
 20
177.8138017468
 30
0.0
 11
169.3972451589
 21
177.8138017468
 31
0.0
  0
LINE
  5
3AE
330
2
100
AcDbEntity
  8
0
  6
Continuous
100
AcDbLine
 10
171.1472449801
 20
178.5638014040999
 30
0.0
 11
171.1472449801
 21
177.8138017468
 31
0.0
  0
LINE
  5
3AF
330
2
100
AcDbEntity
  8
0
  6
Continuous
100
AcDbLine
 10
171.1472449801
 20
184.0638013743
 30
0.0
 11
161.8972450937
 21
184.0638013743
 31
0.0
  0
LINE
  5
3B0
330
2
100
AcDbEntity
  8
0
  6
Continuous
100
AcDbLine
 10
161.8972450937
 20
184.0638013743
 30
0.0
 11
161.1972451186
 21
183.3638025634
 31
0.0
  0
LINE
  5
3B1
330
2
100
AcDbEntity
  8
0
  6
Continuous
100
AcDbLine
 10
214.4972458458
 20
184.0638013743
 30
0.0
 11
229.6972423768
 21
184.0638013743
 31
0.0
  0
LINE
  5
3B2
330
2
100
AcDbEntity
  8
0
  6
Continuous
100
AcDbLine
 10
214.4972458458
 20
180.0638025813
 30
0.0
 11
229.6972423768
 21
180.0638025813
 31
0.0
  0
LINE
  5
3B3
330
2
100
AcDbEntity
  8
0
  6
Continuous
100
AcDbLine
 10
211.9972445046998
 20
184.0638013743
 30
0.0
 11
199.5472460961996
 21
184.0638013743
 31
0.0
  0
LINE
  5
3B4
330
2
100
AcDbEntity
  8
0
  6
Continuous
100
AcDbLine
 10
209.9972441768996
 20
176.9638013281
 30
0.0
 11
197.6072452939
 21
176.9638013281
 31
0.0
  0
LINE
  5
3B5
330
2
100
AcDbEntity
  8
0
  6
Continuous
100
AcDbLine
 10
199.5472460961996
 20
178.5638014040999
 30
0.0
 11
199.5472460961996
 21
184.0638013743
 31
0.0
  0
LINE
  5
3B6
330
2
100
AcDbEntity
  8
0
  6
Continuous
100
AcDbLine
 10
199.5472460961996
 20
177.8138017468
 30
0.0
 11
201.2972459174
 21
177.8138017468
 31
0.0
  0
ARC
  5
3B7
330
2
100
AcDbEntity
  8
0
  6
Continuous
100
AcDbCircle
 10
197.5972451186
 20
176.3638016574
 30
0.0
 40
0.6000000000000229
100
AcDbArc
 50
90.0
 51
180.0
  0
LINE
  5
3B8
330
2
100
AcDbEntity
  8
0
  6
Continuous
100
AcDbLine
 10
197.5972466147
 20
176.9638013281
 30
0.0
 11
197.6072452939
 21
176.9638013281
 31
0.0
  0
LINE
  5
3B9
330
2
100
AcDbEntity
  8
0
  6
Continuous
100
AcDbLine
 10
197.5972466147
 20
176.3638014159999
 30
0.0
 11
197.5972466147
 21
176.9638013281
 31
0.0
  0
LINE
  5
3BA
330
2
100
AcDbEntity
  8
0
  6
Continuous
100
AcDbLine
 10
196.9972439087
 20
176.3538018054999
 30
0.0
 11
196.9972439087
 21
176.3638014159999
 31
0.0
  0
LINE
  5
3BB
330
2
100
AcDbEntity
  8
0
  6
Continuous
100
AcDbLine
 10
197.5972466147
 20
176.3638014159999
 30
0.0
 11
196.9972439087
 21
176.3638014159999
 31
0.0
  0
LINE
  5
3BC
330
2
100
AcDbEntity
  8
0
  6
Continuous
100
AcDbLine
 10
199.5472460961996
 20
177.8138017468
 30
0.0
 11
199.5472460961996
 21
178.5638014040999
 31
0.0
  0
LINE
  5
3BD
330
2
100
AcDbEntity
  8
0
  6
Continuous
100
AcDbLine
 10
201.2972459174
 20
177.8138017468
 30
0.0
 11
201.2972459174
 21
176.9638013281
 31
0.0
  0
LINE
  5
3BE
330
2
100
AcDbEntity
  8
0
  6
Continuous
100
AcDbLine
 10
213.8972468651
 20
176.9638013281
 30
0.0
 11
213.8972468651
 21
179.3638019077
 31
0.0
  0
LINE
  5
3BF
330
2
100
AcDbEntity
  8
0
  6
Continuous
100
AcDbLine
 10
211.0972441709
 20
177.8138017468
 30
0.0
 11
211.0972441709
 21
181.3138013891999
 31
0.0
  0
LINE
  5
3C0
330
2
100
AcDbEntity
  8
0
  6
Continuous
100
AcDbLine
 10
212.7972468709999
 20
182.0138020626998
 30
0.0
 11
212.7972468709999
 21
177.1138020045999
 31
0.0
  0
LINE
  5
3C1
330
2
100
AcDbEntity
  8
0
  6
Continuous
100
AcDbLine
 10
213.3972458517998
 20
182.0638010463999
 30
0.0
 11
213.3972458517998
 21
177.0638020895
 31
0.0
  0
LINE
  5
3C2
330
2
100
AcDbEntity
  8
0
  6
Continuous
100
AcDbLine
 10
210.4972451901998
 20
176.9638013281
 30
0.0
 11
213.8972468651
 21
176.9638013281
 31
0.0
  0
LINE
  5
3C3
330
2
100
AcDbEntity
  8
0
  6
Continuous
100
AcDbLine
 10
210.4972451901998
 20
176.3638014159999
 30
0.0
 11
213.8972468651
 21
176.3638014159999
 31
0.0
  0
LINE
  5
3C4
330
2
100
AcDbEntity
  8
0
  6
Continuous
100
AcDbLine
 10
211.5972451842
 20
177.3138016647999
 30
0.0
 11
212.7972468709999
 21
177.3138016647999
 31
0.0
  0
LINE
  5
3C5
330
2
100
AcDbEntity
  8
0
  6
Continuous
100
AcDbLine
 10
211.9972445046998
 20
176.9638013281
 30
0.0
 11
211.9972445046998
 21
177.3138016647999
 31
0.0
  0
LINE
  5
3C6
330
2
100
AcDbEntity
  8
0
  6
Continuous
100
AcDbLine
 10
209.9972441768996
 20
176.3638014159999
 30
0.0
 11
210.4972451901998
 21
176.3638014159999
 31
0.0
  0
LINE
  5
3C7
330
2
100
AcDbEntity
  8
0
  6
Continuous
100
AcDbLine
 10
209.9972441768996
 20
176.9638013281
 30
0.0
 11
210.4972451901998
 21
176.9638013281
 31
0.0
  0
LINE
  5
3C8
330
2
100
AcDbEntity
  8
0
  6
Continuous
100
AcDbLine
 10
210.4972451901998
 20
176.3638014159999
 30
0.0
 11
210.4972451901998
 21
176.9638013281
 31
0.0
  0
LINE
  5
3C9
330
2
100
AcDbEntity
  8
0
  6
Continuous
100
AcDbLine
 10
209.9972441768996
 20
176.3638014159999
 30
0.0
 11
209.9972441768996
 21
176.9638013281
 31
0.0
  0
ARC
  5
3CA
330
2
100
AcDbEntity
  8
0
  6
Continuous
100
AcDbCircle
 10
211.5972451185998
 20
177.8138016574
 30
0.0
 40
0.5
100
AcDbArc
 50
180.0
 51
270.0
  0
LINE
  5
3CB
330
2
100
AcDbEntity
  8
0
  6
Continuous
100
AcDbLine
 10
212.4972455179999
 20
177.3138016647999
 30
0.0
 11
212.4972455179999
 21
176.9638013281
 31
0.0
  0
LINE
  5
3CC
330
2
100
AcDbEntity
  8
0
  6
Continuous
100
AcDbLine
 10
213.8972468651
 20
176.3638014159999
 30
0.0
 11
213.8972468651
 21
176.9638013281
 31
0.0
  0
ARC
  5
3CD
330
2
100
AcDbEntity
  8
0
  6
Continuous
100
AcDbCircle
 10
213.8972451185999
 20
176.9638016574
 30
0.0
 40
0.5999999999999944
100
AcDbArc
 50
270.0
 51
0.0
  0
LINE
  5
3CE
330
2
100
AcDbEntity
  8
0
  6
Continuous
100
AcDbLine
 10
214.4972458458
 20
176.9638013281
 30
0.0
 11
213.8972468651
 21
176.9638013281
 31
0.0
  0
LINE
  5
3CF
330
2
100
AcDbEntity
  8
0
  6
Continuous
100
AcDbLine
 10
212.7972468709999
 20
177.1138020045999
 30
0.0
 11
213.3972458517998
 21
177.1138020045999
 31
0.0
  0
LINE
  5
3D0
330
2
100
AcDbEntity
  8
0
  6
Continuous
100
AcDbLine
 10
213.3972458517998
 20
177.0638020895
 30
0.0
 11
213.8972468651
 21
177.0638020895
 31
0.0
  0
LINE
  5
3D1
330
2
100
AcDbEntity
  8
0
  6
Continuous
100
AcDbLine
 10
212.4972455179999
 20
183.5638022236
 30
0.0
 11
211.9972445046998
 21
184.0638013743
 31
0.0
  0
LINE
  5
3D2
330
2
100
AcDbEntity
  8
0
  6
Continuous
100
AcDbLine
 10
212.7972468709999
 20
181.8138024025
 30
0.0
 11
211.5972451842
 21
181.8138024025
 31
0.0
  0
LINE
  5
3D3
330
2
100
AcDbEntity
  8
0
  6
Continuous
100
AcDbLine
 10
211.9972445046998
 20
181.8138024025
 30
0.0
 11
211.9972445046998
 21
184.0638013743
 31
0.0
  0
ARC
  5
3D4
330
2
100
AcDbEntity
  8
0
  6
Continuous
100
AcDbCircle
 10
211.5972451185998
 20
181.3138016574
 30
0.0
 40
0.5
100
AcDbArc
 50
90.0
 51
180.0
  0
LINE
  5
3D5
330
2
100
AcDbEntity
  8
0
  6
Continuous
100
AcDbLine
 10
212.4972455179999
 20
184.0638013743
 30
0.0
 11
212.4972455179999
 21
181.8138024025
 31
0.0
  0
LINE
  5
3D6
330
2
100
AcDbEntity
  8
0
  6
Continuous
100
AcDbLine
 10
214.4972458458
 20
180.0638025813
 30
0.0
 11
214.4972458458
 21
184.0638013743
 31
0.0
  0
LINE
  5
3D7
330
2
100
AcDbEntity
  8
0
  6
Continuous
100
AcDbLine
 10
213.8972468651
 20
179.3638019077
 30
0.0
 11
213.8972468651
 21
180.738800969
 31
0.0
  0
LINE
  5
3D8
330
2
100
AcDbEntity
  8
0
  6
Continuous
100
AcDbLine
 10
213.3972458517998
 20
182.0138020626998
 30
0.0
 11
212.7972468709999
 21
182.0138020626998
 31
0.0
  0
LINE
  5
3D9
330
2
100
AcDbEntity
  8
0
  6
Continuous
100
AcDbLine
 10
213.8972468651
 20
182.0638010463999
 30
0.0
 11
213.8972468651
 21
180.738800969
 31
0.0
  0
LINE
  5
3DA
330
2
100
AcDbEntity
  8
0
  6
Continuous
100
AcDbLine
 10
214.4972458458
 20
181.9638012162998
 30
0.0
 11
213.8972468651
 21
181.9638012162998
 31
0.0
  0
LINE
  5
3DB
330
2
100
AcDbEntity
  8
0
  6
Continuous
100
AcDbLine
 10
213.8972468651
 20
182.0638010463999
 30
0.0
 11
213.3972458517998
 21
182.0638010463999
 31
0.0
  0
LINE
  5
3DC
330
2
100
AcDbEntity
  8
0
  6
Continuous
100
AcDbLine
 10
214.4972458458
 20
184.0638013743
 30
0.0
 11
212.4972455179999
 21
184.0638013743
 31
0.0
  0
LINE
  5
3DD
330
2
100
AcDbEntity
  8
0
  6
Continuous
100
AcDbLine
 10
230.4972484683999
 20
175.3638012520999
 30
0.0
 11
229.6972423768
 21
175.3638012520999
 31
0.0
  0
LINE
  5
3DE
330
2
100
AcDbEntity
  8
0
  6
Continuous
100
AcDbLine
 10
229.6972423768
 20
183.5638022236
 30
0.0
 11
230.1972433900999
 21
183.5638022236
 31
0.0
  0
LINE
  5
3DF
330
2
100
AcDbEntity
  8
0
  6
Continuous
100
AcDbLine
 10
229.6972423768
 20
176.2638015859
 30
0.0
 11
230.1972433900999
 21
176.2638015859
 31
0.0
  0
LINE
  5
3E0
330
2
100
AcDbEntity
  8
0
  6
Continuous
100
AcDbLine
 10
229.6972423768
 20
179.8566950670999
 30
0.0
 11
230.1972433900999
 21
179.8566950670999
 31
0.0
  0
LINE
  5
3E1
330
2
100
AcDbEntity
  8
0
  6
Continuous
100
AcDbLine
 10
229.6972423768
 20
180.0638025813
 30
0.0
 11
229.6972423768
 21
175.3638012520999
 31
0.0
  0
LINE
  5
3E2
330
2
100
AcDbEntity
  8
0
  6
Continuous
100
AcDbLine
 10
229.6972423768
 20
184.0638013743
 30
0.0
 11
229.6972423768
 21
180.0638025813
 31
0.0
  0
LINE
  5
3E3
330
2
100
AcDbEntity
  8
0
  6
Continuous
100
AcDbLine
 10
230.1972433900999
 20
176.2638015859
 30
0.0
 11
230.1972433900999
 21
180.0638025813
 31
0.0
  0
LINE
  5
3E4
330
2
100
AcDbEntity
  8
0
  6
Continuous
100
AcDbLine
 10
231.9972440577
 20
174.3138021043999
 30
0.0
 11
231.9222465134
 21
174.3888015114
 31
0.0
  0
LINE
  5
3E5
330
2
100
AcDbEntity
  8
0
  6
Continuous
100
AcDbLine
 10
232.5722426152998
 20
174.3888015114
 30
0.0
 11
232.4972450709998
 21
174.3138021043999
 31
0.0
  0
LINE
  5
3E6
330
2
100
AcDbEntity
  8
0
  6
Continuous
100
AcDbLine
 10
232.4972450709998
 20
173.8138020225
 30
0.0
 11
232.5722426152998
 21
173.7388016841999
 31
0.0
  0
LINE
  5
3E7
330
2
100
AcDbEntity
  8
0
  6
Continuous
100
AcDbLine
 10
231.9972440577
 20
173.8138020225
 30
0.0
 11
231.9222465134
 21
173.7388016841999
 31
0.0
  0
LINE
  5
3E8
330
2
100
AcDbEntity
  8
0
  6
Continuous
100
AcDbLine
 10
232.5722426152998
 20
172.3888021149
 30
0.0
 11
232.4972450709998
 21
172.3138017766
 31
0.0
  0
LINE
  5
3E9
330
2
100
AcDbEntity
  8
0
  6
Continuous
100
AcDbLine
 10
231.9972440577
 20
172.3138017766
 30
0.0
 11
231.9222465134
 21
172.3888021149
 31
0.0
  0
LINE
  5
3EA
330
2
100
AcDbEntity
  8
0
  6
Continuous
100
AcDbLine
 10
232.4972450709998
 20
171.8138016945996
 30
0.0
 11
232.5722426152998
 21
171.7388013563999
 31
0.0
  0
LINE
  5
3EB
330
2
100
AcDbEntity
  8
0
  6
Continuous
100
AcDbLine
 10
231.9972440577
 20
171.8138016945996
 30
0.0
 11
231.9222465134
 21
171.7388013563999
 31
0.0
  0
LINE
  5
3EC
330
2
100
AcDbEntity
  8
0
  6
Continuous
100
AcDbLine
 10
231.9222465134
 20
171.7388013563999
 30
0.0
 11
231.9222465134
 21
172.3888021149
 31
0.0
  0
LINE
  5
3ED
330
2
100
AcDbEntity
  8
0
  6
Continuous
100
AcDbLine
 10
231.9222465134
 20
172.3888021149
 30
0.0
 11
232.5722426152998
 21
172.3888021149
 31
0.0
  0
LINE
  5
3EE
330
2
100
AcDbEntity
  8
0
  6
Continuous
100
AcDbLine
 10
232.5722426152998
 20
172.3888021149
 30
0.0
 11
232.5722426152998
 21
171.7388013563999
 31
0.0
  0
LINE
  5
3EF
330
2
100
AcDbEntity
  8
0
  6
Continuous
100
AcDbLine
 10
232.5722426152998
 20
171.7388013563999
 30
0.0
 11
231.9222465134
 21
171.7388013563999
 31
0.0
  0
LINE
  5
3F0
330
2
100
AcDbEntity
  8
0
  6
Continuous
100
AcDbLine
 10
231.9222465134
 20
173.7388016841999
 30
0.0
 11
231.9222465134
 21
174.3888015114
 31
0.0
  0
LINE
  5
3F1
330
2
100
AcDbEntity
  8
0
  6
Continuous
100
AcDbLine
 10
231.9222465134
 20
174.3888015114
 30
0.0
 11
232.5722426152998
 21
174.3888015114
 31
0.0
  0
LINE
  5
3F2
330
2
100
AcDbEntity
  8
0
  6
Continuous
100
AcDbLine
 10
232.5722426152998
 20
174.3888015114
 30
0.0
 11
232.5722426152998
 21
173.7388016841999
 31
0.0
  0
LINE
  5
3F3
330
2
100
AcDbEntity
  8
0
  6
Continuous
100
AcDbLine
 10
232.5722426152998
 20
173.7388016841999
 30
0.0
 11
231.9222465134
 21
173.7388016841999
 31
0.0
  0
LINE
  5
3F4
330
2
100
AcDbEntity
  8
0
  6
Continuous
100
AcDbLine
 10
232.4972450709998
 20
173.8138020225
 30
0.0
 11
232.4972450709998
 21
174.3138021043999
 31
0.0
  0
LINE
  5
3F5
330
2
100
AcDbEntity
  8
0
  6
Continuous
100
AcDbLine
 10
232.4972450709998
 20
174.3138021043999
 30
0.0
 11
231.9972440577
 21
174.3138021043999
 31
0.0
  0
LINE
  5
3F6
330
2
100
AcDbEntity
  8
0
  6
Continuous
100
AcDbLine
 10
231.9972440577
 20
174.3138021043999
 30
0.0
 11
231.9972440577
 21
173.8138020225
 31
0.0
  0
LINE
  5
3F7
330
2
100
AcDbEntity
  8
0
  6
Continuous
100
AcDbLine
 10
232.4972450709998
 20
173.8138020225
 30
0.0
 11
231.9972440577
 21
173.8138020225
 31
0.0
  0
LINE
  5
3F8
330
2
100
AcDbEntity
  8
0
  6
Continuous
100
AcDbLine
 10
232.4972450709998
 20
171.8138016945996
 30
0.0
 11
231.9972440577
 21
171.8138016945996
 31
0.0
  0
LINE
  5
3F9
330
2
100
AcDbEntity
  8
0
  6
Continuous
100
AcDbLine
 10
232.4972450709998
 20
171.8138016945996
 30
0.0
 11
232.4972450709998
 21
172.3138017766
 31
0.0
  0
LINE
  5
3FA
330
2
100
AcDbEntity
  8
0
  6
Continuous
100
AcDbLine
 10
232.4972450709998
 20
172.3138017766
 30
0.0
 11
231.9972440577
 21
172.3138017766
 31
0.0
  0
LINE
  5
3FB
330
2
100
AcDbEntity
  8
0
  6
Continuous
100
AcDbLine
 10
231.9972440577
 20
172.3138017766
 30
0.0
 11
231.9972440577
 21
171.8138016945996
 31
0.0
  0
LINE
  5
3FC
330
2
100
AcDbEntity
  8
0
  6
Continuous
100
AcDbLine
 10
231.9672480202
 20
175.2138015068996
 30
0.0
 11
233.0072447634
 21
175.2138015068996
 31
0.0
  0
LINE
  5
3FD
330
2
100
AcDbEntity
  8
0
  6
Continuous
100
AcDbLine
 10
234.9972426868
 20
176.2638015859
 30
0.0
 11
230.1972433900999
 21
176.2638015859
 31
0.0
  0
LINE
  5
3FE
330
2
100
AcDbEntity
  8
0
  6
Continuous
100
AcDbLine
 10
232.0672422624
 20
175.313801337
 30
0.0
 11
232.9072430706
 21
175.313801337
 31
0.0
  0
LINE
  5
3FF
330
2
100
AcDbEntity
  8
0
  6
Continuous
100
AcDbLine
 10
234.3972474312999
 20
176.0638019256
 30
0.0
 11
230.1972433900999
 21
176.0638019256
 31
0.0
  0
LINE
  5
400
330
2
100
AcDbEntity
  8
0
  6
Continuous
100
AcDbLine
 10
230.1972433900999
 20
176.2638015859
 30
0.0
 11
230.1972433900999
 21
176.0638019256
 31
0.0
  0
LINE
  5
401
330
2
100
AcDbEntity
  8
0
  6
Continuous
100
AcDbLine
 10
230.1972433900999
 20
175.4510112293
 30
0.0
 11
230.1972433900999
 21
175.3638012520999
 31
0.0
  0
LINE
  5
402
330
2
100
AcDbEntity
  8
0
  6
Continuous
100
AcDbLine
 10
230.1972433900999
 20
175.4510112293
 30
0.0
 11
230.1972433900999
 21
175.6138017587
 31
0.0
  0
LINE
  5
403
330
2
100
AcDbEntity
  8
0
  6
Continuous
100
AcDbLine
 10
231.2472462631
 20
175.6138017587
 30
0.0
 11
232.1272417879
 21
175.6138017587
 31
0.0
  0
LINE
  5
404
330
2
100
AcDbEntity
  8
0
  6
Continuous
100
AcDbLine
 10
232.0672422624
 20
175.313801337
 30
0.0
 11
231.9672480202
 21
175.2138015068996
 31
0.0
  0
LINE
  5
405
330
2
100
AcDbEntity
  8
0
  6
Continuous
100
AcDbLine
 10
231.1472445703
 20
175.7138015888999
 30
0.0
 11
231.2472462631
 21
175.6138017587
 31
0.0
  0
LINE
  5
406
330
2
100
AcDbEntity
  8
0
  6
Continuous
100
AcDbLine
 10
230.1972433900999
 20
175.6138017587
 30
0.0
 11
230.6972444033999
 21
175.6138017587
 31
0.0
  0
LINE
  5
407
330
2
100
AcDbEntity
  8
0
  6
Continuous
100
AcDbLine
 10
231.1472445703
 20
175.7138015888999
 30
0.0
 11
232.1272417879
 21
175.7138015888999
 31
0.0
  0
LINE
  5
408
330
2
100
AcDbEntity
  8
0
  6
Continuous
100
AcDbLine
 10
232.1272417879
 20
175.7138015888999
 30
0.0
 11
232.1272417879
 21
175.3738017938999
 31
0.0
  0
LINE
  5
409
330
2
100
AcDbEntity
  8
0
  6
Continuous
100
AcDbLine
 10
232.1272417879
 20
175.3738017938999
 30
0.0
 11
232.0672422624
 21
175.313801337
 31
0.0
  0
LINE
  5
40A
330
2
100
AcDbEntity
  8
0
  6
Continuous
100
AcDbLine
 10
230.1972433900999
 20
175.6138017587
 30
0.0
 11
230.1972433900999
 21
176.0638019256
 31
0.0
  0
LINE
  5
40B
330
2
100
AcDbEntity
  8
0
  6
Continuous
100
AcDbLine
 10
234.3972474312999
 20
175.6138017587
 30
0.0
 11
234.3972474312999
 21
175.7138015888999
 31
0.0
  0
LINE
  5
40C
330
2
100
AcDbEntity
  8
0
  6
Continuous
100
AcDbLine
 10
232.8472435450998
 20
175.6138017587
 30
0.0
 11
234.3972474312999
 21
175.6138017587
 31
0.0
  0
LINE
  5
40D
330
2
100
AcDbEntity
  8
0
  6
Continuous
100
AcDbLine
 10
233.0072447634
 20
175.2138015068996
 30
0.0
 11
232.9072430706
 21
175.313801337
 31
0.0
  0
LINE
  5
40E
330
2
100
AcDbEntity
  8
0
  6
Continuous
100
AcDbLine
 10
234.3972474312999
 20
176.0638019256
 30
0.0
 11
234.3972474312999
 21
175.7138015888999
 31
0.0
  0
LINE
  5
40F
330
2
100
AcDbEntity
  8
0
  6
Continuous
100
AcDbLine
 10
232.9072430706
 20
175.313801337
 30
0.0
 11
232.8472435450998
 21
175.3738017938999
 31
0.0
  0
LINE
  5
410
330
2
100
AcDbEntity
  8
0
  6
Continuous
100
AcDbLine
 10
232.8472435450998
 20
175.3738017938999
 30
0.0
 11
232.8472435450998
 21
175.7138015888999
 31
0.0
  0
LINE
  5
411
330
2
100
AcDbEntity
  8
0
  6
Continuous
100
AcDbLine
 10
232.8472435450998
 20
175.7138015888999
 30
0.0
 11
234.3972474312999
 21
175.7138015888999
 31
0.0
  0
LINE
  5
412
330
2
100
AcDbEntity
  8
0
  6
Continuous
100
AcDbLine
 10
236.4972457266
 20
184.0638013743
 30
0.0
 11
230.1972433900999
 21
184.0638013743
 31
0.0
  0
LINE
  5
413
330
2
100
AcDbEntity
  8
0
  6
Continuous
100
AcDbLine
 10
236.4972457266
 20
180.0638025813
 30
0.0
 11
230.1972433900999
 21
180.0638025813
 31
0.0
  0
LINE
  5
414
330
2
100
AcDbEntity
  8
0
  6
Continuous
100
AcDbLine
 10
230.1972433900999
 20
180.0638025813
 30
0.0
 11
230.1972433900999
 21
184.0638013743
 31
0.0
  0
LINE
  5
415
330
2
100
AcDbEntity
  8
0
  6
Continuous
100
AcDbLine
 10
236.4972457266
 20
180.0638025813
 30
0.0
 11
236.4972457266
 21
184.0638013743
 31
0.0
  0
ENDSEC
  0
SECTION
  2
OBJECTS
  0
DICTIONARY
  5
7
330
0
100
AcDbDictionary
281
     1
  3
ACAD_GROUP
350
2C
  3
ACAD_LAYOUT
350
B
  3
ACAD_MLINESTYLE
350
2D
  3
ACAD_PLOTSETTINGS
350
2E
  3
ACAD_PLOTSTYLENAME
350
6
  3
AcDbVariableDictionary
350
418
  0
DICTIONARY
  5
2C
102
{ACAD_REACTORS
330
7
102
}
330
7
100
AcDbDictionary
281
     1
  0
DICTIONARY
  5
B
102
{ACAD_REACTORS
330
7
102
}
330
7
100
AcDbDictionary
281
     1
  3
Layout1
350
F
  3
Model
350
A
  0
DICTIONARY
  5
2D
102
{ACAD_REACTORS
330
7
102
}
330
7
100
AcDbDictionary
281
     1
  3
Standard
350
2F
  0
DICTIONARY
  5
2E
102
{ACAD_REACTORS
330
7
102
}
330
7
100
AcDbDictionary
281
     1
  0
ACDBDICTIONARYWDFLT
  5
6
102
{ACAD_REACTORS
330
7
102
}
330
7
100
AcDbDictionary
281
     1
  3
Normal
350
5
100
AcDbDictionaryWithDefault
340
5
  0
DICTIONARY
  5
418
102
{ACAD_REACTORS
330
7
102
}
330
7
100
AcDbDictionary
281
     1
  3
DIMASSOC
350
41A
  3
HIDETEXT
350
419
  0
LAYOUT
  5
F
102
{ACAD_REACTORS
330
B
102
}
330
B
100
AcDbPlotSettings
  1

  2
none_device
  4

  6

 40
0.0
 41
0.0
 42
0.0
 43
0.0
 44
0.0
 45
0.0
 46
0.0
 47
0.0
 48
0.0
 49
0.0
140
0.0
141
0.0
142
1.0
143
1.0
 70
   688
 72
     0
 73
     0
 74
     5
  7
monochrome.ctb
 75
    16
147
1.0
148
0.0
149
0.0
100
AcDbLayout
  1
Layout1
 70
     1
 71
     1
 10
0.0
 20
0.0
 11
420.0
 21
297.0
 12
0.0
 22
0.0
 32
0.0
 14
1.000000000000000E+20
 24
1.000000000000000E+20
 34
1.000000000000000E+20
 15
-1.000000000000000E+20
 25
-1.000000000000000E+20
 35
-1.000000000000000E+20
146
0.0
 13
0.0
 23
0.0
 33
0.0
 16
1.0
 26
0.0
 36
0.0
 17
0.0
 27
1.0
 37
0.0
 76
     0
330
C
  0
LAYOUT
  5
A
102
{ACAD_REACTORS
330
B
102
}
330
B
100
AcDbPlotSettings
  1

  2
クセロPDF2
  4
A4
  6

 40
3.174999952316281
 41
3.174999952316281
 42
3.175003051757812
 43
3.17498779296875
 44
209.9733276367186
 45
296.9683227539062
 46
0.0
 47
0.0
 48
0.0
 49
0.0
140
0.0
141
0.0
142
1.0
143
1.061745311034254
 70
 11952
 72
     1
 73
     1
 74
     0
  7
monochrome.ctb
 75
     0
147
0.9418454591769199
148
18.77876468283761
149
-6.347060444870635
100
AcDbLayout
  1
Model
 70
     1
 71
     0
 10
0.0
 20
0.0
 11
297.0
 21
210.0
 12
0.0
 22
0.0
 32
0.0
 14
0.0
 24
0.0
 34
0.0
 15
297.0
 25
210.0
 35
0.0
146
0.0
 13
0.0
 23
0.0
 33
0.0
 16
1.0
 26
0.0
 36
0.0
 17
0.0
 27
1.0
 37
0.0
 76
     0
330
2
  0
MLINESTYLE
  5
2F
102
{ACAD_REACTORS
330
2D
102
}
330
2D
100
AcDbMlineStyle
  2
STANDARD
 70
     0
  3

 62
   256
 51
90.0
 52
90.0
 71
     2
 49
0.5
 62
   256
  6
BYLAYER
 49
-0.5
 62
   256
  6
BYLAYER
  0
ACDBPLACEHOLDER
  5
5
102
{ACAD_REACTORS
330
6
102
}
330
6
  0
DICTIONARYVAR
  5
41A
102
{ACAD_REACTORS
330
418
102
}
330
418
100
DictionaryVariables
280
     0
  1
2
  0
DICTIONARYVAR
  5
419
102
{ACAD_REACTORS
330
418
102
}
330
418
100
DictionaryVariables
280
     0
  1
1
  0
ENDSEC
  0
EOF
