  0
SECTION
  2
HEADER
  9
$ACADVER
  1
AC1021
  9
$ACADMAINTVER
 70
    25
  9
$DWGCODEPAGE
  3
ANSI_932
  9
$LASTSAVEDBY
  1
liujie
  9
$INSBASE
 10
0.0
 20
0.0
 30
0.0
  9
$EXTMIN
 10
0.0
 20
-0.0000000000000284
 30
0.0
  9
$EXTMAX
 10
297.0000000000001
 20
210.0
 30
0.0
  9
$LIMMIN
 10
0.0
 20
0.0
  9
$LIMMAX
 10
420.0
 20
297.0
  9
$ORTHOMODE
 70
     1
  9
$REGENMODE
 70
     1
  9
$FILLMODE
 70
     1
  9
$QTEXTMODE
 70
     0
  9
$MIRRTEXT
 70
     1
  9
$LTSCALE
 40
1.0
  9
$ATTMODE
 70
     1
  9
$TEXTSIZE
 40
2.5
  9
$TRACEWID
 40
1.0
  9
$TEXTSTYLE
  7
Roman
  9
$CLAYER
  8
DIMS
  9
$CELTYPE
  6
BYLAYER
  9
$CECOLOR
 62
   256
  9
$CELTSCALE
 40
1.0
  9
$DISPSILH
 70
     0
  9
$DIMSCALE
 40
1.0
  9
$DIMASZ
 40
2.5
  9
$DIMEXO
 40
0.65
  9
$DIMDLI
 40
0.5
  9
$DIMRND
 40
0.0
  9
$DIMDLE
 40
0.0
  9
$DIMEXE
 40
0.65
  9
$DIMTP
 40
0.0
  9
$DIMTM
 40
0.0
  9
$DIMTXT
 40
3.0
  9
$DIMCEN
 40
5.0
  9
$DIMTSZ
 40
0.0
  9
$DIMTOL
 70
     0
  9
$DIMLIM
 70
     0
  9
$DIMTIH
 70
     0
  9
$DIMTOH
 70
     0
  9
$DIMSE1
 70
     0
  9
$DIMSE2
 70
     0
  9
$DIMTAD
 70
     1
  9
$DIMZIN
 70
     8
  9
$DIMBLK
  1
Open30
  9
$DIMASO
 70
     1
  9
$DIMSHO
 70
     1
  9
$DIMPOST
  1

  9
$DIMAPOST
  1

  9
$DIMALT
 70
     0
  9
$DIMALTD
 70
     2
  9
$DIMALTF
 40
25.4
  9
$DIMLFAC
 40
1.0
  9
$DIMTOFL
 70
     1
  9
$DIMTVP
 40
0.0
  9
$DIMTIX
 70
     0
  9
$DIMSOXD
 70
     0
  9
$DIMSAH
 70
     0
  9
$DIMBLK1
  1

  9
$DIMBLK2
  1

  9
$DIMSTYLE
  2
STANDARD
  9
$DIMCLRD
 70
   256
  9
$DIMCLRE
 70
   256
  9
$DIMCLRT
 70
     7
  9
$DIMTFAC
 40
1.0
  9
$DIMGAP
 40
0.65
  9
$DIMJUST
 70
     0
  9
$DIMSD1
 70
     0
  9
$DIMSD2
 70
     0
  9
$DIMTOLJ
 70
     1
  9
$DIMTZIN
 70
     8
  9
$DIMALTZ
 70
     0
  9
$DIMALTTZ
 70
     0
  9
$DIMUPT
 70
     0
  9
$DIMDEC
 70
     3
  9
$DIMTDEC
 70
     4
  9
$DIMALTU
 70
     2
  9
$DIMALTTD
 70
     2
  9
$DIMTXSTY
  7
STANDARD
  9
$DIMAUNIT
 70
     0
  9
$DIMADEC
 70
     2
  9
$DIMALTRND
 40
0.0
  9
$DIMAZIN
 70
     2
  9
$DIMDSEP
 70
    46
  9
$DIMATFIT
 70
     3
  9
$DIMFRAC
 70
     0
  9
$DIMLDRBLK
  1
Open30
  9
$DIMLUNIT
 70
     2
  9
$DIMLWD
 70
    -1
  9
$DIMLWE
 70
    -1
  9
$DIMTMOVE
 70
     0
  9
$DIMFXL
 40
1.0
  9
$DIMFXLON
 70
     0
  9
$DIMJOGANG
 40
0.7853981633974483
  9
$DIMTFILL
 70
     0
  9
$DIMTFILLCLR
 70
     0
  9
$DIMARCSYM
 70
     0
  9
$DIMLTYPE
  6
BYLAYER
  9
$DIMLTEX1
  6

  9
$DIMLTEX2
  6

  9
$LUNITS
 70
     2
  9
$LUPREC
 70
     4
  9
$SKETCHINC
 40
1.0
  9
$FILLETRAD
 40
10.0
  9
$AUNITS
 70
     0
  9
$AUPREC
 70
     0
  9
$MENU
  1
.
  9
$ELEVATION
 40
0.0
  9
$PELEVATION
 40
0.0
  9
$THICKNESS
 40
0.0
  9
$LIMCHECK
 70
     0
  9
$CHAMFERA
 40
2.0
  9
$CHAMFERB
 40
2.0
  9
$CHAMFERC
 40
20.0
  9
$CHAMFERD
 40
0.0
  9
$SKPOLY
 70
     0
  9
$TDCREATE
 40
2454036.711772419
  9
$TDUCREATE
 40
2454036.336772419
  9
$TDUPDATE
 40
2459086.597699213
  9
$TDUUPDATE
 40
2459086.222699213
  9
$TDINDWG
 40
0.0073046412
  9
$TDUSRTIMER
 40
0.0002553819
  9
$USRTIMER
 70
     1
  9
$ANGBASE
 50
0.0
  9
$ANGDIR
 70
     0
  9
$PDMODE
 70
     0
  9
$PDSIZE
 40
0.0
  9
$PLINEWID
 40
0.0
  9
$SPLFRAME
 70
     0
  9
$SPLINETYPE
 70
     6
  9
$SPLINESEGS
 70
     8
  9
$HANDSEED
  5
944
  9
$SURFTAB1
 70
     6
  9
$SURFTAB2
 70
     6
  9
$SURFTYPE
 70
     6
  9
$SURFU
 70
     6
  9
$SURFV
 70
     6
  9
$UCSBASE
  2

  9
$UCSNAME
  2

  9
$UCSORG
 10
0.0
 20
0.0
 30
0.0
  9
$UCSXDIR
 10
1.0
 20
0.0
 30
0.0
  9
$UCSYDIR
 10
0.0
 20
1.0
 30
0.0
  9
$UCSORTHOREF
  2

  9
$UCSORTHOVIEW
 70
     0
  9
$UCSORGTOP
 10
0.0
 20
0.0
 30
0.0
  9
$UCSORGBOTTOM
 10
0.0
 20
0.0
 30
0.0
  9
$UCSORGLEFT
 10
0.0
 20
0.0
 30
0.0
  9
$UCSORGRIGHT
 10
0.0
 20
0.0
 30
0.0
  9
$UCSORGFRONT
 10
0.0
 20
0.0
 30
0.0
  9
$UCSORGBACK
 10
0.0
 20
0.0
 30
0.0
  9
$PUCSBASE
  2

  9
$PUCSNAME
  2

  9
$PUCSORG
 10
0.0
 20
0.0
 30
0.0
  9
$PUCSXDIR
 10
1.0
 20
0.0
 30
0.0
  9
$PUCSYDIR
 10
0.0
 20
1.0
 30
0.0
  9
$PUCSORTHOREF
  2

  9
$PUCSORTHOVIEW
 70
     0
  9
$PUCSORGTOP
 10
0.0
 20
0.0
 30
0.0
  9
$PUCSORGBOTTOM
 10
0.0
 20
0.0
 30
0.0
  9
$PUCSORGLEFT
 10
0.0
 20
0.0
 30
0.0
  9
$PUCSORGRIGHT
 10
0.0
 20
0.0
 30
0.0
  9
$PUCSORGFRONT
 10
0.0
 20
0.0
 30
0.0
  9
$PUCSORGBACK
 10
0.0
 20
0.0
 30
0.0
  9
$USERI1
 70
     0
  9
$USERI2
 70
     0
  9
$USERI3
 70
     0
  9
$USERI4
 70
     0
  9
$USERI5
 70
     0
  9
$USERR1
 40
0.0
  9
$USERR2
 40
0.0
  9
$USERR3
 40
0.0
  9
$USERR4
 40
0.0
  9
$USERR5
 40
0.0
  9
$WORLDVIEW
 70
     1
  9
$SHADEDGE
 70
     3
  9
$SHADEDIF
 70
    70
  9
$TILEMODE
 70
     1
  9
$MAXACTVP
 70
    64
  9
$PINSBASE
 10
0.0
 20
0.0
 30
0.0
  9
$PLIMCHECK
 70
     0
  9
$PEXTMIN
 10
0.0
 20
0.0
 30
0.0
  9
$PEXTMAX
 10
594.0
 20
420.0
 30
0.0
  9
$PLIMMIN
 10
0.0
 20
0.0
  9
$PLIMMAX
 10
0.0
 20
0.0
  9
$UNITMODE
 70
     0
  9
$VISRETAIN
 70
     1
  9
$PLINEGEN
 70
     0
  9
$PSLTSCALE
 70
     1
  9
$TREEDEPTH
 70
  3020
  9
$CMLSTYLE
  2
STANDARD
  9
$CMLJUST
 70
     0
  9
$CMLSCALE
 40
20.0
  9
$PROXYGRAPHICS
 70
     1
  9
$MEASUREMENT
 70
     1
  9
$CELWEIGHT
370
    -1
  9
$ENDCAPS
280
     0
  9
$JOINSTYLE
280
     0
  9
$LWDISPLAY
290
     1
  9
$INSUNITS
 70
     4
  9
$HYPERLINKBASE
  1

  9
$STYLESHEET
  1
monochrome.ctb
  9
$XEDIT
290
     1
  9
$CEPSNTYPE
380
     0
  9
$PSTYLEMODE
290
     1
  9
$FINGERPRINTGUID
  2
{82FD4B47-A590-11D2-9A33-0060089B3A3F}
  9
$VERSIONGUID
  2
{9F9256D1-6E4B-4D58-B2EE-145D339BB681}
  9
$EXTNAMES
290
     1
  9
$PSVPSCALE
 40
0.0
  9
$OLESTARTUP
290
     0
  9
$SORTENTS
280
   127
  9
$INDEXCTL
280
     0
  9
$HIDETEXT
280
     1
  9
$XCLIPFRAME
290
     0
  9
$HALOGAP
280
     0
  9
$OBSCOLOR
 70
   257
  9
$OBSLTYPE
280
     0
  9
$INTERSECTIONDISPLAY
280
     0
  9
$INTERSECTIONCOLOR
 70
   257
  9
$DIMASSOC
280
     2
  9
$PROJECTNAME
  1

  9
$CAMERADISPLAY
290
     0
  9
$LENSLENGTH
 40
50.0
  9
$CAMERAHEIGHT
 40
0.0
  9
$STEPSPERSEC
 40
2.0
  9
$STEPSIZE
 40
6.0
  9
$3DDWFPREC
 40
2.0
  9
$PSOLWIDTH
 40
0.25
  9
$PSOLHEIGHT
 40
4.0
  9
$LOFTANG1
 40
1.570796326794897
  9
$LOFTANG2
 40
1.570796326794897
  9
$LOFTMAG1
 40
0.0
  9
$LOFTMAG2
 40
0.0
  9
$LOFTPARAM
 70
     7
  9
$LOFTNORMALS
280
     1
  9
$LATITUDE
 40
37.795
  9
$LONGITUDE
 40
-122.394
  9
$NORTHDIRECTION
 40
0.0
  9
$TIMEZONE
 70
 -8000
  9
$LIGHTGLYPHDISPLAY
280
     1
  9
$TILEMODELIGHTSYNCH
280
     1
  9
$SOLIDHIST
280
     1
  9
$SHOWHIST
280
     1
  9
$DWFFRAME
280
     2
  9
$DGNFRAME
280
     2
  9
$REALWORLDSCALE
290
     1
  9
$INTERFERECOLOR
 62
   256
  9
$CSHADOW
280
     0
  9
$SHADOWPLANELOCATION
 40
0.0
  0
ENDSEC
  0
SECTION
  2
CLASSES
  0
CLASS
  1
ACDBDICTIONARYWDFLT
  2
AcDbDictionaryWithDefault
  3
ObjectDBX Classes
 90
        0
 91
        3
280
     0
281
     0
  0
CLASS
  1
MATERIAL
  2
AcDbMaterial
  3
ObjectDBX Classes
 90
     1153
 91
        3
280
     0
281
     0
  0
CLASS
  1
VISUALSTYLE
  2
AcDbVisualStyle
  3
ObjectDBX Classes
 90
     4095
 91
        3
280
     0
281
     0
  0
CLASS
  1
SUN
  2
AcDbSun
  3
SCENEOE
 90
     1153
 91
        3
280
     0
281
     0
  0
CLASS
  1
SCALE
  2
AcDbScale
  3
ObjectDBX Classes
 90
     1153
 91
        3
280
     0
281
     0
  0
CLASS
  1
DIMASSOC
  2
AcDbDimAssoc
  3
"AcDbDimAssoc|Product Desc:     AcDim ARX App For Dimension|Company:          Autodesk, Inc.|WEB Address:      www.autodesk.com"
 90
        0
 91
        3
280
     0
281
     0
  0
CLASS
  1
DICTIONARYVAR
  2
AcDbDictionaryVar
  3
ObjectDBX Classes
 90
        0
 91
        3
280
     0
281
     0
  0
CLASS
  1
TABLESTYLE
  2
AcDbTableStyle
  3
ObjectDBX Classes
 90
     4095
 91
        3
280
     0
281
     0
  0
CLASS
  1
MLEADERSTYLE
  2
AcDbMLeaderStyle
  3
ACDB_MLEADERSTYLE_CLASS
 90
     4095
 91
        3
280
     0
281
     0
  0
CLASS
  1
CELLSTYLEMAP
  2
AcDbCellStyleMap
  3
ObjectDBX Classes
 90
     1152
 91
        3
280
     0
281
     0
  0
CLASS
  1
SORTENTSTABLE
  2
AcDbSortentsTable
  3
ObjectDBX Classes
 90
        0
 91
        3
280
     0
281
     0
  0
CLASS
  1
ACAD_TABLE
  2
AcDbTable
  3
ObjectDBX Classes
 90
     1025
 91
        3
280
     0
281
     1
  0
CLASS
  1
BREAKDATA
  2
AcDbBreakData
  3
ObjectDBX Classes
 90
     1024
 91
        3
280
     0
281
     0
  0
CLASS
  1
TABLEGEOMETRY
  2
AcDbTableGeometry
  3
ObjectDBX Classes
 90
     1152
 91
        3
280
     0
281
     0
  0
ENDSEC
  0
SECTION
  2
TABLES
  0
TABLE
  2
VPORT
  5
2B
330
0
100
AcDbSymbolTable
 70
     1
  0
VPORT
  5
30
330
2B
100
AcDbSymbolTableRecord
100
AcDbViewportTableRecord
  2
*Active
 70
     0
 10
0.0
 20
0.0
 11
1.0
 21
1.0
 12
148.5000000000001
 22
105.0
 13
0.0
 23
0.0
 14
10.0
 24
10.0
 15
10.0
 25
10.0
 16
0.0
 26
0.0
 36
1.0
 17
0.0
 27
0.0
 37
0.0
 40
214.2
 41
1.68396770472895
 42
50.0
 43
0.0
 44
0.0
 50
0.0
 51
0.0
 71
    16
 72
   100
 73
     1
 74
     3
 75
     0
 76
     0
 77
     0
 78
     0
281
     0
 65
     1
110
0.0
120
0.0
130
0.0
111
1.0
121
0.0
131
0.0
112
0.0
122
1.0
132
0.0
 79
     0
146
0.0
348
31
 60
     3
 61
     5
292
     1
282
     1
141
0.0
142
0.0
 63
   256
361
32
  0
ENDTAB
  0
TABLE
  2
LTYPE
  5
E
330
0
100
AcDbSymbolTable
 70
     2
  0
LTYPE
  5
F
330
E
100
AcDbSymbolTableRecord
100
AcDbLinetypeTableRecord
  2
BYBLOCK
 70
     0
  3

 72
    65
 73
     0
 40
0.0
  0
LTYPE
  5
10
330
E
100
AcDbSymbolTableRecord
100
AcDbLinetypeTableRecord
  2
BYLAYER
 70
     0
  3

 72
    65
 73
     0
 40
0.0
  0
LTYPE
  5
D
330
E
100
AcDbSymbolTableRecord
100
AcDbLinetypeTableRecord
  2
CONTINUOUS
 70
     0
  3
Solid line
 72
    65
 73
     0
 40
0.0
  0
LTYPE
  5
245
330
E
100
AcDbSymbolTableRecord
100
AcDbLinetypeTableRecord
  2
HIDDEN
 70
     0
  3
Hidden __ __ __ __ __ __ __ __ __ __ __ __ __ __
 72
    65
 73
     2
 40
1.905
 49
1.27
 74
     0
 49
-0.635
 74
     0
  0
ENDTAB
  0
TABLE
  2
LAYER
  5
2
102
{ACAD_XDICTIONARY
360
3
102
}
330
0
100
AcDbSymbolTable
 70
     6
  0
LAYER
  5
1A
330
2
100
AcDbSymbolTableRecord
100
AcDbLayerTableRecord
  2
0
 70
     0
 62
     7
  6
CONTINUOUS
370
    -3
390
8
347
B
  0
LAYER
  5
5A
330
2
100
AcDbSymbolTableRecord
100
AcDbLayerTableRecord
  2
OBJECT
 70
     0
 62
     7
  6
CONTINUOUS
370
    30
390
8
347
B
  0
LAYER
  5
1
330
2
100
AcDbSymbolTableRecord
100
AcDbLayerTableRecord
  2
DIMS
 70
     0
 62
     6
  6
CONTINUOUS
370
    -3
390
8
347
B
  0
LAYER
  5
A0
330
2
100
AcDbSymbolTableRecord
100
AcDbLayerTableRecord
  2
Defpoints
 70
     0
 62
     2
  6
CONTINUOUS
290
     0
370
    -3
390
8
347
B
  0
LAYER
  5
244
330
2
100
AcDbSymbolTableRecord
100
AcDbLayerTableRecord
  2
Hidden
 70
     0
 62
     4
  6
HIDDEN
370
    -3
390
8
347
B
  0
LAYER
  5
739
330
2
100
AcDbSymbolTableRecord
100
AcDbLayerTableRecord
  2
TEXT
 70
     0
 62
     7
  6
CONTINUOUS
370
    -3
390
8
347
B
  0
ENDTAB
  0
TABLE
  2
STYLE
  5
12
330
0
100
AcDbSymbolTable
 70
     4
  0
STYLE
  5
15
330
12
100
AcDbSymbolTableRecord
100
AcDbTextStyleTableRecord
  2
STANDARD
 70
     0
 40
2.5
 41
1.0
 50
0.0
 71
     0
 42
2.5
  3
simplex.shx
  4
bigfont.shx
  0
STYLE
  5
11
330
12
100
AcDbSymbolTableRecord
100
AcDbTextStyleTableRecord
  2
Roman
 70
     0
 40
2.5
 41
0.9
 50
0.0
 71
     0
 42
2.5
  3
romans.shx
  4
bigfont.shx
  0
STYLE
  5
E1
330
12
100
AcDbSymbolTableRecord
100
AcDbTextStyleTableRecord
  2
Bom
 70
     0
 40
2.5
 41
0.8500000000000001
 50
0.0
 71
     0
 42
2.5
  3
romans.shx
  4
bigfont.shx
  0
STYLE
  5
73C
330
12
100
AcDbSymbolTableRecord
100
AcDbTextStyleTableRecord
  2
SLDTEXTSTYLE0
 70
     0
 40
0.0
 41
0.7
 50
0.0
 71
     0
 42
2.5
  3
TXT
  4
bigfont
  0
ENDTAB
  0
TABLE
  2
VIEW
  5
29
330
0
100
AcDbSymbolTable
 70
     0
  0
ENDTAB
  0
TABLE
  2
UCS
  5
2A
330
0
100
AcDbSymbolTable
 70
     0
  0
ENDTAB
  0
TABLE
  2
APPID
  5
7
330
0
100
AcDbSymbolTable
 70
     4
  0
APPID
  5
6
330
7
100
AcDbSymbolTableRecord
100
AcDbRegAppTableRecord
  2
ACAD
 70
     0
  0
APPID
  5
161
330
7
100
AcDbSymbolTableRecord
100
AcDbRegAppTableRecord
  2
ENABLE_CUSTOM_SPLIT
 70
     0
  0
APPID
  5
403
330
7
100
AcDbSymbolTableRecord
100
AcDbRegAppTableRecord
  2
ACAD_MLEADERVER
 70
     0
  0
APPID
  5
83D
330
7
100
AcDbSymbolTableRecord
100
AcDbRegAppTableRecord
  2
PLOTTRANSPARENCY
 70
     0
  0
ENDTAB
  0
TABLE
  2
DIMSTYLE
  5
14
330
0
100
AcDbSymbolTable
 70
     5
100
AcDbDimStyleTable
  0
DIMSTYLE
105
13
102
{ACAD_REACTORS
330
A2
330
215
330
218
330
7D3
330
7E3
330
7F3
330
80B
330
829
102
}
330
14
100
AcDbSymbolTableRecord
100
AcDbDimStyleTableRecord
  2
STANDARD
 70
     0
 41
2.5
 42
0.65
 43
0.5
 44
0.65
 73
     0
 74
     0
 77
     1
 78
     8
 79
     2
140
3.0
141
5.0
147
0.65
172
     1
176
   256
177
   256
271
     3
178
     7
179
     2
271
     3
284
     8
340
15
341
16
342
16
371
    -1
372
    -1
345
10
  0
DIMSTYLE
105
DD
330
14
100
AcDbSymbolTableRecord
100
AcDbDimStyleTableRecord
  2
DIMSTYLE_4
 70
     0
 41
4.0
 42
0.625
 44
0.625
 47
0.5
 71
     1
 73
     0
 74
     0
 77
     1
 78
     8
140
3.0
146
0.7
147
0.625
172
     1
178
     0
271
     3
272
     3
284
     8
289
     0
340
15
  0
DIMSTYLE
105
DE
330
14
100
AcDbSymbolTableRecord
100
AcDbDimStyleTableRecord
  2
DIMSTYLE_6
 70
     0
  3
%%c<> G6
 41
4.0
 42
0.625
 44
0.625
 47
0.025
 48
-0.009
 71
     1
 73
     0
 74
     0
 77
     1
 78
     8
140
3.0
146
0.7
147
0.625
172
     1
178
     0
271
     3
272
     3
284
     8
289
     1
340
15
  0
DIMSTYLE
105
DF
330
14
100
AcDbSymbolTableRecord
100
AcDbDimStyleTableRecord
  2
DIMSTYLE_9
 70
     0
  3
%%c<>
 41
4.0
 42
0.625
 44
0.625
 47
0.03
 48
0.03000000003
 73
     0
 74
     0
 77
     1
 78
     8
140
3.0
146
0.7
147
0.625
172
     1
178
     0
271
     3
272
     3
284
     8
340
15
  0
DIMSTYLE
105
E0
330
14
100
AcDbSymbolTableRecord
100
AcDbDimStyleTableRecord
  2
ISO-25
 70
     0
 41
2.5
 42
0.625
 43
3.75
 44
1.25
 73
     0
 74
     0
 77
     1
 78
     8
140
2.5
141
2.5
143
0.03937007874016
147
0.625
171
     3
172
     1
178
     0
271
     2
272
     2
274
     3
278
    44
283
     0
284
     8
340
15
  0
ENDTAB
  0
TABLE
  2
BLOCK_RECORD
  5
17
330
0
100
AcDbSymbolTable
 70
    29
  0
BLOCK_RECORD
  5
18
102
{ACAD_XDICTIONARY
360
B1
102
}
330
17
100
AcDbSymbolTableRecord
100
AcDbBlockTableRecord
  2
*MODEL_SPACE
340
1C
 70
     0
280
     1
281
     0
  0
BLOCK_RECORD
  5
1E
330
17
100
AcDbSymbolTableRecord
100
AcDbBlockTableRecord
  2
*PAPER_SPACE
340
21
 70
     0
280
     1
281
     0
  0
BLOCK_RECORD
  5
16
330
17
100
AcDbSymbolTableRecord
100
AcDbBlockTableRecord
  2
_Open30
340
0
102
{BLKREFS
331
AA
331
AB
331
172
331
173
331
183
331
184
331
1D4
331
1D5
331
1E5
331
1E6
331
225
331
226
331
231
331
232
331
2F3
331
2F4
331
3B2
331
3B3
331
3E1
331
3E2
331
3F9
331
3FA
331
4C4
331
4C5
331
7DE
331
7DF
331
7EC
331
7ED
331
7FE
331
7FF
331
816
331
817
331
833
331
834
331
84D
331
84E
331
0
331
936
331
935
102
}
 70
     0
280
     1
281
     0
  0
BLOCK_RECORD
  5
71
330
17
100
AcDbSymbolTableRecord
100
AcDbBlockTableRecord
  2
XAP-03V-1_b
340
0
102
{BLKREFS
331
70
102
}
 70
     4
280
     1
281
     1
  0
BLOCK_RECORD
  5
8A
330
17
100
AcDbSymbolTableRecord
100
AcDbBlockTableRecord
  2
A$C15711
340
0
102
{BLKREFS
331
89
102
}
 70
     0
280
     1
281
     0
  0
BLOCK_RECORD
  5
A5
330
17
100
AcDbSymbolTableRecord
100
AcDbBlockTableRecord
  2
*D3
340
0
 70
     0
280
     1
281
     0
  0
BLOCK_RECORD
  5
11D
330
17
100
AcDbSymbolTableRecord
100
AcDbBlockTableRecord
  2
*T4
340
0
 70
     0
280
     1
281
     0
  0
BLOCK_RECORD
  5
139
330
17
100
AcDbSymbolTableRecord
100
AcDbBlockTableRecord
  2
*T5
340
0
102
{BLKREFS
331
138
102
}
 70
     0
280
     1
281
     0
  0
BLOCK_RECORD
  5
16D
330
17
100
AcDbSymbolTableRecord
100
AcDbBlockTableRecord
  2
*D6
340
0
 70
     0
280
     1
281
     0
  0
BLOCK_RECORD
  5
17C
330
17
100
AcDbSymbolTableRecord
100
AcDbBlockTableRecord
  2
*D7
340
0
 70
     0
280
     1
281
     0
  0
BLOCK_RECORD
  5
18C
102
{ACAD_XDICTIONARY
360
18D
102
}
330
17
100
AcDbSymbolTableRecord
100
AcDbBlockTableRecord
  2
A$C30636
340
0
102
{BLKREFS
331
21C
102
}
 70
     0
280
     1
281
     0
  0
BLOCK_RECORD
  5
1CF
330
17
100
AcDbSymbolTableRecord
100
AcDbBlockTableRecord
  2
*D9
340
0
 70
     0
280
     1
281
     0
  0
BLOCK_RECORD
  5
1DE
330
17
100
AcDbSymbolTableRecord
100
AcDbBlockTableRecord
  2
*D10
340
0
 70
     0
280
     1
281
     0
  0
BLOCK_RECORD
  5
21D
330
17
100
AcDbSymbolTableRecord
100
AcDbBlockTableRecord
  2
*D11
340
0
 70
     0
280
     1
281
     0
  0
BLOCK_RECORD
  5
229
330
17
100
AcDbSymbolTableRecord
100
AcDbBlockTableRecord
  2
*D12
340
0
 70
     0
280
     1
281
     0
  0
BLOCK_RECORD
  5
2EE
330
17
100
AcDbSymbolTableRecord
100
AcDbBlockTableRecord
  2
*D13
340
0
 70
     0
280
     1
281
     0
  0
BLOCK_RECORD
  5
303
330
17
100
AcDbSymbolTableRecord
100
AcDbBlockTableRecord
  2
*T14
340
0
 70
     0
280
     1
281
     0
  0
BLOCK_RECORD
  5
3AC
330
17
100
AcDbSymbolTableRecord
100
AcDbBlockTableRecord
  2
*D15
340
0
 70
     0
280
     1
281
     0
  0
BLOCK_RECORD
  5
3B8
330
17
100
AcDbSymbolTableRecord
100
AcDbBlockTableRecord
  2
*T16
340
0
 70
     0
280
     1
281
     0
  0
BLOCK_RECORD
  5
3DB
330
17
100
AcDbSymbolTableRecord
100
AcDbBlockTableRecord
  2
*D17
340
0
 70
     0
280
     1
281
     0
  0
BLOCK_RECORD
  5
3F1
330
17
100
AcDbSymbolTableRecord
100
AcDbBlockTableRecord
  2
*D18
340
0
 70
     0
280
     1
281
     0
  0
BLOCK_RECORD
  5
4BF
330
17
100
AcDbSymbolTableRecord
100
AcDbBlockTableRecord
  2
*D19
340
0
 70
     0
280
     1
281
     0
  0
BLOCK_RECORD
  5
4CC
330
17
100
AcDbSymbolTableRecord
100
AcDbBlockTableRecord
  2
*T20
340
0
 70
     0
280
     1
281
     0
  0
BLOCK_RECORD
  5
5C9
330
17
100
AcDbSymbolTableRecord
100
AcDbBlockTableRecord
  2
XARR-03V_f
340
0
 70
     4
280
     1
281
     1
  0
BLOCK_RECORD
  5
7D6
330
17
100
AcDbSymbolTableRecord
100
AcDbBlockTableRecord
  2
*D22
340
0
 70
     0
280
     1
281
     0
  0
BLOCK_RECORD
  5
7E6
330
17
100
AcDbSymbolTableRecord
100
AcDbBlockTableRecord
  2
*D23
340
0
 70
     0
280
     1
281
     0
  0
BLOCK_RECORD
  5
7F6
330
17
100
AcDbSymbolTableRecord
100
AcDbBlockTableRecord
  2
*D24
340
0
 70
     0
280
     1
281
     0
  0
BLOCK_RECORD
  5
80E
330
17
100
AcDbSymbolTableRecord
100
AcDbBlockTableRecord
  2
*D25
340
0
 70
     0
280
     1
281
     0
  0
BLOCK_RECORD
  5
82C
330
17
100
AcDbSymbolTableRecord
100
AcDbBlockTableRecord
  2
*D26
340
0
 70
     0
280
     1
281
     0
  0
BLOCK_RECORD
  5
847
330
17
100
AcDbSymbolTableRecord
100
AcDbBlockTableRecord
  2
*D27
340
0
 70
     0
280
     1
281
     0
  0
BLOCK_RECORD
  5
92E
330
17
100
AcDbSymbolTableRecord
100
AcDbBlockTableRecord
  2
*D30
340
0
 70
     0
280
     1
281
     0
  0
ENDTAB
  0
ENDSEC
  0
SECTION
  2
BLOCKS
  0
BLOCK
  5
19
330
18
100
AcDbEntity
  8
0
100
AcDbBlockBegin
  2
*MODEL_SPACE
 70
     0
 10
0.0
 20
0.0
 30
0.0
  3
*MODEL_SPACE
  1
*MODEL_SPACE
  0
ENDBLK
  5
1B
330
18
100
AcDbEntity
  8
0
100
AcDbBlockEnd
  0
BLOCK
  5
1F
330
1E
100
AcDbEntity
 67
     1
  8
0
100
AcDbBlockBegin
  2
*PAPER_SPACE
 70
     0
 10
0.0
 20
0.0
 30
0.0
  3
*PAPER_SPACE
  1
*PAPER_SPACE
  0
ENDBLK
  5
20
330
1E
100
AcDbEntity
 67
     1
  8
0
100
AcDbBlockEnd
  0
BLOCK
  5
22
330
16
100
AcDbEntity
  8
0
100
AcDbBlockBegin
  2
_Open30
 70
     0
 10
0.0
 20
0.0
 30
0.0
  3
_Open30
  1
_Open30
  0
LINE
  5
23
330
16
100
AcDbEntity
  8
0
  6
ByBlock
 62
     0
370
    -2
100
AcDbLine
 10
-1.0
 20
0.26794919
 30
0.0
 11
0.0
 21
0.0
 31
0.0
  0
LINE
  5
24
330
16
100
AcDbEntity
  8
0
  6
ByBlock
 62
     0
370
    -2
100
AcDbLine
 10
0.0
 20
0.0
 30
0.0
 11
-1.0
 21
-0.26794919
 31
0.0
  0
LINE
  5
25
330
16
100
AcDbEntity
  8
0
  6
ByBlock
 62
     0
370
    -2
100
AcDbLine
 10
0.0
 20
0.0
 30
0.0
 11
-1.0
 21
0.0
 31
0.0
  0
ENDBLK
  5
26
330
16
100
AcDbEntity
  8
0
100
AcDbBlockEnd
  0
BLOCK
  5
72
330
71
100
AcDbEntity
  8
0
100
AcDbBlockBegin
  2
XAP-03V-1_b
 70
     0
 10
0.0
 20
0.0
 30
0.0
  3
XAP-03V-1_b
  1

  0
LINE
  5
73
330
71
100
AcDbEntity
  8
OBJECT
100
AcDbLine
 10
0.0
 20
1.759999999999991
 30
0.0
 11
0.0
 21
-1.760000000000105
 31
0.0
  0
LINE
  5
74
330
71
100
AcDbEntity
  8
OBJECT
100
AcDbLine
 10
7.600000000000136
 20
-1.760000000000105
 30
0.0
 11
7.600000000000136
 21
1.759999999999991
 31
0.0
  0
LINE
  5
75
330
71
100
AcDbEntity
  8
OBJECT
100
AcDbLine
 10
0.0
 20
2.319999999999936
 30
0.0
 11
0.0
 21
3.279999999999973
 31
0.0
  0
LINE
  5
76
330
71
100
AcDbEntity
  8
OBJECT
100
AcDbLine
 10
0.0
 20
-2.32000000000005
 30
0.0
 11
0.0
 21
-3.280000000000086
 31
0.0
  0
LINE
  5
77
330
71
100
AcDbEntity
  8
OBJECT
100
AcDbLine
 10
0.6400000000001
 20
-3.280000000000086
 30
0.0
 11
7.200000000000045
 21
-3.280000000000086
 31
0.0
  0
LINE
  5
78
330
71
100
AcDbEntity
  8
OBJECT
100
AcDbLine
 10
7.200000000000045
 20
3.279999999999973
 30
0.0
 11
0.6400000000001
 21
3.279999999999973
 31
0.0
  0
LINE
  5
79
330
71
100
AcDbEntity
  8
OBJECT
100
AcDbLine
 10
0.0
 20
3.279999999999973
 30
0.0
 11
0.0
 21
3.919999999999959
 31
0.0
  0
LINE
  5
7A
330
71
100
AcDbEntity
  8
OBJECT
100
AcDbLine
 10
0.6400000000001
 20
3.919999999999959
 30
0.0
 11
0.0
 21
3.919999999999959
 31
0.0
  0
LINE
  5
7B
330
71
100
AcDbEntity
  8
OBJECT
100
AcDbLine
 10
0.6400000000001
 20
-3.920000000000073
 30
0.0
 11
0.6400000000001
 21
3.919999999999959
 31
0.0
  0
LINE
  5
7C
330
71
100
AcDbEntity
  8
OBJECT
100
AcDbLine
 10
0.6400000000001
 20
-3.920000000000073
 30
0.0
 11
0.0
 21
-3.920000000000073
 31
0.0
  0
LINE
  5
7D
330
71
100
AcDbEntity
  8
OBJECT
100
AcDbLine
 10
0.0
 20
-3.280000000000086
 30
0.0
 11
0.0
 21
-3.920000000000073
 31
0.0
  0
LINE
  5
7E
330
71
100
AcDbEntity
  8
OBJECT
100
AcDbLine
 10
0.0
 20
-2.32000000000005
 30
0.0
 11
0.0
 21
-1.760000000000105
 31
0.0
  0
LINE
  5
7F
330
71
100
AcDbEntity
  8
OBJECT
100
AcDbLine
 10
0.0
 20
1.759999999999991
 30
0.0
 11
0.0
 21
2.319999999999936
 31
0.0
  0
LINE
  5
80
330
71
100
AcDbEntity
  8
OBJECT
100
AcDbLine
 10
3.519999999999982
 20
-3.560000000000059
 30
0.0
 11
3.519999999999982
 21
-3.280000000000086
 31
0.0
  0
LINE
  5
81
330
71
100
AcDbEntity
  8
OBJECT
100
AcDbLine
 10
0.6400000000001
 20
-3.560000000000059
 30
0.0
 11
3.519999999999982
 21
-3.560000000000059
 31
0.0
  0
LINE
  5
82
330
71
100
AcDbEntity
  8
OBJECT
100
AcDbLine
 10
0.6400000000001
 20
3.559999999999945
 30
0.0
 11
3.519999999999982
 21
3.559999999999945
 31
0.0
  0
LINE
  5
83
330
71
100
AcDbEntity
  8
OBJECT
100
AcDbLine
 10
3.519999999999982
 20
3.279999999999973
 30
0.0
 11
3.519999999999982
 21
3.559999999999945
 31
0.0
  0
LINE
  5
84
330
71
100
AcDbEntity
  8
OBJECT
100
AcDbLine
 10
7.600000000000136
 20
-3.280000000000086
 30
0.0
 11
7.600000000000136
 21
-1.760000000000105
 31
0.0
  0
LINE
  5
85
330
71
100
AcDbEntity
  8
OBJECT
100
AcDbLine
 10
7.600000000000136
 20
1.759999999999991
 30
0.0
 11
7.600000000000136
 21
3.279999999999973
 31
0.0
  0
LINE
  5
86
330
71
100
AcDbEntity
  8
OBJECT
100
AcDbLine
 10
7.200000000000045
 20
-3.280000000000086
 30
0.0
 11
7.600000000000136
 21
-3.280000000000086
 31
0.0
  0
LINE
  5
87
330
71
100
AcDbEntity
  8
OBJECT
100
AcDbLine
 10
7.600000000000136
 20
3.279999999999973
 30
0.0
 11
7.200000000000045
 21
3.279999999999973
 31
0.0
  0
ENDBLK
  5
88
330
71
100
AcDbEntity
  8
0
100
AcDbBlockEnd
  0
BLOCK
  5
8B
330
8A
100
AcDbEntity
  8
0
100
AcDbBlockBegin
  2
A$C15711
 70
     0
 10
0.0
 20
0.0
 30
0.0
  3
A$C15711
  1

  0
LINE
  5
8C
330
8A
100
AcDbEntity
  8
OBJECT
100
AcDbLine
 10
-2.100000000000023
 20
0.3000000000000114
 30
0.0
 11
-4.0
 21
0.3000000000000114
 31
0.0
  0
LINE
  5
8D
330
8A
100
AcDbEntity
  8
OBJECT
100
AcDbLine
 10
-4.0
 20
0.3000000000000114
 30
0.0
 11
-4.0
 21
-0.3000000000000114
 31
0.0
  0
LINE
  5
8E
330
8A
100
AcDbEntity
  8
OBJECT
100
AcDbLine
 10
-2.100000000000023
 20
-0.3000000000000114
 30
0.0
 11
-2.100000000000023
 21
0.3000000000000114
 31
0.0
  0
LINE
  5
8F
330
8A
100
AcDbEntity
  8
OBJECT
100
AcDbLine
 10
-4.0
 20
-0.3000000000000114
 30
0.0
 11
-2.100000000000023
 21
-0.3000000000000114
 31
0.0
  0
LINE
  5
90
330
8A
100
AcDbEntity
  8
OBJECT
100
AcDbLine
 10
-21.60000000000002
 20
-2.499999999999943
 30
0.0
 11
-21.60000000000002
 21
-4.999999999999943
 31
0.0
  0
LINE
  5
91
330
8A
100
AcDbEntity
  8
OBJECT
100
AcDbLine
 10
-18.69999999935004
 20
-2.499999999999943
 30
0.0
 11
-21.60000000000002
 21
-2.499999999999943
 31
0.0
  0
LINE
  5
92
330
8A
100
AcDbEntity
  8
OBJECT
100
AcDbLine
 10
-18.69999999910004
 20
2.500000000000057
 30
0.0
 11
-18.69999999935004
 21
-2.499999999999943
 31
0.0
  0
LINE
  5
93
330
8A
100
AcDbEntity
  8
OBJECT
100
AcDbLine
 10
-21.60000000000002
 20
2.500000000000057
 30
0.0
 11
-18.69999999910004
 21
2.500000000000057
 31
0.0
  0
LINE
  5
94
330
8A
100
AcDbEntity
  8
OBJECT
100
AcDbLine
 10
-21.60000000000002
 20
5.000000000000057
 30
0.0
 11
-21.60000000000002
 21
2.500000000000057
 31
0.0
  0
LINE
  5
95
330
8A
100
AcDbEntity
  8
OBJECT
100
AcDbLine
 10
-21.59999999999997
 20
5.000000000000043
 30
0.0
 11
-12.60000000000019
 21
5.000000000000057
 31
0.0
  0
LINE
  5
96
330
8A
100
AcDbEntity
  8
OBJECT
100
AcDbLine
 10
-12.60000000000019
 20
-4.999999999999943
 30
0.0
 11
-12.60000000000019
 21
5.000000000000057
 31
0.0
  0
LINE
  5
97
330
8A
100
AcDbEntity
  8
OBJECT
100
AcDbLine
 10
-12.60000000000019
 20
-4.999999999999943
 30
0.0
 11
-21.59999999999997
 21
-4.999999999999957
 31
0.0
  0
LINE
  5
98
330
8A
100
AcDbEntity
  8
OBJECT
100
AcDbLine
 10
-11.20000000000005
 20
-4.300000000000011
 30
0.0
 11
-11.20000000000005
 21
4.300000000000011
 31
0.0
  0
LINE
  5
99
330
8A
100
AcDbEntity
  8
OBJECT
100
AcDbLine
 10
-11.2000000000001
 20
4.300000000000011
 30
0.0
 11
-12.60000000000019
 21
5.000000000000057
 31
0.0
  0
LINE
  5
9A
330
8A
100
AcDbEntity
  8
OBJECT
100
AcDbLine
 10
-11.2000000000001
 20
-4.300000000000011
 30
0.0
 11
-12.60000000000019
 21
-4.999999999999943
 31
0.0
  0
LINE
  5
9B
330
8A
100
AcDbEntity
  8
OBJECT
100
AcDbLine
 10
0.0
 20
4.300000000000011
 30
0.0
 11
-11.20000000000005
 21
4.300000000000011
 31
0.0
  0
LINE
  5
9C
330
8A
100
AcDbEntity
  8
OBJECT
100
AcDbLine
 10
0.0
 20
4.300000000000011
 30
0.0
 11
0.0
 21
-4.300000000000011
 31
0.0
  0
LINE
  5
9D
330
8A
100
AcDbEntity
  8
OBJECT
100
AcDbLine
 10
0.0
 20
-4.300000000000011
 30
0.0
 11
-11.20000000000005
 21
-4.300000000000011
 31
0.0
  0
ENDBLK
  5
9E
330
8A
100
AcDbEntity
  8
0
100
AcDbBlockEnd
  0
BLOCK
  5
A6
330
A5
100
AcDbEntity
  8
0
100
AcDbBlockBegin
  2
*D3
 70
     1
 10
0.0
 20
0.0
 30
0.0
  3
*D3
  1

  0
LINE
  5
A7
330
A5
100
AcDbEntity
  8
DIMS
100
AcDbLine
 10
85.0
 20
129.5699999999999
 30
0.0
 11
85.0
 21
148.6829259965012
 31
0.0
  0
LINE
  5
A8
330
A5
100
AcDbEntity
  8
DIMS
100
AcDbLine
 10
205.0000000000001
 20
129.9499999999999
 30
0.0
 11
205.0000000000001
 21
148.6829259965012
 31
0.0
  0
LINE
  5
A9
330
A5
100
AcDbEntity
  8
DIMS
100
AcDbLine
 10
87.5
 20
148.0329259965011
 30
0.0
 11
202.5000000000001
 21
148.0329259965011
 31
0.0
  0
INSERT
  5
AA
330
A5
100
AcDbEntity
  8
DIMS
100
AcDbBlockReference
  2
_Open30
 10
85.0
 20
148.0329259965011
 30
0.0
 41
2.5
 42
2.5
 43
2.5
 50
180.0
  0
INSERT
  5
AB
330
A5
100
AcDbEntity
  8
DIMS
100
AcDbBlockReference
  2
_Open30
 10
205.0000000000001
 20
148.0329259965011
 30
0.0
 41
2.5
 42
2.5
 43
2.5
  0
MTEXT
  5
AC
330
A5
100
AcDbEntity
  8
DIMS
 62
     7
100
AcDbMText
 10
145.0000000000001
 20
149.9329259965012
 30
0.0
 40
2.5
 41
0.0
 46
0.0
 71
     5
 72
     1
  1
\A1;L
 73
     1
 44
1.0
  0
POINT
  5
AD
330
A5
100
AcDbEntity
  8
Defpoints
 62
     0
100
AcDbPoint
 10
85.0
 20
128.9199999999998
 30
0.0
  0
POINT
  5
AE
330
A5
100
AcDbEntity
  8
Defpoints
 62
     0
100
AcDbPoint
 10
205.0000000000001
 20
129.2999999999999
 30
0.0
  0
POINT
  5
AF
330
A5
100
AcDbEntity
  8
Defpoints
 62
     0
100
AcDbPoint
 10
205.0000000000001
 20
148.0329259965011
 30
0.0
  0
ENDBLK
  5
B0
330
A5
100
AcDbEntity
  8
0
100
AcDbBlockEnd
  0
BLOCK
  5
11E
330
11D
100
AcDbEntity
  8
0
100
AcDbBlockBegin
  2
*T4
 70
     1
 10
0.0
 20
0.0
 30
0.0
  3
*T4
  1

  0
MTEXT
  5
11F
330
11D
100
AcDbEntity
  8
0
100
AcDbMText
 10
14.0
 20
-2.5
 30
0.0
 40
2.5
 41
27.0
 46
0.0
 71
     5
 72
     5
  1
長さL（単位mm）
  7
Bom
 73
     1
 44
1.0
  0
MTEXT
  5
120
330
11D
100
AcDbEntity
  8
0
100
AcDbMText
 10
50.5
 20
-2.5
 30
0.0
 40
2.5
 41
44.0
 46
0.0
 71
     5
 72
     5
  1
名称
  7
Bom
 73
     1
 44
1.0
  0
MTEXT
  5
121
330
11D
100
AcDbEntity
  8
0
100
AcDbMText
 10
90.5
 20
-2.5
 30
0.0
 40
2.5
 41
34.0
 46
0.0
 71
     5
 72
     5
  1
型番
  7
Bom
 73
     1
 44
1.0
  0
MTEXT
  5
122
330
11D
100
AcDbEntity
  8
0
100
AcDbMText
 10
14.0
 20
-7.5
 30
0.0
 40
2.5
 41
27.0
 46
0.0
 71
     5
 72
     5
  1
1000
  7
Bom
 73
     1
 44
1.0
  0
MTEXT
  5
123
330
11D
100
AcDbEntity
  8
0
100
AcDbMText
 10
50.5
 20
-7.5
 30
0.0
 40
2.5
 41
44.0
 46
0.0
 71
     5
 72
     5
  1
I/OケーブルA 1000mm
  7
Bom
 73
     1
 44
1.0
  0
MTEXT
  5
124
330
11D
100
AcDbEntity
  8
0
100
AcDbMText
 10
90.5
 20
-7.5
 30
0.0
 40
2.5
 41
34.0
 46
0.0
 71
     5
 72
     5
  1
CMIOA1-1000S
  7
Bom
 73
     1
 44
1.0
  0
MTEXT
  5
125
330
11D
100
AcDbEntity
  8
0
100
AcDbMText
 10
14.0
 20
-12.5
 30
0.0
 40
2.5
 41
27.0
 46
0.0
 71
     5
 72
     5
  1
3000
  7
Bom
 73
     1
 44
1.0
  0
MTEXT
  5
126
330
11D
100
AcDbEntity
  8
0
100
AcDbMText
 10
50.5
 20
-12.5
 30
0.0
 40
2.5
 41
44.0
 46
0.0
 71
     5
 72
     5
  1
I/OケーブルA 3000mm
  7
Bom
 73
     1
 44
1.0
  0
MTEXT
  5
127
330
11D
100
AcDbEntity
  8
0
100
AcDbMText
 10
90.5
 20
-12.5
 30
0.0
 40
2.5
 41
34.0
 46
0.0
 71
     5
 72
     5
  1
CMIOA1-3000S
  7
Bom
 73
     1
 44
1.0
  0
MTEXT
  5
128
330
11D
100
AcDbEntity
  8
0
100
AcDbMText
 10
14.0
 20
-17.5
 30
0.0
 40
2.5
 41
27.0
 46
0.0
 71
     5
 72
     5
  1
5000
  7
Bom
 73
     1
 44
1.0
  0
MTEXT
  5
129
330
11D
100
AcDbEntity
  8
0
100
AcDbMText
 10
50.5
 20
-17.5
 30
0.0
 40
2.5
 41
44.0
 46
0.0
 71
     5
 72
     5
  1
I/OケーブルA 5000mm
  7
Bom
 73
     1
 44
1.0
  0
MTEXT
  5
12A
330
11D
100
AcDbEntity
  8
0
100
AcDbMText
 10
90.5
 20
-17.5
 30
0.0
 40
2.5
 41
34.0
 46
0.0
 71
     5
 72
     5
  1
CMIOA1-5000S
  7
Bom
 73
     1
 44
1.0
  0
LINE
  5
12B
330
11D
100
AcDbEntity
  8
0
  6
ByBlock
100
AcDbLine
 10
0.0
 20
0.0
 30
0.0
 11
108.0
 21
0.0
 31
0.0
  0
LINE
  5
12C
330
11D
100
AcDbEntity
  8
0
  6
ByBlock
100
AcDbLine
 10
108.0
 20
0.0
 30
0.0
 11
108.0
 21
-20.0
 31
0.0
  0
LINE
  5
12D
330
11D
100
AcDbEntity
  8
0
  6
ByBlock
100
AcDbLine
 10
0.0
 20
-5.0
 30
0.0
 11
108.0
 21
-5.0
 31
0.0
  0
LINE
  5
12E
330
11D
100
AcDbEntity
  8
0
  6
ByBlock
100
AcDbLine
 10
0.0
 20
-10.0
 30
0.0
 11
108.0
 21
-10.0
 31
0.0
  0
LINE
  5
12F
330
11D
100
AcDbEntity
  8
0
  6
ByBlock
100
AcDbLine
 10
0.0
 20
-15.0
 30
0.0
 11
108.0
 21
-15.0
 31
0.0
  0
LINE
  5
130
330
11D
100
AcDbEntity
  8
0
  6
ByBlock
100
AcDbLine
 10
0.0
 20
-20.0
 30
0.0
 11
108.0
 21
-20.0
 31
0.0
  0
LINE
  5
131
330
11D
100
AcDbEntity
  8
0
  6
ByBlock
100
AcDbLine
 10
0.0
 20
0.0
 30
0.0
 11
0.0
 21
-20.0
 31
0.0
  0
LINE
  5
132
330
11D
100
AcDbEntity
  8
0
  6
ByBlock
100
AcDbLine
 10
28.0
 20
0.0
 30
0.0
 11
28.0
 21
-20.0
 31
0.0
  0
LINE
  5
133
330
11D
100
AcDbEntity
  8
0
  6
ByBlock
100
AcDbLine
 10
73.0
 20
0.0
 30
0.0
 11
73.0
 21
-20.0
 31
0.0
  0
ENDBLK
  5
134
330
11D
100
AcDbEntity
  8
0
100
AcDbBlockEnd
  0
BLOCK
  5
14F
330
139
100
AcDbEntity
  8
0
100
AcDbBlockBegin
  2
*T5
 70
     1
 10
0.0
 20
0.0
 30
0.0
  3
*T5
  1

  0
MTEXT
  5
13A
330
139
100
AcDbEntity
  8
0
100
AcDbMText
 10
14.0
 20
-2.5
 30
0.0
 40
2.5
 41
27.0
 46
0.0
 71
     5
 72
     5
  1
長さL（単位mm）
  7
Bom
 73
     1
 44
1.0
  0
MTEXT
  5
13B
330
139
100
AcDbEntity
  8
0
100
AcDbMText
 10
55.0
 20
-2.5
 30
0.0
 40
2.5
 41
53.0
 46
0.0
 71
     5
 72
     5
  1
名称
  7
Bom
 73
     1
 44
1.0
  0
MTEXT
  5
13C
330
139
100
AcDbEntity
  8
0
100
AcDbMText
 10
99.5
 20
-2.5
 30
0.0
 40
2.5
 41
34.0
 46
0.0
 71
     5
 72
     5
  1
型番
  7
Bom
 73
     1
 44
1.0
  0
MTEXT
  5
13D
330
139
100
AcDbEntity
  8
0
100
AcDbMText
 10
14.0
 20
-7.5
 30
0.0
 40
2.5
 41
27.0
 46
0.0
 71
     5
 72
     5
  1
500
  7
Bom
 73
     1
 44
1.0
  0
MTEXT
  5
13E
330
139
100
AcDbEntity
  8
0
100
AcDbMText
 10
28.5
 20
-7.5
 30
0.0
 40
2.5
 41
53.0
 46
0.0
 71
     4
 72
     5
  1
  デイジーチェインケーブルA 500mm
  7
Bom
 73
     1
 44
1.0
  0
MTEXT
  5
13F
330
139
100
AcDbEntity
  8
0
100
AcDbMText
 10
99.5
 20
-7.5
 30
0.0
 40
2.5
 41
34.0
 46
0.0
 71
     5
 72
     5
  1
CMDCA1-0500W
  7
Bom
 73
     1
 44
1.0
  0
MTEXT
  5
140
330
139
100
AcDbEntity
  8
0
100
AcDbMText
 10
14.0
 20
-12.5
 30
0.0
 40
2.5
 41
27.0
 46
0.0
 71
     5
 72
     5
  1
1000
  7
Bom
 73
     1
 44
1.0
  0
MTEXT
  5
141
330
139
100
AcDbEntity
  8
0
100
AcDbMText
 10
55.0
 20
-12.5
 30
0.0
 40
2.5
 41
53.0
 46
0.0
 71
     5
 72
     5
  1
デイジーチェインケーブルA 1000mm
  7
Bom
 73
     1
 44
1.0
  0
MTEXT
  5
142
330
139
100
AcDbEntity
  8
0
100
AcDbMText
 10
99.5
 20
-12.5
 30
0.0
 40
2.5
 41
34.0
 46
0.0
 71
     5
 72
     5
  1
CMDCA1-1000W
  7
Bom
 73
     1
 44
1.0
  0
MTEXT
  5
143
330
139
100
AcDbEntity
  8
0
100
AcDbMText
 10
14.0
 20
-17.5
 30
0.0
 40
2.5
 41
27.0
 46
0.0
 71
     5
 72
     5
  1
3000
  7
Bom
 73
     1
 44
1.0
  0
MTEXT
  5
144
330
139
100
AcDbEntity
  8
0
100
AcDbMText
 10
55.0
 20
-17.5
 30
0.0
 40
2.5
 41
53.0
 46
0.0
 71
     5
 72
     5
  1
デイジーチェインケーブルA 3000mm
  7
Bom
 73
     1
 44
1.0
  0
MTEXT
  5
145
330
139
100
AcDbEntity
  8
0
100
AcDbMText
 10
99.5
 20
-17.5
 30
0.0
 40
2.5
 41
34.0
 46
0.0
 71
     5
 72
     5
  1
CMDCA1-3000W
  7
Bom
 73
     1
 44
1.0
  0
MTEXT
  5
146
330
139
100
AcDbEntity
  8
0
100
AcDbMText
 10
14.0
 20
-22.5
 30
0.0
 40
2.5
 41
27.0
 46
0.0
 71
     5
 72
     5
  1
5000
  7
Bom
 73
     1
 44
1.0
  0
MTEXT
  5
147
330
139
100
AcDbEntity
  8
0
100
AcDbMText
 10
55.0
 20
-22.5
 30
0.0
 40
2.5
 41
53.0
 46
0.0
 71
     5
 72
     5
  1
デイジーチェインケーブルA 5000mm
  7
Bom
 73
     1
 44
1.0
  0
MTEXT
  5
148
330
139
100
AcDbEntity
  8
0
100
AcDbMText
 10
99.5
 20
-22.5
 30
0.0
 40
2.5
 41
34.0
 46
0.0
 71
     5
 72
     5
  1
CMDCA1-5000W
  7
Bom
 73
     1
 44
1.0
  0
LINE
  5
149
330
139
100
AcDbEntity
  8
0
  6
ByBlock
100
AcDbLine
 10
0.0
 20
0.0
 30
0.0
 11
117.0
 21
0.0
 31
0.0
  0
LINE
  5
14A
330
139
100
AcDbEntity
  8
0
  6
ByBlock
100
AcDbLine
 10
117.0
 20
0.0
 30
0.0
 11
117.0
 21
-25.0
 31
0.0
  0
LINE
  5
14B
330
139
100
AcDbEntity
  8
0
  6
ByBlock
100
AcDbLine
 10
0.0
 20
-5.0
 30
0.0
 11
117.0
 21
-5.0
 31
0.0
  0
LINE
  5
14C
330
139
100
AcDbEntity
  8
0
  6
ByBlock
100
AcDbLine
 10
0.0
 20
-10.0
 30
0.0
 11
117.0
 21
-10.0
 31
0.0
  0
LINE
  5
14D
330
139
100
AcDbEntity
  8
0
  6
ByBlock
100
AcDbLine
 10
0.0
 20
-15.0
 30
0.0
 11
117.0
 21
-15.0
 31
0.0
  0
LINE
  5
14E
330
139
100
AcDbEntity
  8
0
  6
ByBlock
100
AcDbLine
 10
0.0
 20
-20.0
 30
0.0
 11
117.0
 21
-20.0
 31
0.0
  0
LINE
  5
23C
330
139
100
AcDbEntity
  8
0
  6
ByBlock
100
AcDbLine
 10
0.0
 20
-25.0
 30
0.0
 11
117.0
 21
-25.0
 31
0.0
  0
LINE
  5
23D
330
139
100
AcDbEntity
  8
0
  6
ByBlock
100
AcDbLine
 10
0.0
 20
0.0
 30
0.0
 11
0.0
 21
-25.0
 31
0.0
  0
LINE
  5
23E
330
139
100
AcDbEntity
  8
0
  6
ByBlock
100
AcDbLine
 10
28.0
 20
0.0
 30
0.0
 11
28.0
 21
-25.0
 31
0.0
  0
LINE
  5
23F
330
139
100
AcDbEntity
  8
0
  6
ByBlock
100
AcDbLine
 10
82.0
 20
0.0
 30
0.0
 11
82.0
 21
-25.0
 31
0.0
  0
ENDBLK
  5
150
330
139
100
AcDbEntity
  8
0
100
AcDbBlockEnd
  0
BLOCK
  5
16E
330
16D
100
AcDbEntity
  8
0
100
AcDbBlockBegin
  2
*D6
 70
     1
 10
0.0
 20
0.0
 30
0.0
  3
*D6
  1

  0
LINE
  5
16F
330
16D
100
AcDbEntity
  8
DIMS
100
AcDbLine
 10
23.97742453542856
 20
4.900000000000148
 30
0.0
 11
20.72297677067366
 21
4.900000000000148
 31
0.0
  0
LINE
  5
170
330
16D
100
AcDbEntity
  8
DIMS
100
AcDbLine
 10
23.97742453542856
 20
-4.89999999999965
 30
0.0
 11
20.72297677067366
 21
-4.89999999999965
 31
0.0
  0
LINE
  5
171
330
16D
100
AcDbEntity
  8
DIMS
100
AcDbLine
 10
21.37297677067366
 20
2.400000000000148
 30
0.0
 11
21.37297677067366
 21
-2.39999999999965
 31
0.0
  0
INSERT
  5
172
330
16D
100
AcDbEntity
  8
DIMS
100
AcDbBlockReference
  2
_Open30
 10
21.37297677067366
 20
4.900000000000148
 30
0.0
 41
2.5
 42
2.5
 43
2.5
 50
90.0
  0
INSERT
  5
173
330
16D
100
AcDbEntity
  8
DIMS
100
AcDbBlockReference
  2
_Open30
 10
21.37297677067366
 20
-4.89999999999965
 30
0.0
 41
2.5
 42
2.5
 43
2.5
 50
270.0
  0
MTEXT
  5
174
330
16D
100
AcDbEntity
  8
DIMS
 62
     7
100
AcDbMText
 10
19.47297677067366
 20
0.0000000000002487
 30
0.0
 40
2.5
 41
0.0
 46
0.0
 71
     5
 72
     1
  1
\A1;9.8
 11
0.0
 21
1.0
 31
0.0
 73
     1
 44
1.0
  0
POINT
  5
175
330
16D
100
AcDbEntity
  8
Defpoints
 62
     0
100
AcDbPoint
 10
24.62742453542856
 20
4.900000000000148
 30
0.0
  0
POINT
  5
176
330
16D
100
AcDbEntity
  8
Defpoints
 62
     0
100
AcDbPoint
 10
24.62742453542856
 20
-4.89999999999965
 30
0.0
  0
POINT
  5
177
330
16D
100
AcDbEntity
  8
Defpoints
 62
     0
100
AcDbPoint
 10
21.37297677067366
 20
-4.89999999999965
 30
0.0
  0
ENDBLK
  5
178
330
16D
100
AcDbEntity
  8
0
100
AcDbBlockEnd
  0
BLOCK
  5
17D
330
17C
100
AcDbEntity
  8
0
100
AcDbBlockBegin
  2
*D7
 70
     1
 10
0.0
 20
0.0
 30
0.0
  3
*D7
  1

  0
LINE
  5
17E
330
17C
100
AcDbEntity
  8
DIMS
100
AcDbLine
 10
24.62742453542856
 20
5.550000000000148
 30
0.0
 11
24.62742453542856
 21
8.56252378326665
 31
0.0
  0
LINE
  5
17F
330
17C
100
AcDbEntity
  8
DIMS
100
AcDbLine
 10
31.52742453542928
 20
4.649999999998252
 30
0.0
 11
31.52742453542928
 21
8.56252378326665
 31
0.0
  0
LINE
  5
180
330
17C
100
AcDbEntity
  8
DIMS
100
AcDbLine
 10
24.62742453542856
 20
7.91252378326665
 30
0.0
 11
31.52742453542928
 21
7.91252378326665
 31
0.0
  0
LINE
  5
181
330
17C
100
AcDbEntity
  8
DIMS
100
AcDbLine
 10
22.12742453542856
 20
7.91252378326665
 30
0.0
 11
19.62742453542856
 21
7.91252378326665
 31
0.0
  0
LINE
  5
182
330
17C
100
AcDbEntity
  8
DIMS
100
AcDbLine
 10
34.02742453542928
 20
7.91252378326665
 30
0.0
 11
36.52742453542928
 21
7.91252378326665
 31
0.0
  0
INSERT
  5
183
330
17C
100
AcDbEntity
  8
DIMS
100
AcDbBlockReference
  2
_Open30
 10
24.62742453542856
 20
7.91252378326665
 30
0.0
 41
2.5
 42
2.5
 43
2.5
  0
INSERT
  5
184
330
17C
100
AcDbEntity
  8
DIMS
100
AcDbBlockReference
  2
_Open30
 10
31.52742453542928
 20
7.91252378326665
 30
0.0
 41
2.5
 42
2.5
 43
2.5
 50
180.0
  0
MTEXT
  5
185
330
17C
100
AcDbEntity
  8
DIMS
 62
     7
100
AcDbMText
 10
28.28196205534996
 20
9.81252378326665
 30
0.0
 40
2.5
 41
0.0
 46
0.0
 71
     5
 72
     1
  1
\A1;6.9
 73
     1
 44
1.0
  0
POINT
  5
186
330
17C
100
AcDbEntity
  8
Defpoints
 62
     0
100
AcDbPoint
 10
24.62742453542856
 20
4.900000000000148
 30
0.0
  0
POINT
  5
187
330
17C
100
AcDbEntity
  8
Defpoints
 62
     0
100
AcDbPoint
 10
31.52742453542928
 20
3.999999999998252
 30
0.0
  0
POINT
  5
188
330
17C
100
AcDbEntity
  8
Defpoints
 62
     0
100
AcDbPoint
 10
31.52742453542928
 20
7.91252378326665
 30
0.0
  0
ENDBLK
  5
189
330
17C
100
AcDbEntity
  8
0
100
AcDbBlockEnd
  0
BLOCK
  5
18F
330
18C
100
AcDbEntity
  8
0
100
AcDbBlockBegin
  2
A$C30636
 70
     0
 10
0.0
 20
0.0
 30
0.0
  3
A$C30636
  1

  0
LINE
  5
190
330
18C
100
AcDbEntity
  8
OBJECT
100
AcDbLine
 10
-1.78347006929971
 20
4.0
 30
0.0
 11
-1.78347006929971
 21
0.0
 31
0.0
  0
LINE
  5
191
330
18C
100
AcDbEntity
  8
OBJECT
100
AcDbLine
 10
-6.899999999999636
 20
4.0
 30
0.0
 11
-6.899999999999864
 21
3.000000000000057
 31
0.0
  0
LINE
  5
192
330
18C
100
AcDbEntity
  8
OBJECT
100
AcDbLine
 10
0.0
 20
4.89999999999992
 30
0.0
 11
0.0
 21
-4.89999999999992
 31
0.0
  0
LINE
  5
193
330
18C
100
AcDbEntity
  8
OBJECT
100
AcDbLine
 10
-1.199999999999818
 20
4.0
 30
0.0
 11
-1.199999999999591
 21
0.0000000000001705
 31
0.0
  0
LINE
  5
194
330
18C
100
AcDbEntity
  8
OBJECT
100
AcDbLine
 10
-6.628641133314886
 20
4.0
 30
0.0
 11
-6.628641133315114
 21
3.000000000000057
 31
0.0
  0
LINE
  5
195
330
18C
100
AcDbEntity
  8
OBJECT
100
AcDbLine
 10
-6.899999999999864
 20
2.100000000000307
 30
0.0
 11
-6.899999999999864
 21
-2.099999999999739
 31
0.0
  0
LINE
  5
196
330
18C
100
AcDbEntity
  8
OBJECT
100
AcDbLine
 10
-1.78347006929971
 20
-4.0
 30
0.0
 11
-1.78347006929971
 21
0.0
 31
0.0
  0
LINE
  5
197
330
18C
100
AcDbEntity
  8
OBJECT
100
AcDbLine
 10
-5.200000000000045
 20
-1.099999999999739
 30
0.0
 11
-4.600000000000136
 21
-1.099999999999852
 31
0.0
  0
LINE
  5
198
330
18C
100
AcDbEntity
  8
OBJECT
100
AcDbLine
 10
-4.599999999999909
 20
3.000000000000171
 30
0.0
 11
-4.600000000000136
 21
-2.999999999999829
 31
0.0
  0
LINE
  5
199
330
18C
100
AcDbEntity
  8
OBJECT
100
AcDbLine
 10
-4.600000000000136
 20
2.10000000000008
 30
0.0
 11
-6.899999999999864
 21
2.100000000000307
 31
0.0
  0
LINE
  5
19A
330
18C
100
AcDbEntity
  8
OBJECT
100
AcDbLine
 10
-6.900000000000091
 20
-2.999999999999716
 30
0.0
 11
-6.900000000000091
 21
-3.999999999998039
 31
0.0
  0
LINE
  5
19B
330
18C
100
AcDbEntity
  8
OBJECT
100
AcDbLine
 10
-4.600000000000136
 20
-2.099999999999625
 30
0.0
 11
-6.899999999999864
 21
-2.099999999999739
 31
0.0
  0
LINE
  5
19C
330
18C
100
AcDbEntity
  8
OBJECT
100
AcDbLine
 10
-5.199999999999818
 20
2.100000000000136
 30
0.0
 11
-5.200000000000045
 21
-2.099999999999653
 31
0.0
  0
LINE
  5
19D
330
18C
100
AcDbEntity
  8
OBJECT
100
AcDbLine
 10
-6.628641133315341
 20
-2.999999999999716
 30
0.0
 11
-6.628641133315341
 21
-3.999999999998039
 31
0.0
  0
LINE
  5
19E
330
18C
100
AcDbEntity
  8
OBJECT
100
AcDbLine
 10
-1.199999999999818
 20
-4.0
 30
0.0
 11
-1.199999999999591
 21
-0.0000000000001705
 31
0.0
  0
LINE
  5
19F
330
18C
100
AcDbEntity
  8
OBJECT
100
AcDbLine
 10
-6.628641133315114
 20
2.100000000000307
 30
0.0
 11
-6.628641133315114
 21
-2.099999999999739
 31
0.0
  0
LINE
  5
1A0
330
18C
100
AcDbEntity
  8
OBJECT
100
AcDbLine
 10
-4.599999999999909
 20
3.000000000000171
 30
0.0
 11
-6.899999999999864
 21
3.000000000000057
 31
0.0
  0
LINE
  5
1A1
330
18C
100
AcDbEntity
  8
OBJECT
100
AcDbLine
 10
-1.200000000000955
 20
-3.999999999999574
 30
0.0
 11
-6.900000000000773
 21
-3.999999999998039
 31
0.0
  0
LINE
  5
1A2
330
18C
100
AcDbEntity
  8
OBJECT
100
AcDbLine
 10
-6.039624571852528
 20
-4.8999999999983
 30
0.0
 11
-6.039624571852528
 21
-3.999999999998266
 31
0.0
  0
LINE
  5
1A3
330
18C
100
AcDbEntity
  8
OBJECT
100
AcDbLine
 10
-4.600000000000136
 20
-2.999999999999943
 30
0.0
 11
-6.900000000000091
 21
-2.999999999999716
 31
0.0
  0
LINE
  5
1A4
330
18C
100
AcDbEntity
  8
OBJECT
100
AcDbLine
 10
-5.200000000000045
 20
1.100000000000307
 30
0.0
 11
-4.600000000000136
 21
1.100000000000307
 31
0.0
  0
LINE
  5
1A5
330
18C
100
AcDbEntity
  8
OBJECT
100
AcDbLine
 10
0.0
 20
-4.89999999999992
 30
0.0
 11
-6.039624571852528
 21
-4.8999999999983
 31
0.0
  0
LWPOLYLINE
  5
1A6
330
18C
100
AcDbEntity
  8
OBJECT
100
AcDbPolyline
 90
        4
 70
     1
 43
0.0
 10
-3.209937596169311
 20
2.11159679957342
 10
-2.403283885850669
 20
2.11159679957342
 10
-2.403283885850669
 20
2.888403200425785
 10
-3.209937596169311
 20
2.888403200425785
  0
LWPOLYLINE
  5
1A7
330
18C
100
AcDbEntity
  8
OBJECT
100
AcDbPolyline
 90
        4
 70
     1
 43
0.0
 10
-3.209937596169311
 20
-2.11159679957342
 10
-2.403283885850669
 20
-2.11159679957342
 10
-2.403283885850669
 20
-2.888403200425785
 10
-3.209937596169311
 20
-2.888403200425785
  0
LWPOLYLINE
  5
1A8
330
18C
100
AcDbEntity
  8
OBJECT
100
AcDbPolyline
 90
        4
 70
     1
 43
0.0
 10
-3.209937596169311
 20
-0.3884032004261826
 10
-2.403283885850669
 20
-0.3884032004261826
 10
-2.403283885850669
 20
0.3884032004261826
 10
-3.209937596169311
 20
0.3884032004261826
  0
LINE
  5
1A9
330
18C
100
AcDbEntity
  8
OBJECT
100
AcDbLine
 10
-5.17924914369928
 20
4.900000000000034
 30
0.0
 11
-6.039624571850027
 21
4.900000000000034
 31
0.0
  0
LINE
  5
1AA
330
18C
100
AcDbEntity
  8
OBJECT
100
AcDbLine
 10
0.0
 20
4.900000000000034
 30
0.0
 11
-4.62075085629931
 21
4.900000000000034
 31
0.0
  0
LINE
  5
1AB
330
18C
100
AcDbEntity
  8
OBJECT
100
AcDbLine
 10
-6.039624571850027
 20
3.999999999999972
 30
0.0
 11
-6.039624571850027
 21
4.900000000000034
 31
0.0
  0
LINE
  5
1AC
330
18C
100
AcDbEntity
  8
OBJECT
100
AcDbLine
 10
-4.899999999999636
 20
4.46056615235986
 30
0.0
 11
-4.62075085629931
 21
4.900000000000119
 31
0.0
  0
LINE
  5
1AD
330
18C
100
AcDbEntity
  8
OBJECT
100
AcDbLine
 10
-4.899999999999636
 20
4.46056615235986
 30
0.0
 11
-5.17924914369928
 21
4.900000000000176
 31
0.0
  0
LINE
  5
1AE
330
18C
100
AcDbEntity
  8
OBJECT
100
AcDbLine
 10
-1.199999999999818
 20
3.999999999999915
 30
0.0
 11
-6.899999999999636
 21
4.0
 31
0.0
  0
ENDBLK
  5
1AF
330
18C
100
AcDbEntity
  8
0
100
AcDbBlockEnd
  0
BLOCK
  5
1D0
330
1CF
100
AcDbEntity
  8
0
100
AcDbBlockBegin
  2
*D9
 70
     1
 10
0.0
 20
0.0
 30
0.0
  3
*D9
  1

  0
LINE
  5
1D1
330
1CF
100
AcDbEntity
  8
DIMS
100
AcDbLine
 10
23.97742453542856
 20
4.900000000000148
 30
0.0
 11
20.72297677067366
 21
4.900000000000148
 31
0.0
  0
LINE
  5
1D2
330
1CF
100
AcDbEntity
  8
DIMS
100
AcDbLine
 10
23.97742453542856
 20
-4.89999999999965
 30
0.0
 11
20.72297677067366
 21
-4.89999999999965
 31
0.0
  0
LINE
  5
1D3
330
1CF
100
AcDbEntity
  8
DIMS
100
AcDbLine
 10
21.37297677067366
 20
2.400000000000148
 30
0.0
 11
21.37297677067366
 21
-2.39999999999965
 31
0.0
  0
INSERT
  5
1D4
330
1CF
100
AcDbEntity
  8
DIMS
100
AcDbBlockReference
  2
_Open30
 10
21.37297677067366
 20
4.900000000000148
 30
0.0
 41
2.5
 42
2.5
 43
2.5
 50
90.0
  0
INSERT
  5
1D5
330
1CF
100
AcDbEntity
  8
DIMS
100
AcDbBlockReference
  2
_Open30
 10
21.37297677067366
 20
-4.89999999999965
 30
0.0
 41
2.5
 42
2.5
 43
2.5
 50
270.0
  0
MTEXT
  5
1D6
330
1CF
100
AcDbEntity
  8
DIMS
 62
     7
100
AcDbMText
 10
19.47297677067366
 20
0.0000000000002487
 30
0.0
 40
2.5
 41
0.0
 46
0.0
 71
     5
 72
     1
  1
\A1;9.8
 11
0.0
 21
1.0
 31
0.0
 73
     1
 44
1.0
  0
POINT
  5
1D7
330
1CF
100
AcDbEntity
  8
Defpoints
 62
     0
100
AcDbPoint
 10
24.62742453542856
 20
4.900000000000148
 30
0.0
  0
POINT
  5
1D8
330
1CF
100
AcDbEntity
  8
Defpoints
 62
     0
100
AcDbPoint
 10
24.62742453542856
 20
-4.89999999999965
 30
0.0
  0
POINT
  5
1D9
330
1CF
100
AcDbEntity
  8
Defpoints
 62
     0
100
AcDbPoint
 10
21.37297677067366
 20
-4.89999999999965
 30
0.0
  0
ENDBLK
  5
1DA
330
1CF
100
AcDbEntity
  8
0
100
AcDbBlockEnd
  0
BLOCK
  5
1DF
330
1DE
100
AcDbEntity
  8
0
100
AcDbBlockBegin
  2
*D10
 70
     1
 10
0.0
 20
0.0
 30
0.0
  3
*D10
  1

  0
LINE
  5
1E0
330
1DE
100
AcDbEntity
  8
DIMS
100
AcDbLine
 10
24.62742453542856
 20
5.550000000000148
 30
0.0
 11
24.62742453542856
 21
8.56252378326665
 31
0.0
  0
LINE
  5
1E1
330
1DE
100
AcDbEntity
  8
DIMS
100
AcDbLine
 10
31.52742453542928
 20
4.649999999998252
 30
0.0
 11
31.52742453542928
 21
8.56252378326665
 31
0.0
  0
LINE
  5
1E2
330
1DE
100
AcDbEntity
  8
DIMS
100
AcDbLine
 10
24.62742453542856
 20
7.91252378326665
 30
0.0
 11
31.52742453542928
 21
7.91252378326665
 31
0.0
  0
LINE
  5
1E3
330
1DE
100
AcDbEntity
  8
DIMS
100
AcDbLine
 10
22.12742453542856
 20
7.91252378326665
 30
0.0
 11
19.62742453542856
 21
7.91252378326665
 31
0.0
  0
LINE
  5
1E4
330
1DE
100
AcDbEntity
  8
DIMS
100
AcDbLine
 10
34.02742453542928
 20
7.91252378326665
 30
0.0
 11
36.52742453542928
 21
7.91252378326665
 31
0.0
  0
INSERT
  5
1E5
330
1DE
100
AcDbEntity
  8
DIMS
100
AcDbBlockReference
  2
_Open30
 10
24.62742453542856
 20
7.91252378326665
 30
0.0
 41
2.5
 42
2.5
 43
2.5
  0
INSERT
  5
1E6
330
1DE
100
AcDbEntity
  8
DIMS
100
AcDbBlockReference
  2
_Open30
 10
31.52742453542928
 20
7.91252378326665
 30
0.0
 41
2.5
 42
2.5
 43
2.5
 50
180.0
  0
MTEXT
  5
1E7
330
1DE
100
AcDbEntity
  8
DIMS
 62
     7
100
AcDbMText
 10
28.28196205534996
 20
9.81252378326665
 30
0.0
 40
2.5
 41
0.0
 46
0.0
 71
     5
 72
     1
  1
\A1;6.9
 73
     1
 44
1.0
  0
POINT
  5
1E8
330
1DE
100
AcDbEntity
  8
Defpoints
 62
     0
100
AcDbPoint
 10
24.62742453542856
 20
4.900000000000148
 30
0.0
  0
POINT
  5
1E9
330
1DE
100
AcDbEntity
  8
Defpoints
 62
     0
100
AcDbPoint
 10
31.52742453542928
 20
3.999999999998252
 30
0.0
  0
POINT
  5
1EA
330
1DE
100
AcDbEntity
  8
Defpoints
 62
     0
100
AcDbPoint
 10
31.52742453542928
 20
7.91252378326665
 30
0.0
  0
ENDBLK
  5
1EB
330
1DE
100
AcDbEntity
  8
0
100
AcDbBlockEnd
  0
BLOCK
  5
21E
330
21D
100
AcDbEntity
  8
0
100
AcDbBlockBegin
  2
*D11
 70
     1
 10
0.0
 20
0.0
 30
0.0
  3
*D11
  1

  0
LINE
  5
220
330
21D
100
AcDbEntity
  8
DIMS
100
AcDbLine
 10
55.21037542814984
 20
129.8999999999997
 30
0.0
 11
43.69999999999916
 21
129.8999999999997
 31
0.0
  0
LINE
  5
221
330
21D
100
AcDbEntity
  8
DIMS
100
AcDbLine
 10
55.21037542814734
 20
120.1000000000014
 30
0.0
 11
43.69999999999916
 21
120.1000000000014
 31
0.0
  0
LINE
  5
222
330
21D
100
AcDbEntity
  8
DIMS
100
AcDbLine
 10
44.34999999999916
 20
129.8999999999997
 30
0.0
 11
44.34999999999916
 21
120.1000000000014
 31
0.0
  0
LINE
  5
223
330
21D
100
AcDbEntity
  8
DIMS
100
AcDbLine
 10
44.34999999999916
 20
132.3999999999997
 30
0.0
 11
44.34999999999916
 21
134.8999999999997
 31
0.0
  0
LINE
  5
224
330
21D
100
AcDbEntity
  8
DIMS
100
AcDbLine
 10
44.34999999999916
 20
117.6000000000014
 30
0.0
 11
44.34999999999916
 21
115.1000000000014
 31
0.0
  0
INSERT
  5
225
330
21D
100
AcDbEntity
  8
DIMS
100
AcDbBlockReference
  2
_Open30
 10
44.34999999999916
 20
129.8999999999997
 30
0.0
 41
2.5
 42
2.5
 43
2.5
 50
270.0
  0
INSERT
  5
226
330
21D
100
AcDbEntity
  8
DIMS
100
AcDbBlockReference
  2
_Open30
 10
44.34999999999916
 20
120.1000000000014
 30
0.0
 41
2.5
 42
2.5
 43
2.5
 50
90.0
  0
MTEXT
  5
227
330
21D
100
AcDbEntity
  8
DIMS
 62
     7
100
AcDbMText
 10
42.44999999999916
 20
124.7976094117646
 30
0.0
 40
2.5
 41
0.0
 46
0.0
 71
     5
 72
     1
  1
\A1;9.8
 11
0.0
 21
1.0
 31
0.0
 73
     1
 44
1.0
  0
POINT
  5
228
330
21D
100
AcDbEntity
  8
Defpoints
 62
     0
100
AcDbPoint
 10
61.89999999999986
 20
129.8999999999997
 30
0.0
  0
POINT
  5
40E
330
21D
100
AcDbEntity
  8
Defpoints
 62
     0
100
AcDbPoint
 10
55.86037542814734
 20
120.1000000000014
 30
0.0
  0
POINT
  5
40F
330
21D
100
AcDbEntity
  8
Defpoints
 62
     0
100
AcDbPoint
 10
44.34999999999916
 20
120.1000000000014
 30
0.0
  0
ENDBLK
  5
21F
330
21D
100
AcDbEntity
  8
0
100
AcDbBlockEnd
  0
BLOCK
  5
22A
330
229
100
AcDbEntity
  8
0
100
AcDbBlockBegin
  2
*D12
 70
     1
 10
0.0
 20
0.0
 30
0.0
  3
*D12
  1

  0
LINE
  5
22C
330
229
100
AcDbEntity
  8
DIMS
100
AcDbLine
 10
55.00000000000023
 20
129.6499999999997
 30
0.0
 11
55.00000000000023
 21
148.9999999999997
 31
0.0
  0
LINE
  5
22D
330
229
100
AcDbEntity
  8
DIMS
100
AcDbLine
 10
61.89999999999986
 20
130.5499999999997
 30
0.0
 11
61.89999999999986
 21
148.9999999999997
 31
0.0
  0
LINE
  5
22E
330
229
100
AcDbEntity
  8
DIMS
100
AcDbLine
 10
55.00000000000023
 20
148.3499999999997
 30
0.0
 11
61.89999999999986
 21
148.3499999999997
 31
0.0
  0
LINE
  5
22F
330
229
100
AcDbEntity
  8
DIMS
100
AcDbLine
 10
52.50000000000023
 20
148.3499999999997
 30
0.0
 11
50.00000000000023
 21
148.3499999999997
 31
0.0
  0
LINE
  5
230
330
229
100
AcDbEntity
  8
DIMS
100
AcDbLine
 10
64.39999999999986
 20
148.3499999999997
 30
0.0
 11
66.89999999999986
 21
148.3499999999997
 31
0.0
  0
INSERT
  5
231
330
229
100
AcDbEntity
  8
DIMS
100
AcDbBlockReference
  2
_Open30
 10
55.00000000000023
 20
148.3499999999997
 30
0.0
 41
2.5
 42
2.5
 43
2.5
  0
INSERT
  5
232
330
229
100
AcDbEntity
  8
DIMS
100
AcDbBlockReference
  2
_Open30
 10
61.89999999999986
 20
148.3499999999997
 30
0.0
 41
2.5
 42
2.5
 43
2.5
 50
180.0
  0
MTEXT
  5
233
330
229
100
AcDbEntity
  8
DIMS
 62
     7
100
AcDbMText
 10
58.4850331088514
 20
150.2499999999997
 30
0.0
 40
2.5
 41
0.0
 46
0.0
 71
     5
 72
     1
  1
\A1;6.9
 73
     1
 44
1.0
  0
POINT
  5
808
330
229
100
AcDbEntity
  8
Defpoints
 62
     0
100
AcDbPoint
 10
55.00000000000023
 20
128.9999999999997
 30
0.0
  0
POINT
  5
809
330
229
100
AcDbEntity
  8
Defpoints
 62
     0
100
AcDbPoint
 10
61.89999999999986
 20
129.8999999999997
 30
0.0
  0
POINT
  5
80A
330
229
100
AcDbEntity
  8
Defpoints
 62
     0
100
AcDbPoint
 10
61.89999999999986
 20
148.3499999999997
 30
0.0
  0
ENDBLK
  5
22B
330
229
100
AcDbEntity
  8
0
100
AcDbBlockEnd
  0
BLOCK
  5
2EF
330
2EE
100
AcDbEntity
  8
0
100
AcDbBlockBegin
  2
*D13
 70
     1
 10
0.0
 20
0.0
 30
0.0
  3
*D13
  1

  0
LINE
  5
2F0
330
2EE
100
AcDbEntity
  8
DIMS
100
AcDbLine
 10
79.91157183086273
 20
123.5691914211572
 30
0.0
 11
79.91157183086273
 21
146.8773382508734
 31
0.0
  0
LINE
  5
2F1
330
2EE
100
AcDbEntity
  8
DIMS
100
AcDbLine
 10
184.9115718308629
 20
127.5496478526486
 30
0.0
 11
184.9115718308629
 21
146.8773382508734
 31
0.0
  0
LINE
  5
2F2
330
2EE
100
AcDbEntity
  8
DIMS
100
AcDbLine
 10
82.41157183086273
 20
146.2273382508734
 30
0.0
 11
182.4115718308629
 21
146.2273382508734
 31
0.0
  0
INSERT
  5
2F3
330
2EE
100
AcDbEntity
  8
DIMS
100
AcDbBlockReference
  2
_Open30
 10
79.91157183086273
 20
146.2273382508734
 30
0.0
 41
2.5
 42
2.5
 43
2.5
 50
180.0
  0
INSERT
  5
2F4
330
2EE
100
AcDbEntity
  8
DIMS
100
AcDbBlockReference
  2
_Open30
 10
184.9115718308629
 20
146.2273382508734
 30
0.0
 41
2.5
 42
2.5
 43
2.5
  0
MTEXT
  5
2F5
330
2EE
100
AcDbEntity
  8
DIMS
 62
     7
100
AcDbMText
 10
132.4115718308628
 20
148.1273382508734
 30
0.0
 40
2.5
 41
0.0
 46
0.0
 71
     5
 72
     1
  1
\A1;L
 73
     1
 44
1.0
  0
POINT
  5
2F6
330
2EE
100
AcDbEntity
  8
Defpoints
 62
     0
100
AcDbPoint
 10
79.91157183086273
 20
122.9191914211572
 30
0.0
  0
POINT
  5
2F7
330
2EE
100
AcDbEntity
  8
Defpoints
 62
     0
100
AcDbPoint
 10
184.9115718308629
 20
126.8996478526486
 30
0.0
  0
POINT
  5
2F8
330
2EE
100
AcDbEntity
  8
Defpoints
 62
     0
100
AcDbPoint
 10
184.9115718308629
 20
146.2273382508734
 30
0.0
  0
ENDBLK
  5
2F9
330
2EE
100
AcDbEntity
  8
0
100
AcDbBlockEnd
  0
BLOCK
  5
304
330
303
100
AcDbEntity
  8
0
100
AcDbBlockBegin
  2
*T14
 70
     1
 10
0.0
 20
0.0
 30
0.0
  3
*T14
  1

  0
MTEXT
  5
305
330
303
100
AcDbEntity
  8
0
100
AcDbMText
 10
14.0
 20
-2.5
 30
0.0
 40
2.5
 41
27.0
 46
0.0
 71
     5
 72
     5
  1
長さL（単位mm）
  7
Bom
 73
     1
 44
1.0
  0
MTEXT
  5
306
330
303
100
AcDbEntity
  8
0
100
AcDbMText
 10
55.5
 20
-2.5
 30
0.0
 40
2.5
 41
54.0
 46
0.0
 71
     5
 72
     5
  1
名称
  7
Bom
 73
     1
 44
1.0
  0
MTEXT
  5
307
330
303
100
AcDbEntity
  8
0
100
AcDbMText
 10
102.0
 20
-2.5
 30
0.0
 40
2.5
 41
37.0
 46
0.0
 71
     5
 72
     5
  1
型番
  7
Bom
 73
     1
 44
1.0
  0
MTEXT
  5
308
330
303
100
AcDbEntity
  8
0
100
AcDbMText
 10
14.0
 20
-7.5
 30
0.0
 40
2.5
 41
27.0
 46
0.0
 71
     5
 72
     5
  1
400
  7
Bom
 73
     1
 44
1.0
  0
MTEXT
  5
309
330
303
100
AcDbEntity
  8
0
100
AcDbMText
 10
28.5
 20
-7.5
 30
0.0
 40
2.5
 41
54.0
 46
0.0
 71
     4
 72
     5
  1
  インターフェースケーブルA 400mm
  7
Bom
 73
     1
 44
1.0
  0
MTEXT
  5
30A
330
303
100
AcDbEntity
  8
0
100
AcDbMText
 10
102.0
 20
-7.5
 30
0.0
 40
2.5
 41
37.0
 46
0.0
 71
     5
 72
     5
  1
CMIFA1-0400WR
  7
Bom
 73
     1
 44
1.0
  0
MTEXT
  5
30B
330
303
100
AcDbEntity
  8
0
100
AcDbMText
 10
14.0
 20
-12.5
 30
0.0
 40
2.5
 41
27.0
 46
0.0
 71
     5
 72
     5
  1
1000
  7
Bom
 73
     1
 44
1.0
  0
MTEXT
  5
30C
330
303
100
AcDbEntity
  8
0
100
AcDbMText
 10
55.5
 20
-12.5
 30
0.0
 40
2.5
 41
54.0
 46
0.0
 71
     5
 72
     5
  1
インターフェースケーブルA 1000mm
  7
Bom
 73
     1
 44
1.0
  0
MTEXT
  5
30D
330
303
100
AcDbEntity
  8
0
100
AcDbMText
 10
102.0
 20
-12.5
 30
0.0
 40
2.5
 41
37.0
 46
0.0
 71
     5
 72
     5
  1
CMIFA1-1000WR
  7
Bom
 73
     1
 44
1.0
  0
MTEXT
  5
30E
330
303
100
AcDbEntity
  8
0
100
AcDbMText
 10
14.0
 20
-17.5
 30
0.0
 40
2.5
 41
27.0
 46
0.0
 71
     5
 72
     5
  1
2000
  7
Bom
 73
     1
 44
1.0
  0
MTEXT
  5
30F
330
303
100
AcDbEntity
  8
0
100
AcDbMText
 10
55.5
 20
-17.5
 30
0.0
 40
2.5
 41
54.0
 46
0.0
 71
     5
 72
     5
  1
インターフェースケーブルA 2000mm
  7
Bom
 73
     1
 44
1.0
  0
MTEXT
  5
310
330
303
100
AcDbEntity
  8
0
100
AcDbMText
 10
102.0
 20
-17.5
 30
0.0
 40
2.5
 41
37.0
 46
0.0
 71
     5
 72
     5
  1
CMIFA1-2000WR
  7
Bom
 73
     1
 44
1.0
  0
MTEXT
  5
311
330
303
100
AcDbEntity
  8
0
100
AcDbMText
 10
14.0
 20
-22.5
 30
0.0
 40
2.5
 41
27.0
 46
0.0
 71
     5
 72
     5
  1
3000
  7
Bom
 73
     1
 44
1.0
  0
MTEXT
  5
312
330
303
100
AcDbEntity
  8
0
100
AcDbMText
 10
55.5
 20
-22.5
 30
0.0
 40
2.5
 41
54.0
 46
0.0
 71
     5
 72
     5
  1
インターフェースケーブルA 3000mm
  7
Bom
 73
     1
 44
1.0
  0
MTEXT
  5
313
330
303
100
AcDbEntity
  8
0
100
AcDbMText
 10
102.0
 20
-22.5
 30
0.0
 40
2.5
 41
37.0
 46
0.0
 71
     5
 72
     5
  1
CMIFA1-3000WR
  7
Bom
 73
     1
 44
1.0
  0
MTEXT
  5
314
330
303
100
AcDbEntity
  8
0
100
AcDbMText
 10
14.0
 20
-27.5
 30
0.0
 40
2.5
 41
27.0
 46
0.0
 71
     5
 72
     5
  1
5000
  7
Bom
 73
     1
 44
1.0
  0
MTEXT
  5
315
330
303
100
AcDbEntity
  8
0
100
AcDbMText
 10
55.5
 20
-27.5
 30
0.0
 40
2.5
 41
54.0
 46
0.0
 71
     5
 72
     5
  1
インターフェースケーブルA 5000mm
  7
Bom
 73
     1
 44
1.0
  0
MTEXT
  5
316
330
303
100
AcDbEntity
  8
0
100
AcDbMText
 10
102.0
 20
-27.5
 30
0.0
 40
2.5
 41
37.0
 46
0.0
 71
     5
 72
     5
  1
CMIFA1-5000WR
  7
Bom
 73
     1
 44
1.0
  0
LINE
  5
317
330
303
100
AcDbEntity
  8
0
  6
ByBlock
100
AcDbLine
 10
0.0
 20
0.0
 30
0.0
 11
121.0
 21
0.0
 31
0.0
  0
LINE
  5
318
330
303
100
AcDbEntity
  8
0
  6
ByBlock
100
AcDbLine
 10
121.0
 20
0.0
 30
0.0
 11
121.0
 21
-30.0
 31
0.0
  0
LINE
  5
319
330
303
100
AcDbEntity
  8
0
  6
ByBlock
100
AcDbLine
 10
0.0
 20
-5.0
 30
0.0
 11
121.0
 21
-5.0
 31
0.0
  0
LINE
  5
31A
330
303
100
AcDbEntity
  8
0
  6
ByBlock
100
AcDbLine
 10
0.0
 20
-10.0
 30
0.0
 11
121.0
 21
-10.0
 31
0.0
  0
LINE
  5
31B
330
303
100
AcDbEntity
  8
0
  6
ByBlock
100
AcDbLine
 10
0.0
 20
-15.0
 30
0.0
 11
121.0
 21
-15.0
 31
0.0
  0
LINE
  5
31C
330
303
100
AcDbEntity
  8
0
  6
ByBlock
100
AcDbLine
 10
0.0
 20
-20.0
 30
0.0
 11
121.0
 21
-20.0
 31
0.0
  0
LINE
  5
31D
330
303
100
AcDbEntity
  8
0
  6
ByBlock
100
AcDbLine
 10
0.0
 20
-25.0
 30
0.0
 11
121.0
 21
-25.0
 31
0.0
  0
LINE
  5
31E
330
303
100
AcDbEntity
  8
0
  6
ByBlock
100
AcDbLine
 10
0.0
 20
-30.0
 30
0.0
 11
121.0
 21
-30.0
 31
0.0
  0
LINE
  5
31F
330
303
100
AcDbEntity
  8
0
  6
ByBlock
100
AcDbLine
 10
0.0
 20
0.0
 30
0.0
 11
0.0
 21
-30.0
 31
0.0
  0
LINE
  5
320
330
303
100
AcDbEntity
  8
0
  6
ByBlock
100
AcDbLine
 10
28.0
 20
0.0
 30
0.0
 11
28.0
 21
-30.0
 31
0.0
  0
LINE
  5
321
330
303
100
AcDbEntity
  8
0
  6
ByBlock
100
AcDbLine
 10
83.0
 20
0.0
 30
0.0
 11
83.0
 21
-30.0
 31
0.0
  0
ENDBLK
  5
322
330
303
100
AcDbEntity
  8
0
100
AcDbBlockEnd
  0
BLOCK
  5
3AD
330
3AC
100
AcDbEntity
  8
0
100
AcDbBlockBegin
  2
*D15
 70
     1
 10
0.0
 20
0.0
 30
0.0
  3
*D15
  1

  0
LINE
  5
3AF
330
3AC
100
AcDbEntity
  8
DIMS
100
AcDbLine
 10
472.7415279818736
 20
117.5895168277657
 30
0.0
 11
472.7415279818736
 21
140.8976636574819
 31
0.0
  0
LINE
  5
3B0
330
3AC
100
AcDbEntity
  8
DIMS
100
AcDbLine
 10
577.7415279818738
 20
121.5699732592571
 30
0.0
 11
577.7415279818738
 21
140.8976636574819
 31
0.0
  0
LINE
  5
3B1
330
3AC
100
AcDbEntity
  8
DIMS
100
AcDbLine
 10
475.2415279818736
 20
140.2476636574819
 30
0.0
 11
575.2415279818738
 21
140.2476636574819
 31
0.0
  0
INSERT
  5
3B2
330
3AC
100
AcDbEntity
  8
DIMS
100
AcDbBlockReference
  2
_Open30
 10
472.7415279818736
 20
140.2476636574819
 30
0.0
 41
2.5
 42
2.5
 43
2.5
 50
180.0
  0
INSERT
  5
3B3
330
3AC
100
AcDbEntity
  8
DIMS
100
AcDbBlockReference
  2
_Open30
 10
577.7415279818738
 20
140.2476636574819
 30
0.0
 41
2.5
 42
2.5
 43
2.5
  0
MTEXT
  5
3B4
330
3AC
100
AcDbEntity
  8
DIMS
 62
     7
100
AcDbMText
 10
525.2415279818737
 20
142.1476636574819
 30
0.0
 40
2.5
 41
0.0
 46
0.0
 71
     5
 72
     1
  1
\A1;L
 73
     1
 44
1.0
  0
POINT
  5
3B5
330
3AC
100
AcDbEntity
  8
Defpoints
 62
     0
100
AcDbPoint
 10
472.7415279818736
 20
116.9395168277657
 30
0.0
  0
POINT
  5
3B6
330
3AC
100
AcDbEntity
  8
Defpoints
 62
     0
100
AcDbPoint
 10
577.7415279818738
 20
120.9199732592571
 30
0.0
  0
POINT
  5
3B7
330
3AC
100
AcDbEntity
  8
Defpoints
 62
     0
100
AcDbPoint
 10
577.7415279818738
 20
140.2476636574819
 30
0.0
  0
ENDBLK
  5
3AE
330
3AC
100
AcDbEntity
  8
0
100
AcDbBlockEnd
  0
BLOCK
  5
3D6
330
3B8
100
AcDbEntity
  8
0
100
AcDbBlockBegin
  2
*T16
 70
     1
 10
0.0
 20
0.0
 30
0.0
  3
*T16
  1

  0
MTEXT
  5
3B9
330
3B8
100
AcDbEntity
  8
0
100
AcDbMText
 10
14.0
 20
-2.5
 30
0.0
 40
2.5
 41
27.0
 46
0.0
 71
     5
 72
     5
  1
長さL（単位mm）
  7
Bom
 73
     1
 44
1.0
  0
MTEXT
  5
3BA
330
3B8
100
AcDbEntity
  8
0
100
AcDbMText
 10
50.5
 20
-2.5
 30
0.0
 40
2.5
 41
44.0
 46
0.0
 71
     5
 72
     5
  1
名称
  7
Bom
 73
     1
 44
1.0
  0
MTEXT
  5
3BB
330
3B8
100
AcDbEntity
  8
0
100
AcDbMText
 10
92.0
 20
-2.5
 30
0.0
 40
2.5
 41
37.0
 46
0.0
 71
     5
 72
     5
  1
型番
  7
Bom
 73
     1
 44
1.0
  0
MTEXT
  5
3BC
330
3B8
100
AcDbEntity
  8
0
100
AcDbMText
 10
14.0
 20
-7.5
 30
0.0
 40
2.5
 41
27.0
 46
0.0
 71
     5
 72
     5
  1
1000
  7
Bom
 73
     1
 44
1.0
  0
MTEXT
  5
3BD
330
3B8
100
AcDbEntity
  8
0
100
AcDbMText
 10
50.5
 20
-7.5
 30
0.0
 40
2.5
 41
44.0
 46
0.0
 71
     5
 72
     5
  1
通信ケーブルA 1000mm
  7
Bom
 73
     1
 44
1.0
  0
MTEXT
  5
3BE
330
3B8
100
AcDbEntity
  8
0
100
AcDbMText
 10
92.0
 20
-7.5
 30
0.0
 40
2.5
 41
37.0
 46
0.0
 71
     5
 72
     5
  1
CMRSA1-1000W
  7
Bom
 73
     1
 44
1.0
  0
MTEXT
  5
3BF
330
3B8
100
AcDbEntity
  8
0
100
AcDbMText
 10
14.0
 20
-12.5
 30
0.0
 40
2.5
 41
27.0
 46
0.0
 71
     5
 72
     5
  1
2000
  7
Bom
 73
     1
 44
1.0
  0
MTEXT
  5
3C0
330
3B8
100
AcDbEntity
  8
0
100
AcDbMText
 10
50.5
 20
-12.5
 30
0.0
 40
2.5
 41
44.0
 46
0.0
 71
     5
 72
     5
  1
通信ケーブルA 2000mm
  7
Bom
 73
     1
 44
1.0
  0
MTEXT
  5
3C1
330
3B8
100
AcDbEntity
  8
0
100
AcDbMText
 10
92.0
 20
-12.5
 30
0.0
 40
2.5
 41
37.0
 46
0.0
 71
     5
 72
     5
  1
CMRSA1-2000W
  7
Bom
 73
     1
 44
1.0
  0
MTEXT
  5
3C2
330
3B8
100
AcDbEntity
  8
0
100
AcDbMText
 10
14.0
 20
-17.5
 30
0.0
 40
2.5
 41
27.0
 46
0.0
 71
     5
 72
     5
  1
3000
  7
Bom
 73
     1
 44
1.0
  0
MTEXT
  5
3C3
330
3B8
100
AcDbEntity
  8
0
100
AcDbMText
 10
50.5
 20
-17.5
 30
0.0
 40
2.5
 41
44.0
 46
0.0
 71
     5
 72
     5
  1
通信ケーブルA 3000mm
  7
Bom
 73
     1
 44
1.0
  0
MTEXT
  5
3C4
330
3B8
100
AcDbEntity
  8
0
100
AcDbMText
 10
92.0
 20
-17.5
 30
0.0
 40
2.5
 41
37.0
 46
0.0
 71
     5
 72
     5
  1
CMRSA1-3000W
  7
Bom
 73
     1
 44
1.0
  0
MTEXT
  5
3C5
330
3B8
100
AcDbEntity
  8
0
100
AcDbMText
 10
14.0
 20
-22.5
 30
0.0
 40
2.5
 41
27.0
 46
0.0
 71
     5
 72
     5
  1
5000
  7
Bom
 73
     1
 44
1.0
  0
MTEXT
  5
3C6
330
3B8
100
AcDbEntity
  8
0
100
AcDbMText
 10
50.5
 20
-22.5
 30
0.0
 40
2.5
 41
44.0
 46
0.0
 71
     5
 72
     5
  1
通信ケーブルA 5000mm
  7
Bom
 73
     1
 44
1.0
  0
MTEXT
  5
3C7
330
3B8
100
AcDbEntity
  8
0
100
AcDbMText
 10
92.0
 20
-22.5
 30
0.0
 40
2.5
 41
37.0
 46
0.0
 71
     5
 72
     5
  1
CMRSA1-5000W
  7
Bom
 73
     1
 44
1.0
  0
LINE
  5
3C8
330
3B8
100
AcDbEntity
  8
0
  6
ByBlock
100
AcDbLine
 10
0.0
 20
0.0
 30
0.0
 11
111.0
 21
0.0
 31
0.0
  0
LINE
  5
3C9
330
3B8
100
AcDbEntity
  8
0
  6
ByBlock
100
AcDbLine
 10
111.0
 20
0.0
 30
0.0
 11
111.0
 21
-25.0
 31
0.0
  0
LINE
  5
3CA
330
3B8
100
AcDbEntity
  8
0
  6
ByBlock
100
AcDbLine
 10
0.0
 20
-5.0
 30
0.0
 11
111.0
 21
-5.0
 31
0.0
  0
LINE
  5
3CB
330
3B8
100
AcDbEntity
  8
0
  6
ByBlock
100
AcDbLine
 10
0.0
 20
-10.0
 30
0.0
 11
111.0
 21
-10.0
 31
0.0
  0
LINE
  5
3CC
330
3B8
100
AcDbEntity
  8
0
  6
ByBlock
100
AcDbLine
 10
0.0
 20
-15.0
 30
0.0
 11
111.0
 21
-15.0
 31
0.0
  0
LINE
  5
3CD
330
3B8
100
AcDbEntity
  8
0
  6
ByBlock
100
AcDbLine
 10
0.0
 20
-20.0
 30
0.0
 11
111.0
 21
-20.0
 31
0.0
  0
LINE
  5
3CE
330
3B8
100
AcDbEntity
  8
0
  6
ByBlock
100
AcDbLine
 10
0.0
 20
-25.0
 30
0.0
 11
111.0
 21
-25.0
 31
0.0
  0
LINE
  5
3CF
330
3B8
100
AcDbEntity
  8
0
  6
ByBlock
100
AcDbLine
 10
0.0
 20
0.0
 30
0.0
 11
0.0
 21
-25.0
 31
0.0
  0
LINE
  5
3D0
330
3B8
100
AcDbEntity
  8
0
  6
ByBlock
100
AcDbLine
 10
28.0
 20
0.0
 30
0.0
 11
28.0
 21
-25.0
 31
0.0
  0
LINE
  5
3D1
330
3B8
100
AcDbEntity
  8
0
  6
ByBlock
100
AcDbLine
 10
73.0
 20
0.0
 30
0.0
 11
73.0
 21
-25.0
 31
0.0
  0
ENDBLK
  5
3D7
330
3B8
100
AcDbEntity
  8
0
100
AcDbBlockEnd
  0
BLOCK
  5
3DC
330
3DB
100
AcDbEntity
  8
0
100
AcDbBlockBegin
  2
*D17
 70
     1
 10
0.0
 20
0.0
 30
0.0
  3
*D17
  1

  0
LINE
  5
3DE
330
3DB
100
AcDbEntity
  8
DIMS
100
AcDbLine
 10
501.3119259246058
 20
107.5795168277657
 30
0.0
 11
501.3119259246058
 21
96.63665968490865
 31
0.0
  0
LINE
  5
3DF
330
3DB
100
AcDbEntity
  8
DIMS
100
AcDbLine
 10
501.3119259246058
 20
115.1995168277658
 30
0.0
 11
501.3119259246058
 21
110.0795168277657
 31
0.0
  0
LINE
  5
3E0
330
3DB
100
AcDbEntity
  8
DIMS
100
AcDbLine
 10
501.3119259246058
 20
117.6995168277658
 30
0.0
 11
501.3119259246058
 21
120.1995168277658
 31
0.0
  0
INSERT
  5
3E1
330
3DB
100
AcDbEntity
  8
DIMS
100
AcDbBlockReference
  2
_Open30
 10
501.3119259246058
 20
115.1995168277658
 30
0.0
 41
2.5
 42
2.5
 43
2.5
 50
270.0
  0
INSERT
  5
3E2
330
3DB
100
AcDbEntity
  8
DIMS
100
AcDbBlockReference
  2
_Open30
 10
501.3119259246058
 20
110.0795168277657
 30
0.0
 41
2.5
 42
2.5
 43
2.5
 50
90.0
  0
MTEXT
  5
3E3
330
3DB
100
AcDbEntity
  8
DIMS
 62
     7
100
AcDbMText
 10
499.4119259246058
 20
100.8580882563372
 30
0.0
 40
2.5
 41
0.0
 46
0.0
 71
     5
 72
     1
  1
\A1;5.12
 11
0.0
 21
1.0
 31
0.0
 73
     1
 44
1.0
  0
POINT
  5
3E4
330
3DB
100
AcDbEntity
  8
Defpoints
 62
     0
100
AcDbPoint
 10
494.7415279818736
 20
115.1995168277658
 30
0.0
  0
POINT
  5
3E5
330
3DB
100
AcDbEntity
  8
Defpoints
 62
     0
100
AcDbPoint
 10
494.7415279818736
 20
110.0795168277657
 30
0.0
  0
POINT
  5
3E6
330
3DB
100
AcDbEntity
  8
Defpoints
 62
     0
100
AcDbPoint
 10
501.3119259246058
 20
110.0795168277657
 30
0.0
  0
ENDBLK
  5
3DD
330
3DB
100
AcDbEntity
  8
0
100
AcDbBlockEnd
  0
BLOCK
  5
3F2
330
3F1
100
AcDbEntity
  8
0
100
AcDbBlockBegin
  2
*D18
 70
     1
 10
0.0
 20
0.0
 30
0.0
  3
*D18
  1

  0
LINE
  5
3F4
330
3F1
100
AcDbEntity
  8
DIMS
100
AcDbLine
 10
495.3915279818735
 20
115.5995168277658
 30
0.0
 11
500.0415279818735
 21
115.5995168277658
 31
0.0
  0
LINE
  5
3F5
330
3F1
100
AcDbEntity
  8
DIMS
100
AcDbLine
 10
495.3915279818735
 20
109.6795168277658
 30
0.0
 11
500.0415279818735
 21
109.6795168277658
 31
0.0
  0
LINE
  5
3F6
330
3F1
100
AcDbEntity
  8
DIMS
100
AcDbLine
 10
499.3915279818735
 20
107.1795168277658
 30
0.0
 11
499.3915279818735
 21
95.76046920871828
 31
0.0
  0
LINE
  5
3F7
330
3F1
100
AcDbEntity
  8
DIMS
100
AcDbLine
 10
499.3915279818735
 20
115.5995168277658
 30
0.0
 11
499.3915279818735
 21
109.6795168277658
 31
0.0
  0
LINE
  5
3F8
330
3F1
100
AcDbEntity
  8
DIMS
100
AcDbLine
 10
499.3915279818735
 20
118.0995168277658
 30
0.0
 11
499.3915279818735
 21
120.5995168277658
 31
0.0
  0
INSERT
  5
3F9
330
3F1
100
AcDbEntity
  8
DIMS
100
AcDbBlockReference
  2
_Open30
 10
499.3915279818735
 20
115.5995168277658
 30
0.0
 41
2.5
 42
2.5
 43
2.5
 50
270.0
  0
INSERT
  5
3FA
330
3F1
100
AcDbEntity
  8
DIMS
100
AcDbBlockReference
  2
_Open30
 10
499.3915279818735
 20
109.6795168277658
 30
0.0
 41
2.5
 42
2.5
 43
2.5
 50
90.0
  0
MTEXT
  5
3FB
330
3F1
100
AcDbEntity
  8
DIMS
 62
     7
100
AcDbMText
 10
497.4915279818736
 20
100.2199930182421
 30
0.0
 40
2.5
 41
0.0
 46
0.0
 71
     5
 72
     1
  1
\A1;5.92
 11
0.0
 21
1.0
 31
0.0
 73
     1
 44
1.0
  0
POINT
  5
3FC
330
3F1
100
AcDbEntity
  8
Defpoints
 62
     0
100
AcDbPoint
 10
494.7415279818736
 20
115.5995168277658
 30
0.0
  0
POINT
  5
3FD
330
3F1
100
AcDbEntity
  8
Defpoints
 62
     0
100
AcDbPoint
 10
494.7415279818736
 20
109.6795168277658
 30
0.0
  0
POINT
  5
3FE
330
3F1
100
AcDbEntity
  8
Defpoints
 62
     0
100
AcDbPoint
 10
499.3915279818735
 20
109.6795168277658
 30
0.0
  0
ENDBLK
  5
3F3
330
3F1
100
AcDbEntity
  8
0
100
AcDbBlockEnd
  0
BLOCK
  5
4C0
330
4BF
100
AcDbEntity
  8
0
100
AcDbBlockBegin
  2
*D19
 70
     1
 10
0.0
 20
0.0
 30
0.0
  3
*D19
  1

  0
LINE
  5
4C1
330
4BF
100
AcDbEntity
  8
DIMS
100
AcDbLine
 10
74.91157183086284
 20
118.5691914211572
 30
0.0
 11
74.91157183086284
 21
141.8773382508734
 31
0.0
  0
LINE
  5
4C2
330
4BF
100
AcDbEntity
  8
DIMS
100
AcDbLine
 10
179.911571830863
 20
122.5496478526486
 30
0.0
 11
179.911571830863
 21
141.8773382508734
 31
0.0
  0
LINE
  5
4C3
330
4BF
100
AcDbEntity
  8
DIMS
100
AcDbLine
 10
77.41157183086284
 20
141.2273382508734
 30
0.0
 11
177.411571830863
 21
141.2273382508734
 31
0.0
  0
INSERT
  5
4C4
330
4BF
100
AcDbEntity
  8
DIMS
100
AcDbBlockReference
  2
_Open30
 10
74.91157183086284
 20
141.2273382508734
 30
0.0
 41
2.5
 42
2.5
 43
2.5
 50
180.0
  0
INSERT
  5
4C5
330
4BF
100
AcDbEntity
  8
DIMS
100
AcDbBlockReference
  2
_Open30
 10
179.911571830863
 20
141.2273382508734
 30
0.0
 41
2.5
 42
2.5
 43
2.5
  0
MTEXT
  5
4C6
330
4BF
100
AcDbEntity
  8
DIMS
 62
     7
100
AcDbMText
 10
127.4115718308629
 20
143.1273382508734
 30
0.0
 40
2.5
 41
0.0
 46
0.0
 71
     5
 72
     1
  1
\A1;L
 73
     1
 44
1.0
  0
POINT
  5
4C7
330
4BF
100
AcDbEntity
  8
Defpoints
 62
     0
100
AcDbPoint
 10
74.91157183086284
 20
117.9191914211572
 30
0.0
  0
POINT
  5
4C8
330
4BF
100
AcDbEntity
  8
Defpoints
 62
     0
100
AcDbPoint
 10
179.911571830863
 20
121.8996478526486
 30
0.0
  0
POINT
  5
4C9
330
4BF
100
AcDbEntity
  8
Defpoints
 62
     0
100
AcDbPoint
 10
179.911571830863
 20
141.2273382508734
 30
0.0
  0
ENDBLK
  5
4CA
330
4BF
100
AcDbEntity
  8
0
100
AcDbBlockEnd
  0
BLOCK
  5
4CD
330
4CC
100
AcDbEntity
  8
0
100
AcDbBlockBegin
  2
*T20
 70
     1
 10
0.0
 20
0.0
 30
0.0
  3
*T20
  1

  0
MTEXT
  5
4CE
330
4CC
100
AcDbEntity
  8
0
100
AcDbMText
 10
14.0
 20
-2.5
 30
0.0
 40
2.5
 41
27.0
 46
0.0
 71
     5
 72
     5
  1
長さL（単位mm）
  7
Bom
 73
     1
 44
1.0
  0
MTEXT
  5
4CF
330
4CC
100
AcDbEntity
  8
0
100
AcDbMText
 10
50.5
 20
-2.5
 30
0.0
 40
2.5
 41
44.0
 46
0.0
 71
     5
 72
     5
  1
名称
  7
Bom
 73
     1
 44
1.0
  0
MTEXT
  5
4D0
330
4CC
100
AcDbEntity
  8
0
100
AcDbMText
 10
92.0
 20
-2.5
 30
0.0
 40
2.5
 41
37.0
 46
0.0
 71
     5
 72
     5
  1
型番
  7
Bom
 73
     1
 44
1.0
  0
MTEXT
  5
4D1
330
4CC
100
AcDbEntity
  8
0
100
AcDbMText
 10
14.0
 20
-7.5
 30
0.0
 40
2.5
 41
27.0
 46
0.0
 71
     5
 72
     5
  1
1000
  7
Bom
 73
     1
 44
1.0
  0
MTEXT
  5
4D2
330
4CC
100
AcDbEntity
  8
0
100
AcDbMText
 10
50.5
 20
-7.5
 30
0.0
 40
2.5
 41
44.0
 46
0.0
 71
     5
 72
     5
  1
通信ケーブルA 1000mm
  7
Bom
 73
     1
 44
1.0
  0
MTEXT
  5
4D3
330
4CC
100
AcDbEntity
  8
0
100
AcDbMText
 10
92.0
 20
-7.5
 30
0.0
 40
2.5
 41
37.0
 46
0.0
 71
     5
 72
     5
  1
CMRSA1-1000W
  7
Bom
 73
     1
 44
1.0
  0
MTEXT
  5
4D4
330
4CC
100
AcDbEntity
  8
0
100
AcDbMText
 10
14.0
 20
-12.5
 30
0.0
 40
2.5
 41
27.0
 46
0.0
 71
     5
 72
     5
  1
2000
  7
Bom
 73
     1
 44
1.0
  0
MTEXT
  5
4D5
330
4CC
100
AcDbEntity
  8
0
100
AcDbMText
 10
50.5
 20
-12.5
 30
0.0
 40
2.5
 41
44.0
 46
0.0
 71
     5
 72
     5
  1
通信ケーブルA 2000mm
  7
Bom
 73
     1
 44
1.0
  0
MTEXT
  5
4D6
330
4CC
100
AcDbEntity
  8
0
100
AcDbMText
 10
92.0
 20
-12.5
 30
0.0
 40
2.5
 41
37.0
 46
0.0
 71
     5
 72
     5
  1
CMRSA1-2000W
  7
Bom
 73
     1
 44
1.0
  0
MTEXT
  5
4D7
330
4CC
100
AcDbEntity
  8
0
100
AcDbMText
 10
14.0
 20
-17.5
 30
0.0
 40
2.5
 41
27.0
 46
0.0
 71
     5
 72
     5
  1
3000
  7
Bom
 73
     1
 44
1.0
  0
MTEXT
  5
4D8
330
4CC
100
AcDbEntity
  8
0
100
AcDbMText
 10
50.5
 20
-17.5
 30
0.0
 40
2.5
 41
44.0
 46
0.0
 71
     5
 72
     5
  1
通信ケーブルA 3000mm
  7
Bom
 73
     1
 44
1.0
  0
MTEXT
  5
4D9
330
4CC
100
AcDbEntity
  8
0
100
AcDbMText
 10
92.0
 20
-17.5
 30
0.0
 40
2.5
 41
37.0
 46
0.0
 71
     5
 72
     5
  1
CMRSA1-3000W
  7
Bom
 73
     1
 44
1.0
  0
MTEXT
  5
4DA
330
4CC
100
AcDbEntity
  8
0
100
AcDbMText
 10
14.0
 20
-22.5
 30
0.0
 40
2.5
 41
27.0
 46
0.0
 71
     5
 72
     5
  1
5000
  7
Bom
 73
     1
 44
1.0
  0
MTEXT
  5
4DB
330
4CC
100
AcDbEntity
  8
0
100
AcDbMText
 10
50.5
 20
-22.5
 30
0.0
 40
2.5
 41
44.0
 46
0.0
 71
     5
 72
     5
  1
通信ケーブルA 5000mm
  7
Bom
 73
     1
 44
1.0
  0
MTEXT
  5
4DC
330
4CC
100
AcDbEntity
  8
0
100
AcDbMText
 10
92.0
 20
-22.5
 30
0.0
 40
2.5
 41
37.0
 46
0.0
 71
     5
 72
     5
  1
CMRSA1-5000W
  7
Bom
 73
     1
 44
1.0
  0
LINE
  5
4DD
330
4CC
100
AcDbEntity
  8
0
  6
ByBlock
100
AcDbLine
 10
0.0
 20
0.0
 30
0.0
 11
111.0
 21
0.0
 31
0.0
  0
LINE
  5
4DE
330
4CC
100
AcDbEntity
  8
0
  6
ByBlock
100
AcDbLine
 10
111.0
 20
0.0
 30
0.0
 11
111.0
 21
-25.0
 31
0.0
  0
LINE
  5
4DF
330
4CC
100
AcDbEntity
  8
0
  6
ByBlock
100
AcDbLine
 10
0.0
 20
-5.0
 30
0.0
 11
111.0
 21
-5.0
 31
0.0
  0
LINE
  5
4E0
330
4CC
100
AcDbEntity
  8
0
  6
ByBlock
100
AcDbLine
 10
0.0
 20
-10.0
 30
0.0
 11
111.0
 21
-10.0
 31
0.0
  0
LINE
  5
4E1
330
4CC
100
AcDbEntity
  8
0
  6
ByBlock
100
AcDbLine
 10
0.0
 20
-15.0
 30
0.0
 11
111.0
 21
-15.0
 31
0.0
  0
LINE
  5
4E2
330
4CC
100
AcDbEntity
  8
0
  6
ByBlock
100
AcDbLine
 10
0.0
 20
-20.0
 30
0.0
 11
111.0
 21
-20.0
 31
0.0
  0
LINE
  5
4E3
330
4CC
100
AcDbEntity
  8
0
  6
ByBlock
100
AcDbLine
 10
0.0
 20
-25.0
 30
0.0
 11
111.0
 21
-25.0
 31
0.0
  0
LINE
  5
4E4
330
4CC
100
AcDbEntity
  8
0
  6
ByBlock
100
AcDbLine
 10
0.0
 20
0.0
 30
0.0
 11
0.0
 21
-25.0
 31
0.0
  0
LINE
  5
4E5
330
4CC
100
AcDbEntity
  8
0
  6
ByBlock
100
AcDbLine
 10
28.0
 20
0.0
 30
0.0
 11
28.0
 21
-25.0
 31
0.0
  0
LINE
  5
4E6
330
4CC
100
AcDbEntity
  8
0
  6
ByBlock
100
AcDbLine
 10
73.0
 20
0.0
 30
0.0
 11
73.0
 21
-25.0
 31
0.0
  0
ENDBLK
  5
4E7
330
4CC
100
AcDbEntity
  8
0
100
AcDbBlockEnd
  0
BLOCK
  5
5CA
330
5C9
100
AcDbEntity
  8
0
100
AcDbBlockBegin
  2
XARR-03V_f
 70
     0
 10
0.0
 20
0.0
 30
0.0
  3
XARR-03V_f
  1

  0
LINE
  5
5CB
330
5C9
100
AcDbEntity
  8
OBJECT
100
AcDbLine
 10
4.099999999999909
 20
5.399999999999977
 30
0.0
 11
2.499999999999886
 21
5.399999999999977
 31
0.0
  0
LINE
  5
5CC
330
5C9
100
AcDbEntity
  8
OBJECT
100
AcDbLine
 10
2.499999999999886
 20
6.200000000000045
 30
0.0
 11
2.499999999999886
 21
5.399999999999977
 31
0.0
  0
LINE
  5
5CD
330
5C9
100
AcDbEntity
  8
OBJECT
100
AcDbLine
 10
4.999999999999886
 20
6.200000000000045
 30
0.0
 11
2.499999999999886
 21
6.200000000000045
 31
0.0
  0
LINE
  5
5CE
330
5C9
100
AcDbEntity
  8
OBJECT
100
AcDbLine
 10
4.999999999999886
 20
-0.3999999999999773
 30
0.0
 11
4.099999999999909
 21
-0.3999999999999773
 31
0.0
  0
LINE
  5
5CF
330
5C9
100
AcDbEntity
  8
OBJECT
100
AcDbLine
 10
4.099999999999909
 20
-0.3999999999999773
 30
0.0
 11
4.099999999999909
 21
5.399999999999977
 31
0.0
  0
LINE
  5
5D0
330
5C9
100
AcDbEntity
  8
OBJECT
100
AcDbLine
 10
4.999999999999886
 20
6.200000000000045
 30
0.0
 11
4.999999999999886
 21
-0.3999999999999773
 31
0.0
  0
LINE
  5
5D1
330
5C9
100
AcDbEntity
  8
OBJECT
100
AcDbLine
 10
-2.500000000000114
 20
6.200000000000045
 30
0.0
 11
-5.000000000000114
 21
6.200000000000045
 31
0.0
  0
LINE
  5
5D2
330
5C9
100
AcDbEntity
  8
OBJECT
100
AcDbLine
 10
-2.500000000000114
 20
6.200000000000045
 30
0.0
 11
-2.500000000000114
 21
5.399999999999977
 31
0.0
  0
LINE
  5
5D3
330
5C9
100
AcDbEntity
  8
OBJECT
100
AcDbLine
 10
-2.500000000000114
 20
5.399999999999977
 30
0.0
 11
-4.100000000000136
 21
5.399999999999977
 31
0.0
  0
LINE
  5
5D4
330
5C9
100
AcDbEntity
  8
OBJECT
100
AcDbLine
 10
-4.100000000000136
 20
5.399999999999977
 30
0.0
 11
-4.100000000000136
 21
-0.3999999999999773
 31
0.0
  0
LINE
  5
5D5
330
5C9
100
AcDbEntity
  8
OBJECT
100
AcDbLine
 10
-4.100000000000136
 20
-0.3999999999999773
 30
0.0
 11
-5.000000000000114
 21
-0.3999999999999773
 31
0.0
  0
LINE
  5
5D6
330
5C9
100
AcDbEntity
  8
OBJECT
100
AcDbLine
 10
-5.000000000000114
 20
6.200000000000045
 30
0.0
 11
-5.000000000000114
 21
-0.3999999999999773
 31
0.0
  0
LINE
  5
5D7
330
5C9
100
AcDbEntity
  8
OBJECT
100
AcDbLine
 10
-2.500000000000114
 20
6.200000000000045
 30
0.0
 11
2.499999999999886
 21
6.200000000000045
 31
0.0
  0
LINE
  5
5D8
330
5C9
100
AcDbEntity
  8
OBJECT
100
AcDbLine
 10
-2.500000000000114
 20
5.399999999999977
 30
0.0
 11
2.499999999999886
 21
5.399999999999977
 31
0.0
  0
LINE
  5
5D9
330
5C9
100
AcDbEntity
  8
OBJECT
100
AcDbLine
 10
2.399999999999864
 20
-0.3999999999999773
 30
0.0
 11
2.399999999999864
 21
0.6000000000000227
 31
0.0
  0
LINE
  5
5DA
330
5C9
100
AcDbEntity
  8
OBJECT
100
AcDbLine
 10
2.399999999999864
 20
0.6000000000000227
 30
0.0
 11
-2.400000000000091
 21
0.6000000000000227
 31
0.0
  0
LINE
  5
5DB
330
5C9
100
AcDbEntity
  8
OBJECT
100
AcDbLine
 10
-2.400000000000091
 20
0.6000000000000227
 30
0.0
 11
-2.400000000000091
 21
-0.3999999999999773
 31
0.0
  0
LINE
  5
5DC
330
5C9
100
AcDbEntity
  8
OBJECT
100
AcDbLine
 10
4.099999999999909
 20
1.100000000000023
 30
0.0
 11
-4.100000000000136
 21
1.100000000000023
 31
0.0
  0
LINE
  5
5DD
330
5C9
100
AcDbEntity
  8
OBJECT
100
AcDbLine
 10
4.099999999999909
 20
-0.3999999999999773
 30
0.0
 11
2.399999999999864
 21
-0.3999999999999773
 31
0.0
  0
LINE
  5
5DE
330
5C9
100
AcDbEntity
  8
OBJECT
100
AcDbLine
 10
-2.400000000000091
 20
-0.3999999999999773
 30
0.0
 11
-4.100000000000136
 21
-0.3999999999999773
 31
0.0
  0
LINE
  5
5DF
330
5C9
100
AcDbEntity
  8
OBJECT
100
AcDbLine
 10
4.999999999999886
 20
5.200000000000045
 30
0.0
 11
8.199999999999932
 21
5.199999999999932
 31
0.0
  0
LINE
  5
5E0
330
5C9
100
AcDbEntity
  8
OBJECT
100
AcDbLine
 10
8.199999999999932
 20
5.199999999999932
 30
0.0
 11
8.199999999999932
 21
1.75
 31
0.0
  0
LINE
  5
5E1
330
5C9
100
AcDbEntity
  8
OBJECT
100
AcDbLine
 10
8.199999999999932
 20
1.75
 30
0.0
 11
4.999999999999886
 21
1.75
 31
0.0
  0
LINE
  5
5E2
330
5C9
100
AcDbEntity
  8
OBJECT
100
AcDbLine
 10
-8.200000000000045
 20
1.75
 30
0.0
 11
-5.000000000000114
 21
1.75
 31
0.0
  0
LINE
  5
5E3
330
5C9
100
AcDbEntity
  8
OBJECT
100
AcDbLine
 10
-8.200000000000045
 20
5.199999999999932
 30
0.0
 11
-8.200000000000045
 21
1.75
 31
0.0
  0
LINE
  5
5E4
330
5C9
100
AcDbEntity
  8
OBJECT
100
AcDbLine
 10
-8.200000000000045
 20
5.199999999999932
 30
0.0
 11
-5.000000000000114
 21
5.200000000000045
 31
0.0
  0
LINE
  5
5E5
330
5C9
100
AcDbEntity
  8
OBJECT
100
AcDbLine
 10
0.7999999999999545
 20
0.6000000000000227
 30
0.0
 11
0.7999999999999545
 21
0.0
 31
0.0
  0
LINE
  5
5E6
330
5C9
100
AcDbEntity
  8
OBJECT
100
AcDbLine
 10
0.7999999999999545
 20
0.0
 30
0.0
 11
-0.8000000000000682
 21
0.0
 31
0.0
  0
LINE
  5
5E7
330
5C9
100
AcDbEntity
  8
OBJECT
100
AcDbLine
 10
-0.8000000000000682
 20
0.6000000000000227
 30
0.0
 11
-0.8000000000000682
 21
0.0
 31
0.0
  0
LINE
  5
5E8
330
5C9
100
AcDbEntity
  8
OBJECT
100
AcDbLine
 10
7.949999999999932
 20
-0.4000000000000909
 30
0.0
 11
7.949999999999932
 21
1.749999999999886
 31
0.0
  0
LINE
  5
5E9
330
5C9
100
AcDbEntity
  8
OBJECT
100
AcDbLine
 10
7.949999999999932
 20
5.199999999999932
 30
0.0
 11
7.949999999999932
 21
6.199999999999932
 31
0.0
  0
LINE
  5
5EA
330
5C9
100
AcDbEntity
  8
OBJECT
100
AcDbLine
 10
7.949999999999932
 20
-0.4000000000000909
 30
0.0
 11
4.999999999999886
 21
-0.4000000000000909
 31
0.0
  0
LINE
  5
5EB
330
5C9
100
AcDbEntity
  8
OBJECT
100
AcDbLine
 10
7.949999999999932
 20
6.199999999999932
 30
0.0
 11
4.999999999999886
 21
6.199999999999932
 31
0.0
  0
LINE
  5
5EC
330
5C9
100
AcDbEntity
  8
OBJECT
100
AcDbLine
 10
-7.950000000000045
 20
-0.3999999999999773
 30
0.0
 11
-7.950000000000045
 21
1.75
 31
0.0
  0
LINE
  5
5ED
330
5C9
100
AcDbEntity
  8
OBJECT
100
AcDbLine
 10
-7.950000000000045
 20
5.199999999999932
 30
0.0
 11
-7.950000000000045
 21
6.199999999999932
 31
0.0
  0
LINE
  5
5EE
330
5C9
100
AcDbEntity
  8
OBJECT
100
AcDbLine
 10
-7.950000000000045
 20
-0.3999999999999773
 30
0.0
 11
-5.000000000000114
 21
-0.3999999999999773
 31
0.0
  0
LINE
  5
5EF
330
5C9
100
AcDbEntity
  8
OBJECT
100
AcDbLine
 10
-7.950000000000045
 20
6.199999999999932
 30
0.0
 11
-5.000000000000114
 21
6.199999999999932
 31
0.0
  0
LINE
  5
5F0
330
5C9
100
AcDbEntity
  8
OBJECT
100
AcDbLine
 10
-0.3000000000000682
 20
6.349999999999909
 30
0.0
 11
-0.3000000000000682
 21
6.199999999999932
 31
0.0
  0
LINE
  5
5F1
330
5C9
100
AcDbEntity
  8
OBJECT
100
AcDbLine
 10
0.2999999999999545
 20
6.349999999999909
 30
0.0
 11
0.2999999999999545
 21
6.199999999999932
 31
0.0
  0
LINE
  5
5F2
330
5C9
100
AcDbEntity
  8
OBJECT
100
AcDbLine
 10
-0.3000000000000682
 20
6.349999999999909
 30
0.0
 11
0.2999999999999545
 21
6.349999999999909
 31
0.0
  0
SPLINE
  5
5F3
330
5C9
100
AcDbEntity
  8
OBJECT
100
AcDbSpline
210
0.0
220
0.0
230
1.0
 70
     8
 71
     3
 72
    20
 73
    16
 74
     0
 42
0.000000001
 43
0.00000001
 40
0.0000000000064917
 40
0.0000000000064917
 40
0.0000000000064917
 40
0.0000000000064917
 40
0.0000168552884104
 40
0.0000168552884104
 40
0.0000168552884104
 40
0.0000337175143469
 40
0.0000337175143469
 40
0.0000337175143469
 40
0.0000504163677475
 40
0.0000504163677475
 40
0.0000504163677475
 40
0.0000668459613403
 40
0.0000668459613403
 40
0.0000668459613403
 40
0.0000747024609877
 40
0.0000747024609877
 40
0.0000747024609877
 40
0.0000747024609877
 10
-2.199562273554875
 20
2.600001916081055
 30
0.0
 10
-2.193956869157205
 20
2.600050990636532
 30
0.0
 10
-2.188298666403739
 20
2.601067154676116
 30
0.0
 10
-2.183032275433561
 20
2.602967071927765
 30
0.0
 10
-2.177765271962357
 20
2.604867210147063
 30
0.0
 10
-2.172744173557021
 20
2.607707523629301
 30
0.0
 10
-2.168392994649253
 20
2.611257294715529
 30
0.0
 10
-2.164084076985205
 20
2.614772588308597
 30
0.0
 10
-2.160312710938456
 20
2.619083267454471
 30
0.0
 10
-2.15740107494446
 20
2.62382116152105
 30
0.0
 10
-2.154535060007333
 20
2.628484819750724
 30
0.0
 10
-2.15242250431811
 20
2.633690606839423
 30
0.0
 10
-2.151225193502682
 20
2.638999170433976
 30
0.0
 10
-2.150646310260981
 20
2.64156578760867
 30
0.0
 10
-2.150270844191368
 20
2.644180917200288
 30
0.0
 10
-2.150102960630193
 20
2.64679290441029
 30
0.0
  0
ELLIPSE
  5
5F4
330
5C9
100
AcDbEntity
  8
OBJECT
100
AcDbEllipse
 10
-2.454166666416768
 20
2.801538820249903
 30
0.0
 11
0.04766826070755313
 21
-0.02860095642458307
 31
0.0
210
0.0
220
0.0
230
1.0
 40
0.8994380267948003
 41
5.300679902792671
 42
6.778057474154489
  0
ARC
  5
5F5
330
5C9
100
AcDbEntity
  8
OBJECT
100
AcDbCircle
 10
-2.75
 20
2.699999999999932
 30
0.0
 40
0.0999999999999964
100
AcDbArc
 50
268.9990571769644
 51
269.9999975876882
  0
LINE
  5
5F6
330
5C9
100
AcDbEntity
  8
OBJECT
100
AcDbLine
 10
-2.501772317311747
 20
2.750000000352088
 30
0.0
 11
-2.449113840739756
 21
2.749999999908482
 31
0.0
  0
LINE
  5
5F7
330
5C9
100
AcDbEntity
  8
OBJECT
100
AcDbLine
 10
-2.200000000000045
 20
2.599999999999909
 30
0.0
 11
-2.750000004210278
 21
2.599999999999909
 31
0.0
  0
SPLINE
  5
5F8
330
5C9
100
AcDbEntity
  8
OBJECT
100
AcDbSpline
210
0.0
220
0.0
230
1.0
 70
     8
 71
     3
 72
    20
 73
    16
 74
     0
 42
0.000000001
 43
0.00000001
 40
0.0000000000000429
 40
0.0000000000000429
 40
0.0000000000000429
 40
0.0000000000000429
 40
0.0000164737437915
 40
0.0000164737437915
 40
0.0000164737437915
 40
0.0000329551679657
 40
0.0000329551679657
 40
0.0000329551679657
 40
0.0000493435437342
 40
0.0000493435437342
 40
0.0000493435437342
 40
0.0000658634369224
 40
0.0000658634369224
 40
0.0000658634369224
 40
0.0000747525314332
 40
0.0000747525314332
 40
0.0000747525314332
 40
0.0000747525314332
 10
0.3498970393537775
 20
3.053207095561106
 30
0.0
 10
0.3495489208678464
 20
3.058623236571407
 30
0.0
 10
0.3482849967061838
 20
3.064090965144146
 30
0.0
 10
0.3461873285897354
 20
3.06915021351665
 30
0.0
 10
0.3440890202141418
 20
3.074211006094515
 30
0.0
 10
0.341098326885799
 20
3.079001714465107
 30
0.0
 10
0.3374601605141834
 20
3.083117010345745
 30
0.0
 10
0.3338413657196497
 20
3.087210394152294
 30
0.0
 10
0.3294846488628309
 20
3.090747829718907
 30
0.0
 10
0.324746778818394
 20
3.093446483610364
 30
0.0
 10
0.3199702369333863
 20
3.096167164680992
 30
0.0
 10
0.3146792582861053
 20
3.09811046694324
 30
0.0
 10
0.309288623739576
 20
3.099129639414627
 30
0.0
 10
0.3063598408077723
 20
3.099683365495252
 30
0.0
 10
0.3033689649664666
 20
3.099975652707258
 30
0.0
 10
0.3003831208663996
 20
3.099998532162545
 30
0.0
  0
ELLIPSE
  5
5F9
330
5C9
100
AcDbEntity
  8
OBJECT
100
AcDbEllipse
 10
0.0458333330832374
 20
2.898461179249921
 30
0.0
 11
0.04766826103758605
 21
0.02860095662256866
 31
0.0
210
0.0
220
0.0
230
1.0
 40
0.8994380267948158
 41
5.788313143821302
 42
7.265690712550835
  0
LINE
  5
5FA
330
5C9
100
AcDbEntity
  8
OBJECT
100
AcDbLine
 10
2.498227681838671
 20
2.950000000559271
 30
0.0
 11
2.55088615874763
 21
2.950000000003115
 31
0.0
  0
ARC
  5
5FB
330
5C9
100
AcDbEntity
  8
OBJECT
100
AcDbCircle
 10
2.25
 20
2.999999999999886
 30
0.0
 40
0.1000000000000227
100
AcDbArc
 50
90.00000001107342
 51
91.00091972876179
  0
LINE
  5
5FC
330
5C9
100
AcDbEntity
  8
OBJECT
100
AcDbLine
 10
2.249999999980673
 20
3.099999999999909
 30
0.0
 11
2.799999999999955
 21
3.099999999999909
 31
0.0
  0
ARC
  5
5FD
330
5C9
100
AcDbEntity
  8
OBJECT
100
AcDbCircle
 10
2.25
 20
2.699999999999932
 30
0.0
 40
0.0999999999999944
100
AcDbArc
 50
268.9990574182063
 51
269.9999975876882
  0
LINE
  5
5FE
330
5C9
100
AcDbEntity
  8
OBJECT
100
AcDbLine
 10
2.498227682974971
 20
2.750000000471687
 30
0.0
 11
2.55088615898012
 21
2.749999999925194
 31
0.0
  0
LINE
  5
5FF
330
5C9
100
AcDbEntity
  8
OBJECT
100
AcDbLine
 10
2.799999999999955
 20
2.599999999999909
 30
0.0
 11
2.249999995789722
 21
2.599999999999909
 31
0.0
  0
ARC
  5
600
330
5C9
100
AcDbEntity
  8
OBJECT
100
AcDbCircle
 10
-0.25
 20
2.699999999999932
 30
0.0
 40
0.0999999999999944
100
AcDbArc
 50
268.9990574182063
 51
269.9999975876882
  0
LINE
  5
601
330
5C9
100
AcDbEntity
  8
OBJECT
100
AcDbLine
 10
-0.0017723170250292
 20
2.750000000471687
 30
0.0
 11
0.0508861589801199
 21
2.749999999925194
 31
0.0
  0
LINE
  5
602
330
5C9
100
AcDbEntity
  8
OBJECT
100
AcDbLine
 10
0.2999999999999545
 20
2.599999999999909
 30
0.0
 11
-0.2500000042102783
 21
2.599999999999909
 31
0.0
  0
LINE
  5
603
330
5C9
100
AcDbEntity
  8
OBJECT
100
AcDbLine
 10
-2.449113841252483
 20
2.950000000003115
 30
0.0
 11
-2.501772318161329
 21
2.950000000559271
 31
0.0
  0
ARC
  5
604
330
5C9
100
AcDbEntity
  8
OBJECT
100
AcDbCircle
 10
-2.75
 20
2.999999999999886
 30
0.0
 40
0.1000000000000227
100
AcDbArc
 50
90.00000001107342
 51
91.00094278994027
  0
LINE
  5
605
330
5C9
100
AcDbEntity
  8
OBJECT
100
AcDbLine
 10
-2.750000000019327
 20
3.099999999999909
 30
0.0
 11
-2.200000000000045
 21
3.099999999999909
 31
0.0
  0
SPLINE
  5
606
330
5C9
100
AcDbEntity
  8
OBJECT
100
AcDbSpline
210
0.0
220
0.0
230
1.0
 70
     8
 71
     3
 72
    20
 73
    16
 74
     0
 42
0.000000001
 43
0.00000001
 40
0.0000000000000151
 40
0.0000000000000151
 40
0.0000000000000151
 40
0.0000000000000151
 40
0.0000164737437305
 40
0.0000164737437305
 40
0.0000164737437305
 40
0.0000329551678436
 40
0.0000329551678436
 40
0.0000329551678436
 40
0.0000493435435503
 40
0.0000493435435503
 40
0.0000493435435503
 40
0.0000658634366762
 40
0.0000658634366762
 40
0.0000658634366762
 40
0.0000746981278262
 40
0.0000746981278262
 40
0.0000746981278262
 40
0.0000746981278262
 10
2.849897039265784
 20
2.646792904345148
 30
0.0
 10
2.84954892077144
 20
2.641376763371568
 30
0.0
 10
2.848284996690609
 20
2.635909034811789
 30
0.0
 10
2.846187328581323
 20
2.630849786462818
 30
0.0
 10
2.844089020210959
 20
2.625788993904166
 30
0.0
 10
2.841098326892961
 20
2.620998285547898
 30
0.0
 10
2.837460160534192
 20
2.616882989676697
 30
0.0
 10
2.833841365752505
 20
2.612789605879811
 30
0.0
 10
2.82948464891183
 20
2.609252170318427
 30
0.0
 10
2.824746778885128
 20
2.606553516427539
 30
0.0
 10
2.819970237017856
 20
2.603832835357252
 30
0.0
 10
2.814679258391038
 20
2.601889533090912
 30
0.0
 10
2.809288623866564
 20
2.600870360609179
 30
0.0
 10
2.806377622404852
 20
2.60031999634873
 30
0.0
 10
2.803405358020541
 20
2.60002789729117
 30
0.0
 10
2.800437726414543
 20
2.600001916080714
 30
0.0
  0
ELLIPSE
  5
607
330
5C9
100
AcDbEntity
  8
OBJECT
100
AcDbEllipse
 10
2.545833333583232
 20
2.801538820249903
 30
0.0
 11
0.04766826070755313
 21
-0.02860095642458307
 31
0.0
210
0.0
220
0.0
230
1.0
 40
0.8994380267948003
 41
5.300679897625875
 42
6.778057474154489
  0
SPLINE
  5
608
330
5C9
100
AcDbEntity
  8
OBJECT
100
AcDbSpline
210
0.0
220
0.0
230
1.0
 70
     8
 71
     3
 72
    20
 73
    16
 74
     0
 42
0.000000001
 43
0.00000001
 40
0.0000000000000429
 40
0.0000000000000429
 40
0.0000000000000429
 40
0.0000000000000429
 40
0.0000164737437915
 40
0.0000164737437915
 40
0.0000164737437915
 40
0.0000329551679657
 40
0.0000329551679657
 40
0.0000329551679657
 40
0.0000493435437342
 40
0.0000493435437342
 40
0.0000493435437342
 40
0.0000658634369224
 40
0.0000658634369224
 40
0.0000658634369224
 40
0.0000747525314332
 40
0.0000747525314332
 40
0.0000747525314332
 40
0.0000747525314332
 10
2.849897039353777
 20
3.053207095561106
 30
0.0
 10
2.849548920867846
 20
3.058623236571407
 30
0.0
 10
2.848284996706184
 20
3.064090965144146
 30
0.0
 10
2.846187328589735
 20
3.06915021351665
 30
0.0
 10
2.844089020214142
 20
3.074211006094515
 30
0.0
 10
2.841098326885799
 20
3.079001714465107
 30
0.0
 10
2.837460160514183
 20
3.083117010345745
 30
0.0
 10
2.83384136571965
 20
3.087210394152294
 30
0.0
 10
2.829484648862831
 20
3.090747829718907
 30
0.0
 10
2.824746778818394
 20
3.093446483610364
 30
0.0
 10
2.819970236933386
 20
3.096167164680992
 30
0.0
 10
2.814679258286105
 20
3.09811046694324
 30
0.0
 10
2.809288623739576
 20
3.099129639414627
 30
0.0
 10
2.806359840807772
 20
3.099683365495252
 30
0.0
 10
2.80336896496658
 20
3.099975652707258
 30
0.0
 10
2.8003831208664
 20
3.099998532162545
 30
0.0
  0
ELLIPSE
  5
609
330
5C9
100
AcDbEntity
  8
OBJECT
100
AcDbEllipse
 10
2.545833333083237
 20
2.898461179249921
 30
0.0
 11
0.04766826103758605
 21
0.02860095662256866
 31
0.0
210
0.0
220
0.0
230
1.0
 40
0.8994380267950786
 41
5.788313143821147
 42
7.265690712550725
  0
LINE
  5
60A
330
5C9
100
AcDbEntity
  8
OBJECT
100
AcDbLine
 10
-0.0017723181613292
 20
2.950000000559271
 30
0.0
 11
0.0508861587475167
 21
2.950000000003115
 31
0.0
  0
ARC
  5
60B
330
5C9
100
AcDbEntity
  8
OBJECT
100
AcDbCircle
 10
-0.25
 20
2.999999999999886
 30
0.0
 40
0.1000000000000227
100
AcDbArc
 50
90.00000001107342
 51
91.00091972876179
  0
LINE
  5
60C
330
5C9
100
AcDbEntity
  8
OBJECT
100
AcDbLine
 10
-0.2500000000193268
 20
3.099999999999909
 30
0.0
 11
0.2999999999999545
 21
3.099999999999909
 31
0.0
  0
SPLINE
  5
60D
330
5C9
100
AcDbEntity
  8
OBJECT
100
AcDbSpline
210
0.0
220
0.0
230
1.0
 70
     8
 71
     3
 72
    20
 73
    16
 74
     0
 42
0.000000001
 43
0.00000001
 40
0.0000000000000151
 40
0.0000000000000151
 40
0.0000000000000151
 40
0.0000000000000151
 40
0.0000164737437305
 40
0.0000164737437305
 40
0.0000164737437305
 40
0.0000329551678436
 40
0.0000329551678436
 40
0.0000329551678436
 40
0.0000493435435503
 40
0.0000493435435503
 40
0.0000493435435503
 40
0.0000658634366762
 40
0.0000658634366762
 40
0.0000658634366762
 40
0.0000746981278262
 40
0.0000746981278262
 40
0.0000746981278262
 40
0.0000746981278262
 10
0.3498970392657839
 20
2.646792904345148
 30
0.0
 10
0.34954892077144
 20
2.641376763371568
 30
0.0
 10
0.3482849966906088
 20
2.635909034811789
 30
0.0
 10
0.3461873285813226
 20
2.630849786462818
 30
0.0
 10
0.3440890202109586
 20
2.625788993904166
 30
0.0
 10
0.3410983268929613
 20
2.620998285547898
 30
0.0
 10
0.3374601605341923
 20
2.616882989676697
 30
0.0
 10
0.3338413657525052
 20
2.612789605879811
 30
0.0
 10
0.3294846489118299
 20
2.609252170318314
 30
0.0
 10
0.3247467788851282
 20
2.606553516427539
 30
0.0
 10
0.319970237017742
 20
2.603832835357252
 30
0.0
 10
0.3146792583910383
 20
2.601889533090912
 30
0.0
 10
0.3092886238665642
 20
2.600870360609179
 30
0.0
 10
0.3063776224048524
 20
2.60031999634873
 30
0.0
 10
0.3034053580205409
 20
2.60002789729117
 30
0.0
 10
0.3004377264145432
 20
2.600001916080714
 30
0.0
  0
ELLIPSE
  5
60E
330
5C9
100
AcDbEntity
  8
OBJECT
100
AcDbEllipse
 10
0.0458333335832322
 20
2.801538820249903
 30
0.0
 11
0.04766826070755313
 21
-0.02860095642458307
 31
0.0
210
0.0
220
0.0
230
1.0
 40
0.8994380267948003
 41
5.300679897625875
 42
6.778057474154489
  0
SPLINE
  5
60F
330
5C9
100
AcDbEntity
  8
OBJECT
100
AcDbSpline
210
0.0
220
0.0
230
1.0
 70
     8
 71
     3
 72
    20
 73
    16
 74
     0
 42
0.000000001
 43
0.00000001
 40
0.0000000000000623
 40
0.0000000000000623
 40
0.0000000000000623
 40
0.0000000000000623
 40
0.0000164737438058
 40
0.0000164737438058
 40
0.0000164737438058
 40
0.0000329551679942
 40
0.0000329551679942
 40
0.0000329551679942
 40
0.000049343543779
 40
0.000049343543779
 40
0.000049343543779
 40
0.0000658634369847
 40
0.0000658634369847
 40
0.0000658634369847
 40
0.0000747525314351
 40
0.0000747525314351
 40
0.0000747525314351
 40
0.0000747525314351
 10
-2.150102960555273
 20
3.053207095636139
 30
0.0
 10
-2.150451079049049
 20
3.058623236650988
 30
0.0
 10
-2.151715003311892
 20
3.064090965207924
 30
0.0
 10
-2.153812671437322
 20
3.069150213581906
 30
0.0
 10
-2.155910979819964
 20
3.074211006156247
 30
0.0
 10
-2.15890167315456
 20
3.079001714522065
 30
0.0
 10
-2.162539839531291
 20
3.083117010397132
 30
0.0
 10
-2.166158634331396
 20
3.087210394198905
 30
0.0
 10
-2.170515351192989
 20
3.09074782975938
 30
0.0
 10
-2.175253221241064
 20
3.093446483644243
 30
0.0
 10
-2.180029763130165
 20
3.096167164708504
 30
0.0
 10
-2.185320741780288
 20
3.09811046696359
 30
0.0
 10
-2.190711376328636
 20
3.099129639427588
 30
0.0
 10
-2.193640159238612
 20
3.0996833654998
 30
0.0
 10
-2.196631035056498
 20
3.099975652707485
 30
0.0
 10
-2.1996168791336
 20
3.099998532162545
 30
0.0
  0
ELLIPSE
  5
610
330
5C9
100
AcDbEntity
  8
OBJECT
100
AcDbEllipse
 10
-2.454166666916763
 20
2.898461179249921
 30
0.0
 11
0.04766826103758605
 21
0.02860095662256866
 31
0.0
210
0.0
220
0.0
230
1.0
 40
0.8994380267948158
 41
5.788313143821302
 42
7.265690712550835
  0
LINE
  5
611
330
5C9
100
AcDbEntity
  8
OBJECT
100
AcDbLine
 10
-2.399999999833426
 20
2.796731127918633
 30
0.0
 11
-2.399999999894362
 21
2.903268871805608
 31
0.0
  0
ELLIPSE
  5
612
330
5C9
100
AcDbEntity
  8
OBJECT
100
AcDbEllipse
 10
-2.491666666083347
 20
2.853077640749916
 30
0.0
 11
-0.09533652071849022
 21
-0.05720191243116798
 31
0.0
210
0.0
220
0.0
230
1.0
 40
0.8994380267952052
 41
5.788313140392296
 42
7.265690712473486
  0
LINE
  5
613
330
5C9
100
AcDbEntity
  8
OBJECT
100
AcDbLine
 10
-2.600000000943965
 20
2.856537743983267
 30
0.0
 11
-2.599999999180341
 21
2.843462256074645
 31
0.0
  0
ELLIPSE
  5
614
330
5C9
100
AcDbEntity
  8
OBJECT
100
AcDbEllipse
 10
-2.491666667083337
 20
2.846922359249902
 30
0.0
 11
-0.09533652192854444
 21
0.0572019131571722
 31
0.0
210
0.0
220
0.0
230
1.0
 40
0.8994380267949595
 41
5.30067989966116
 42
6.778057474061731
  0
ARC
  5
615
330
5C9
100
AcDbEntity
  8
OBJECT
100
AcDbCircle
 10
-2.75
 20
2.699999999999932
 30
0.0
 40
0.0999999999999943
100
AcDbArc
 50
180.0000002864759
 51
183.6775855087764
  0
LINE
  5
616
330
5C9
100
AcDbEntity
  8
OBJECT
100
AcDbLine
 10
-2.850000000000023
 20
2.699999999499937
 30
0.0
 11
-2.850000000000023
 21
3.000000000020464
 31
0.0
  0
ARC
  5
617
330
5C9
100
AcDbEntity
  8
OBJECT
100
AcDbCircle
 10
-2.75
 20
2.999999999999886
 30
0.0
 40
0.0999999999999943
100
AcDbArc
 50
176.3224145985974
 51
179.9999999882101
  0
SPLINE
  5
618
330
5C9
100
AcDbEntity
  8
OBJECT
100
AcDbSpline
210
0.0
220
0.0
230
1.0
 70
     8
 71
     3
 72
    20
 73
    16
 74
     0
 42
0.000000001
 43
0.00000001
 40
0.0000000000001053
 40
0.0000000000001053
 40
0.0000000000001053
 40
0.0000000000001053
 40
0.0000329474875495
 40
0.0000329474875495
 40
0.0000329474875495
 40
0.0000659103358646
 40
0.0000659103358646
 40
0.0000659103358646
 40
0.0000986870873633
 40
0.0000986870873633
 40
0.0000986870873633
 40
0.0001317268736963
 40
0.0001317268736963
 40
0.0001317268736963
 40
0.0001485283130861
 40
0.0001485283130861
 40
0.0001485283130861
 40
0.0001485283130861
 10
-2.849794078591572
 20
3.006414190912324
 30
0.0
 10
-2.849097841643129
 20
3.017246472910642
 30
0.0
 10
-2.846569993474759
 20
3.02818193006965
 30
0.0
 10
-2.842374657272103
 20
3.038300426810679
 30
0.0
 10
-2.838178040548087
 20
3.048422011969251
 30
0.0
 10
-2.8321966539188
 20
3.058003428721236
 30
0.0
 10
-2.824920321199215
 20
3.066234020498541
 30
0.0
 10
-2.817682731634704
 20
3.074420788126531
 30
0.0
 10
-2.808969297943122
 20
3.081495659280449
 30
0.0
 10
-2.799493557871642
 20
3.086892967087124
 30
0.0
 10
-2.789940474120158
 20
3.092334329252026
 30
0.0
 10
-2.779358516840603
 20
3.096220933804375
 30
0.0
 10
-2.768577247757548
 20
3.098259278776823
 30
0.0
 10
-2.76303911930404
 20
3.099306336985251
 30
0.0
 10
-2.757391244803443
 20
3.099886125240005
 30
0.0
 10
-2.751746885656189
 20
3.099984740788386
 30
0.0
  0
SPLINE
  5
619
330
5C9
100
AcDbEntity
  8
OBJECT
100
AcDbSpline
210
0.0
220
0.0
230
1.0
 70
     8
 71
     3
 72
    20
 73
    16
 74
     0
 42
0.000000001
 43
0.00000001
 40
0.0000000000256547
 40
0.0000000000256547
 40
0.0000000000256547
 40
0.0000000000256547
 40
0.0000337122431048
 40
0.0000337122431048
 40
0.0000337122431048
 40
0.0000674406512232
 40
0.0000674406512232
 40
0.0000674406512232
 40
0.000100820564623
 40
0.000100820564623
 40
0.000100820564623
 40
0.0001336718270231
 40
0.0001336718270231
 40
0.0001336718270231
 40
0.0001485386354705
 40
0.0001485386354705
 40
0.0001485386354705
 40
0.0001485386354705
 10
-0.251746822192672
 20
3.09998474189706
 30
0.0
 10
-0.2629551925444957
 20
3.099788921717845
 30
0.0
 10
-0.274253986659005
 20
3.0976583341278
 30
0.0
 10
-0.2847544003847133
 20
3.09376636739205
 30
0.0
 10
-0.2952565853083797
 20
3.089873744163583
 30
0.0
 10
-0.3052509665438947
 20
3.084104134772929
 30
0.0
 10
-0.3138920218930252
 20
3.076927300345346
 30
0.0
 10
-0.3224438015847682
 20
3.069824613875994
 30
0.0
 10
-0.32990711968705
 20
3.061142506431224
 30
0.0
 10
-0.3356452221792097
 20
3.051622629900749
 30
0.0
 10
-0.3412950637635959
 20
3.042249183822946
 30
0.0
 10
-0.3454291438797554
 20
3.031806045898293
 30
0.0
 10
-0.3477326005756822
 20
3.021174012012807
 30
0.0
 10
-0.3487869133876984
 20
3.016307634640725
 30
0.0
 10
-0.3494762868688213
 20
3.011358500859842
 30
0.0
 10
-0.3497940787467542
 20
3.006414191070348
 30
0.0
  0
ELLIPSE
  5
61A
330
5C9
100
AcDbEntity
  8
OBJECT
100
AcDbEllipse
 10
0.0083333329166635
 20
2.846922359249902
 30
0.0
 11
-0.09533652192857288
 21
0.05720191315717222
 31
0.0
210
0.0
220
0.0
230
1.0
 40
0.899438026794982
 41
5.300679899662086
 42
6.778057473404584
  0
LINE
  5
61B
330
5C9
100
AcDbEntity
  8
OBJECT
100
AcDbLine
 10
2.600000000166574
 20
2.796731127918633
 30
0.0
 11
2.600000000105638
 21
2.903268871805608
 31
0.0
  0
ELLIPSE
  5
61C
330
5C9
100
AcDbEntity
  8
OBJECT
100
AcDbEllipse
 10
2.508333333916653
 20
2.853077640749916
 30
0.0
 11
-0.09533652071851864
 21
-0.05720191243116795
 31
0.0
210
0.0
220
0.0
230
1.0
 40
0.8994380267950083
 41
5.788313140521577
 42
7.265690715023384
  0
LINE
  5
61D
330
5C9
100
AcDbEntity
  8
OBJECT
100
AcDbLine
 10
2.400000000604109
 20
2.843462256042244
 30
0.0
 11
2.399999999416536
 21
2.856537744018738
 31
0.0
  0
ELLIPSE
  5
61E
330
5C9
100
AcDbEntity
  8
OBJECT
100
AcDbEllipse
 10
2.508333332916663
 20
2.846922359249902
 30
0.0
 11
-0.09533652192857288
 21
0.05720191315717222
 31
0.0
210
0.0
220
0.0
230
1.0
 40
0.89943802679485
 41
5.300679899660977
 42
6.778057473404645
  0
LINE
  5
61F
330
5C9
100
AcDbEntity
  8
OBJECT
100
AcDbLine
 10
0.100000000166574
 20
2.796731127918633
 30
0.0
 11
0.1000000001056378
 21
2.903268871805608
 31
0.0
  0
ELLIPSE
  5
620
330
5C9
100
AcDbEntity
  8
OBJECT
100
AcDbEllipse
 10
0.0083333339166529
 20
2.853077640749916
 30
0.0
 11
-0.09533652071849022
 21
-0.05720191243116798
 31
0.0
210
0.0
220
0.0
230
1.0
 40
0.8994380267952052
 41
5.788313140521528
 42
7.265690715023143
  0
LINE
  5
621
330
5C9
100
AcDbEntity
  8
OBJECT
100
AcDbLine
 10
-0.0999999993958909
 20
2.843462256042244
 30
0.0
 11
-0.1000000005834636
 21
2.856537744018738
 31
0.0
  0
SPLINE
  5
622
330
5C9
100
AcDbEntity
  8
OBJECT
100
AcDbSpline
210
0.0
220
0.0
230
1.0
 70
     8
 71
     3
 72
    20
 73
    16
 74
     0
 42
0.000000001
 43
0.00000001
 40
0.0000000000256547
 40
0.0000000000256547
 40
0.0000000000256547
 40
0.0000000000256547
 40
0.0000337122431048
 40
0.0000337122431048
 40
0.0000337122431048
 40
0.0000674406512232
 40
0.0000674406512232
 40
0.0000674406512232
 40
0.000100820564623
 40
0.000100820564623
 40
0.000100820564623
 40
0.0001336718270231
 40
0.0001336718270231
 40
0.0001336718270231
 40
0.0001485386354705
 40
0.0001485386354705
 40
0.0001485386354705
 40
0.0001485386354705
 10
2.248253177807328
 20
3.09998474189706
 30
0.0
 10
2.237044807455504
 20
3.099788921717845
 30
0.0
 10
2.225746013340995
 20
3.0976583341278
 30
0.0
 10
2.215245599615287
 20
3.09376636739205
 30
0.0
 10
2.20474341469162
 20
3.089873744163583
 30
0.0
 10
2.194749033456105
 20
3.084104134772929
 30
0.0
 10
2.186107978106975
 20
3.076927300345346
 30
0.0
 10
2.177556198415232
 20
3.069824613875994
 30
0.0
 10
2.17009288031295
 20
3.061142506431224
 30
0.0
 10
2.16435477782079
 20
3.051622629900749
 30
0.0
 10
2.158704936236404
 20
3.042249183822946
 30
0.0
 10
2.154570856120245
 20
3.031806045898293
 30
0.0
 10
2.152267399424318
 20
3.021174012012807
 30
0.0
 10
2.151213086612302
 20
3.016307634640725
 30
0.0
 10
2.150523713131179
 20
3.011358500859842
 30
0.0
 10
2.150205921253246
 20
3.006414191070348
 30
0.0
  0
LINE
  5
623
330
5C9
100
AcDbEntity
  8
OBJECT
100
AcDbLine
 10
0.3499999999999091
 20
3.050000000004388
 30
0.0
 11
0.3499999999999091
 21
2.649999999999977
 31
0.0
  0
ARC
  5
624
330
5C9
100
AcDbEntity
  8
OBJECT
100
AcDbCircle
 10
0.2999999999999545
 20
2.649999999999977
 30
0.0
 40
0.0500000000000129
100
AcDbArc
 50
356.3224143403818
 51
0.0
  0
ARC
  5
625
330
5C9
100
AcDbEntity
  8
OBJECT
100
AcDbCircle
 10
0.2999999999999545
 20
3.049999999999955
 30
0.0
 40
0.0499999999999829
100
AcDbArc
 50
0.0000000050807453
 51
3.677585362241617
  0
LINE
  5
626
330
5C9
100
AcDbEntity
  8
OBJECT
100
AcDbLine
 10
-2.150000000000091
 20
3.050000000004388
 30
0.0
 11
-2.150000000000091
 21
2.649999999999977
 31
0.0
  0
ARC
  5
627
330
5C9
100
AcDbEntity
  8
OBJECT
100
AcDbCircle
 10
-2.200000000000045
 20
2.649999999999977
 30
0.0
 40
0.0500000000003795
100
AcDbArc
 50
356.3224143911887
 51
0.0
  0
ARC
  5
628
330
5C9
100
AcDbEntity
  8
OBJECT
100
AcDbCircle
 10
-2.200000000000045
 20
3.049999999999955
 30
0.0
 40
0.0500000001692858
100
AcDbArc
 50
0.0000000050807453
 51
3.677585683833252
  0
LINE
  5
629
330
5C9
100
AcDbEntity
  8
OBJECT
100
AcDbLine
 10
2.849999999999909
 20
3.050000000004388
 30
0.0
 11
2.849999999999909
 21
2.649999999999977
 31
0.0
  0
ARC
  5
62A
330
5C9
100
AcDbEntity
  8
OBJECT
100
AcDbCircle
 10
2.799999999999955
 20
2.649999999999977
 30
0.0
 40
0.0499999999999845
100
AcDbArc
 50
356.3224143403818
 51
0.0
  0
ARC
  5
62B
330
5C9
100
AcDbEntity
  8
OBJECT
100
AcDbCircle
 10
2.799999999999955
 20
3.049999999999955
 30
0.0
 40
0.0499999999999829
100
AcDbArc
 50
0.0000000050807453
 51
3.677585362241617
  0
SPLINE
  5
62C
330
5C9
100
AcDbEntity
  8
OBJECT
100
AcDbSpline
210
0.0
220
0.0
230
1.0
 70
     8
 71
     3
 72
    20
 73
    16
 74
     0
 42
0.000000001
 43
0.00000001
 40
0.0000000000000864
 40
0.0000000000000864
 40
0.0000000000000864
 40
0.0000000000000864
 40
0.0000329474874051
 40
0.0000329474874051
 40
0.0000329474874051
 40
0.0000659103355748
 40
0.0000659103355748
 40
0.0000659103355748
 40
0.0000986870869378
 40
0.0000986870869378
 40
0.0000986870869378
 40
0.000131726873142
 40
0.000131726873142
 40
0.000131726873142
 40
0.0001485283123829
 40
0.0001485283123829
 40
0.0001485283123829
 40
0.0001485283123829
 10
-2.849794078808713
 20
2.693585808276907
 30
0.0
 10
-2.849097841780463
 20
2.682753526382385
 30
0.0
 10
-2.846569993302865
 20
2.671818069364804
 30
0.0
 10
-2.842374657069968
 20
2.661699572701878
 30
0.0
 10
-2.838178040321736
 20
2.651577987635505
 30
0.0
 10
-2.832196653690175
 20
2.641996570966853
 30
0.0
 10
-2.82492032098628
 20
2.633765979260374
 30
0.0
 10
-2.817682731435298
 20
2.625579211700938
 30
0.0
 10
-2.808969297774752
 20
2.618504340605909
 30
0.0
 10
-2.799493557749656
 20
2.613107032843345
 30
0.0
 10
-2.78994047404251
 20
2.607665670721303
 30
0.0
 10
-2.779358516824914
 20
2.603779066199536
 30
0.0
 10
-2.768577247818826
 20
2.601740721234592
 30
0.0
 10
-2.763039119440123
 20
2.60069366303685
 30
0.0
 10
-2.757391245021608
 20
2.600113874780504
 30
0.0
 10
-2.751746885955527
 20
2.600015259216775
 30
0.0
  0
ARC
  5
62D
330
5C9
100
AcDbEntity
  8
OBJECT
100
AcDbCircle
 10
-0.25
 20
2.699999999999932
 30
0.0
 40
0.1000000000000254
100
AcDbArc
 50
180.0000002864759
 51
183.6775858193379
  0
LINE
  5
62E
330
5C9
100
AcDbEntity
  8
OBJECT
100
AcDbLine
 10
-0.3500000000000227
 20
2.699999999499937
 30
0.0
 11
-0.3500000000000227
 21
3.000000000020464
 31
0.0
  0
ARC
  5
62F
330
5C9
100
AcDbEntity
  8
OBJECT
100
AcDbCircle
 10
-0.25
 20
2.999999999999886
 30
0.0
 40
0.1000000000017034
100
AcDbArc
 50
176.3224144309764
 51
179.9999999882101
  0
SPLINE
  5
630
330
5C9
100
AcDbEntity
  8
OBJECT
100
AcDbSpline
210
0.0
220
0.0
230
1.0
 70
     8
 71
     3
 72
    20
 73
    16
 74
     0
 42
0.000000001
 43
0.00000001
 40
0.0000000000000737
 40
0.0000000000000737
 40
0.0000000000000737
 40
0.0000000000000737
 40
0.0000329474874418
 40
0.0000329474874418
 40
0.0000329474874418
 40
0.000065910335648
 40
0.000065910335648
 40
0.000065910335648
 40
0.0000986870870528
 40
0.0000986870870528
 40
0.0000986870870528
 40
0.0001317268733017
 40
0.0001317268733017
 40
0.0001317268733017
 40
0.0001485283125979
 40
0.0001485283125979
 40
0.0001485283125979
 40
0.0001485283125979
 10
-0.3497940790421126
 20
2.693585808090802
 30
0.0
 10
-0.349097841994535
 20
2.68275352618457
 30
0.0
 10
-0.346569993258413
 20
2.671818069207575
 30
0.0
 10
-0.3423746570030062
 20
2.661699572540329
 30
0.0
 10
-0.338178040237608
 20
2.65157798748271
 30
0.0
 10
-0.3321966535904721
 20
2.641996570825881
 30
0.0
 10
-0.3249203208738436
 20
2.633765979133159
 30
0.0
 10
-0.3176827313088779
 20
2.625579211585887
 30
0.0
 10
-0.3089692976365086
 20
2.618504340505865
 30
0.0
 10
-0.2994935576024318
 20
2.613107032759444
 30
0.0
 10
-0.2899404738853946
 20
2.607665670653319
 30
0.0
 10
-0.2793585166606363
 20
2.603779066149286
 30
0.0
 10
-0.2685772476500006
 20
2.601740721202646
 30
0.0
 10
-0.2630391192877823
 20
2.600693663017864
 30
0.0
 10
-0.2573912448872306
 20
2.600113874771637
 30
0.0
 10
-0.2517468858395659
 20
2.600015259214729
 30
0.0
  0
SPLINE
  5
631
330
5C9
100
AcDbEntity
  8
OBJECT
100
AcDbSpline
210
0.0
220
0.0
230
1.0
 70
     8
 71
     3
 72
    20
 73
    16
 74
     0
 42
0.000000001
 43
0.00000001
 40
0.0000000000000737
 40
0.0000000000000737
 40
0.0000000000000737
 40
0.0000000000000737
 40
0.0000329474874418
 40
0.0000329474874418
 40
0.0000329474874418
 40
0.000065910335648
 40
0.000065910335648
 40
0.000065910335648
 40
0.0000986870870528
 40
0.0000986870870528
 40
0.0000986870870528
 40
0.0001317268733017
 40
0.0001317268733017
 40
0.0001317268733017
 40
0.0001485283125979
 40
0.0001485283125979
 40
0.0001485283125979
 40
0.0001485283125979
 10
2.150205920957887
 20
2.693585808090802
 30
0.0
 10
2.150902158005465
 20
2.68275352618457
 30
0.0
 10
2.153430006741587
 20
2.671818069207575
 30
0.0
 10
2.157625342996994
 20
2.661699572540329
 30
0.0
 10
2.161821959762392
 20
2.65157798748271
 30
0.0
 10
2.167803346409528
 20
2.641996570825881
 30
0.0
 10
2.175079679126156
 20
2.633765979133159
 30
0.0
 10
2.182317268691122
 20
2.625579211585887
 30
0.0
 10
2.191030702363491
 20
2.618504340505865
 30
0.0
 10
2.200506442397568
 20
2.613107032759444
 30
0.0
 10
2.210059526114605
 20
2.607665670653319
 30
0.0
 10
2.220641483339477
 20
2.603779066149286
 30
0.0
 10
2.231422752349999
 20
2.601740721202646
 30
0.0
 10
2.236960880712218
 20
2.600693663017864
 30
0.0
 10
2.242608755112769
 20
2.600113874771637
 30
0.0
 10
2.248253114160434
 20
2.600015259214729
 30
0.0
  0
ARC
  5
632
330
5C9
100
AcDbEntity
  8
OBJECT
100
AcDbCircle
 10
2.25
 20
2.699999999999932
 30
0.0
 40
0.1000000000000236
100
AcDbArc
 50
180.0000002864759
 51
183.6775858193379
  0
LINE
  5
633
330
5C9
100
AcDbEntity
  8
OBJECT
100
AcDbLine
 10
2.149999999999977
 20
2.699999999499937
 30
0.0
 11
2.149999999999977
 21
3.000000000020464
 31
0.0
  0
ARC
  5
634
330
5C9
100
AcDbEntity
  8
OBJECT
100
AcDbCircle
 10
2.25
 20
2.999999999999886
 30
0.0
 40
0.1000000000017034
100
AcDbArc
 50
176.3224144309764
 51
179.9999999882101
  0
LINE
  5
635
330
5C9
100
AcDbEntity
  8
OBJECT
100
AcDbLine
 10
-3.450000002105185
 20
2.369186632133278
 30
0.0
 11
-1.500000002105139
 21
2.369186632133278
 31
0.0
  0
LINE
  5
636
330
5C9
100
AcDbEntity
  8
OBJECT
100
AcDbLine
 10
-2.962500002105116
 20
4.169186632133233
 30
0.0
 11
-1.987500002105207
 21
4.169186632133233
 31
0.0
  0
LINE
  5
637
330
5C9
100
AcDbEntity
  8
OBJECT
100
AcDbLine
 10
-1.987500002105207
 20
4.169186632133233
 30
0.0
 11
-2.962500002105116
 21
4.169186632133233
 31
0.0
  0
LINE
  5
638
330
5C9
100
AcDbEntity
  8
OBJECT
100
AcDbLine
 10
-1.987500002105207
 20
3.595552251079425
 30
0.0
 11
-1.500000002105139
 21
3.595552251079425
 31
0.0
  0
LINE
  5
639
330
5C9
100
AcDbEntity
  8
OBJECT
100
AcDbLine
 10
-1.500000002105139
 20
2.369186632133278
 30
0.0
 11
-1.500000002105139
 21
3.595552251079425
 31
0.0
  0
LINE
  5
63A
330
5C9
100
AcDbEntity
  8
OBJECT
100
AcDbLine
 10
-1.987500002105207
 20
4.169186632133233
 30
0.0
 11
-1.987500002105207
 21
3.595552251079425
 31
0.0
  0
LINE
  5
63B
330
5C9
100
AcDbEntity
  8
OBJECT
100
AcDbLine
 10
-2.962500002105116
 20
3.595552251079425
 30
0.0
 11
-3.450000002105185
 21
3.595552251079425
 31
0.0
  0
LINE
  5
63C
330
5C9
100
AcDbEntity
  8
OBJECT
100
AcDbLine
 10
-3.450000002105185
 20
3.595552251079425
 30
0.0
 11
-3.450000002105185
 21
2.369186632133278
 31
0.0
  0
LINE
  5
63D
330
5C9
100
AcDbEntity
  8
OBJECT
100
AcDbLine
 10
-2.962500002105116
 20
4.169186632133233
 30
0.0
 11
-2.962500002105116
 21
3.595552251079425
 31
0.0
  0
LINE
  5
63E
330
5C9
100
AcDbEntity
  8
OBJECT
100
AcDbLine
 10
-0.9500000021051846
 20
2.369186632133278
 30
0.0
 11
0.9999999978948608
 21
2.369186632133278
 31
0.0
  0
LINE
  5
63F
330
5C9
100
AcDbEntity
  8
OBJECT
100
AcDbLine
 10
-0.4625000021051164
 20
4.169186632133233
 30
0.0
 11
0.5124999978947926
 21
4.169186632133233
 31
0.0
  0
LINE
  5
640
330
5C9
100
AcDbEntity
  8
OBJECT
100
AcDbLine
 10
0.5124999978947926
 20
4.169186632133233
 30
0.0
 11
-0.4625000021051164
 21
4.169186632133233
 31
0.0
  0
LINE
  5
641
330
5C9
100
AcDbEntity
  8
OBJECT
100
AcDbLine
 10
0.5124999978947926
 20
3.595552251079425
 30
0.0
 11
0.9999999978948608
 21
3.595552251079425
 31
0.0
  0
LINE
  5
642
330
5C9
100
AcDbEntity
  8
OBJECT
100
AcDbLine
 10
0.9999999978948608
 20
2.369186632133278
 30
0.0
 11
0.9999999978948608
 21
3.595552251079425
 31
0.0
  0
LINE
  5
643
330
5C9
100
AcDbEntity
  8
OBJECT
100
AcDbLine
 10
0.5124999978947926
 20
4.169186632133233
 30
0.0
 11
0.5124999978947926
 21
3.595552251079425
 31
0.0
  0
LINE
  5
644
330
5C9
100
AcDbEntity
  8
OBJECT
100
AcDbLine
 10
-0.4625000021051164
 20
3.595552251079425
 30
0.0
 11
-0.9500000021051846
 21
3.595552251079425
 31
0.0
  0
LINE
  5
645
330
5C9
100
AcDbEntity
  8
OBJECT
100
AcDbLine
 10
-0.9500000021051846
 20
3.595552251079425
 30
0.0
 11
-0.9500000021051846
 21
2.369186632133278
 31
0.0
  0
LINE
  5
646
330
5C9
100
AcDbEntity
  8
OBJECT
100
AcDbLine
 10
-0.4625000021051164
 20
4.169186632133233
 30
0.0
 11
-0.4625000021051164
 21
3.595552251079425
 31
0.0
  0
LINE
  5
647
330
5C9
100
AcDbEntity
  8
OBJECT
100
AcDbLine
 10
1.549999997894815
 20
2.369186632133278
 30
0.0
 11
3.499999997894861
 21
2.369186632133278
 31
0.0
  0
LINE
  5
648
330
5C9
100
AcDbEntity
  8
OBJECT
100
AcDbLine
 10
2.037499997894884
 20
4.169186632133233
 30
0.0
 11
3.012499997894793
 21
4.169186632133233
 31
0.0
  0
LINE
  5
649
330
5C9
100
AcDbEntity
  8
OBJECT
100
AcDbLine
 10
3.012499997894793
 20
4.169186632133233
 30
0.0
 11
2.037499997894884
 21
4.169186632133233
 31
0.0
  0
LINE
  5
64A
330
5C9
100
AcDbEntity
  8
OBJECT
100
AcDbLine
 10
3.012499997894793
 20
3.595552251079425
 30
0.0
 11
3.499999997894861
 21
3.595552251079425
 31
0.0
  0
LINE
  5
64B
330
5C9
100
AcDbEntity
  8
OBJECT
100
AcDbLine
 10
3.499999997894861
 20
2.369186632133278
 30
0.0
 11
3.499999997894861
 21
3.595552251079425
 31
0.0
  0
LINE
  5
64C
330
5C9
100
AcDbEntity
  8
OBJECT
100
AcDbLine
 10
3.012499997894793
 20
4.169186632133233
 30
0.0
 11
3.012499997894793
 21
3.595552251079425
 31
0.0
  0
LINE
  5
64D
330
5C9
100
AcDbEntity
  8
OBJECT
100
AcDbLine
 10
2.037499997894884
 20
3.595552251079425
 30
0.0
 11
1.549999997894815
 21
3.595552251079425
 31
0.0
  0
LINE
  5
64E
330
5C9
100
AcDbEntity
  8
OBJECT
100
AcDbLine
 10
1.549999997894815
 20
3.595552251079425
 30
0.0
 11
1.549999997894815
 21
2.369186632133278
 31
0.0
  0
LINE
  5
64F
330
5C9
100
AcDbEntity
  8
OBJECT
100
AcDbLine
 10
2.037499997894884
 20
4.169186632133233
 30
0.0
 11
2.037499997894884
 21
3.595552251079425
 31
0.0
  0
ENDBLK
  5
650
330
5C9
100
AcDbEntity
  8
0
100
AcDbBlockEnd
  0
BLOCK
  5
7D7
330
7D6
100
AcDbEntity
  8
0
100
AcDbBlockBegin
  2
*D22
 70
     1
 10
0.0
 20
0.0
 30
0.0
  3
*D22
  1

  0
LINE
  5
7D9
330
7D6
100
AcDbEntity
  8
DIMS
100
AcDbLine
 10
251.9845084688648
 20
129.9999999999999
 30
0.0
 11
262.1345084688648
 21
129.9999999999999
 31
0.0
  0
LINE
  5
7DA
330
7D6
100
AcDbEntity
  8
DIMS
100
AcDbLine
 10
251.9845084688648
 20
119.9999999999998
 30
0.0
 11
262.1345084688648
 21
119.9999999999998
 31
0.0
  0
LINE
  5
7DB
330
7D6
100
AcDbEntity
  8
DIMS
100
AcDbLine
 10
261.4845084688648
 20
129.9999999999999
 30
0.0
 11
261.4845084688648
 21
119.9999999999998
 31
0.0
  0
LINE
  5
7DC
330
7D6
100
AcDbEntity
  8
DIMS
100
AcDbLine
 10
261.4845084688648
 20
132.4999999999999
 30
0.0
 11
261.4845084688648
 21
134.9999999999999
 31
0.0
  0
LINE
  5
7DD
330
7D6
100
AcDbEntity
  8
DIMS
100
AcDbLine
 10
261.4845084688648
 20
117.4999999999998
 30
0.0
 11
261.4845084688648
 21
114.9999999999998
 31
0.0
  0
INSERT
  5
7DE
330
7D6
100
AcDbEntity
  8
DIMS
100
AcDbBlockReference
  2
_Open30
 10
261.4845084688648
 20
129.9999999999999
 30
0.0
 41
2.5
 42
2.5
 43
2.5
 50
270.0
  0
INSERT
  5
7DF
330
7D6
100
AcDbEntity
  8
DIMS
100
AcDbBlockReference
  2
_Open30
 10
261.4845084688648
 20
119.9999999999998
 30
0.0
 41
2.5
 42
2.5
 43
2.5
 50
90.0
  0
MTEXT
  5
7E0
330
7D6
100
AcDbEntity
  8
DIMS
 62
     7
100
AcDbMText
 10
259.5845084688648
 20
125.4047811764704
 30
0.0
 40
2.5
 41
0.0
 46
0.0
 71
     5
 72
     1
  1
\A1;10
 11
0.0
 21
1.0
 31
0.0
 73
     1
 44
1.0
  0
POINT
  5
7E1
330
7D6
100
AcDbEntity
  8
Defpoints
 62
     0
100
AcDbPoint
 10
251.3345084688648
 20
129.9999999999999
 30
0.0
  0
POINT
  5
855
330
7D6
100
AcDbEntity
  8
Defpoints
 62
     0
100
AcDbPoint
 10
251.3345084688648
 20
119.9999999999998
 30
0.0
  0
POINT
  5
856
330
7D6
100
AcDbEntity
  8
Defpoints
 62
     0
100
AcDbPoint
 10
261.4845084688648
 20
119.9999999999998
 30
0.0
  0
ENDBLK
  5
7D8
330
7D6
100
AcDbEntity
  8
0
100
AcDbBlockEnd
  0
BLOCK
  5
7E7
330
7E6
100
AcDbEntity
  8
0
100
AcDbBlockBegin
  2
*D23
 70
     1
 10
0.0
 20
0.0
 30
0.0
  3
*D23
  1

  0
LINE
  5
7E9
330
7E6
100
AcDbEntity
  8
DIMS
100
AcDbLine
 10
205.0000000000001
 20
130.5999999999999
 30
0.0
 11
205.0000000000001
 21
148.6827443178447
 31
0.0
  0
LINE
  5
7EA
330
7E6
100
AcDbEntity
  8
DIMS
100
AcDbLine
 10
226.6000000000001
 20
130.6499999999999
 30
0.0
 11
226.6000000000001
 21
148.6827443178447
 31
0.0
  0
LINE
  5
7EB
330
7E6
100
AcDbEntity
  8
DIMS
100
AcDbLine
 10
207.5000000000001
 20
148.0327443178447
 30
0.0
 11
224.1000000000001
 21
148.0327443178447
 31
0.0
  0
INSERT
  5
7EC
330
7E6
100
AcDbEntity
  8
DIMS
100
AcDbBlockReference
  2
_Open30
 10
205.0000000000001
 20
148.0327443178447
 30
0.0
 41
2.5
 42
2.5
 43
2.5
 50
180.0
  0
INSERT
  5
7ED
330
7E6
100
AcDbEntity
  8
DIMS
100
AcDbBlockReference
  2
_Open30
 10
226.6000000000001
 20
148.0327443178447
 30
0.0
 41
2.5
 42
2.5
 43
2.5
  0
MTEXT
  5
7EE
330
7E6
100
AcDbEntity
  8
DIMS
 62
     7
100
AcDbMText
 10
215.8000000000001
 20
149.9327443178447
 30
0.0
 40
2.5
 41
0.0
 46
0.0
 71
     5
 72
     1
  1
\A1;21.6
 73
     1
 44
1.0
  0
POINT
  5
7EF
330
7E6
100
AcDbEntity
  8
Defpoints
 62
     0
100
AcDbPoint
 10
205.0000000000001
 20
129.9499999999999
 30
0.0
  0
POINT
  5
7F0
330
7E6
100
AcDbEntity
  8
Defpoints
 62
     0
100
AcDbPoint
 10
226.6000000000001
 20
129.9999999999999
 30
0.0
  0
POINT
  5
7F1
330
7E6
100
AcDbEntity
  8
Defpoints
 62
     0
100
AcDbPoint
 10
226.6000000000001
 20
148.0327443178447
 30
0.0
  0
ENDBLK
  5
7E8
330
7E6
100
AcDbEntity
  8
0
100
AcDbBlockEnd
  0
BLOCK
  5
7F7
330
7F6
100
AcDbEntity
  8
0
100
AcDbBlockBegin
  2
*D24
 70
     1
 10
0.0
 20
0.0
 30
0.0
  3
*D24
  1

  0
LINE
  5
7F9
330
7F6
100
AcDbEntity
  8
DIMS
100
AcDbLine
 10
244.7345084688648
 20
130.6499999999999
 30
0.0
 11
244.7345084688648
 21
148.6827443178447
 31
0.0
  0
LINE
  5
7FA
330
7F6
100
AcDbEntity
  8
DIMS
100
AcDbLine
 10
251.3345084688648
 20
130.6499999999999
 30
0.0
 11
251.3345084688648
 21
148.6827443178447
 31
0.0
  0
LINE
  5
7FB
330
7F6
100
AcDbEntity
  8
DIMS
100
AcDbLine
 10
244.7345084688648
 20
148.0327443178447
 30
0.0
 11
251.3345084688648
 21
148.0327443178447
 31
0.0
  0
LINE
  5
7FC
330
7F6
100
AcDbEntity
  8
DIMS
100
AcDbLine
 10
242.2345084688648
 20
148.0327443178447
 30
0.0
 11
239.7345084688648
 21
148.0327443178447
 31
0.0
  0
LINE
  5
7FD
330
7F6
100
AcDbEntity
  8
DIMS
100
AcDbLine
 10
253.8345084688648
 20
148.0327443178447
 30
0.0
 11
256.3345084688648
 21
148.0327443178447
 31
0.0
  0
INSERT
  5
7FE
330
7F6
100
AcDbEntity
  8
DIMS
100
AcDbBlockReference
  2
_Open30
 10
244.7345084688648
 20
148.0327443178447
 30
0.0
 41
2.5
 42
2.5
 43
2.5
  0
INSERT
  5
7FF
330
7F6
100
AcDbEntity
  8
DIMS
100
AcDbBlockReference
  2
_Open30
 10
251.3345084688648
 20
148.0327443178447
 30
0.0
 41
2.5
 42
2.5
 43
2.5
 50
180.0
  0
MTEXT
  5
800
330
7F6
100
AcDbEntity
  8
DIMS
 62
     7
100
AcDbMText
 10
248.0345084688648
 20
149.9327443178447
 30
0.0
 40
2.5
 41
0.0
 46
0.0
 71
     5
 72
     1
  1
\A1;6.6
 73
     1
 44
1.0
  0
POINT
  5
801
330
7F6
100
AcDbEntity
  8
Defpoints
 62
     0
100
AcDbPoint
 10
244.7345084688648
 20
129.9999999999999
 30
0.0
  0
POINT
  5
803
330
7F6
100
AcDbEntity
  8
Defpoints
 62
     0
100
AcDbPoint
 10
251.3345084688648
 20
129.9999999999999
 30
0.0
  0
POINT
  5
804
330
7F6
100
AcDbEntity
  8
Defpoints
 62
     0
100
AcDbPoint
 10
251.3345084688648
 20
148.0327443178447
 30
0.0
  0
ENDBLK
  5
7F8
330
7F6
100
AcDbEntity
  8
0
100
AcDbBlockEnd
  0
BLOCK
  5
80F
330
80E
100
AcDbEntity
  8
0
100
AcDbBlockBegin
  2
*D25
 70
     1
 10
0.0
 20
0.0
 30
0.0
  3
*D25
  1

  0
LINE
  5
811
330
80E
100
AcDbEntity
  8
DIMS
100
AcDbLine
 10
77.39999999999986
 20
128.9299999999999
 30
0.0
 11
77.39999999999986
 21
148.7380199281976
 31
0.0
  0
LINE
  5
812
330
80E
100
AcDbEntity
  8
DIMS
100
AcDbLine
 10
85.0
 20
129.5699999999999
 30
0.0
 11
85.0
 21
148.7380199281976
 31
0.0
  0
LINE
  5
813
330
80E
100
AcDbEntity
  8
DIMS
100
AcDbLine
 10
77.39999999999986
 20
148.0880199281976
 30
0.0
 11
85.0
 21
148.0880199281976
 31
0.0
  0
LINE
  5
814
330
80E
100
AcDbEntity
  8
DIMS
100
AcDbLine
 10
74.89999999999986
 20
148.0880199281976
 30
0.0
 11
72.39999999999986
 21
148.0880199281976
 31
0.0
  0
LINE
  5
815
330
80E
100
AcDbEntity
  8
DIMS
100
AcDbLine
 10
87.5
 20
148.0880199281976
 30
0.0
 11
90.0
 21
148.0880199281976
 31
0.0
  0
INSERT
  5
816
330
80E
100
AcDbEntity
  8
DIMS
100
AcDbBlockReference
  2
_Open30
 10
77.39999999999986
 20
148.0880199281976
 30
0.0
 41
2.5
 42
2.5
 43
2.5
  0
INSERT
  5
817
330
80E
100
AcDbEntity
  8
DIMS
100
AcDbBlockReference
  2
_Open30
 10
85.0
 20
148.0880199281976
 30
0.0
 41
2.5
 42
2.5
 43
2.5
 50
180.0
  0
MTEXT
  5
818
330
80E
100
AcDbEntity
  8
DIMS
 62
     7
100
AcDbMText
 10
81.19999999999993
 20
149.9880199281976
 30
0.0
 40
2.5
 41
0.0
 46
0.0
 71
     5
 72
     1
  1
\A1;7.6
 73
     1
 44
1.0
  0
POINT
  5
819
330
80E
100
AcDbEntity
  8
Defpoints
 62
     0
100
AcDbPoint
 10
77.39999999999986
 20
128.2799999999999
 30
0.0
  0
POINT
  5
81B
330
80E
100
AcDbEntity
  8
Defpoints
 62
     0
100
AcDbPoint
 10
85.0
 20
128.9199999999999
 30
0.0
  0
POINT
  5
81C
330
80E
100
AcDbEntity
  8
Defpoints
 62
     0
100
AcDbPoint
 10
85.0
 20
148.0880199281976
 30
0.0
  0
ENDBLK
  5
810
330
80E
100
AcDbEntity
  8
0
100
AcDbBlockEnd
  0
BLOCK
  5
82D
330
82C
100
AcDbEntity
  8
0
100
AcDbBlockBegin
  2
*D26
 70
     1
 10
0.0
 20
0.0
 30
0.0
  3
*D26
  1

  0
LINE
  5
82F
330
82C
100
AcDbEntity
  8
DIMS
100
AcDbLine
 10
143.7323079982766
 20
127.0499999999999
 30
0.0
 11
143.7323079982766
 21
140.0203869047618
 31
0.0
  0
LINE
  5
830
330
82C
100
AcDbEntity
  8
DIMS
100
AcDbLine
 10
143.7323079982766
 20
127.0499999999999
 30
0.0
 11
143.7323079982766
 21
122.9499999999998
 31
0.0
  0
LINE
  5
831
330
82C
100
AcDbEntity
  8
DIMS
100
AcDbLine
 10
143.7323079982766
 20
129.5499999999999
 30
0.0
 11
143.7323079982766
 21
132.0499999999999
 31
0.0
  0
LINE
  5
832
330
82C
100
AcDbEntity
  8
DIMS
100
AcDbLine
 10
143.7323079982766
 20
120.4499999999998
 30
0.0
 11
143.7323079982766
 21
117.9499999999998
 31
0.0
  0
INSERT
  5
833
330
82C
100
AcDbEntity
  8
DIMS
100
AcDbBlockReference
  2
_Open30
 10
143.7323079982766
 20
127.0499999999999
 30
0.0
 41
2.5
 42
2.5
 43
2.5
 50
270.0
  0
INSERT
  5
834
330
82C
100
AcDbEntity
  8
DIMS
100
AcDbBlockReference
  2
_Open30
 10
143.7323079982766
 20
122.9499999999998
 30
0.0
 41
2.5
 42
2.5
 43
2.5
 50
90.0
  0
MTEXT
  5
835
330
82C
100
AcDbEntity
  8
DIMS
 62
     7
100
AcDbMText
 10
141.8323079982766
 20
136.0351934523808
 30
0.0
 40
2.5
 41
0.0
 46
0.0
 71
     5
 72
     1
  1
\A1;Φ4.1
 11
0.0
 21
1.0
 31
0.0
 73
     1
 44
1.0
  0
POINT
  5
836
330
82C
100
AcDbEntity
  8
Defpoints
 62
     0
100
AcDbPoint
 10
142.0
 20
127.0499999999999
 30
0.0
  0
POINT
  5
83A
330
82C
100
AcDbEntity
  8
Defpoints
 62
     0
100
AcDbPoint
 10
142.0
 20
122.9499999999998
 30
0.0
  0
POINT
  5
83B
330
82C
100
AcDbEntity
  8
Defpoints
 62
     0
100
AcDbPoint
 10
143.7323079982766
 20
122.9499999999998
 30
0.0
  0
ENDBLK
  5
82E
330
82C
100
AcDbEntity
  8
0
100
AcDbBlockEnd
  0
BLOCK
  5
848
330
847
100
AcDbEntity
  8
0
100
AcDbBlockBegin
  2
*D27
 70
     1
 10
0.0
 20
0.0
 30
0.0
  3
*D27
  1

  0
LINE
  5
84A
330
847
100
AcDbEntity
  8
DIMS
100
AcDbLine
 10
98.15372682525287
 20
111.8319800718022
 30
0.0
 11
98.15372682525287
 21
101.4319800718022
 31
0.0
  0
LINE
  5
84B
330
847
100
AcDbEntity
  8
DIMS
100
AcDbLine
 10
198.1537268252529
 20
111.8319800718022
 30
0.0
 11
198.1537268252529
 21
101.4319800718022
 31
0.0
  0
LINE
  5
84C
330
847
100
AcDbEntity
  8
DIMS
100
AcDbLine
 10
100.6537268252529
 20
102.0819800718022
 30
0.0
 11
195.6537268252529
 21
102.0819800718022
 31
0.0
  0
INSERT
  5
84D
330
847
100
AcDbEntity
  8
DIMS
100
AcDbBlockReference
  2
_Open30
 10
98.15372682525287
 20
102.0819800718022
 30
0.0
 41
2.5
 42
2.5
 43
2.5
 50
180.0
  0
INSERT
  5
84E
330
847
100
AcDbEntity
  8
DIMS
100
AcDbBlockReference
  2
_Open30
 10
198.1537268252529
 20
102.0819800718022
 30
0.0
 41
2.5
 42
2.5
 43
2.5
  0
MTEXT
  5
84F
330
847
100
AcDbEntity
  8
DIMS
 62
     7
100
AcDbMText
 10
148.1537268252529
 20
103.9819800718022
 30
0.0
 40
2.5
 41
0.0
 46
0.0
 71
     5
 72
     1
  1
\A1;100
 73
     1
 44
1.0
  0
POINT
  5
850
330
847
100
AcDbEntity
  8
Defpoints
 62
     0
100
AcDbPoint
 10
98.15372682525287
 20
112.4819800718022
 30
0.0
  0
POINT
  5
851
330
847
100
AcDbEntity
  8
Defpoints
 62
     0
100
AcDbPoint
 10
198.1537268252529
 20
112.4819800718022
 30
0.0
  0
POINT
  5
852
330
847
100
AcDbEntity
  8
Defpoints
 62
     0
100
AcDbPoint
 10
198.1537268252529
 20
102.0819800718022
 30
0.0
  0
ENDBLK
  5
849
330
847
100
AcDbEntity
  8
0
100
AcDbBlockEnd
  0
BLOCK
  5
92F
330
92E
100
AcDbEntity
  8
0
100
AcDbBlockBegin
  2
*D30
 70
     1
 10
0.0
 20
0.0
 30
0.0
  3
*D30
  1

  0
LINE
  5
931
330
92E
100
AcDbEntity
  8
DIMS
100
AcDbLine
 10
248.3345084688649
 20
124.3499999978947
 30
0.0
 11
248.3345084688649
 21
123.7493955172804
 31
0.0
  0
LINE
  5
932
330
92E
100
AcDbEntity
  8
DIMS
100
AcDbLine
 10
251.0653218367316
 20
124.3993955172804
 30
0.0
 11
263.7976135033983
 21
124.3993955172804
 31
0.0
  0
LINE
  5
933
330
92E
100
AcDbEntity
  8
DIMS
100
AcDbLine
 10
248.3345084688649
 20
124.3993955172804
 30
0.0
 11
248.5653218367316
 21
124.3993955172804
 31
0.0
  0
LINE
  5
934
330
92E
100
AcDbEntity
  8
DIMS
100
AcDbLine
 10
245.8345084688649
 20
124.3993955172804
 30
0.0
 11
243.3345084688649
 21
124.3993955172804
 31
0.0
  0
INSERT
  5
935
330
92E
100
AcDbEntity
  8
DIMS
100
AcDbBlockReference
  2
_Open30
 10
248.3345084688649
 20
124.3993955172804
 30
0.0
 41
2.5
 42
2.5
 43
2.5
  0
INSERT
  5
936
330
92E
100
AcDbEntity
  8
DIMS
100
AcDbBlockReference
  2
_Open30
 10
248.5653218367316
 20
124.3993955172804
 30
0.0
 41
2.5
 42
2.5
 43
2.5
 50
180.0
  0
MTEXT
  5
937
330
92E
100
AcDbEntity
  8
DIMS
 62
     7
100
AcDbMText
 10
258.681467670065
 20
126.2993955172804
 30
0.0
 40
2.5
 41
0.0
 46
0.0
 71
     5
 72
     1
  1
\A1;0.231
 73
     1
 44
1.0
  0
POINT
  5
938
330
92E
100
AcDbEntity
  8
Defpoints
 62
     0
100
AcDbPoint
 10
248.3345084688649
 20
124.9999999978947
 30
0.0
  0
POINT
  5
939
330
92E
100
AcDbEntity
  8
Defpoints
 62
     0
100
AcDbPoint
 10
248.5653218367316
 20
124.9999999978947
 30
0.0
  0
POINT
  5
93A
330
92E
100
AcDbEntity
  8
Defpoints
 62
     0
100
AcDbPoint
 10
248.5653218367316
 20
124.3993955172804
 30
0.0
  0
ENDBLK
  5
930
330
92E
100
AcDbEntity
  8
0
100
AcDbBlockEnd
  0
ENDSEC
  0
SECTION
  2
ENTITIES
  0
LINE
  5
59
330
18
100
AcDbEntity
  8
OBJECT
100
AcDbLine
 10
85.0
 20
126.6799997806548
 30
0.0
 11
95.0
 21
126.1331249520181
 31
0.0
  0
LINE
  5
5B
330
18
100
AcDbEntity
  8
OBJECT
100
AcDbLine
 10
85.0
 20
124.9999999999998
 30
0.0
 11
95.0
 21
124.9999999999998
 31
0.0
  0
LINE
  5
5C
330
18
100
AcDbEntity
  8
OBJECT
100
AcDbLine
 10
85.00000000000011
 20
123.3200002193449
 30
0.0
 11
95.0
 21
123.8668750479816
 31
0.0
  0
LINE
  5
5D
330
18
100
AcDbEntity
  8
OBJECT
100
AcDbLine
 10
195.0
 20
123.727013219963
 30
0.0
 11
205.0000000000002
 21
123.3636651977818
 31
0.0
  0
LINE
  5
5E
330
18
100
AcDbEntity
  8
OBJECT
370
    30
100
AcDbLine
 10
195.0
 20
124.9999999999999
 30
0.0
 11
205.0000000000001
 21
124.9999999999999
 31
0.0
  0
LINE
  5
5F
330
18
100
AcDbEntity
  8
OBJECT
100
AcDbLine
 10
195.0
 20
126.2729867800367
 30
0.0
 11
205.0000000000001
 21
126.636334802218
 31
0.0
  0
LINE
  5
61
330
18
100
AcDbEntity
  8
OBJECT
100
AcDbLine
 10
101.0
 20
127.55
 30
0.0
 11
95.0
 21
127.05
 31
0.0
  0
LINE
  5
62
330
18
100
AcDbEntity
  8
OBJECT
100
AcDbLine
 10
101.0
 20
122.4499999999999
 30
0.0
 11
95.0
 21
122.9499999999999
 31
0.0
  0
LINE
  5
63
330
18
100
AcDbEntity
  8
OBJECT
100
AcDbLine
 10
95.0
 20
127.05
 30
0.0
 11
95.0
 21
122.9499999999999
 31
0.0
  0
LINE
  5
64
330
18
100
AcDbEntity
  8
OBJECT
100
AcDbLine
 10
107.0
 20
127.55
 30
0.0
 11
107.0
 21
122.4499999999999
 31
0.0
  0
LINE
  5
65
330
18
100
AcDbEntity
  8
OBJECT
100
AcDbLine
 10
101.0
 20
127.55
 30
0.0
 11
107.0
 21
127.55
 31
0.0
  0
LINE
  5
66
330
18
100
AcDbEntity
  8
OBJECT
100
AcDbLine
 10
101.0
 20
122.4499999999999
 30
0.0
 11
107.0
 21
122.4499999999999
 31
0.0
  0
LINE
  5
67
330
18
100
AcDbEntity
  8
OBJECT
100
AcDbLine
 10
195.0
 20
127.05
 30
0.0
 11
195.0
 21
122.9499999999999
 31
0.0
  0
LINE
  5
68
330
18
100
AcDbEntity
  8
OBJECT
100
AcDbLine
 10
189.0
 20
127.55
 30
0.0
 11
195.0
 21
127.05
 31
0.0
  0
LINE
  5
69
330
18
100
AcDbEntity
  8
OBJECT
100
AcDbLine
 10
189.0
 20
122.4499999999999
 30
0.0
 11
195.0
 21
122.9499999999999
 31
0.0
  0
LINE
  5
6B
330
18
100
AcDbEntity
  8
OBJECT
100
AcDbLine
 10
183.0
 20
127.55
 30
0.0
 11
183.0
 21
122.4499999999999
 31
0.0
  0
LINE
  5
6C
330
18
100
AcDbEntity
  8
OBJECT
100
AcDbLine
 10
189.0
 20
127.55
 30
0.0
 11
183.0
 21
127.55
 31
0.0
  0
LINE
  5
6D
330
18
100
AcDbEntity
  8
OBJECT
100
AcDbLine
 10
189.0
 20
122.4499999999999
 30
0.0
 11
183.0
 21
122.4499999999999
 31
0.0
  0
LINE
  5
6E
330
18
100
AcDbEntity
  8
OBJECT
100
AcDbLine
 10
107.0
 20
127.0499999999999
 30
0.0
 11
183.0
 21
127.0499999999999
 31
0.0
  0
LINE
  5
6F
330
18
100
AcDbEntity
  8
OBJECT
100
AcDbLine
 10
107.0
 20
122.9499999999998
 30
0.0
 11
183.0
 21
122.9499999999998
 31
0.0
  0
INSERT
  5
70
102
{ACAD_REACTORS
330
A4
330
80D
102
}
330
18
100
AcDbEntity
  8
0
100
AcDbBlockReference
  2
XAP-03V-1_b
 10
85.0
 20
124.9999999999998
 30
0.0
 50
180.0
  0
INSERT
  5
89
102
{ACAD_REACTORS
330
A4
330
7E5
102
}
330
18
100
AcDbEntity
  8
0
100
AcDbBlockReference
  2
A$C15711
 10
205.0000000000001
 20
124.9999999999999
 30
0.0
 50
180.0
  0
DIMENSION
  5
A2
102
{ACAD_REACTORS
330
A4
102
}
102
{ACAD_XDICTIONARY
360
A3
102
}
330
18
100
AcDbEntity
  8
DIMS
100
AcDbDimension
  2
*D3
 10
205.0000000000001
 20
148.0329259965011
 30
0.0
 11
145.0000000000001
 21
149.9329259965012
 31
0.0
 70
    32
  1
L
 71
     5
 42
120.0000000000001
 73
     0
 74
     0
 75
     0
  3
STANDARD
100
AcDbAlignedDimension
 13
85.0
 23
128.9199999999998
 33
0.0
 14
205.0000000000001
 24
129.2999999999999
 34
0.0
100
AcDbRotatedDimension
  0
LWPOLYLINE
  5
F5
330
18
100
AcDbEntity
  8
Defpoints
100
AcDbPolyline
 90
        3
 70
     0
 43
0.0
 10
5.0
 20
200.0
 10
5.0
 20
205.0
 10
10.0
 20
205.0
  0
LWPOLYLINE
  5
F6
330
18
100
AcDbEntity
  8
Defpoints
100
AcDbPolyline
 90
        3
 70
     0
 43
0.0
 10
287.0000000000001
 20
205.0
 10
292.0000000000001
 20
205.0
 10
292.0000000000001
 20
200.0
  0
LWPOLYLINE
  5
F7
330
18
100
AcDbEntity
  8
Defpoints
100
AcDbPolyline
 90
        3
 70
     0
 43
0.0
 10
292.0000000000001
 20
9.999999999999972
 10
292.0000000000001
 20
4.999999999999972
 10
287.0000000000001
 20
4.999999999999972
  0
LWPOLYLINE
  5
F8
330
18
100
AcDbEntity
  8
Defpoints
100
AcDbPolyline
 90
        3
 70
     0
 43
0.0
 10
10.0
 20
5.0
 10
5.0
 20
5.0
 10
5.0
 20
10.0
  0
LWPOLYLINE
  5
F9
330
18
100
AcDbEntity
  8
Defpoints
100
AcDbPolyline
 90
        3
 70
     0
 43
0.0
 10
10.0
 20
0.0
 10
0.0
 20
0.0
 10
0.0
 20
10.0
  0
LWPOLYLINE
  5
FA
330
18
100
AcDbEntity
  8
Defpoints
100
AcDbPolyline
 90
        3
 70
     0
 43
0.0
 10
297.0000000000001
 20
9.999999999999972
 10
297.0000000000001
 20
-0.0000000000000284
 10
287.0000000000001
 20
-0.0000000000000284
  0
LWPOLYLINE
  5
FB
330
18
100
AcDbEntity
  8
Defpoints
100
AcDbPolyline
 90
        3
 70
     0
 43
0.0
 10
287.0000000000001
 20
210.0
 10
297.0000000000001
 20
210.0
 10
297.0000000000001
 20
200.0
  0
LWPOLYLINE
  5
FC
330
18
100
AcDbEntity
  8
Defpoints
100
AcDbPolyline
 90
        3
 70
     0
 43
0.0
 10
0.0
 20
200.0
 10
0.0
 20
210.0
 10
10.0
 20
210.0
  0
ACAD_TABLE
  5
138
330
18
100
AcDbEntity
  8
0
 92
     4648
310
281200001F000000880000001D000000000000000000F03F000000000000000000000000000000005B5A5A5A5A3A57400000000000000000000000000000F03F00000000000000005A5A5A5A5AFA534000000000000000000000000000000000000000000000F03F0000000000000000000000000000000000000000000000
310
000000000000000000000000000000F03F0C0000001200000000000000E4000000260000003333333333930A400000000000000EC0000000000000000000000000000000000000000000000000000000000000F03F000000000000F03F00000000000000000000000000000000779555304C0008FF58534D4F6D006D0009FF
310
000009000000010000000000000000000440343333333333EB3F0000000000000000000000000000F03F0000000000000000000000000000000000000000000000000000000000000000000000000000000072006F006D0061006E0073002E007300680078000000000062006900670066006F006E0074002E007300680078
310
000000D80000002600000049922449925C4A400000000000000EC0000000000000000000000000000000000000000000000000000000000000F03F000000000000F03F000000000000000000000000000000000D54F0790000000002000000010000000000000000000440343333333333EB3F000000000000000000000000
310
0000F03F0000000000000000000000000000000000000000000000000000000000000000000000000000000072006F006D0061006E0073002E007300680078000000000062006900670066006F006E0074002E007300680078000000D8000000260000007CC5577CC54E58400000000000000EC00000000000000000000000
310
00000000000000000000000000000000000000F03F000000000000F03F000000000000000000000000000000008B576A750000000002000000010000000000000000000440343333333333EB3F0000000000000000000000000000F03F00000000000000000000000000000000000000000000000000000000000000000000
310
00000000000072006F006D0061006E0073002E007300680078000000000062006900670066006F006E0074002E007300680078000000D800000026000000E7799EE779EA254000000000008021C0000000000000000000000000000000000000000000000000000000000000F03F000000000000F03F000000000000000000
310
00000000000000350030003000000003000000010000000000000000000440343333333333EB3F0000000000000000000000000000F03F0000000000000000000000000000000000000000000000000000000000000000000000000000000072006F006D0061006E0073002E00730068007800000000006200690067006600
310
6F006E0074002E007300680078000000FC000000260000000000000000803C4000000000008021C0000000000000000000000000000000000000000000000000000000000000F03F000000000000F03F0000000000000000000000000000000020002000C730A430B830FC30C130A730A430F330B130FC30D630EB30410020
310
003500300030006D006D00000015000000010000000000000000000440343333333333EB3F0000000000000000000000000000F03F0000000000000000000000000000000000000000000000000000000000000000000000000000000072006F006D0061006E0073002E007300680078000000000062006900670066006F00
310
6E0074002E007300680078000000EC00000026000000ABAAAAAA8AA2554000000000008021C0000000000000000000000000000000000000000000000000000000000000F03F000000000000F03F0000000000000000000000000000000043004D0044004300410031002D0030003500300030005700000000000C00000001
310
0000000000000000000440343333333333EB3F0000000000000000000000000000F03F0000000000000000000000000000000000000000000000000000000000000000000000000000000072006F006D0061006E0073002E007300680078000000000062006900670066006F006E0074002E007300680078000000DC000000
310
26000000DBB66DDBB69A23400000000000802BC0000000000000000000000000000000000000000000000000000000000000F03F000000000000F03F0000000000000000000000000000000031003000300030000000000004000000010000000000000000000440343333333333EB3F0000000000000000000000000000F0
310
3F0000000000000000000000000000000000000000000000000000000000000000000000000000000072006F006D0061006E0073002E007300680078000000000062006900670066006F006E0074002E007300680078000000FC000000260000000CC3300C432E3F400000000000802BC00000000000000000000000000000
310
00000000000000000000000000000000F03F000000000000F03F00000000000000000000000000000000C730A430B830FC30C130A730A430F330B130FC30D630EB304100200031003000300030006D006D000000000014000000010000000000000000000440343333333333EB3F0000000000000000000000000000F03F00
310
00000000000000000000000000000000000000000000000000000000000000000000000000000072006F006D0061006E0073002E007300680078000000000062006900670066006F006E0074002E007300680078000000EC00000026000000ABAAAAAA8AA255400000000000802BC000000000000000000000000000000000
310
0000000000000000000000000000F03F000000000000F03F0000000000000000000000000000000043004D0044004300410031002D0031003000300030005700000000000C000000010000000000000000000440343333333333EB3F0000000000000000000000000000F03F00000000000000000000000000000000000000
310
00000000000000000000000000000000000000000072006F006D0061006E0073002E007300680078000000000062006900670066006F006E0074002E007300680078000000DC000000260000008561188661E423400000000000C032C0000000000000000000000000000000000000000000000000000000000000F03F0000
310
00000000F03F0000000000000000000000000000000033003000300030000000000004000000010000000000000000000440343333333333EB3F0000000000000000000000000000F03F0000000000000000000000000000000000000000000000000000000000000000000000000000000072006F006D0061006E0073002E
310
007300680078000000000062006900670066006F006E0074002E007300680078000000FC000000260000000CC3300C432E3F400000000000C032C0000000000000000000000000000000000000000000000000000000000000F03F000000000000F03F00000000000000000000000000000000C730A430B830FC30C130A730
310
A430F330B130FC30D630EB304100200033003000300030006D006D000000000014000000010000000000000000000440343333333333EB3F0000000000000000000000000000F03F0000000000000000000000000000000000000000000000000000000000000000000000000000000072006F006D0061006E0073002E0073
310
00680078000000000062006900670066006F006E0074002E007300680078000000EC00000026000000ABAAAAAA8AA255400000000000C032C0000000000000000000000000000000000000000000000000000000000000F03F000000000000F03F0000000000000000000000000000000043004D0044004300410031002D00
310
33003000300030005700000000000C000000010000000000000000000440343333333333EB3F0000000000000000000000000000F03F0000000000000000000000000000000000000000000000000000000000000000000000000000000072006F006D0061006E0073002E007300680078000000000062006900670066006F
310
006E0074002E007300680078000000DC000000260000008561188661E423400000000000C037C0000000000000000000000000000000000000000000000000000000000000F03F000000000000F03F000000000000000000000000000000003500300030003000000000000400000001000000000000000000044034333333
310
3333EB3F0000000000000000000000000000F03F0000000000000000000000000000000000000000000000000000000000000000000000000000000072006F006D0061006E0073002E007300680078000000000062006900670066006F006E0074002E007300680078000000FC000000260000000CC3300C432E3F40000000
310
0000C037C0000000000000000000000000000000000000000000000000000000000000F03F000000000000F03F00000000000000000000000000000000C730A430B830FC30C130A730A430F330B130FC30D630EB304100200035003000300030006D006D000000000014000000010000000000000000000440343333333333
310
EB3F0000000000000000000000000000F03F0000000000000000000000000000000000000000000000000000000000000000000000000000000072006F006D0061006E0073002E007300680078000000000062006900670066006F006E0074002E007300680078000000EC00000026000000ABAAAAAA8AA255400000000000
310
C037C0000000000000000000000000000000000000000000000000000000000000F03F000000000000F03F0000000000000000000000000000000043004D0044004300410031002D0035003000300030005700000000000C000000010000000000000000000440343333333333EB3F0000000000000000000000000000F03F
310
0000000000000000000000000000000000000000000000000000000000000000000000000000000072006F006D0061006E0073002E007300680078000000000062006900670066006F006E0074002E0073006800780000000C00000012000000FE7F0000540000002000000002000000000000000000000000000000000000
310
0000000000000000000000000000405D400000000000000000000000000000000000000000000000000000000000000000000000000000F03F5400000020000000020000000000000000405D40000000000000000000000000000000000000000000405D4000000000000039C0000000000000000000000000000000000000
310
000000000000000000000000F03F540000002000000002000000000000000000000000000000000014C000000000000000000000000000405D4000000000000014C0000000000000000000000000000000000000000000000000000000000000F03F540000002000000002000000000000000000000000000000000024C000
310
000000000000000000000000405D4000000000000024C0000000000000000000000000000000000000000000000000000000000000F03F54000000200000000200000000000000000000000000000000002EC000000000000000000000000000405D400000000000002EC00000000000000000000000000000000000000000
310
00000000000000000000F03F540000002000000002000000000000000000000000000000000034C000000000000000000000000000405D4000000000000034C0000000000000000000000000000000000000000000000000000000000000F03F540000002000000002000000000000000000000000000000000039C0000000
310
00000000000000000000405D4000000000000039C0000000000000000000000000000000000000000000000000000000000000F03F540000002000000002000000000000000000000000000000000000000000000000000000000000000000000000000000000039C000000000000000000000000000000000000000000000
310
0000000000000000F03F5400000020000000020000000000000000003C40000000000000000000000000000000000000000000003C4000000000000039C0000000000000000000000000000000000000000000000000000000000000F03F540000002000000002000000000000000080544000000000000000000000000000
310
000000000000000080544000000000000039C0000000000000000000000000000000000000000000000000000000000000F03F080000001F000000880000001D000000000000000000F03F0000000000000000000000000000000000000000000000000000000000000000000000000000F03F000000000000000000000000
310
0000000000000000000000000000000000000000000000000000F03F0000000000000000000000000000000000000000000000000000000000000000000000000000F03F080000001F000000
100
AcDbBlockReference
  2
*T5
 10
92.91176470588236
 20
79.91176470588235
 30
0.0
100
AcDbTable
342
116
343
139
 11
1.0
 21
0.0
 31
0.0
 90
       54
 91
        5
 92
        3
 93
        1
 94
        0
 95
        0
 96
        0
280
     1
141
5.0
141
5.0
141
5.0
141
5.0
141
5.0
142
28.0
142
54.0
142
35.0
171
     1
172
     0
173
     0
174
     0
175
     1
176
     1
 91
        0
178
     0
145
0.0
 92
        0
301
CELL_VALUE
 93
        6
 90
        4
  1
長さL（単位mm）
 94
        0
300

302
長さL（単位mm）
304
ACVALUE_END
171
     1
172
     0
173
     0
174
     0
175
     1
176
     1
 91
        0
178
     0
145
0.0
 92
        0
301
CELL_VALUE
 93
        6
 90
        4
  1
名称
 94
        0
300

302
名称
304
ACVALUE_END
171
     1
172
     0
173
     0
174
     0
175
     1
176
     1
 91
        0
178
     0
145
0.0
 92
        0
301
CELL_VALUE
 93
        6
 90
        4
  1
型番
 94
        0
300

302
型番
304
ACVALUE_END
171
     1
172
     6
173
     0
174
     0
175
     1
176
     1
 91
     6144
178
     0
145
0.0
275
    -1
276
    -1
 92
        0
301
CELL_VALUE
 93
        6
 90
        4
  1
500
 94
        0
300

302
500
304
ACVALUE_END
171
     1
172
    14
173
     0
174
     0
175
     1
176
     1
 91
    14337
178
     8
145
0.0
170
     4
275
    -1
276
    -1
 92
        0
301
CELL_VALUE
 93
        6
 90
        4
  1
  デイジーチェインケーブルA 500mm
 94
        0
300

302
  デイジーチェインケーブルA 500mm
304
ACVALUE_END
171
     1
172
    12
173
     0
174
     0
175
     1
176
     1
 91
    12288
178
     8
145
0.0
276
    -1
 92
        0
301
CELL_VALUE
 93
        6
 90
        4
  1
CMDCA1-0500W
 94
        0
300

302
CMDCA1-0500W
304
ACVALUE_END
171
     1
172
     7
173
     0
174
     0
175
     1
176
     1
 91
     7168
178
     1
145
0.0
275
    -1
276
    -1
 92
        0
301
CELL_VALUE
 93
        6
 90
        4
  1
1000
 94
        0
300

302
1000
304
ACVALUE_END
171
     1
172
    15
173
     0
174
     0
175
     1
176
     1
 91
    15360
178
     9
145
0.0
275
    -1
276
    -1
 92
        0
301
CELL_VALUE
 93
        6
 90
        4
  1
デイジーチェインケーブルA 1000mm
 94
        0
300

302
デイジーチェインケーブルA 1000mm
304
ACVALUE_END
171
     1
172
    13
173
     0
174
     0
175
     1
176
     1
 91
    13312
178
     9
145
0.0
276
    -1
 92
        0
301
CELL_VALUE
 93
        6
 90
        4
  1
CMDCA1-1000W
 94
        0
300

302
CMDCA1-1000W
304
ACVALUE_END
171
     1
172
     7
173
     0
174
     0
175
     1
176
     1
 91
     7168
178
     1
145
0.0
275
    -1
276
    -1
 92
        0
301
CELL_VALUE
 93
        6
 90
        4
  1
3000
 94
        0
300

302
3000
304
ACVALUE_END
171
     1
172
    15
173
     0
174
     0
175
     1
176
     1
 91
    15360
178
     9
145
0.0
275
    -1
276
    -1
 92
        0
301
CELL_VALUE
 93
        6
 90
        4
  1
デイジーチェインケーブルA 3000mm
 94
        0
300

302
デイジーチェインケーブルA 3000mm
304
ACVALUE_END
171
     1
172
    13
173
     0
174
     0
175
     1
176
     1
 91
    13312
178
     9
145
0.0
276
    -1
 92
        0
301
CELL_VALUE
 93
        6
 90
        4
  1
CMDCA1-3000W
 94
        0
300

302
CMDCA1-3000W
304
ACVALUE_END
171
     1
172
     3
173
     0
174
     0
175
     1
176
     1
 91
     3072
178
     1
145
0.0
275
    -1
 92
        0
301
CELL_VALUE
 93
        6
 90
        4
  1
5000
 94
        0
300

302
5000
304
ACVALUE_END
171
     1
172
    11
173
     0
174
     0
175
     1
176
     1
 91
    11264
178
     9
145
0.0
275
    -1
 92
        0
301
CELL_VALUE
 93
        6
 90
        4
  1
デイジーチェインケーブルA 5000mm
 94
        0
300

302
デイジーチェインケーブルA 5000mm
304
ACVALUE_END
171
     1
172
     9
173
     0
174
     0
175
     1
176
     1
 91
     9216
178
     9
145
0.0
 92
        0
301
CELL_VALUE
 93
        6
 90
        4
  1
CMDCA1-5000W
 94
        0
300

302
CMDCA1-5000W
304
ACVALUE_END
  0
DIMENSION
  5
215
102
{ACAD_XDICTIONARY
360
216
102
}
330
18
100
AcDbEntity
  8
DIMS
100
AcDbDimension
  2
*D11
 10
44.34999999999916
 20
120.1000000000014
 30
0.0
 11
44.34999999999916
 21
124.7976094117646
 31
0.0
 70
   160
 71
     5
 42
9.799999999998306
 73
     0
 74
     1
 75
     1
  3
STANDARD
100
AcDbAlignedDimension
 13
61.89999999999986
 23
129.8999999999997
 33
0.0
 14
55.86037542814734
 24
120.1000000000014
 34
0.0
 50
90.0
100
AcDbRotatedDimension
1001
ENABLE_CUSTOM_SPLIT
1070
     1
  0
DIMENSION
  5
218
102
{ACAD_XDICTIONARY
360
219
102
}
330
18
100
AcDbEntity
  8
DIMS
100
AcDbDimension
  2
*D12
 10
61.89999999999986
 20
148.3499999999997
 30
0.0
 11
58.4850331088514
 21
148.3499999999997
 31
0.0
 70
   160
 71
     5
 42
6.899999999999636
 73
     0
 74
     1
 75
     1
  3
STANDARD
100
AcDbAlignedDimension
 13
55.00000000000023
 23
128.9999999999997
 33
0.0
 14
61.89999999999986
 24
129.8999999999997
 34
0.0
100
AcDbRotatedDimension
1001
ENABLE_CUSTOM_SPLIT
1070
     1
1001
ACAD
1000
DSTYLE
1002
{
1070
   290
1070
     0
1002
}
  0
MTEXT
  5
21B
330
18
100
AcDbEntity
  8
DIMS
100
AcDbMText
 10
55.11783663833138
 20
117.1014867981171
 30
0.0
 40
2.0
 41
18.52306547619048
 46
6.666666666666667
 71
     1
 72
     1
  1
{XAP-03V-1\P（JST）}
  7
Bom
 73
     1
 44
1.0
1001
ACAD
1000
ACAD_MTEXT_DEFINED_HEIGHT_BEGIN
1070
    46
1040
6.666666666666667
1000
ACAD_MTEXT_DEFINED_HEIGHT_END
  0
INSERT
  5
21C
330
18
100
AcDbEntity
  8
OBJECT
100
AcDbBlockReference
  2
A$C30636
 10
61.89999999999986
 20
124.9999999999997
 30
0.0
  0
LINE
  5
555
102
{ACAD_REACTORS
330
7D5
330
7F5
102
}
330
18
100
AcDbEntity
  8
OBJECT
100
AcDbLine
 10
251.3345084688648
 20
129.1000000000998
 30
0.0
 11
251.3345084688648
 21
129.9999999999999
 31
0.0
  0
LINE
  5
556
330
18
100
AcDbEntity
  8
OBJECT
100
AcDbLine
 10
245.5345084681648
 20
129.0999999999998
 30
0.0
 11
251.3345084688648
 21
129.1000000000998
 31
0.0
  0
LINE
  5
557
330
18
100
AcDbEntity
  8
OBJECT
100
AcDbLine
 10
245.5345084681648
 20
129.0999999999998
 30
0.0
 11
245.5345084681648
 21
127.5000000004499
 31
0.0
  0
LINE
  5
558
330
18
100
AcDbEntity
  8
OBJECT
100
AcDbLine
 10
244.7345084688648
 20
129.9999999999999
 30
0.0
 11
251.3345084688648
 21
129.9999999999999
 31
0.0
  0
LINE
  5
559
330
18
100
AcDbEntity
  8
OBJECT
100
AcDbLine
 10
244.7345084688648
 20
127.4999999999999
 30
0.0
 11
245.5345084681648
 21
127.5000000004499
 31
0.0
  0
LINE
  5
55A
102
{ACAD_REACTORS
330
7F5
102
}
330
18
100
AcDbEntity
  8
OBJECT
100
AcDbLine
 10
244.7345084688648
 20
127.4999999999999
 30
0.0
 11
244.7345084688648
 21
129.9999999999999
 31
0.0
  0
LINE
  5
55B
330
18
100
AcDbEntity
  8
OBJECT
100
AcDbLine
 10
251.3345084688648
 20
120.8999999997999
 30
0.0
 11
245.5345084681648
 21
120.8999999999999
 31
0.0
  0
LINE
  5
55C
330
18
100
AcDbEntity
  8
OBJECT
100
AcDbLine
 10
251.3345084688648
 20
120.8999999997999
 30
0.0
 11
251.3345084688648
 21
119.9999999999998
 31
0.0
  0
LINE
  5
55D
330
18
100
AcDbEntity
  8
OBJECT
100
AcDbLine
 10
245.5345084681648
 20
120.8999999999999
 30
0.0
 11
245.5345084681648
 21
122.4999999995499
 31
0.0
  0
LINE
  5
55E
330
18
100
AcDbEntity
  8
OBJECT
100
AcDbLine
 10
244.7345084688648
 20
122.4999999999999
 30
0.0
 11
245.5345084681648
 21
122.4999999995499
 31
0.0
  0
LINE
  5
55F
102
{ACAD_REACTORS
330
7D5
102
}
330
18
100
AcDbEntity
  8
OBJECT
100
AcDbLine
 10
251.3345084688648
 20
119.9999999999998
 30
0.0
 11
244.7345084688648
 21
119.9999999999998
 31
0.0
  0
LINE
  5
560
330
18
100
AcDbEntity
  8
OBJECT
100
AcDbLine
 10
244.7345084688648
 20
119.9999999999998
 30
0.0
 11
244.7345084688648
 21
122.4999999999999
 31
0.0
  0
LINE
  5
561
330
18
100
AcDbEntity
  8
OBJECT
100
AcDbLine
 10
245.5345084688648
 20
122.4999999995499
 30
0.0
 11
245.5345084688648
 21
127.5000000004499
 31
0.0
  0
LINE
  5
562
330
18
100
AcDbEntity
  8
OBJECT
100
AcDbLine
 10
244.7345084688648
 20
122.4999999999999
 30
0.0
 11
244.7345084688648
 21
127.4999999999999
 31
0.0
  0
LINE
  5
5A5
330
18
100
AcDbEntity
  8
OBJECT
100
AcDbLine
 10
250.3345084686148
 20
127.4000000005998
 30
0.0
 11
251.3345084688648
 21
127.4000000003498
 31
0.0
  0
LINE
  5
5A6
330
18
100
AcDbEntity
  8
OBJECT
100
AcDbLine
 10
250.3345084686148
 20
127.4000000005998
 30
0.0
 11
250.3345084686148
 21
122.5999999996498
 31
0.0
  0
LINE
  5
5A7
330
18
100
AcDbEntity
  8
OBJECT
100
AcDbLine
 10
251.3345084688648
 20
122.5999999996498
 30
0.0
 11
250.3345084686148
 21
122.5999999996498
 31
0.0
  0
LINE
  5
5A8
330
18
100
AcDbEntity
  8
OBJECT
100
AcDbLine
 10
249.8345084678648
 20
129.0999999999998
 30
0.0
 11
249.8345084683648
 21
120.8999999999999
 31
0.0
  0
LINE
  5
5A9
330
18
100
AcDbEntity
  8
OBJECT
100
AcDbLine
 10
251.3345084688648
 20
129.1000000001999
 30
0.0
 11
251.3345084688648
 21
127.4000000003498
 31
0.0
  0
LINE
  5
5AA
330
18
100
AcDbEntity
  8
OBJECT
100
AcDbLine
 10
251.3345084688648
 20
122.5999999996498
 30
0.0
 11
251.3345084688648
 21
120.8999999998998
 31
0.0
  0
LINE
  5
5AB
330
18
100
AcDbEntity
  8
OBJECT
100
AcDbLine
 10
250.3345084688648
 20
125.8000000005665
 30
0.0
 11
250.9345084688648
 21
125.7999999999998
 31
0.0
  0
LINE
  5
5AD
330
18
100
AcDbEntity
  8
OBJECT
100
AcDbLine
 10
250.9345084688648
 20
124.1999999999998
 30
0.0
 11
250.3345084688648
 21
124.1999999996832
 31
0.0
  0
LINE
  5
5AE
330
18
100
AcDbEntity
  8
OBJECT
100
AcDbLine
 10
244.5845084688648
 20
124.6999999999998
 30
0.0
 11
244.7345084688648
 21
124.6999999999677
 31
0.0
  0
LINE
  5
5AF
330
18
100
AcDbEntity
  8
OBJECT
100
AcDbLine
 10
244.5845084688648
 20
124.6999999999998
 30
0.0
 11
244.5845084688648
 21
125.2999999999998
 31
0.0
  0
LINE
  5
5B0
330
18
100
AcDbEntity
  8
OBJECT
100
AcDbLine
 10
244.7345084688648
 20
125.300000000032
 30
0.0
 11
244.5845084688648
 21
125.2999999999998
 31
0.0
  0
LINE
  5
716
330
18
100
AcDbEntity
  8
OBJECT
100
AcDbLine
 10
247.3389562177854
 20
128.0124999978947
 30
0.0
 11
247.3389562177854
 21
128.4999999978948
 31
0.0
  0
LINE
  5
717
330
18
100
AcDbEntity
  8
OBJECT
100
AcDbLine
 10
247.3389562177854
 20
126.5499999978947
 30
0.0
 11
248.5653218367316
 21
126.5499999978947
 31
0.0
  0
LINE
  5
718
330
18
100
AcDbEntity
  8
OBJECT
100
AcDbLine
 10
246.7653218367316
 20
128.0124999978947
 30
0.0
 11
247.3389562177854
 21
128.0124999978947
 31
0.0
  0
LINE
  5
719
330
18
100
AcDbEntity
  8
OBJECT
100
AcDbLine
 10
246.7653218367316
 20
127.0374999978948
 30
0.0
 11
247.3389562177854
 21
127.0374999978948
 31
0.0
  0
LINE
  5
71A
330
18
100
AcDbEntity
  8
OBJECT
100
AcDbLine
 10
246.7653218367316
 20
127.0374999978948
 30
0.0
 11
246.7653218367316
 21
128.0124999978947
 31
0.0
  0
LINE
  5
71B
330
18
100
AcDbEntity
  8
OBJECT
100
AcDbLine
 10
246.7653218367316
 20
128.0124999978947
 30
0.0
 11
246.7653218367316
 21
127.0374999978948
 31
0.0
  0
LINE
  5
71C
330
18
100
AcDbEntity
  8
OBJECT
100
AcDbLine
 10
247.3389562177854
 20
127.0374999978948
 30
0.0
 11
247.3389562177854
 21
126.5499999978947
 31
0.0
  0
LINE
  5
71D
330
18
100
AcDbEntity
  8
OBJECT
100
AcDbLine
 10
248.5653218367316
 20
128.4999999978948
 30
0.0
 11
247.3389562177854
 21
128.4999999978948
 31
0.0
  0
LINE
  5
71E
330
18
100
AcDbEntity
  8
OBJECT
100
AcDbLine
 10
248.5653218367316
 20
126.5499999978947
 30
0.0
 11
248.5653218367316
 21
128.4999999978948
 31
0.0
  0
LINE
  5
71F
330
18
100
AcDbEntity
  8
OBJECT
100
AcDbLine
 10
248.5653218367316
 20
125.9999999978948
 30
0.0
 11
247.3389562177854
 21
125.9999999978948
 31
0.0
  0
LINE
  5
720
330
18
100
AcDbEntity
  8
OBJECT
100
AcDbLine
 10
247.3389562177854
 20
125.5124999978947
 30
0.0
 11
247.3389562177854
 21
125.9999999978948
 31
0.0
  0
LINE
  5
721
330
18
100
AcDbEntity
  8
OBJECT
100
AcDbLine
 10
246.7653218367316
 20
125.5124999978947
 30
0.0
 11
247.3389562177854
 21
125.5124999978947
 31
0.0
  0
LINE
  5
722
330
18
100
AcDbEntity
  8
OBJECT
100
AcDbLine
 10
246.7653218367316
 20
125.5124999978947
 30
0.0
 11
246.7653218367316
 21
124.5374999978948
 31
0.0
  0
LINE
  5
723
330
18
100
AcDbEntity
  8
OBJECT
100
AcDbLine
 10
246.7653218367316
 20
124.5374999978948
 30
0.0
 11
246.7653218367316
 21
125.5124999978947
 31
0.0
  0
LINE
  5
729
102
{ACAD_REACTORS
102
}
330
18
100
AcDbEntity
  8
OBJECT
100
AcDbLine
 10
248.5653218367316
 20
124.0499999978947
 30
0.0
 11
248.5653218367316
 21
125.9999999978948
 31
0.0
  0
LINE
  5
72A
330
18
100
AcDbEntity
  8
OBJECT
100
AcDbLine
 10
247.3389562177854
 20
124.0499999978947
 30
0.0
 11
248.5653218367316
 21
124.0499999978947
 31
0.0
  0
LINE
  5
72B
330
18
100
AcDbEntity
  8
OBJECT
100
AcDbLine
 10
246.7653218367316
 20
124.5374999978948
 30
0.0
 11
247.3389562177854
 21
124.5374999978948
 31
0.0
  0
LINE
  5
72C
330
18
100
AcDbEntity
  8
OBJECT
100
AcDbLine
 10
247.3389562177854
 20
124.5374999978948
 30
0.0
 11
247.3389562177854
 21
124.0499999978947
 31
0.0
  0
LINE
  5
72D
330
18
100
AcDbEntity
  8
OBJECT
100
AcDbLine
 10
246.7653218367316
 20
122.0374999978948
 30
0.0
 11
246.7653218367316
 21
123.0124999978947
 31
0.0
  0
LINE
  5
72E
330
18
100
AcDbEntity
  8
OBJECT
100
AcDbLine
 10
246.7653218367316
 20
123.0124999978947
 30
0.0
 11
246.7653218367316
 21
122.0374999978948
 31
0.0
  0
LINE
  5
72F
330
18
100
AcDbEntity
  8
OBJECT
100
AcDbLine
 10
248.5653218367316
 20
121.5499999978947
 30
0.0
 11
248.5653218367316
 21
123.4999999978948
 31
0.0
  0
LINE
  5
730
330
18
100
AcDbEntity
  8
OBJECT
100
AcDbLine
 10
248.5653218367316
 20
123.4999999978948
 30
0.0
 11
247.3389562177854
 21
123.4999999978948
 31
0.0
  0
LINE
  5
731
330
18
100
AcDbEntity
  8
OBJECT
100
AcDbLine
 10
246.7653218367316
 20
123.0124999978947
 30
0.0
 11
247.3389562177854
 21
123.0124999978947
 31
0.0
  0
LINE
  5
732
330
18
100
AcDbEntity
  8
OBJECT
100
AcDbLine
 10
247.3389562177854
 20
123.0124999978947
 30
0.0
 11
247.3389562177854
 21
123.4999999978948
 31
0.0
  0
LINE
  5
733
330
18
100
AcDbEntity
  8
OBJECT
100
AcDbLine
 10
247.3389562177854
 20
122.0374999978948
 30
0.0
 11
247.3389562177854
 21
121.5499999978947
 31
0.0
  0
LINE
  5
734
330
18
100
AcDbEntity
  8
OBJECT
100
AcDbLine
 10
247.3389562177854
 20
121.5499999978947
 30
0.0
 11
248.5653218367316
 21
121.5499999978947
 31
0.0
  0
LINE
  5
735
330
18
100
AcDbEntity
  8
OBJECT
100
AcDbLine
 10
246.7653218367316
 20
122.0374999978948
 30
0.0
 11
247.3389562177854
 21
122.0374999978948
 31
0.0
  0
MTEXT
  5
7D2
330
18
100
AcDbEntity
  8
DIMS
100
AcDbMText
 10
243.043044939453
 20
115.9900309085898
 30
0.0
 40
2.0
 41
18.52306547619048
 46
6.666666666666667
 71
     1
 72
     1
  1
{XARR-03VF\P（JST）}
  7
Bom
 73
     1
 44
1.0
1001
ACAD
1000
ACAD_MTEXT_DEFINED_HEIGHT_BEGIN
1070
    46
1040
6.666666666666667
1000
ACAD_MTEXT_DEFINED_HEIGHT_END
  0
DIMENSION
  5
7D3
102
{ACAD_REACTORS
330
7D5
102
}
102
{ACAD_XDICTIONARY
360
7D4
102
}
330
18
100
AcDbEntity
  8
DIMS
100
AcDbDimension
  2
*D22
 10
261.4845084688648
 20
119.9999999999998
 30
0.0
 11
261.4845084688648
 21
125.4047811764704
 31
0.0
 70
   160
 71
     5
 42
10.00000000000011
 73
     0
 74
     1
 75
     1
  3
STANDARD
100
AcDbAlignedDimension
 13
251.3345084688648
 23
129.9999999999999
 33
0.0
 14
251.3345084688648
 24
119.9999999999998
 34
0.0
 50
90.0
100
AcDbRotatedDimension
1001
ENABLE_CUSTOM_SPLIT
1070
     1
  0
DIMENSION
  5
7E3
102
{ACAD_REACTORS
330
7E5
102
}
102
{ACAD_XDICTIONARY
360
7E4
102
}
330
18
100
AcDbEntity
  8
DIMS
100
AcDbDimension
  2
*D23
 10
226.6000000000001
 20
148.0327443178447
 30
0.0
 11
215.8000000000001
 21
149.9327443178447
 31
0.0
 70
    32
 71
     5
 42
21.60000000000002
 73
     0
 74
     0
 75
     0
  3
STANDARD
100
AcDbAlignedDimension
 13
205.0000000000001
 23
129.9499999999999
 33
0.0
 14
226.6000000000001
 24
129.9999999999999
 34
0.0
100
AcDbRotatedDimension
1001
ENABLE_CUSTOM_SPLIT
1070
     1
  0
DIMENSION
  5
7F3
102
{ACAD_REACTORS
330
7F5
102
}
102
{ACAD_XDICTIONARY
360
7F4
102
}
330
18
100
AcDbEntity
  8
DIMS
100
AcDbDimension
  2
*D24
 10
251.3345084688648
 20
148.0327443178447
 30
0.0
 11
248.0345084688648
 21
149.9327443178447
 31
0.0
 70
    32
 71
     5
 42
6.599999999999994
 73
     0
 74
     1
 75
     1
  3
STANDARD
100
AcDbAlignedDimension
 13
244.7345084688648
 23
129.9999999999999
 33
0.0
 14
251.3345084688648
 24
129.9999999999999
 34
0.0
100
AcDbRotatedDimension
1001
ENABLE_CUSTOM_SPLIT
1070
     1
  0
DIMENSION
  5
80B
102
{ACAD_REACTORS
330
80D
102
}
102
{ACAD_XDICTIONARY
360
80C
102
}
330
18
100
AcDbEntity
  8
DIMS
100
AcDbDimension
  2
*D25
 10
85.0
 20
148.0880199281976
 30
0.0
 11
81.19999999999993
 21
149.9880199281976
 31
0.0
 70
    32
 71
     5
 42
7.600000000000136
 73
     0
 74
     1
 75
     1
  3
STANDARD
100
AcDbAlignedDimension
 13
77.39999999999986
 23
128.2799999999999
 33
0.0
 14
85.0
 24
128.9199999999999
 34
0.0
100
AcDbRotatedDimension
1001
ENABLE_CUSTOM_SPLIT
1070
     1
  0
DIMENSION
  5
829
102
{ACAD_XDICTIONARY
360
82A
102
}
330
18
100
AcDbEntity
  8
DIMS
100
AcDbDimension
  2
*D26
 10
143.7323079982766
 20
122.9499999999998
 30
0.0
 11
143.7323079982766
 21
136.0351934523808
 31
0.0
 70
   160
  1
Φ<>
 71
     5
 42
4.100000000000108
 73
     0
 74
     0
 75
     0
  3
STANDARD
100
AcDbAlignedDimension
 13
142.0
 23
127.0499999999999
 33
0.0
 14
142.0
 24
122.9499999999998
 34
0.0
 50
90.0
100
AcDbRotatedDimension
1001
ENABLE_CUSTOM_SPLIT
1070
     1
  0
LINE
  5
913
330
18
100
AcDbEntity
  8
OBJECT
100
AcDbLine
 10
248.2653218367316
 20
122.7749999999999
 30
0.0
 11
248.2653218367316
 21
122.2749999957897
 31
0.0
  0
LINE
  5
914
330
18
100
AcDbEntity
  8
OBJECT
100
AcDbLine
 10
247.7653218367316
 20
127.2749999999999
 30
0.0
 11
247.7653218367316
 21
127.7749999999999
 31
0.0
  0
LINE
  5
915
330
18
100
AcDbEntity
  8
OBJECT
100
AcDbLine
 10
248.2653218367316
 20
127.7749999999999
 30
0.0
 11
248.2653218367316
 21
127.2749999999999
 31
0.0
  0
LINE
  5
916
102
{ACAD_REACTORS
102
}
330
18
100
AcDbEntity
  8
OBJECT
100
AcDbLine
 10
248.2653218367316
 20
125.2749999999999
 30
0.0
 11
248.2653218367316
 21
124.7749999957897
 31
0.0
  0
LINE
  5
917
330
18
100
AcDbEntity
  8
OBJECT
100
AcDbLine
 10
247.7653218367316
 20
122.2749999999807
 30
0.0
 11
247.7653218367316
 21
122.7749999999999
 31
0.0
  0
LINE
  5
918
330
18
100
AcDbEntity
  8
OBJECT
100
AcDbLine
 10
247.7653218367316
 20
124.7749999999807
 30
0.0
 11
247.7653218367316
 21
125.2749999999999
 31
0.0
  0
LINE
  5
919
330
18
100
AcDbEntity
  8
OBJECT
100
AcDbLine
 10
248.1653218372316
 20
122.175
 30
0.0
 11
247.8653218367111
 21
122.175
 31
0.0
  0
LINE
  5
91A
330
18
100
AcDbEntity
  8
OBJECT
100
AcDbLine
 10
247.8653218367294
 20
122.8749999999999
 30
0.0
 11
248.1653218367294
 21
122.8749999999999
 31
0.0
  0
LINE
  5
91B
330
18
100
AcDbEntity
  8
OBJECT
100
AcDbLine
 10
247.8653218367316
 20
127.8749999999999
 30
0.0
 11
248.1653218367316
 21
127.8749999999999
 31
0.0
  0
LINE
  5
91C
330
18
100
AcDbEntity
  8
OBJECT
100
AcDbLine
 10
248.1653218372316
 20
124.675
 30
0.0
 11
247.8653218367111
 21
124.675
 31
0.0
  0
LINE
  5
91D
330
18
100
AcDbEntity
  8
OBJECT
100
AcDbLine
 10
248.1653218367316
 20
127.175
 30
0.0
 11
247.8653218367316
 21
127.175
 31
0.0
  0
LINE
  5
91E
330
18
100
AcDbEntity
  8
OBJECT
100
AcDbLine
 10
247.8653218367295
 20
125.3749999999999
 30
0.0
 11
248.1653218367294
 21
125.3749999999999
 31
0.0
  0
ARC
  5
91F
330
18
100
AcDbEntity
  8
OBJECT
100
AcDbCircle
 10
247.8653218367316
 20
127.2749999999999
 30
0.0
 40
0.1
100
AcDbArc
 50
180.0
 51
270.0
  0
ARC
  5
920
330
18
100
AcDbEntity
  8
OBJECT
100
AcDbCircle
 10
248.1653218367316
 20
127.2749999999999
 30
0.0
 40
0.1
100
AcDbArc
 50
270.0
 51
0.0
  0
ARC
  5
921
330
18
100
AcDbEntity
  8
OBJECT
100
AcDbCircle
 10
247.8653218367316
 20
127.7749999999999
 30
0.0
 40
0.1
100
AcDbArc
 50
90.0
 51
180.0
  0
ARC
  5
922
330
18
100
AcDbEntity
  8
OBJECT
100
AcDbCircle
 10
248.1653218367316
 20
127.7749999999999
 30
0.0
 40
0.1
100
AcDbArc
 50
0.0
 51
90.0
  0
ARC
  5
923
330
18
100
AcDbEntity
  8
OBJECT
100
AcDbCircle
 10
248.1653218367294
 20
124.7749999999999
 30
0.0
 40
0.1
100
AcDbArc
 50
270.0
 51
0.0
  0
ARC
  5
924
330
18
100
AcDbEntity
  8
OBJECT
100
AcDbCircle
 10
247.8653218367295
 20
124.7749999999999
 30
0.0
 40
0.1
100
AcDbArc
 50
180.0
 51
270.0
  0
ARC
  5
925
330
18
100
AcDbEntity
  8
OBJECT
100
AcDbCircle
 10
247.8653218367295
 20
125.2749999999999
 30
0.0
 40
0.1
100
AcDbArc
 50
90.0
 51
180.0
  0
ARC
  5
926
330
18
100
AcDbEntity
  8
OBJECT
100
AcDbCircle
 10
248.1653218367294
 20
125.2749999999999
 30
0.0
 40
0.1
100
AcDbArc
 50
0.0
 51
90.0
  0
ARC
  5
927
330
18
100
AcDbEntity
  8
OBJECT
100
AcDbCircle
 10
248.1653218367294
 20
122.2749999999999
 30
0.0
 40
0.1
100
AcDbArc
 50
270.0
 51
0.0
  0
ARC
  5
928
330
18
100
AcDbEntity
  8
OBJECT
100
AcDbCircle
 10
247.8653218367294
 20
122.2749999999999
 30
0.0
 40
0.1
100
AcDbArc
 50
180.0
 51
270.0
  0
ARC
  5
929
330
18
100
AcDbEntity
  8
OBJECT
100
AcDbCircle
 10
247.8653218367294
 20
122.7749999999999
 30
0.0
 40
0.1
100
AcDbArc
 50
90.0
 51
180.0
  0
ARC
  5
92A
330
18
100
AcDbEntity
  8
OBJECT
100
AcDbCircle
 10
248.1653218367294
 20
122.7749999999999
 30
0.0
 40
0.1
100
AcDbArc
 50
0.0
 51
90.0
  0
ENDSEC
  0
SECTION
  2
OBJECTS
  0
DICTIONARY
  5
A
330
0
100
AcDbDictionary
281
     1
  3
ACAD_COLOR
350
2E
  3
ACAD_DETAILVIEWSTYLE
350
B8
  3
ACAD_GROUP
350
2C
  3
ACAD_LAYOUT
350
1D
  3
ACAD_MATERIAL
350
C
  3
ACAD_MLEADERSTYLE
350
B6
  3
ACAD_MLINESTYLE
350
28
  3
ACAD_PLOTSETTINGS
350
2D
  3
ACAD_PLOTSTYLENAME
350
9
  3
ACAD_SCALELIST
350
34
  3
ACAD_SECTIONVIEWSTYLE
350
B9
  3
ACAD_TABLESTYLE
350
B5
  3
ACAD_VISUALSTYLE
350
2F
  3
ACDB_RECOMPOSE_DATA
350
943
  3
AcDbVariableDictionary
350
B3
  3
APPDATA
350
D3
  0
SUN
  5
32
330
30
100
AcDbSun
 90
        1
290
     0
 63
     7
421
 16777215
 40
1.0
291
     1
 91
  2455826
 92
 54000000
292
     0
 70
     2
 71
   256
280
     1
  0
DICTIONARY
  5
3
330
2
100
AcDbDictionary
280
     1
281
     1
  3
ACAD_LAYERSTATES
360
4
  3
ACLYDICTIONARY
360
5
  0
DICTIONARY
  5
B1
330
18
100
AcDbDictionary
280
     1
281
     1
  3
ACAD_SORTENTS
360
40C
  3
DIM_BOUNDING_BOXES_V1
360
B2
  0
DICTIONARY
  5
18D
330
18C
100
AcDbDictionary
280
     1
281
     1
  3
DIM_BOUNDING_BOXES_V1
360
18E
  0
DICTIONARY
  5
A3
330
A2
100
AcDbDictionary
280
     1
281
     1
  3
ACAD_DIMASSOC
360
A4
  0
DICTIONARY
  5
216
330
215
100
AcDbDictionary
280
     1
281
     1
  3
ACAD_CUSTOM_BREAKDATA
360
827
  0
DICTIONARY
  5
219
330
218
100
AcDbDictionary
280
     1
281
     1
  3
ACAD_CUSTOM_BREAKDATA
360
828
  0
DICTIONARY
  5
7D4
330
7D3
100
AcDbDictionary
280
     1
281
     1
  3
ACAD_CUSTOM_BREAKDATA
360
857
  3
ACAD_DIMASSOC
360
7D5
  0
DICTIONARY
  5
7E4
330
7E3
100
AcDbDictionary
280
     1
281
     1
  3
ACAD_CUSTOM_BREAKDATA
360
7F2
  3
ACAD_DIMASSOC
360
7E5
  0
DICTIONARY
  5
7F4
330
7F3
100
AcDbDictionary
280
     1
281
     1
  3
ACAD_CUSTOM_BREAKDATA
360
805
  3
ACAD_DIMASSOC
360
7F5
  0
DICTIONARY
  5
80C
330
80B
100
AcDbDictionary
280
     1
281
     1
  3
ACAD_CUSTOM_BREAKDATA
360
81D
  3
ACAD_DIMASSOC
360
80D
  0
DICTIONARY
  5
82A
330
829
100
AcDbDictionary
280
     1
281
     1
  3
ACAD_CUSTOM_BREAKDATA
360
83C
  0
DICTIONARY
  5
2E
102
{ACAD_REACTORS
330
A
102
}
330
A
100
AcDbDictionary
281
     1
  0
DICTIONARY
  5
B8
102
{ACAD_REACTORS
330
A
102
}
330
A
100
AcDbDictionary
281
     1
  0
DICTIONARY
  5
2C
102
{ACAD_REACTORS
330
A
102
}
330
A
100
AcDbDictionary
281
     1
  0
DICTIONARY
  5
1D
102
{ACAD_REACTORS
330
A
102
}
330
A
100
AcDbDictionary
281
     1
  3
Model
350
1C
  3
ﾚｲｱｳﾄ1
350
21
  0
DICTIONARY
  5
C
102
{ACAD_REACTORS
330
A
102
}
330
A
100
AcDbDictionary
281
     1
  3
ByBlock
350
58
  3
ByLayer
350
57
  3
Global
350
B
  0
DICTIONARY
  5
B6
102
{ACAD_REACTORS
330
A
102
}
330
A
100
AcDbDictionary
281
     1
  3
Standard
350
D2
  0
DICTIONARY
  5
28
102
{ACAD_REACTORS
330
A
102
}
330
A
100
AcDbDictionary
281
     1
  3
STANDARD
350
27
  0
DICTIONARY
  5
2D
102
{ACAD_REACTORS
330
A
102
}
330
A
100
AcDbDictionary
281
     1
  0
ACDBDICTIONARYWDFLT
  5
9
102
{ACAD_REACTORS
330
A
102
}
330
A
100
AcDbDictionary
281
     1
  3
Normal
350
8
100
AcDbDictionaryWithDefault
340
8
  0
DICTIONARY
  5
34
102
{ACAD_REACTORS
330
A
102
}
330
A
100
AcDbDictionary
281
     1
  3
*A1
350
56
  0
DICTIONARY
  5
B9
102
{ACAD_REACTORS
330
A
102
}
330
A
100
AcDbDictionary
281
     1
  0
DICTIONARY
  5
B5
102
{ACAD_REACTORS
330
A
102
}
330
A
100
AcDbDictionary
281
     1
  3
Standard
350
D1
  3
部品表
350
116
  0
DICTIONARY
  5
2F
102
{ACAD_REACTORS
330
A
102
}
330
A
100
AcDbDictionary
281
     1
  3
2dWireframe
350
31
  3
Basic
350
C0
  3
Brighten
350
C4
  3
ColorChange
350
C8
  3
Conceptual
350
C2
  3
Dim
350
C3
  3
EdgeColorOff
350
CB
  3
Facepattern
350
C7
  3
Flat
350
BA
  3
FlatWithEdges
350
BB
  3
Gouraud
350
BC
  3
GouraudWithEdges
350
BD
  3
Hidden
350
BF
  3
JitterOff
350
C9
  3
Linepattern
350
C6
  3
OverhangOff
350
CA
  3
Realistic
350
C1
  3
Shaded
350
D0
  3
Shaded with edges
350
CF
  3
Shades of Gray
350
CC
  3
Sketchy
350
CD
  3
Thicken
350
C5
  3
Wireframe
350
BE
  3
X-Ray
350
CE
  0
XRECORD
  5
943
102
{ACAD_REACTORS
330
A
102
}
330
A
100
AcDbXrecord
280
     1
 90
        1
330
116
330
D1
  0
DICTIONARY
  5
B3
102
{ACAD_REACTORS
330
A
102
}
330
A
100
AcDbDictionary
281
     1
  3
CANNOSCALE
350
B4
  3
CMLEADERSTYLE
350
102
  3
CTABLESTYLE
350
101
  3
XCLIPFRAME
350
B7
  0
DICTIONARY
  5
D3
102
{ACAD_REACTORS
330
A
102
}
330
A
100
AcDbDictionary
281
     1
  0
DICTIONARY
  5
4
102
{ACAD_REACTORS
330
3
102
}
330
3
100
AcDbDictionary
281
     1
  0
DICTIONARY
  5
5
102
{ACAD_REACTORS
330
3
102
}
330
3
100
AcDbDictionary
281
     1
1001
ACAD
1000
<All
  0
SORTENTSTABLE
  5
40C
102
{ACAD_REACTORS
330
B1
102
}
330
B1
100
AcDbSortentsTable
330
18
331
0
  5
35F
  0
DICTIONARY
  5
B2
102
{ACAD_REACTORS
330
B1
102
}
330
B1
100
AcDbDictionary
281
     1
  0
DICTIONARY
  5
18E
102
{ACAD_REACTORS
330
18D
102
}
330
18D
100
AcDbDictionary
281
     1
  0
DIMASSOC
  5
A4
102
{ACAD_REACTORS
330
A3
102
}
330
A3
100
AcDbDimAssoc
330
A2
 90
        3
 70
     0
 71
     1
  1
AcDbOsnapPointRef
 72
     1
331
70
331
7C
 73
     0
 91
        0
 40
0.0
 10
0.0
 20
0.0
 30
0.0
 75
     0
  1
AcDbOsnapPointRef
 72
    13
331
89
331
9D
 73
     0
 91
        0
 40
0.0
 10
0.0
 20
0.0
 30
0.0
 75
     0
  0
BREAKDATA
  5
827
102
{ACAD_REACTORS
330
216
102
}
330
216
100
AcDbBreakData
 70
     0
330
215
 90
        3
100
AcDbBreakPointRef
 71
     0
 72
     0
 91
       -1
 10
0.0
 20
0.0
 30
0.0
 11
0.0
 21
0.0
 31
0.0
331
218
 73
     2
 92
        0
100
AcDbBreakPointRef
 71
     0
 72
     0
 91
       -1
 10
0.0
 20
0.0
 30
0.0
 11
0.0
 21
0.0
 31
0.0
331
21B
 73
     2
 92
        0
100
AcDbBreakPointRef
 71
     0
 72
     0
 91
       -1
 10
0.0
 20
0.0
 30
0.0
 11
0.0
 21
0.0
 31
0.0
331
21C
 73
     2
 92
        0
  0
BREAKDATA
  5
828
102
{ACAD_REACTORS
330
219
102
}
330
219
100
AcDbBreakData
 70
     0
330
218
 90
        3
100
AcDbBreakPointRef
 71
     0
 72
     0
 91
       -1
 10
0.0
 20
0.0
 30
0.0
 11
0.0
 21
0.0
 31
0.0
331
215
 73
     2
 92
        0
100
AcDbBreakPointRef
 71
     0
 72
     0
 91
       -1
 10
0.0
 20
0.0
 30
0.0
 11
0.0
 21
0.0
 31
0.0
331
21C
 73
     2
 92
        0
100
AcDbBreakPointRef
 71
     0
 72
     0
 91
       -1
 10
0.0
 20
0.0
 30
0.0
 11
0.0
 21
0.0
 31
0.0
331
80B
 73
     2
 92
        0
  0
BREAKDATA
  5
857
102
{ACAD_REACTORS
330
7D4
102
}
330
7D4
100
AcDbBreakData
 70
     0
330
7D3
 90
       16
100
AcDbBreakPointRef
 71
     0
 72
     0
 91
       -1
 10
0.0
 20
0.0
 30
0.0
 11
0.0
 21
0.0
 31
0.0
331
555
 73
     2
 92
        0
100
AcDbBreakPointRef
 71
     0
 72
     0
 91
       -1
 10
0.0
 20
0.0
 30
0.0
 11
0.0
 21
0.0
 31
0.0
331
556
 73
     2
 92
        0
100
AcDbBreakPointRef
 71
     0
 72
     0
 91
       -1
 10
0.0
 20
0.0
 30
0.0
 11
0.0
 21
0.0
 31
0.0
331
558
 73
     2
 92
        0
100
AcDbBreakPointRef
 71
     0
 72
     0
 91
       -1
 10
0.0
 20
0.0
 30
0.0
 11
0.0
 21
0.0
 31
0.0
331
55B
 73
     2
 92
        0
100
AcDbBreakPointRef
 71
     0
 72
     0
 91
       -1
 10
0.0
 20
0.0
 30
0.0
 11
0.0
 21
0.0
 31
0.0
331
55C
 73
     2
 92
        0
100
AcDbBreakPointRef
 71
     0
 72
     0
 91
       -1
 10
0.0
 20
0.0
 30
0.0
 11
0.0
 21
0.0
 31
0.0
331
55F
 73
     2
 92
        0
100
AcDbBreakPointRef
 71
     0
 72
     0
 91
       -1
 10
0.0
 20
0.0
 30
0.0
 11
0.0
 21
0.0
 31
0.0
331
5A5
 73
     2
 92
        0
100
AcDbBreakPointRef
 71
     0
 72
     0
 91
       -1
 10
0.0
 20
0.0
 30
0.0
 11
0.0
 21
0.0
 31
0.0
331
5A6
 73
     2
 92
        0
100
AcDbBreakPointRef
 71
     0
 72
     0
 91
       -1
 10
0.0
 20
0.0
 30
0.0
 11
0.0
 21
0.0
 31
0.0
331
5A7
 73
     2
 92
        0
100
AcDbBreakPointRef
 71
     0
 72
     0
 91
       -1
 10
0.0
 20
0.0
 30
0.0
 11
0.0
 21
0.0
 31
0.0
331
5A9
 73
     2
 92
        0
100
AcDbBreakPointRef
 71
     0
 72
     0
 91
       -1
 10
0.0
 20
0.0
 30
0.0
 11
0.0
 21
0.0
 31
0.0
331
5AA
 73
     2
 92
        0
100
AcDbBreakPointRef
 71
     0
 72
     0
 91
       -1
 10
0.0
 20
0.0
 30
0.0
 11
0.0
 21
0.0
 31
0.0
331
5AB
 73
     2
 92
        0
100
AcDbBreakPointRef
 71
     0
 72
     0
 91
       -1
 10
0.0
 20
0.0
 30
0.0
 11
0.0
 21
0.0
 31
0.0
331
0
 73
     2
 92
        0
100
AcDbBreakPointRef
 71
     0
 72
     0
 91
       -1
 10
0.0
 20
0.0
 30
0.0
 11
0.0
 21
0.0
 31
0.0
331
5AD
 73
     2
 92
        0
100
AcDbBreakPointRef
 71
     0
 72
     0
 91
       -1
 10
0.0
 20
0.0
 30
0.0
 11
0.0
 21
0.0
 31
0.0
331
7D2
 73
     2
 92
        0
100
AcDbBreakPointRef
 71
     0
 72
     0
 91
       -1
 10
0.0
 20
0.0
 30
0.0
 11
0.0
 21
0.0
 31
0.0
331
7F3
 73
     2
 92
        0
  0
DIMASSOC
  5
7D5
102
{ACAD_REACTORS
330
7D4
102
}
330
7D4
100
AcDbDimAssoc
330
7D3
 90
        3
 70
     0
 71
     1
  1
AcDbOsnapPointRef
 72
     1
331
555
 73
     0
 91
        0
 40
0.0
 10
0.0
 20
0.0
 30
0.0
 75
     0
  1
AcDbOsnapPointRef
 72
    13
331
55F
 73
     0
 91
        0
 40
0.0
 10
0.0
 20
0.0
 30
0.0
 75
     0
  0
BREAKDATA
  5
7F2
102
{ACAD_REACTORS
330
7E4
102
}
330
7E4
100
AcDbBreakData
 70
     0
330
7E3
 90
        2
100
AcDbBreakPointRef
 71
     0
 72
     0
 91
       -1
 10
0.0
 20
0.0
 30
0.0
 11
0.0
 21
0.0
 31
0.0
331
89
 73
     2
 92
        0
100
AcDbBreakPointRef
 71
     0
 72
     0
 91
       -1
 10
0.0
 20
0.0
 30
0.0
 11
0.0
 21
0.0
 31
0.0
331
A2
 73
     2
 92
        0
  0
DIMASSOC
  5
7E5
102
{ACAD_REACTORS
330
7E4
102
}
330
7E4
100
AcDbDimAssoc
330
7E3
 90
        2
 70
     0
 71
     1
  1
AcDbOsnapPointRef
 72
     1
331
89
331
97
 73
     0
 91
        0
 40
0.0
 10
0.0
 20
0.0
 30
0.0
 75
     0
  0
BREAKDATA
  5
805
102
{ACAD_REACTORS
330
7F4
102
}
330
7F4
100
AcDbBreakData
 70
     0
330
7F3
 90
       14
100
AcDbBreakPointRef
 71
     0
 72
     0
 91
       -1
 10
0.0
 20
0.0
 30
0.0
 11
0.0
 21
0.0
 31
0.0
331
555
 73
     2
 92
        0
100
AcDbBreakPointRef
 71
     0
 72
     0
 91
       -1
 10
0.0
 20
0.0
 30
0.0
 11
0.0
 21
0.0
 31
0.0
331
556
 73
     2
 92
        0
100
AcDbBreakPointRef
 71
     0
 72
     0
 91
       -1
 10
0.0
 20
0.0
 30
0.0
 11
0.0
 21
0.0
 31
0.0
331
557
 73
     2
 92
        0
100
AcDbBreakPointRef
 71
     0
 72
     0
 91
       -1
 10
0.0
 20
0.0
 30
0.0
 11
0.0
 21
0.0
 31
0.0
331
558
 73
     2
 92
        0
100
AcDbBreakPointRef
 71
     0
 72
     0
 91
       -1
 10
0.0
 20
0.0
 30
0.0
 11
0.0
 21
0.0
 31
0.0
331
55A
 73
     2
 92
        0
100
AcDbBreakPointRef
 71
     0
 72
     0
 91
       -1
 10
0.0
 20
0.0
 30
0.0
 11
0.0
 21
0.0
 31
0.0
331
5A8
 73
     2
 92
        0
100
AcDbBreakPointRef
 71
     0
 72
     0
 91
       -1
 10
0.0
 20
0.0
 30
0.0
 11
0.0
 21
0.0
 31
0.0
331
5A9
 73
     2
 92
        0
100
AcDbBreakPointRef
 71
     0
 72
     0
 91
       -1
 10
0.0
 20
0.0
 30
0.0
 11
0.0
 21
0.0
 31
0.0
331
716
 73
     2
 92
        0
100
AcDbBreakPointRef
 71
     0
 72
     0
 91
       -1
 10
0.0
 20
0.0
 30
0.0
 11
0.0
 21
0.0
 31
0.0
331
718
 73
     2
 92
        0
100
AcDbBreakPointRef
 71
     0
 72
     0
 91
       -1
 10
0.0
 20
0.0
 30
0.0
 11
0.0
 21
0.0
 31
0.0
331
71A
 73
     2
 92
        0
100
AcDbBreakPointRef
 71
     0
 72
     0
 91
       -1
 10
0.0
 20
0.0
 30
0.0
 11
0.0
 21
0.0
 31
0.0
331
71B
 73
     2
 92
        0
100
AcDbBreakPointRef
 71
     0
 72
     0
 91
       -1
 10
0.0
 20
0.0
 30
0.0
 11
0.0
 21
0.0
 31
0.0
331
71D
 73
     2
 92
        0
100
AcDbBreakPointRef
 71
     0
 72
     0
 91
       -1
 10
0.0
 20
0.0
 30
0.0
 11
0.0
 21
0.0
 31
0.0
331
71E
 73
     2
 92
        0
100
AcDbBreakPointRef
 71
     0
 72
     0
 91
       -1
 10
0.0
 20
0.0
 30
0.0
 11
0.0
 21
0.0
 31
0.0
331
7D3
 73
     2
 92
        0
  0
DIMASSOC
  5
7F5
102
{ACAD_REACTORS
330
7F4
102
}
330
7F4
100
AcDbDimAssoc
330
7F3
 90
        3
 70
     0
 71
     1
  1
AcDbOsnapPointRef
 72
     1
331
55A
 73
     0
 91
        0
 40
0.0
 10
0.0
 20
0.0
 30
0.0
 75
     0
  1
AcDbOsnapPointRef
 72
     1
331
555
 73
     0
 91
        0
 40
0.0
 10
0.0
 20
0.0
 30
0.0
 75
     0
  0
BREAKDATA
  5
81D
102
{ACAD_REACTORS
330
80C
102
}
330
80C
100
AcDbBreakData
 70
     0
330
80B
 90
        3
100
AcDbBreakPointRef
 71
     0
 72
     0
 91
       -1
 10
0.0
 20
0.0
 30
0.0
 11
0.0
 21
0.0
 31
0.0
331
59
 73
     2
 92
        0
100
AcDbBreakPointRef
 71
     0
 72
     0
 91
       -1
 10
0.0
 20
0.0
 30
0.0
 11
0.0
 21
0.0
 31
0.0
331
70
 73
     2
 92
        0
100
AcDbBreakPointRef
 71
     0
 72
     0
 91
       -1
 10
0.0
 20
0.0
 30
0.0
 11
0.0
 21
0.0
 31
0.0
331
A2
 73
     2
 92
        0
  0
DIMASSOC
  5
80D
102
{ACAD_REACTORS
330
80C
102
}
330
80C
100
AcDbDimAssoc
330
80B
 90
        3
 70
     0
 71
     1
  1
AcDbOsnapPointRef
 72
     1
331
70
331
86
 73
     0
 91
        0
 40
0.0
 10
0.0
 20
0.0
 30
0.0
 75
     0
  1
AcDbOsnapPointRef
 72
     1
331
70
331
7D
 73
     0
 91
        0
 40
0.0
 10
0.0
 20
0.0
 30
0.0
 75
     0
  0
BREAKDATA
  5
83C
102
{ACAD_REACTORS
330
82A
102
}
330
82A
100
AcDbBreakData
 70
     0
330
829
 90
        2
100
AcDbBreakPointRef
 71
     0
 72
     0
 91
       -1
 10
0.0
 20
0.0
 30
0.0
 11
0.0
 21
0.0
 31
0.0
331
6E
 73
     2
 92
        0
100
AcDbBreakPointRef
 71
     0
 72
     0
 91
       -1
 10
0.0
 20
0.0
 30
0.0
 11
0.0
 21
0.0
 31
0.0
331
6F
 73
     2
 92
        0
  0
LAYOUT
  5
1C
102
{ACAD_REACTORS
330
1D
102
}
330
1D
100
AcDbPlotSettings
  1

  2
iR-ADV C2220(開発側)
  4
A3
  6

 40
5.080000000002401
 41
5.080000000002515
 42
5.080000000002399
 43
5.080000000002399
 44
297.0
 45
420.0
 46
0.0
 47
0.0
 48
5.000000000000085
 49
5.0
140
420.0
141
297.0
142
1.0
143
1.0
 70
 11920
 72
     1
 73
     1
 74
     4
  7

 75
    16
 76
     0
 77
     2
 78
   300
147
1.0
148
-163.0801948217729
149
-101.3856760235123
100
AcDbLayout
  1
Model
 70
     1
 71
     0
 10
0.0
 20
0.0
 11
12.0
 21
9.0
 12
0.0
 22
0.0
 32
0.0
 14
0.0
 24
-0.0000000000000284
 34
0.0
 15
297.0000000000001
 25
210.0
 35
0.0
146
0.0
 13
0.0
 23
0.0
 33
0.0
 16
1.0
 26
0.0
 36
0.0
 17
0.0
 27
1.0
 37
0.0
 76
     0
330
18
331
30
  0
LAYOUT
  5
21
102
{ACAD_REACTORS
330
1D
102
}
330
1D
100
AcDbPlotSettings
  1

  2
クセロPDF2
  4

  6

 40
0.0
 41
0.0
 42
0.0
 43
0.0
 44
0.0
 45
0.0
 46
0.0
 47
0.0
 48
0.0
 49
0.0
140
0.0
141
0.0
142
1.0
143
1.0
 70
   688
 72
     0
 73
     0
 74
     5
  7
monochrome.ctb
 75
    16
 76
     0
 77
     2
 78
   300
147
1.0
148
0.0
149
0.0
100
AcDbLayout
  1
ﾚｲｱｳﾄ1
 70
     1
 71
     1
 10
-0.0110393610068442
 20
-0.0028022467055191
 11
593.9889606389931
 21
419.9971977532944
 12
0.0
 22
0.0
 32
0.0
 14
0.0
 24
0.0
 34
0.0
 15
594.0
 25
420.0
 35
0.0
146
0.0
 13
0.0
 23
0.0
 33
0.0
 16
1.0
 26
0.0
 36
0.0
 17
0.0
 27
1.0
 37
0.0
 76
     0
330
1E
  0
MATERIAL
  5
58
102
{ACAD_REACTORS
330
C
102
}
330
C
100
AcDbMaterial
  1
ByBlock
 72
     1
 94
      127
  0
MATERIAL
  5
57
102
{ACAD_REACTORS
330
C
102
}
330
C
100
AcDbMaterial
  1
ByLayer
 72
     1
 94
      127
  0
MATERIAL
  5
B
102
{ACAD_REACTORS
330
C
102
}
330
C
100
AcDbMaterial
  1
Global
 72
     1
 94
      127
  0
MLEADERSTYLE
  5
D2
102
{ACAD_REACTORS
330
B6
102
}
330
B6
100
AcDbMLeaderStyle
170
     2
171
     1
172
     0
 90
        2
 40
0.0
 41
0.0
173
     1
 91
-1056964608
340
F
 92
       -2
290
     1
 42
2.0
291
     1
 43
8.0
  3
Standard
341
0
 44
4.0
300

342
15
174
     1
178
     1
175
     1
176
     0
 93
-1056964608
 45
4.0
292
     0
297
     0
 46
4.0
343
0
 94
-1056964608
 47
1.0
 49
1.0
140
1.0
293
     1
141
0.0
294
     1
177
     0
142
1.0
295
     0
296
     0
143
3.75
1001
ACAD_MLEADERVER
1070
     2
  0
MLINESTYLE
  5
27
102
{ACAD_REACTORS
330
28
102
}
330
28
100
AcDbMlineStyle
  2
STANDARD
 70
     0
  3

 62
   256
 51
90.0
 52
90.0
 71
     2
 49
0.5
 62
   256
  6
BYLAYER
 49
-0.5
 62
   256
  6
BYLAYER
  0
ACDBPLACEHOLDER
  5
8
102
{ACAD_REACTORS
330
9
102
}
330
9
  0
SCALE
  5
56
102
{ACAD_REACTORS
330
34
102
}
330
34
100
AcDbScale
 70
     0
300
1:1
140
1.0
141
1.0
290
     1
  0
TABLESTYLE
  5
D1
102
{ACAD_REACTORS
330
B5
102
}
102
{ACAD_XDICTIONARY
360
93F
102
}
330
B5
100
AcDbTableStyle
  3
Standard
 70
     0
 71
     0
 40
0.06
 41
0.06
280
     0
281
     0
  7
STANDARD
140
4.5
170
     2
 62
     0
 63
   257
283
     0
 90
        4
 91
        0
  1

274
    -2
284
     1
 64
     0
275
    -2
285
     1
 65
     0
276
    -2
286
     1
 66
     0
277
    -2
287
     1
 67
     0
278
    -2
288
     1
 68
     0
279
    -2
289
     1
 69
     0
  7
STANDARD
140
6.0
170
     5
 62
     0
 63
   257
283
     0
 90
        4
 91
        0
  1

274
    -2
284
     1
 64
     0
275
    -2
285
     1
 65
     0
276
    -2
286
     1
 66
     0
277
    -2
287
     1
 67
     0
278
    -2
288
     1
 68
     0
279
    -2
289
     1
 69
     0
  7
STANDARD
140
4.5
170
     5
 62
     0
 63
   257
283
     0
 90
        4
 91
        0
  1

274
    -2
284
     1
 64
     0
275
    -2
285
     1
 65
     0
276
    -2
286
     1
 66
     0
277
    -2
287
     1
 67
     0
278
    -2
288
     1
 68
     0
279
    -2
289
     1
 69
     0
  0
TABLESTYLE
  5
116
102
{ACAD_REACTORS
330
B5
330
138
102
}
102
{ACAD_XDICTIONARY
360
941
102
}
330
B5
100
AcDbTableStyle
  3
部品表
 70
     0
 71
     0
 40
0.06
 41
0.06
280
     0
281
     0
  7
Bom
140
2.5
170
     5
 62
   256
 63
   257
283
     0
 90
        4
 91
        0
  1

274
    -1
284
     1
 64
   256
275
    -2
285
     1
 65
   256
276
    -1
286
     1
 66
   256
277
    -1
287
     1
 67
   256
278
    -2
288
     1
 68
   256
279
    -1
289
     1
 69
   256
  7
Bom
140
2.0
170
     5
 62
   256
 63
   257
283
     0
 90
        4
 91
        0
  1

274
    -1
284
     1
 64
   256
275
    -1
285
     1
 65
   256
276
    -1
286
     1
 66
   256
277
    -1
287
     1
 67
   256
278
    -1
288
     1
 68
   256
279
    -1
289
     1
 69
   256
  7
Bom
140
2.5
170
     5
 62
   256
 63
   257
283
     0
 90
        4
 91
        0
  1

274
    -1
284
     1
 64
   256
275
    -1
285
     1
 65
   256
276
    -1
286
     1
 66
   256
277
    -1
287
     1
 67
   256
278
    -1
288
     1
 68
   256
279
    -1
289
     1
 69
   256
  0
VISUALSTYLE
  5
31
102
{ACAD_REACTORS
330
2F
102
}
330
2F
100
AcDbVisualStyle
  2
2dWireframe
 70
     4
 71
     0
 72
     2
 73
     0
 90
        0
 40
0.6
 41
30.0
 62
     5
 63
     7
421
 16777215
 74
     1
 91
        4
 64
     7
 65
   257
 75
     1
175
     1
 42
1.0
 92
        0
 66
   257
 43
1.0
 76
     1
 77
     6
 78
     2
 67
     7
 79
     5
170
     0
171
     0
290
     0
174
     0
 93
        1
 44
0.0
173
     0
291
     0
 45
0.0
  0
VISUALSTYLE
  5
C0
102
{ACAD_REACTORS
330
2F
102
}
330
2F
100
AcDbVisualStyle
  2
Basic
 70
     7
 71
     1
 72
     0
 73
     1
 90
        0
 40
0.6
 41
30.0
 62
     5
 63
     7
421
 16777215
 74
     0
 91
        4
 64
     7
 65
   257
 75
     1
175
     1
 42
1.0
 92
        8
 66
     7
 43
1.0
 76
     1
 77
     6
 78
     2
 67
     7
 79
     5
170
     0
171
     0
290
     0
174
     0
 93
        1
 44
0.0
173
     0
291
     1
 45
0.0
  0
VISUALSTYLE
  5
C4
102
{ACAD_REACTORS
330
2F
102
}
330
2F
100
AcDbVisualStyle
  2
Brighten
 70
    12
 71
     2
 72
     2
 73
     0
 90
        0
 40
0.6
 41
30.0
 62
     5
 63
     7
421
 16777215
 74
     1
 91
        4
 64
     7
 65
   257
 75
     1
175
     1
 42
1.0
 92
        8
 66
     7
 43
1.0
 76
     1
 77
     6
 78
     2
 67
     7
 79
     5
170
     0
171
     0
290
     0
174
     0
 93
        1
 44
50.0
173
     0
291
     1
 45
0.0
  0
VISUALSTYLE
  5
C8
102
{ACAD_REACTORS
330
2F
102
}
330
2F
100
AcDbVisualStyle
  2
ColorChange
 70
    16
 71
     2
 72
     2
 73
     3
 90
        0
 40
0.6
 41
30.0
 62
     5
 63
     8
421
  8421504
 74
     1
 91
        4
 64
     7
 65
   257
 75
     1
175
     1
 42
1.0
 92
        8
 66
     8
424
  8421504
 43
1.0
 76
     1
 77
     6
 78
     2
 67
     7
 79
     5
170
     0
171
     0
290
     0
174
     0
 93
        1
 44
0.0
173
     0
291
     1
 45
0.0
  0
VISUALSTYLE
  5
C2
102
{ACAD_REACTORS
330
2F
102
}
330
2F
100
AcDbVisualStyle
  2
Conceptual
 70
     9
 71
     3
 72
     2
 73
     0
 90
        0
 40
0.6
 41
30.0
 62
     5
 63
     7
421
 16777215
 74
     2
 91
        2
 64
     7
 65
   257
 75
     1
175
     1
 42
179.0
 92
        8
 66
     7
 43
1.0
 76
     1
 77
     6
 78
     2
 67
     7
 79
     3
170
     0
171
     0
290
     0
174
     0
 93
        1
 44
0.0
173
     0
291
     0
 45
0.0
  0
VISUALSTYLE
  5
C3
102
{ACAD_REACTORS
330
2F
102
}
330
2F
100
AcDbVisualStyle
  2
Dim
 70
    11
 71
     2
 72
     2
 73
     0
 90
        0
 40
0.6
 41
30.0
 62
     5
 63
     7
421
 16777215
 74
     1
 91
        4
 64
     7
 65
   257
 75
     1
175
     1
 42
1.0
 92
        8
 66
     7
 43
1.0
 76
     1
 77
     6
 78
     2
 67
     7
 79
     5
170
     0
171
     0
290
     0
174
     0
 93
        1
 44
-50.0
173
     0
291
     1
 45
0.0
  0
VISUALSTYLE
  5
CB
102
{ACAD_REACTORS
330
2F
102
}
330
2F
100
AcDbVisualStyle
  2
EdgeColorOff
 70
    22
 71
     2
 72
     2
 73
     0
 90
        0
 40
0.6
 41
30.0
 62
     5
 63
     7
421
 16777215
 74
     1
 91
        4
 64
     7
 65
   257
 75
     1
175
     1
 42
1.0
 92
        8
 66
     7
 43
1.0
 76
     1
 77
     6
 78
     2
 67
     7
 79
     5
170
     0
171
     0
290
     0
174
     0
 93
        1
 44
0.0
173
     0
291
     1
 45
0.0
  0
VISUALSTYLE
  5
C7
102
{ACAD_REACTORS
330
2F
102
}
330
2F
100
AcDbVisualStyle
  2
Facepattern
 70
    15
 71
     2
 72
     2
 73
     0
 90
        0
 40
0.6
 41
30.0
 62
     5
 63
     7
421
 16777215
 74
     1
 91
        4
 64
     7
 65
   257
 75
     1
175
     1
 42
1.0
 92
        8
 66
     7
 43
1.0
 76
     1
 77
     6
 78
     2
 67
     7
 79
     5
170
     0
171
     0
290
     0
174
     0
 93
        1
 44
0.0
173
     0
291
     1
 45
0.0
  0
VISUALSTYLE
  5
BA
102
{ACAD_REACTORS
330
2F
102
}
330
2F
100
AcDbVisualStyle
  2
Flat
 70
     0
 71
     2
 72
     1
 73
     1
 90
        2
 40
0.6
 41
30.0
 62
     5
 63
     7
421
 16777215
 74
     0
 91
        0
 64
     7
 65
   257
 75
     1
175
     1
 42
1.0
 92
        8
 66
     7
 43
1.0
 76
     1
 77
     6
 78
     2
 67
     7
 79
     5
170
     0
171
     0
290
     0
174
     0
 93
       13
 44
0.0
173
     0
291
     1
 45
0.0
  0
VISUALSTYLE
  5
BB
102
{ACAD_REACTORS
330
2F
102
}
330
2F
100
AcDbVisualStyle
  2
FlatWithEdges
 70
     1
 71
     2
 72
     1
 73
     1
 90
        2
 40
0.6
 41
30.0
 62
     5
 63
     7
421
 16777215
 74
     1
 91
        0
 64
     7
 65
   257
 75
     1
175
     1
 42
1.0
 92
        0
 66
   257
 43
1.0
 76
     1
 77
     6
 78
     2
 67
     7
 79
     5
170
     0
171
     0
290
     0
174
     0
 93
       13
 44
0.0
173
     0
291
     1
 45
0.0
  0
VISUALSTYLE
  5
BC
102
{ACAD_REACTORS
330
2F
102
}
330
2F
100
AcDbVisualStyle
  2
Gouraud
 70
     2
 71
     2
 72
     2
 73
     1
 90
        2
 40
0.6
 41
30.0
 62
     5
 63
     7
421
 16777215
 74
     0
 91
        0
 64
     7
 65
   257
 75
     1
175
     1
 42
1.0
 92
        0
 66
     7
 43
1.0
 76
     1
 77
     6
 78
     2
 67
     7
 79
     5
170
     0
171
     0
290
     0
174
     0
 93
       13
 44
0.0
173
     0
291
     1
 45
0.0
  0
VISUALSTYLE
  5
BD
102
{ACAD_REACTORS
330
2F
102
}
330
2F
100
AcDbVisualStyle
  2
GouraudWithEdges
 70
     3
 71
     2
 72
     2
 73
     1
 90
        2
 40
0.6
 41
30.0
 62
     5
 63
     7
421
 16777215
 74
     1
 91
        0
 64
     7
 65
   257
 75
     1
175
     1
 42
1.0
 92
        0
 66
   257
 43
1.0
 76
     1
 77
     6
 78
     2
 67
     7
 79
     5
170
     0
171
     0
290
     0
174
     0
 93
       13
 44
0.0
173
     0
291
     1
 45
0.0
  0
VISUALSTYLE
  5
BF
102
{ACAD_REACTORS
330
2F
102
}
330
2F
100
AcDbVisualStyle
  2
Hidden
 70
     6
 71
     1
 72
     2
 73
     2
 90
        0
 40
0.6
 41
30.0
 62
     5
 63
     7
421
 16777215
 74
     2
 91
        2
 64
     7
 65
   257
 75
     2
175
     1
 42
40.0
 92
        0
 66
   257
 43
1.0
 76
     1
 77
     6
 78
     2
 67
     7
 79
     3
170
     0
171
     0
290
     0
174
     0
 93
        1
 44
0.0
173
     0
291
     0
 45
0.0
  0
VISUALSTYLE
  5
C9
102
{ACAD_REACTORS
330
2F
102
}
330
2F
100
AcDbVisualStyle
  2
JitterOff
 70
    20
 71
     2
 72
     2
 73
     0
 90
        0
 40
0.6
 41
30.0
 62
     5
 63
     7
421
 16777215
 74
     1
 91
        4
 64
     7
 65
   257
 75
     1
175
     1
 42
1.0
 92
       10
 66
     7
 43
1.0
 76
     1
 77
     6
 78
     2
 67
     7
 79
     5
170
     0
171
     0
290
     0
174
     0
 93
        1
 44
0.0
173
     0
291
     1
 45
0.0
  0
VISUALSTYLE
  5
C6
102
{ACAD_REACTORS
330
2F
102
}
330
2F
100
AcDbVisualStyle
  2
Linepattern
 70
    14
 71
     2
 72
     2
 73
     0
 90
        0
 40
0.6
 41
30.0
 62
     5
 63
     7
421
 16777215
 74
     1
 91
        4
 64
     7
 65
   257
 75
     7
175
     7
 42
1.0
 92
        8
 66
     7
 43
1.0
 76
     1
 77
     6
 78
     2
 67
     7
 79
     5
170
     0
171
     0
290
     0
174
     0
 93
        1
 44
0.0
173
     0
291
     1
 45
0.0
  0
VISUALSTYLE
  5
CA
102
{ACAD_REACTORS
330
2F
102
}
330
2F
100
AcDbVisualStyle
  2
OverhangOff
 70
    21
 71
     2
 72
     2
 73
     0
 90
        0
 40
0.6
 41
30.0
 62
     5
 63
     7
421
 16777215
 74
     1
 91
        4
 64
     7
 65
   257
 75
     1
175
     1
 42
1.0
 92
        9
 66
     7
 43
1.0
 76
     1
 77
     6
 78
     2
 67
     7
 79
     5
170
     0
171
     0
290
     0
174
     0
 93
        1
 44
0.0
173
     0
291
     1
 45
0.0
  0
VISUALSTYLE
  5
C1
102
{ACAD_REACTORS
330
2F
102
}
330
2F
100
AcDbVisualStyle
  2
Realistic
 70
     8
 71
     2
 72
     3
 73
     0
 90
        2
 40
0.6
 41
30.0
 62
     5
 63
     7
421
 16777215
 74
     0
 91
        0
 64
     7
 65
   257
 75
     1
175
     1
 42
1.0
 92
        8
 66
   257
 43
1.0
 76
     1
 77
     6
 78
     2
 67
     7
 79
     3
170
     0
171
     0
290
     0
174
     0
 93
       13
 44
0.0
173
     0
291
     0
 45
0.0
  0
VISUALSTYLE
  5
D0
102
{ACAD_REACTORS
330
2F
102
}
330
2F
100
AcDbVisualStyle
  2
Shaded
 70
    27
 71
     2
 72
     2
 73
     1
 90
        2
 40
0.6
 41
30.0
 62
     5
 63
     7
421
 16777215
 74
     0
 91
        4
 64
     7
 65
   257
 75
     1
175
     1
 42
1.0
 92
        8
 66
   257
 43
1.0
 76
     1
 77
     6
 78
     2
 67
     8
425
  7895160
 79
     3
170
     0
171
     0
290
     0
174
     0
 93
        5
 44
0.0
173
     0
291
     0
 45
0.0
  0
VISUALSTYLE
  5
CF
102
{ACAD_REACTORS
330
2F
102
}
330
2F
100
AcDbVisualStyle
  2
Shaded with edges
 70
    26
 71
     2
 72
     2
 73
     1
 90
        2
 40
0.6
 41
30.0
 62
     5
 63
     7
421
 16777215
 74
     1
 91
       10
 64
     7
 65
   257
 75
     2
175
     1
 42
1.0
 92
        8
 66
   257
 43
1.0
 76
     1
 77
     6
 78
     2
 67
     7
 79
     3
170
     0
171
     0
290
     0
174
     0
 93
        5
 44
0.0
173
     0
291
     0
 45
0.0
  0
VISUALSTYLE
  5
CC
102
{ACAD_REACTORS
330
2F
102
}
330
2F
100
AcDbVisualStyle
  2
Shades of Gray
 70
    23
 71
     2
 72
     2
 73
     3
 90
        0
 40
0.6
 41
30.0
 62
     5
 63
     7
421
 16777215
 74
     2
 91
        2
 64
     7
 65
     7
 75
     1
175
     1
 42
40.0
 92
        8
 66
     7
 43
1.0
 76
     1
 77
     6
 78
     2
 67
     7
 79
     3
170
     0
171
     0
290
     0
174
     0
 93
        1
 44
0.0
173
     0
291
     0
 45
0.0
  0
VISUALSTYLE
  5
CD
102
{ACAD_REACTORS
330
2F
102
}
330
2F
100
AcDbVisualStyle
  2
Sketchy
 70
    24
 71
     1
 72
     2
 73
     2
 90
        0
 40
0.6
 41
30.0
 62
     5
 63
     7
421
 16777215
 74
     2
 91
        2
 64
     7
 65
     7
 75
     1
175
     1
 42
40.0
 92
       11
 66
     7
 43
1.0
 76
     1
 77
     6
 78
     2
 67
     7
 79
     6
170
     0
171
     0
290
     0
174
     0
 93
        1
 44
0.0
173
     0
291
     0
 45
0.0
  0
VISUALSTYLE
  5
C5
102
{ACAD_REACTORS
330
2F
102
}
330
2F
100
AcDbVisualStyle
  2
Thicken
 70
    13
 71
     2
 72
     2
 73
     0
 90
        0
 40
0.6
 41
30.0
 62
     5
 63
     7
421
 16777215
 74
     1
 91
        4
 64
     7
 65
   257
 75
     1
175
     1
 42
1.0
 92
       12
 66
     7
 43
1.0
 76
     1
 77
     6
 78
     2
 67
     7
 79
     5
170
     0
171
     0
290
     0
174
     0
 93
        1
 44
0.0
173
     0
291
     1
 45
0.0
  0
VISUALSTYLE
  5
BE
102
{ACAD_REACTORS
330
2F
102
}
330
2F
100
AcDbVisualStyle
  2
Wireframe
 70
     5
 71
     0
 72
     2
 73
     0
 90
        0
 40
0.6
 41
30.0
 62
     5
 63
     7
421
 16777215
 74
     1
 91
        4
 64
     7
 65
   257
 75
     1
175
     1
 42
1.0
 92
        0
 66
   257
 43
1.0
 76
     1
 77
     6
 78
     2
 67
     7
 79
     3
170
     0
171
     0
290
     0
174
     0
 93
        1
 44
0.0
173
     0
291
     0
 45
0.0
  0
VISUALSTYLE
  5
CE
102
{ACAD_REACTORS
330
2F
102
}
330
2F
100
AcDbVisualStyle
  2
X-Ray
 70
    25
 71
     2
 72
     2
 73
     1
 90
        1
 40
0.5
 41
30.0
 62
     5
 63
     7
421
 16777215
 74
     1
 91
        0
 64
     7
 65
   257
 75
     1
175
     1
 42
1.0
 92
        8
 66
     7
 43
1.0
 76
     1
 77
     6
 78
     2
 67
     7
 79
     3
170
     0
171
     0
290
     0
174
     0
 93
       13
 44
0.0
173
     0
291
     0
 45
0.0
  0
DICTIONARYVAR
  5
B4
102
{ACAD_REACTORS
330
B3
102
}
330
B3
100
DictionaryVariables
280
     0
  1
1:1
  0
DICTIONARYVAR
  5
102
102
{ACAD_REACTORS
330
B3
102
}
330
B3
100
DictionaryVariables
280
     0
  1
Standard
  0
DICTIONARYVAR
  5
101
102
{ACAD_REACTORS
330
B3
102
}
330
B3
100
DictionaryVariables
280
     0
  1
Standard
  0
DICTIONARYVAR
  5
B7
102
{ACAD_REACTORS
330
B3
102
}
330
B3
100
DictionaryVariables
280
     0
  1
0
  0
DICTIONARY
  5
93F
330
D1
100
AcDbDictionary
280
     1
281
     1
  3
ACAD_ROUNDTRIP_2008_TABLESTYLE_CELLSTYLEMAP
360
940
  0
DICTIONARY
  5
941
330
116
100
AcDbDictionary
280
     1
281
     1
  3
ACAD_ROUNDTRIP_2008_TABLESTYLE_CELLSTYLEMAP
360
942
  0
CELLSTYLEMAP
  5
940
102
{ACAD_REACTORS
330
93F
102
}
330
93F
100
AcDbCellStyleMap
 90
        3
300
CELLSTYLE
  1
TABLEFORMAT_BEGIN
 90
        5
170
     1
 91
        0
 92
    32768
 62
   257
 93
        1
300
CONTENTFORMAT
  1
CONTENTFORMAT_BEGIN
 90
        0
 91
        0
 92
        4
 93
        0
300

 40
0.0
140
1.0
 94
        5
 62
     0
340
15
144
6.0
309
CONTENTFORMAT_END
171
     1
301
MARGIN
  1
CELLMARGIN_BEGIN
 40
1.5
 40
1.5
 40
1.5
 40
1.5
 40
1.5
 40
1.5
309
CELLMARGIN_END
 94
        6
 95
        1
302
GRIDFORMAT
  1
GRIDFORMAT_BEGIN
 90
        0
 91
        1
 62
     0
 92
       -2
340
F
 93
        0
 40
0.045
309
GRIDFORMAT_END
 95
        2
302
GRIDFORMAT
  1
GRIDFORMAT_BEGIN
 90
        0
 91
        1
 62
     0
 92
       -2
340
F
 93
        0
 40
0.045
309
GRIDFORMAT_END
 95
        4
302
GRIDFORMAT
  1
GRIDFORMAT_BEGIN
 90
        0
 91
        1
 62
     0
 92
       -2
340
F
 93
        0
 40
0.045
309
GRIDFORMAT_END
 95
        8
302
GRIDFORMAT
  1
GRIDFORMAT_BEGIN
 90
        0
 91
        1
 62
     0
 92
       -2
340
F
 93
        0
 40
0.045
309
GRIDFORMAT_END
 95
       16
302
GRIDFORMAT
  1
GRIDFORMAT_BEGIN
 90
        0
 91
        1
 62
     0
 92
       -2
340
F
 93
        0
 40
0.045
309
GRIDFORMAT_END
 95
       32
302
GRIDFORMAT
  1
GRIDFORMAT_BEGIN
 90
        0
 91
        1
 62
     0
 92
       -2
340
F
 93
        0
 40
0.045
309
GRIDFORMAT_END
309
TABLEFORMAT_END
  1
CELLSTYLE_BEGIN
 90
        1
 91
        1
300
_TITLE
309
CELLSTYLE_END
300
CELLSTYLE
  1
TABLEFORMAT_BEGIN
 90
        5
170
     1
 91
        0
 92
        0
 62
   257
 93
        1
300
CONTENTFORMAT
  1
CONTENTFORMAT_BEGIN
 90
        0
 91
        0
 92
        4
 93
        0
300

 40
0.0
140
1.0
 94
        5
 62
     0
340
15
144
4.5
309
CONTENTFORMAT_END
171
     1
301
MARGIN
  1
CELLMARGIN_BEGIN
 40
1.5
 40
1.5
 40
1.5
 40
1.5
 40
1.5
 40
1.5
309
CELLMARGIN_END
 94
        6
 95
        1
302
GRIDFORMAT
  1
GRIDFORMAT_BEGIN
 90
        0
 91
        1
 62
     0
 92
       -2
340
F
 93
        0
 40
0.045
309
GRIDFORMAT_END
 95
        2
302
GRIDFORMAT
  1
GRIDFORMAT_BEGIN
 90
        0
 91
        1
 62
     0
 92
       -2
340
F
 93
        0
 40
0.045
309
GRIDFORMAT_END
 95
        4
302
GRIDFORMAT
  1
GRIDFORMAT_BEGIN
 90
        0
 91
        1
 62
     0
 92
       -2
340
F
 93
        0
 40
0.045
309
GRIDFORMAT_END
 95
        8
302
GRIDFORMAT
  1
GRIDFORMAT_BEGIN
 90
        0
 91
        1
 62
     0
 92
       -2
340
F
 93
        0
 40
0.045
309
GRIDFORMAT_END
 95
       16
302
GRIDFORMAT
  1
GRIDFORMAT_BEGIN
 90
        0
 91
        1
 62
     0
 92
       -2
340
F
 93
        0
 40
0.045
309
GRIDFORMAT_END
 95
       32
302
GRIDFORMAT
  1
GRIDFORMAT_BEGIN
 90
        0
 91
        1
 62
     0
 92
       -2
340
F
 93
        0
 40
0.045
309
GRIDFORMAT_END
309
TABLEFORMAT_END
  1
CELLSTYLE_BEGIN
 90
        2
 91
        1
300
_HEADER
309
CELLSTYLE_END
300
CELLSTYLE
  1
TABLEFORMAT_BEGIN
 90
        5
170
     1
 91
        0
 92
        0
 62
   257
 93
        1
300
CONTENTFORMAT
  1
CONTENTFORMAT_BEGIN
 90
        0
 91
        0
 92
        4
 93
        0
300

 40
0.0
140
1.0
 94
        2
 62
     0
340
15
144
4.5
309
CONTENTFORMAT_END
171
     1
301
MARGIN
  1
CELLMARGIN_BEGIN
 40
1.5
 40
1.5
 40
1.5
 40
1.5
 40
1.5
 40
1.5
309
CELLMARGIN_END
 94
        6
 95
        1
302
GRIDFORMAT
  1
GRIDFORMAT_BEGIN
 90
        0
 91
        1
 62
     0
 92
       -2
340
F
 93
        0
 40
0.045
309
GRIDFORMAT_END
 95
        2
302
GRIDFORMAT
  1
GRIDFORMAT_BEGIN
 90
        0
 91
        1
 62
     0
 92
       -2
340
F
 93
        0
 40
0.045
309
GRIDFORMAT_END
 95
        4
302
GRIDFORMAT
  1
GRIDFORMAT_BEGIN
 90
        0
 91
        1
 62
     0
 92
       -2
340
F
 93
        0
 40
0.045
309
GRIDFORMAT_END
 95
        8
302
GRIDFORMAT
  1
GRIDFORMAT_BEGIN
 90
        0
 91
        1
 62
     0
 92
       -2
340
F
 93
        0
 40
0.045
309
GRIDFORMAT_END
 95
       16
302
GRIDFORMAT
  1
GRIDFORMAT_BEGIN
 90
        0
 91
        1
 62
     0
 92
       -2
340
F
 93
        0
 40
0.045
309
GRIDFORMAT_END
 95
       32
302
GRIDFORMAT
  1
GRIDFORMAT_BEGIN
 90
        0
 91
        1
 62
     0
 92
       -2
340
F
 93
        0
 40
0.045
309
GRIDFORMAT_END
309
TABLEFORMAT_END
  1
CELLSTYLE_BEGIN
 90
        3
 91
        2
300
_DATA
309
CELLSTYLE_END
  0
CELLSTYLEMAP
  5
942
102
{ACAD_REACTORS
330
941
102
}
330
941
100
AcDbCellStyleMap
 90
        3
300
CELLSTYLE
  1
TABLEFORMAT_BEGIN
 90
        5
170
     1
 91
        0
 92
        0
 62
   257
 93
        1
300
CONTENTFORMAT
  1
CONTENTFORMAT_BEGIN
 90
        0
 91
        0
 92
        4
 93
        0
300

 40
0.0
140
1.0
 94
        5
 62
   256
340
E1
144
2.0
309
CONTENTFORMAT_END
171
     1
301
MARGIN
  1
CELLMARGIN_BEGIN
 40
0.5
 40
0.5
 40
1.5
 40
1.5
 40
1.5
 40
1.5
309
CELLMARGIN_END
 94
        6
 95
        1
302
GRIDFORMAT
  1
GRIDFORMAT_BEGIN
 90
        0
 91
        1
 62
   256
 92
       -1
340
F
 93
        0
 40
0.045
309
GRIDFORMAT_END
 95
        2
302
GRIDFORMAT
  1
GRIDFORMAT_BEGIN
 90
        0
 91
        1
 62
   256
 92
       -1
340
F
 93
        0
 40
0.045
309
GRIDFORMAT_END
 95
        4
302
GRIDFORMAT
  1
GRIDFORMAT_BEGIN
 90
        0
 91
        1
 62
   256
 92
       -1
340
F
 93
        0
 40
0.045
309
GRIDFORMAT_END
 95
        8
302
GRIDFORMAT
  1
GRIDFORMAT_BEGIN
 90
        0
 91
        1
 62
   256
 92
       -1
340
F
 93
        0
 40
0.045
309
GRIDFORMAT_END
 95
       16
302
GRIDFORMAT
  1
GRIDFORMAT_BEGIN
 90
        0
 91
        1
 62
   256
 92
       -1
340
F
 93
        0
 40
0.045
309
GRIDFORMAT_END
 95
       32
302
GRIDFORMAT
  1
GRIDFORMAT_BEGIN
 90
        0
 91
        1
 62
   256
 92
       -1
340
F
 93
        0
 40
0.045
309
GRIDFORMAT_END
309
TABLEFORMAT_END
  1
CELLSTYLE_BEGIN
 90
        1
 91
        1
300
_TITLE
309
CELLSTYLE_END
300
CELLSTYLE
  1
TABLEFORMAT_BEGIN
 90
        5
170
     1
 91
        0
 92
        0
 62
   257
 93
        1
300
CONTENTFORMAT
  1
CONTENTFORMAT_BEGIN
 90
        0
 91
        0
 92
        4
 93
        0
300

 40
0.0
140
1.0
 94
        5
 62
   256
340
E1
144
2.5
309
CONTENTFORMAT_END
171
     1
301
MARGIN
  1
CELLMARGIN_BEGIN
 40
0.5
 40
0.5
 40
1.5
 40
1.5
 40
1.5
 40
1.5
309
CELLMARGIN_END
 94
        6
 95
        1
302
GRIDFORMAT
  1
GRIDFORMAT_BEGIN
 90
        0
 91
        1
 62
   256
 92
       -1
340
F
 93
        0
 40
0.045
309
GRIDFORMAT_END
 95
        2
302
GRIDFORMAT
  1
GRIDFORMAT_BEGIN
 90
        0
 91
        1
 62
   256
 92
       -1
340
F
 93
        0
 40
0.045
309
GRIDFORMAT_END
 95
        4
302
GRIDFORMAT
  1
GRIDFORMAT_BEGIN
 90
        0
 91
        1
 62
   256
 92
       -1
340
F
 93
        0
 40
0.045
309
GRIDFORMAT_END
 95
        8
302
GRIDFORMAT
  1
GRIDFORMAT_BEGIN
 90
        0
 91
        1
 62
   256
 92
       -1
340
F
 93
        0
 40
0.045
309
GRIDFORMAT_END
 95
       16
302
GRIDFORMAT
  1
GRIDFORMAT_BEGIN
 90
        0
 91
        1
 62
   256
 92
       -1
340
F
 93
        0
 40
0.045
309
GRIDFORMAT_END
 95
       32
302
GRIDFORMAT
  1
GRIDFORMAT_BEGIN
 90
        0
 91
        1
 62
   256
 92
       -1
340
F
 93
        0
 40
0.045
309
GRIDFORMAT_END
309
TABLEFORMAT_END
  1
CELLSTYLE_BEGIN
 90
        2
 91
        1
300
_HEADER
309
CELLSTYLE_END
300
CELLSTYLE
  1
TABLEFORMAT_BEGIN
 90
        5
170
     1
 91
        0
 92
        0
 62
   257
 93
        1
300
CONTENTFORMAT
  1
CONTENTFORMAT_BEGIN
 90
        0
 91
        0
 92
        4
 93
        0
300

 40
0.0
140
1.0
 94
        5
 62
   256
340
E1
144
2.5
309
CONTENTFORMAT_END
171
     1
301
MARGIN
  1
CELLMARGIN_BEGIN
 40
0.5
 40
0.5
 40
1.5
 40
1.5
 40
1.5
 40
1.5
309
CELLMARGIN_END
 94
        6
 95
        1
302
GRIDFORMAT
  1
GRIDFORMAT_BEGIN
 90
        0
 91
        1
 62
   256
 92
       -1
340
F
 93
        0
 40
0.045
309
GRIDFORMAT_END
 95
        2
302
GRIDFORMAT
  1
GRIDFORMAT_BEGIN
 90
        0
 91
        1
 62
   256
 92
       -2
340
F
 93
        0
 40
0.045
309
GRIDFORMAT_END
 95
        4
302
GRIDFORMAT
  1
GRIDFORMAT_BEGIN
 90
        0
 91
        1
 62
   256
 92
       -1
340
F
 93
        0
 40
0.045
309
GRIDFORMAT_END
 95
        8
302
GRIDFORMAT
  1
GRIDFORMAT_BEGIN
 90
        0
 91
        1
 62
   256
 92
       -1
340
F
 93
        0
 40
0.045
309
GRIDFORMAT_END
 95
       16
302
GRIDFORMAT
  1
GRIDFORMAT_BEGIN
 90
        0
 91
        1
 62
   256
 92
       -2
340
F
 93
        0
 40
0.045
309
GRIDFORMAT_END
 95
       32
302
GRIDFORMAT
  1
GRIDFORMAT_BEGIN
 90
        0
 91
        1
 62
   256
 92
       -1
340
F
 93
        0
 40
0.045
309
GRIDFORMAT_END
309
TABLEFORMAT_END
  1
CELLSTYLE_BEGIN
 90
        3
 91
        2
300
_DATA
309
CELLSTYLE_END
  0
ENDSEC
  0
EOF
