  0
SECTION
  2
HEADER
  9
$ACADVER
  1
AC1014
  9
$ACADMAINTVER
 70
     9
  9
$DWGCODEPAGE
  3
ANSI_932
  9
$INSBASE
 10
0.0
 20
0.0
 30
0.0
  9
$EXTMIN
 10
14.44965899398175
 20
24.62159801020936
 30
-0.0015258207003583
  9
$EXTMAX
 10
213.6361515061476
 20
91.28526351354697
 30
0.0000000349246037
  9
$LIMMIN
 10
0.0
 20
0.0
  9
$LIMMAX
 10
420.0
 20
297.0
  9
$ORTHOMODE
 70
     1
  9
$REGENMODE
 70
     1
  9
$FILLMODE
 70
     1
  9
$QTEXTMODE
 70
     0
  9
$MIRRTEXT
 70
     0
  9
$DRAGMODE
 70
     2
  9
$LTSCALE
 40
2.0
  9
$OSMODE
 70
   191
  9
$ATTMODE
 70
     1
  9
$TEXTSIZE
 40
2.5
  9
$TRACEWID
 40
1.0
  9
$TEXTSTYLE
  7
STANDARD
  9
$CLAYER
  8
OBJECT
  9
$CELTYPE
  6
BYLAYER
  9
$CECOLOR
 62
   256
  9
$CELTSCALE
 40
1.0
  9
$DELOBJ
 70
     1
  9
$DISPSILH
 70
     0
  9
$DIMSCALE
 40
0.4600000000000001
  9
$DIMASZ
 40
2.5
  9
$DIMEXO
 40
1.25
  9
$DIMDLI
 40
1.0
  9
$DIMRND
 40
0.0
  9
$DIMDLE
 40
0.0
  9
$DIMEXE
 40
0.625
  9
$DIMTP
 40
0.0
  9
$DIMTM
 40
0.0
  9
$DIMTXT
 40
2.5
  9
$DIMCEN
 40
0.0
  9
$DIMTSZ
 40
0.0
  9
$DIMTOL
 70
     0
  9
$DIMLIM
 70
     0
  9
$DIMTIH
 70
     0
  9
$DIMTOH
 70
     0
  9
$DIMSE1
 70
     0
  9
$DIMSE2
 70
     0
  9
$DIMTAD
 70
     1
  9
$DIMZIN
 70
     8
  9
$DIMBLK
  1

  9
$DIMASO
 70
     1
  9
$DIMSHO
 70
     1
  9
$DIMPOST
  1

  9
$DIMAPOST
  1

  9
$DIMALT
 70
     0
  9
$DIMALTD
 70
     4
  9
$DIMALTF
 40
0.0394
  9
$DIMLFAC
 40
1.0
  9
$DIMTOFL
 70
     1
  9
$DIMTVP
 40
0.0
  9
$DIMTIX
 70
     0
  9
$DIMSOXD
 70
     0
  9
$DIMSAH
 70
     0
  9
$DIMBLK1
  1

  9
$DIMBLK2
  1

  9
$DIMSTYLE
  2
STANDARD
  9
$DIMCLRD
 70
     3
  9
$DIMCLRE
 70
     3
  9
$DIMCLRT
 70
     3
  9
$DIMTFAC
 40
1.0
  9
$DIMGAP
 40
0.625
  9
$DIMJUST
 70
     0
  9
$DIMSD1
 70
     0
  9
$DIMSD2
 70
     0
  9
$DIMTOLJ
 70
     1
  9
$DIMTZIN
 70
     8
  9
$DIMALTZ
 70
     0
  9
$DIMALTTZ
 70
     0
  9
$DIMFIT
 70
     3
  9
$DIMUPT
 70
     0
  9
$DIMUNIT
 70
     2
  9
$DIMDEC
 70
     2
  9
$DIMTDEC
 70
     2
  9
$DIMALTU
 70
     8
  9
$DIMALTTD
 70
     4
  9
$DIMTXSTY
  7
STANDARD
  9
$DIMAUNIT
 70
     0
  9
$LUNITS
 70
     2
  9
$LUPREC
 70
     4
  9
$SKETCHINC
 40
1.0
  9
$FILLETRAD
 40
0.5
  9
$AUNITS
 70
     0
  9
$AUPREC
 70
     0
  9
$MENU
  1
.
  9
$ELEVATION
 40
0.0
  9
$PELEVATION
 40
0.0
  9
$THICKNESS
 40
0.0
  9
$LIMCHECK
 70
     0
  9
$BLIPMODE
 70
     0
  9
$CHAMFERA
 40
0.0
  9
$CHAMFERB
 40
0.0
  9
$CHAMFERC
 40
20.0
  9
$CHAMFERD
 40
0.0
  9
$SKPOLY
 70
     0
  9
$TDCREATE
 40
2452136.870343981
  9
$TDUPDATE
 40
2454518.481124664
  9
$TDINDWG
 40
10.8218029861
  9
$TDUSRTIMER
 40
10.8218028125
  9
$USRTIMER
 70
     1
  9
$ANGBASE
 50
0.0
  9
$ANGDIR
 70
     0
  9
$PDMODE
 70
     0
  9
$PDSIZE
 40
0.0
  9
$PLINEWID
 40
0.3
  9
$COORDS
 70
     0
  9
$SPLFRAME
 70
     0
  9
$SPLINETYPE
 70
     6
  9
$SPLINESEGS
 70
     8
  9
$ATTDIA
 70
     0
  9
$ATTREQ
 70
     1
  9
$HANDLING
 70
 22529
  9
$HANDSEED
  5
2FF
  9
$SURFTAB1
 70
     6
  9
$SURFTAB2
 70
     6
  9
$SURFTYPE
 70
     6
  9
$SURFU
 70
     6
  9
$SURFV
 70
     6
  9
$UCSNAME
  2

  9
$UCSORG
 10
0.0
 20
0.0
 30
0.0
  9
$UCSXDIR
 10
1.0
 20
0.0
 30
0.0
  9
$UCSYDIR
 10
0.0
 20
1.0
 30
0.0
  9
$PUCSNAME
  2

  9
$PUCSORG
 10
0.0
 20
0.0
 30
0.0
  9
$PUCSXDIR
 10
1.0
 20
0.0
 30
0.0
  9
$PUCSYDIR
 10
0.0
 20
1.0
 30
0.0
  9
$USERI1
 70
     0
  9
$USERI2
 70
     0
  9
$USERI3
 70
     0
  9
$USERI4
 70
     0
  9
$USERI5
 70
     0
  9
$USERR1
 40
0.0
  9
$USERR2
 40
0.0
  9
$USERR3
 40
0.0
  9
$USERR4
 40
0.0
  9
$USERR5
 40
0.0
  9
$WORLDVIEW
 70
     1
  9
$SHADEDGE
 70
     3
  9
$SHADEDIF
 70
    70
  9
$TILEMODE
 70
     1
  9
$MAXACTVP
 70
    48
  9
$PINSBASE
 10
0.0
 20
0.0
 30
0.0
  9
$PLIMCHECK
 70
     0
  9
$PEXTMIN
 10
0.9598916571909988
 20
0.8043799099959727
 30
0.0
  9
$PEXTMAX
 10
8.639024914718985
 20
7.239419189963752
 30
0.0
  9
$PLIMMIN
 10
-0.7005418191744587
 20
-0.2281003861915408
  9
$PLIMMAX
 10
10.29945794052965
 20
8.271899373512567
  9
$UNITMODE
 70
     0
  9
$VISRETAIN
 70
     1
  9
$PLINEGEN
 70
     0
  9
$PSLTSCALE
 70
     1
  9
$TREEDEPTH
 70
  3020
  9
$PICKSTYLE
 70
     1
  9
$CMLSTYLE
  2
STANDARD
  9
$CMLJUST
 70
     0
  9
$CMLSCALE
 40
20.0
  9
$PROXYGRAPHICS
 70
     1
  9
$MEASUREMENT
 70
     0
  0
ENDSEC
  0
SECTION
  2
CLASSES
  0
CLASS
  1
DICTIONARYVAR
  2
AcDbDictionaryVar
  3
AutoCAD 2000
 90
        0
280
     0
281
     0
  0
CLASS
  1
HATCH
  2
AcDbHatch
  3
AutoCAD 2000
 90
        0
280
     0
281
     1
  0
CLASS
  1
XRECORD
  2
AcDbXrecord
  3
AutoCAD 2000
 90
        0
280
     0
281
     0
  0
CLASS
  1
LWPOLYLINE
  2
AcDbPolyline
  3
AutoCAD 2000
 90
        0
280
     0
281
     1
  0
CLASS
  1
ACDBDICTIONARYWDFLT
  2
AcDbDictionaryWithDefault
  3
AutoCAD 2000
 90
        0
280
     0
281
     0
  0
CLASS
  1
ACDBPLACEHOLDER
  2
AcDbPlaceHolder
  3
AutoCAD 2000
 90
        0
280
     0
281
     0
  0
CLASS
  1
LAYOUT
  2
AcDbLayout
  3
AutoCAD 2000
 90
        0
280
     0
281
     0
  0
CLASS
  1
DIMASSOC
  2
AcDbDimAssoc
  3
"AcDbDimAssoc|Product Desc:     AcDim ARX App For Dimension|Company:          Autodesk, Inc.|WEB Address:      www.autodesk.com"
 90
        0
280
     0
281
     0
  0
CLASS
  1
PLOTSETTINGS
  2
AcDbPlotSettings
  3
AutoCAD 2000
 90
        0
280
     0
281
     0
  0
CLASS
  1
LONG_TRANSACTION
  2
AcDbLongTransaction
  3
AutoCAD 2000
 90
        0
280
     0
281
     0
  0
CLASS
  1
LWPOLYLINE
  2
AcDbPolyline
  3
AutoCAD 2000
 90
        0
280
     0
281
     1
  0
CLASS
  1
HATCH
  2
AcDbHatch
  3
AutoCAD 2000
 90
        0
280
     0
281
     1
  0
CLASS
  1
XRECORD
  2
AcDbXrecord
  3
AutoCAD 2000
 90
        0
280
     0
281
     0
  0
CLASS
  1
LONG_TRANSACTION
  2
AcDbLongTransaction
  3
AutoCAD 2000
 90
        0
280
     0
281
     0
  0
CLASS
  1
LWPOLYLINE
  2
AcDbPolyline
  3
AutoCAD 2000
 90
        0
280
     0
281
     1
  0
CLASS
  1
HATCH
  2
AcDbHatch
  3
AutoCAD 2000
 90
        0
280
     0
281
     1
  0
CLASS
  1
XRECORD
  2
AcDbXrecord
  3
AutoCAD 2000
 90
        0
280
     0
281
     0
  0
ENDSEC
  0
SECTION
  2
TABLES
  0
TABLE
  2
VPORT
  5
1C
330
0
100
AcDbSymbolTable
 70
     5
  0
VPORT
  5
2DB
330
1C
100
AcDbSymbolTableRecord
100
AcDbViewportTableRecord
  2
*ACTIVE
 70
     0
 10
0.0
 20
0.0
 11
1.0
 21
1.0
 12
114.0537867288184
 22
57.94657230721554
 13
0.0
 23
0.0
 14
10.0
 24
10.0
 15
10.0
 25
10.0
 16
0.0
 26
0.0
 36
1.0
 17
0.0
 27
0.0
 37
0.0
 40
267.9409928292737
 41
1.493654822335025
 42
50.0
 43
0.0
 44
0.0
 50
0.0
 51
0.0
 71
     0
 72
 20000
 73
     1
 74
     1
 75
     0
 76
     0
 77
     0
 78
     0
  0
ENDTAB
  0
TABLE
  2
LTYPE
  5
17
330
0
100
AcDbSymbolTable
 70
     2
  0
LTYPE
  5
18
330
17
100
AcDbSymbolTableRecord
100
AcDbLinetypeTableRecord
  2
BYBLOCK
 70
     0
  3

 72
    65
 73
     0
 40
0.0
  0
LTYPE
  5
19
330
17
100
AcDbSymbolTableRecord
100
AcDbLinetypeTableRecord
  2
BYLAYER
 70
     0
  3

 72
    65
 73
     0
 40
0.0
  0
LTYPE
  5
8
330
17
100
AcDbSymbolTableRecord
100
AcDbLinetypeTableRecord
  2
CONTINUOUS
 70
     0
  3
Solid line
 72
    65
 73
     0
 40
0.0
  0
LTYPE
  5
64
330
17
100
AcDbSymbolTableRecord
100
AcDbLinetypeTableRecord
  2
HIDDEN
 70
     0
  3
Hidden __ __ __ __ __ __ __ __ __ __ __ __ __ _
 72
    65
 73
     2
 40
9.524999999999996
 49
6.349999999999998
 74
     0
 49
-3.174999999999998
 74
     0
  0
ENDTAB
  0
TABLE
  2
LAYER
  5
10
102
{ACAD_XDICTIONARY
360
11
102
}
330
0
100
AcDbSymbolTable
 70
     4
  0
LAYER
  5
4
330
10
100
AcDbSymbolTableRecord
100
AcDbLayerTableRecord
  2
0
 70
     0
 62
     7
  6
CONTINUOUS
  0
LAYER
  5
27
330
10
100
AcDbSymbolTableRecord
100
AcDbLayerTableRecord
  2
OBJECT
 70
     0
 62
     7
  6
CONTINUOUS
  0
LAYER
  5
63
330
10
100
AcDbSymbolTableRecord
100
AcDbLayerTableRecord
  2
TEXT
 70
     0
 62
     3
  6
CONTINUOUS
  0
LAYER
  5
36
330
10
100
AcDbSymbolTableRecord
100
AcDbLayerTableRecord
  2
DEFPOINTS
 70
     0
 62
     2
  6
CONTINUOUS
  0
ENDTAB
  0
TABLE
  2
STYLE
  5
14
330
0
100
AcDbSymbolTable
 70
     3
  0
STYLE
  5
15
330
14
100
AcDbSymbolTableRecord
100
AcDbTextStyleTableRecord
  2
STANDARD
 70
     0
 40
0.0
 41
1.0
 50
0.0
 71
     0
 42
2.5
  3
simplex.shx
  4
bigfont.shx
  0
ENDTAB
  0
TABLE
  2
VIEW
  5
1A
330
0
100
AcDbSymbolTable
 70
     0
  0
ENDTAB
  0
TABLE
  2
UCS
  5
1B
330
0
100
AcDbSymbolTable
 70
     0
  0
ENDTAB
  0
TABLE
  2
APPID
  5
1E
330
0
100
AcDbSymbolTable
 70
     1
  0
APPID
  5
1F
330
1E
100
AcDbSymbolTableRecord
100
AcDbRegAppTableRecord
  2
ACAD
 70
     0
  0
ENDTAB
  0
TABLE
  2
DIMSTYLE
  5
20
330
0
100
AcDbSymbolTable
 70
     1
  0
DIMSTYLE
105
21
102
{ACAD_REACTORS
330
10A
330
3B
330
2D
330
B7
330
55
330
48
102
}
330
20
100
AcDbSymbolTableRecord
100
AcDbDimStyleTableRecord
  2
STANDARD
 70
     0
  3

  4

  5

  6

  7

 40
0.4600000000000001
 41
2.5
 42
1.25
 43
1.0
 44
0.625
 45
0.0
 46
0.0
 47
0.0
 48
0.0
140
2.5
141
0.0
142
0.0
143
0.0394
144
1.0
145
0.0
146
1.0
147
0.625
 71
     0
 72
     0
 73
     0
 74
     0
 75
     0
 76
     0
 77
     1
 78
     8
170
     0
171
     4
172
     1
173
     0
174
     0
175
     0
176
     3
177
     3
178
     3
270
     2
271
     2
272
     2
273
     8
274
     4
340
15
275
     0
280
     0
281
     0
282
     0
283
     1
284
     8
285
     0
286
     0
287
     3
288
     0
  0
ENDTAB
  0
TABLE
  2
BLOCK_RECORD
  5
1
330
0
100
AcDbSymbolTable
 70
    13
  0
BLOCK_RECORD
  5
2
102
{ACAD_XDICTIONARY
360
16F
102
}
330
1
100
AcDbSymbolTableRecord
100
AcDbBlockTableRecord
  2
*MODEL_SPACE
  0
BLOCK_RECORD
  5
C
102
{ACAD_XDICTIONARY
360
171
102
}
330
1
100
AcDbSymbolTableRecord
100
AcDbBlockTableRecord
  2
*PAPER_SPACE
  0
BLOCK_RECORD
  5
215
330
1
100
AcDbSymbolTableRecord
100
AcDbBlockTableRecord
  2
*D7
  0
BLOCK_RECORD
  5
224
330
1
100
AcDbSymbolTableRecord
100
AcDbBlockTableRecord
  2
*D8
  0
BLOCK_RECORD
  5
230
330
1
100
AcDbSymbolTableRecord
100
AcDbBlockTableRecord
  2
*D9
  0
BLOCK_RECORD
  5
23C
330
1
100
AcDbSymbolTableRecord
100
AcDbBlockTableRecord
  2
*D10
  0
BLOCK_RECORD
  5
251
330
1
100
AcDbSymbolTableRecord
100
AcDbBlockTableRecord
  2
*D11
  0
BLOCK_RECORD
  5
25D
330
1
100
AcDbSymbolTableRecord
100
AcDbBlockTableRecord
  2
*D12
  0
ENDTAB
  0
ENDSEC
  0
SECTION
  2
BLOCKS
  0
BLOCK
  5
3
330
2
100
AcDbEntity
  8
0
100
AcDbBlockBegin
  2
*MODEL_SPACE
 70
     2
 10
0.0
 20
0.0
 30
0.0
  3
*MODEL_SPACE
  1

  0
ENDBLK
  5
9
330
2
100
AcDbEntity
  8
0
100
AcDbBlockEnd
  0
BLOCK
  5
D
330
C
100
AcDbEntity
 67
     1
  8
0
100
AcDbBlockBegin
  2
*PAPER_SPACE
 70
     0
 10
0.0
 20
0.0
 30
0.0
  3
*PAPER_SPACE
  1

  0
ENDBLK
  5
E
330
C
100
AcDbEntity
 67
     1
  8
0
100
AcDbBlockEnd
  0
BLOCK
  5
21F
330
215
100
AcDbEntity
  8
0
100
AcDbBlockBegin
  2
*D7
 70
     1
 10
0.0
 20
0.0
 30
0.0
  3
*D7
  1

  0
LINE
  5
2B3
330
215
100
AcDbEntity
  8
TEXT
 62
     0
100
AcDbLine
 10
196.915050474854
 20
47.70829960591188
 30
0.0
 11
196.915050474854
 21
24.65851651043209
 31
0.0
  0
LINE
  5
2B4
330
215
100
AcDbEntity
  8
TEXT
 62
     0
100
AcDbLine
 10
87.95854772611802
 20
40.99329960591169
 30
0.0
 11
87.95854772611802
 21
24.65851651043209
 31
0.0
  0
LINE
  5
2B5
330
215
100
AcDbEntity
  8
TEXT
 62
     0
100
AcDbLine
 10
194.415050474854
 20
25.28351651043209
 30
0.0
 11
90.45854772611802
 21
25.28351651043209
 31
0.0
  0
SOLID
  5
2B6
330
215
100
AcDbEntity
  8
TEXT
 62
     0
100
AcDbTrace
 10
194.415050474854
 20
25.70018317709876
 30
0.0
 11
194.415050474854
 21
24.86684984376542
 31
0.0
 12
196.915050474854
 22
25.28351651043209
 32
0.0
 13
196.915050474854
 23
25.28351651043209
 33
0.0
  0
SOLID
  5
2B7
330
215
100
AcDbEntity
  8
TEXT
 62
     0
100
AcDbTrace
 10
90.45854772611802
 20
25.70018317709876
 30
0.0
 11
90.45854772611802
 21
24.86684984376542
 31
0.0
 12
87.95854772611802
 22
25.28351651043209
 32
0.0
 13
87.95854772611802
 23
25.28351651043209
 33
0.0
  0
MTEXT
  5
2B8
330
215
100
AcDbEntity
  8
TEXT
 62
     0
100
AcDbMText
 10
142.436799100486
 20
27.40851651043209
 30
0.0
 40
3.0
 41
0.0
 71
     5
 72
     1
  1
\A1;1000／2000
1001
ACAD
1000
MTEXTBEGIN
1070
    73
1070
     1
1070
    44
1040
1.0
1070
    74
1070
     0
1000
MTEXTEND
  0
POINT
  5
2B9
330
215
100
AcDbEntity
  8
DEFPOINTS
 62
     0
100
AcDbPoint
 10
196.915050474854
 20
48.95829960591189
 30
0.0
  0
POINT
  5
2BA
330
215
100
AcDbEntity
  8
DEFPOINTS
 62
     0
100
AcDbPoint
 10
87.95854772611802
 20
42.24329960591169
 30
0.0
  0
POINT
  5
2BB
330
215
100
AcDbEntity
  8
DEFPOINTS
 62
     0
100
AcDbPoint
 10
87.95854772611802
 20
25.28351651043209
 30
0.0
  0
ENDBLK
  5
220
330
215
100
AcDbEntity
  8
0
100
AcDbBlockEnd
  0
BLOCK
  5
22E
330
224
100
AcDbEntity
  8
0
100
AcDbBlockBegin
  2
*D8
 70
     1
 10
0.0
 20
0.0
 30
0.0
  3
*D8
  1

  0
LINE
  5
2C5
330
224
100
AcDbEntity
  8
TEXT
 62
     0
100
AcDbLine
 10
33.712636374265
 20
69.45829975586551
 30
0.0
 11
44.51671085609111
 21
69.45829975586551
 31
0.0
  0
LINE
  5
2C6
330
224
100
AcDbEntity
  8
TEXT
 62
     0
100
AcDbLine
 10
33.71263637426409
 20
36.26829975586559
 30
0.0
 11
44.5167108560911
 21
36.26829975586559
 31
0.0
  0
LINE
  5
2C7
330
224
100
AcDbEntity
  8
TEXT
 62
     0
100
AcDbLine
 10
43.89171085609111
 20
66.95829975586551
 30
0.0
 11
43.8917108560911
 21
38.76829975586559
 31
0.0
  0
SOLID
  5
2C8
330
224
100
AcDbEntity
  8
TEXT
 62
     0
100
AcDbTrace
 10
43.47504418942444
 20
66.95829975586551
 30
0.0
 11
44.30837752275777
 21
66.95829975586551
 31
0.0
 12
43.89171085609111
 22
69.45829975586551
 32
0.0
 13
43.89171085609111
 23
69.45829975586551
 33
0.0
  0
SOLID
  5
2C9
330
224
100
AcDbEntity
  8
TEXT
 62
     0
100
AcDbTrace
 10
43.47504418942444
 20
38.76829975586559
 30
0.0
 11
44.30837752275777
 21
38.76829975586559
 31
0.0
 12
43.8917108560911
 22
36.26829975586559
 32
0.0
 13
43.8917108560911
 23
36.26829975586559
 33
0.0
  0
MTEXT
  5
2CA
330
224
100
AcDbEntity
  8
TEXT
 62
     0
100
AcDbMText
 10
41.76671085609109
 20
51.94275677955491
 30
0.0
 40
3.0
 41
0.0
 71
     5
 72
     1
  1
\A1;33.19
 11
0.0000000000000001
 21
1.0
 31
0.0
1001
ACAD
1000
MTEXTBEGIN
1070
    73
1070
     1
1070
    44
1040
1.0
1070
    74
1070
     0
1000
MTEXTEND
  0
POINT
  5
2CB
330
224
100
AcDbEntity
  8
DEFPOINTS
 62
     0
100
AcDbPoint
 10
32.462636374265
 20
69.45829975586551
 30
0.0
  0
POINT
  5
2CC
330
224
100
AcDbEntity
  8
DEFPOINTS
 62
     0
100
AcDbPoint
 10
32.46263637426409
 20
36.26829975586559
 30
0.0
  0
POINT
  5
2CD
330
224
100
AcDbEntity
  8
DEFPOINTS
 62
     0
100
AcDbPoint
 10
43.8917108560911
 20
36.26829975586559
 30
0.0
  0
ENDBLK
  5
22F
330
224
100
AcDbEntity
  8
0
100
AcDbBlockEnd
  0
BLOCK
  5
23A
330
230
100
AcDbEntity
  8
0
100
AcDbBlockBegin
  2
*D9
 70
     1
 10
0.0
 20
0.0
 30
0.0
  3
*D9
  1

  0
LINE
  5
2AA
330
230
100
AcDbEntity
  8
TEXT
 62
     0
100
AcDbLine
 10
20.76263637426496
 20
36.01829975586539
 30
0.0
 11
20.76263637426496
 21
24.69901453689209
 31
0.0
  0
LINE
  5
2AB
330
230
100
AcDbEntity
  8
TEXT
 62
     0
100
AcDbLine
 10
33.46263637426409
 20
36.01829975586559
 30
0.0
 11
33.46263637426409
 21
24.69901453689209
 31
0.0
  0
LINE
  5
2AC
330
230
100
AcDbEntity
  8
TEXT
 62
     0
100
AcDbLine
 10
23.26263637426496
 20
25.32401453689209
 30
0.0
 11
30.96263637426409
 21
25.32401453689209
 31
0.0
  0
SOLID
  5
2AD
330
230
100
AcDbEntity
  8
TEXT
 62
     0
100
AcDbTrace
 10
23.26263637426496
 20
25.74068120355876
 30
0.0
 11
23.26263637426496
 21
24.90734787022542
 31
0.0
 12
20.76263637426496
 22
25.32401453689209
 32
0.0
 13
20.76263637426496
 23
25.32401453689209
 33
0.0
  0
SOLID
  5
2AE
330
230
100
AcDbEntity
  8
TEXT
 62
     0
100
AcDbTrace
 10
30.96263637426409
 20
25.74068120355876
 30
0.0
 11
30.96263637426409
 21
24.90734787022542
 31
0.0
 12
33.46263637426409
 22
25.32401453689209
 32
0.0
 13
33.46263637426409
 23
25.32401453689209
 33
0.0
  0
MTEXT
  5
2AF
330
230
100
AcDbEntity
  8
TEXT
 62
     0
100
AcDbMText
 10
27.62598077078087
 20
27.44901453689209
 30
0.0
 40
3.0
 41
0.0
 71
     5
 72
     1
  1
\A1;12.7
1001
ACAD
1000
MTEXTBEGIN
1070
    73
1070
     1
1070
    44
1040
1.0
1070
    74
1070
     0
1000
MTEXTEND
  0
POINT
  5
2B0
330
230
100
AcDbEntity
  8
DEFPOINTS
 62
     0
100
AcDbPoint
 10
20.76263637426496
 20
37.26829975586539
 30
0.0
  0
POINT
  5
2B1
330
230
100
AcDbEntity
  8
DEFPOINTS
 62
     0
100
AcDbPoint
 10
33.46263637426409
 20
37.26829975586559
 30
0.0
  0
POINT
  5
2B2
330
230
100
AcDbEntity
  8
DEFPOINTS
 62
     0
100
AcDbPoint
 10
33.46263637426409
 20
25.32401453689209
 30
0.0
  0
ENDBLK
  5
23B
330
230
100
AcDbEntity
  8
0
100
AcDbBlockEnd
  0
BLOCK
  5
246
330
23C
100
AcDbEntity
  8
0
100
AcDbBlockBegin
  2
*D10
 70
     1
 10
0.0
 20
0.0
 30
0.0
  3
*D10
  1

  0
LINE
  5
2A1
330
23C
100
AcDbEntity
  8
TEXT
 62
     0
100
AcDbLine
 10
54.3585477261181
 20
37.493299605912
 30
0.0
 11
54.3585477261181
 21
24.7380878610279
 31
0.0
  0
LINE
  5
2A2
330
23C
100
AcDbEntity
  8
TEXT
 62
     0
100
AcDbLine
 10
87.95854772611802
 20
40.99329960591169
 30
0.0
 11
87.95854772611802
 21
24.7380878610279
 31
0.0
  0
LINE
  5
2A3
330
23C
100
AcDbEntity
  8
TEXT
 62
     0
100
AcDbLine
 10
56.8585477261181
 20
25.3630878610279
 30
0.0
 11
85.45854772611802
 21
25.3630878610279
 31
0.0
  0
SOLID
  5
2A4
330
23C
100
AcDbEntity
  8
TEXT
 62
     0
100
AcDbTrace
 10
56.8585477261181
 20
25.77975452769457
 30
0.0
 11
56.8585477261181
 21
24.94642119436123
 31
0.0
 12
54.3585477261181
 22
25.3630878610279
 32
0.0
 13
54.3585477261181
 23
25.3630878610279
 33
0.0
  0
SOLID
  5
2A5
330
23C
100
AcDbEntity
  8
TEXT
 62
     0
100
AcDbTrace
 10
85.45854772611802
 20
25.77975452769457
 30
0.0
 11
85.45854772611802
 21
24.94642119436123
 31
0.0
 12
87.95854772611802
 22
25.3630878610279
 32
0.0
 13
87.95854772611802
 23
25.3630878610279
 33
0.0
  0
MTEXT
  5
2A6
330
23C
100
AcDbEntity
  8
TEXT
 62
     0
100
AcDbMText
 10
71.15854772611806
 20
27.4880878610279
 30
0.0
 40
3.0
 41
0.0
 71
     5
 72
     1
  1
\A1;33.6
1001
ACAD
1000
MTEXTBEGIN
1070
    73
1070
     1
1070
    44
1040
1.0
1070
    74
1070
     0
1000
MTEXTEND
  0
POINT
  5
2A7
330
23C
100
AcDbEntity
  8
DEFPOINTS
 62
     0
100
AcDbPoint
 10
54.3585477261181
 20
38.743299605912
 30
0.0
  0
POINT
  5
2A8
330
23C
100
AcDbEntity
  8
DEFPOINTS
 62
     0
100
AcDbPoint
 10
87.95854772611802
 20
42.24329960591169
 30
0.0
  0
POINT
  5
2A9
330
23C
100
AcDbEntity
  8
DEFPOINTS
 62
     0
100
AcDbPoint
 10
87.95854772611802
 20
25.3630878610279
 30
0.0
  0
ENDBLK
  5
247
330
23C
100
AcDbEntity
  8
0
100
AcDbBlockEnd
  0
BLOCK
  5
25B
330
251
100
AcDbEntity
  8
0
100
AcDbBlockBegin
  2
*D11
 70
     1
 10
0.0
 20
0.0
 30
0.0
  3
*D11
  1

  0
LINE
  5
2BC
330
251
100
AcDbEntity
  8
TEXT
 62
     0
100
AcDbLine
 10
213.5998125267628
 20
49.70829960591188
 30
0.0
 11
213.5998125267628
 21
24.6227087357677
 31
0.0
  0
LINE
  5
2BD
330
251
100
AcDbEntity
  8
TEXT
 62
     0
100
AcDbLine
 10
196.915050474854
 20
47.70829960591188
 30
0.0
 11
196.915050474854
 21
24.6227087357677
 31
0.0
  0
LINE
  5
2BE
330
251
100
AcDbEntity
  8
TEXT
 62
     0
100
AcDbLine
 10
211.0998125267629
 20
25.2477087357677
 30
0.0
 11
199.415050474854
 21
25.2477087357677
 31
0.0
  0
SOLID
  5
2BF
330
251
100
AcDbEntity
  8
TEXT
 62
     0
100
AcDbTrace
 10
211.0998125267629
 20
25.66437540243437
 30
0.0
 11
211.0998125267629
 21
24.83104206910103
 31
0.0
 12
213.5998125267628
 22
25.2477087357677
 32
0.0
 13
213.5998125267628
 23
25.2477087357677
 33
0.0
  0
SOLID
  5
2C0
330
251
100
AcDbEntity
  8
TEXT
 62
     0
100
AcDbTrace
 10
199.415050474854
 20
25.66437540243437
 30
0.0
 11
199.415050474854
 21
24.83104206910103
 31
0.0
 12
196.915050474854
 22
25.2477087357677
 32
0.0
 13
196.915050474854
 23
25.2477087357677
 33
0.0
  0
MTEXT
  5
2C1
330
251
100
AcDbEntity
  8
TEXT
 62
     0
100
AcDbMText
 10
205.9727390131599
 20
27.3727087357677
 30
0.0
 40
3.0
 41
0.0
 71
     5
 72
     1
  1
\A1;30
1001
ACAD
1000
MTEXTBEGIN
1070
    73
1070
     1
1070
    44
1040
1.0
1070
    74
1070
     0
1000
MTEXTEND
  0
POINT
  5
2C2
330
251
100
AcDbEntity
  8
DEFPOINTS
 62
     0
100
AcDbPoint
 10
213.5998125267628
 20
50.95829960591188
 30
0.0
  0
POINT
  5
2C3
330
251
100
AcDbEntity
  8
DEFPOINTS
 62
     0
100
AcDbPoint
 10
196.915050474854
 20
48.95829960591189
 30
0.0
  0
POINT
  5
2C4
330
251
100
AcDbEntity
  8
DEFPOINTS
 62
     0
100
AcDbPoint
 10
196.915050474854
 20
25.2477087357677
 30
0.0
  0
ENDBLK
  5
25C
330
251
100
AcDbEntity
  8
0
100
AcDbBlockEnd
  0
BLOCK
  5
268
330
25D
100
AcDbEntity
  8
0
100
AcDbBlockBegin
  2
*D12
 70
     1
 10
0.0
 20
0.0
 30
0.0
  3
*D12
  1

  0
LINE
  5
2CE
330
25D
100
AcDbEntity
  8
TEXT
 62
     0
100
AcDbLine
 10
146.1970452398379
 20
56.76829960591184
 30
0.0
 11
149.766970980198
 21
56.76829960591184
 31
0.0
  0
LINE
  5
2CF
330
25D
100
AcDbEntity
  8
TEXT
 62
     0
100
AcDbLine
 10
146.1970452398379
 20
48.95829960591189
 30
0.0
 11
149.766970980198
 21
48.95829960591189
 31
0.0
  0
LINE
  5
2D0
330
25D
100
AcDbEntity
  8
TEXT
 62
     0
100
AcDbLine
 10
149.141970980198
 20
51.45829960591189
 30
0.0
 11
149.141970980198
 21
54.26829960591184
 31
0.0
  0
LINE
  5
2D1
330
25D
100
AcDbEntity
  8
TEXT
 62
     0
100
AcDbLine
 10
149.141970980198
 20
56.76829960591184
 30
0.0
 11
149.141970980198
 21
70.05044246305487
 31
0.0
  0
SOLID
  5
2D2
330
25D
100
AcDbEntity
  8
TEXT
 62
     0
100
AcDbTrace
 10
148.7253043135313
 20
51.45829960591189
 30
0.0
 11
149.5586376468646
 21
51.45829960591189
 31
0.0
 12
149.141970980198
 22
48.95829960591189
 32
0.0
 13
149.141970980198
 23
48.95829960591189
 33
0.0
  0
SOLID
  5
2D3
330
25D
100
AcDbEntity
  8
TEXT
 62
     0
100
AcDbTrace
 10
148.7253043135313
 20
54.26829960591184
 30
0.0
 11
149.5586376468646
 21
54.26829960591184
 31
0.0
 12
149.141970980198
 22
56.76829960591184
 32
0.0
 13
149.141970980198
 23
56.76829960591184
 33
0.0
  0
MTEXT
  5
2D4
330
25D
100
AcDbEntity
  8
TEXT
 62
     0
100
AcDbMText
 10
147.016970980198
 20
64.85401389162632
 30
0.0
 40
3.0
 41
0.0
 71
     5
 72
     1
  1
\A1;φ9.9
 11
0.0000000000000001
 21
1.0
 31
0.0
1001
ACAD
1000
MTEXTBEGIN
1070
    73
1070
     1
1070
    44
1040
1.0
1070
    74
1070
     0
1000
MTEXTEND
  0
POINT
  5
2D5
330
25D
100
AcDbEntity
  8
DEFPOINTS
 62
     0
100
AcDbPoint
 10
144.9470452398379
 20
56.76829960591184
 30
0.0
  0
POINT
  5
2D6
330
25D
100
AcDbEntity
  8
DEFPOINTS
 62
     0
100
AcDbPoint
 10
144.9470452398379
 20
48.95829960591189
 30
0.0
  0
POINT
  5
2D7
330
25D
100
AcDbEntity
  8
DEFPOINTS
 62
     0
100
AcDbPoint
 10
149.141970980198
 20
48.95829960591189
 30
0.0
  0
ENDBLK
  5
269
330
25D
100
AcDbEntity
  8
0
100
AcDbBlockEnd
  0
ENDSEC
  0
SECTION
  2
ENTITIES
  0
LWPOLYLINE
  5
29
330
2
100
AcDbEntity
  8
OBJECT
100
AcDbPolyline
 90
        2
 70
     0
 43
0.3
 10
213.5998125267628
 20
54.76829960591183
 10
196.915050474854
 20
54.76829960591183
  0
LWPOLYLINE
  5
2A
330
2
100
AcDbEntity
  8
OBJECT
100
AcDbPolyline
 90
        2
 70
     0
 43
0.3
 10
213.5998125267628
 20
53.67691973456818
 10
196.915050474854
 20
53.67691973456818
  0
LWPOLYLINE
  5
2B
330
2
100
AcDbEntity
  8
OBJECT
100
AcDbPolyline
 90
        2
 70
     0
 43
0.3
 10
213.5998125267628
 20
52.04967947725553
 10
196.915050474854
 20
52.04967947725553
  0
LWPOLYLINE
  5
2C
330
2
100
AcDbEntity
  8
OBJECT
100
AcDbPolyline
 90
        2
 70
     0
 43
0.3
 10
213.5998125267628
 20
50.95829960591188
 10
196.915050474854
 20
50.95829960591188
  0
DIMENSION
  5
2D
330
2
100
AcDbEntity
  8
TEXT
100
AcDbDimension
  2
*D11
 10
196.915050474854
 20
25.2477087357677
 30
0.0
 11
205.9727390131599
 21
25.2477087357677
 31
0.0
 70
   160
  1
30
  3
STANDARD
100
AcDbAlignedDimension
 13
213.5998125267628
 23
50.95829960591188
 33
0.0
 14
196.915050474854
 24
48.95829960591189
 34
0.0
100
AcDbRotatedDimension
1001
ACAD
1000
DSTYLE
1002
{
1070
   140
1040
3.0
1070
    41
1040
2.5
1070
    40
1040
1.0
1070
   176
1070
     0
1070
   177
1070
     0
1070
   178
1070
     0
1002
}
  0
DIMENSION
  5
3B
330
2
100
AcDbEntity
  8
TEXT
100
AcDbDimension
  2
*D7
 10
87.95854772611802
 20
25.28351651043209
 30
0.0
 11
142.436799100486
 21
27.40851651043209
 31
0.0
 70
    32
  1
1000／2000
  3
STANDARD
100
AcDbAlignedDimension
 13
196.915050474854
 23
48.95829960591189
 33
0.0
 14
87.95854772611802
 24
42.24329960591169
 34
0.0
100
AcDbRotatedDimension
1001
ACAD
1000
DSTYLE
1002
{
1070
   140
1040
3.0
1070
    41
1040
2.5
1070
    40
1040
1.0
1070
   176
1070
     0
1070
   177
1070
     0
1070
   178
1070
     0
1002
}
  0
DIMENSION
  5
48
330
2
100
AcDbEntity
  8
TEXT
100
AcDbDimension
  2
*D9
 10
33.46263637426409
 20
25.32401453689209
 30
0.0
 11
27.62598077078087
 21
25.32401453689209
 31
0.0
 70
   160
  3
STANDARD
100
AcDbAlignedDimension
 13
20.76263637426496
 23
37.26829975586539
 33
0.0
 14
33.46263637426409
 24
37.26829975586559
 34
0.0
100
AcDbRotatedDimension
1001
ACAD
1000
DSTYLE
1002
{
1070
   140
1040
3.0
1070
    41
1040
2.5
1070
    40
1040
1.0
1070
   176
1070
     0
1070
   177
1070
     0
1070
   178
1070
     0
1002
}
  0
DIMENSION
  5
55
330
2
100
AcDbEntity
  8
TEXT
100
AcDbDimension
  2
*D10
 10
87.95854772611802
 20
25.3630878610279
 30
0.0
 11
71.15854772611806
 21
27.4880878610279
 31
0.0
 70
    32
  3
STANDARD
100
AcDbAlignedDimension
 13
54.3585477261181
 23
38.743299605912
 33
0.0
 14
87.95854772611802
 24
42.24329960591169
 34
0.0
100
AcDbRotatedDimension
1001
ACAD
1000
DSTYLE
1002
{
1070
   140
1040
3.0
1070
    41
1040
2.5
1070
    40
1040
1.0
1070
   176
1070
     0
1070
   177
1070
     0
1070
   178
1070
     0
1002
}
  0
LINE
  5
62
330
2
100
AcDbEntity
  8
TEXT
  6
HIDDEN
 48
0.1
100
AcDbLine
 10
86.67426916030695
 20
51.3232996059119
 30
0.0
 11
84.67426916030694
 21
51.3232996059119
 31
0.0
  0
LINE
  5
65
330
2
100
AcDbEntity
  8
TEXT
  6
HIDDEN
 48
0.1
100
AcDbLine
 10
86.67426916030695
 20
56.40329960591182
 30
0.0
 11
84.67426916030694
 21
56.40329960591182
 31
0.0
  0
LINE
  5
66
330
2
100
AcDbEntity
  8
TEXT
  6
HIDDEN
 48
0.1
100
AcDbLine
 10
86.67426916030695
 20
54.40329960591182
 30
0.0
 11
84.67426916030694
 21
54.40329960591182
 31
0.0
  0
LINE
  5
67
330
2
100
AcDbEntity
  8
TEXT
  6
HIDDEN
 48
0.1
100
AcDbLine
 10
86.67426916030695
 20
61.48329960591166
 30
0.0
 11
84.67426916030694
 21
61.48329960591166
 31
0.0
  0
LINE
  5
68
330
2
100
AcDbEntity
  8
TEXT
  6
HIDDEN
 48
0.1
100
AcDbLine
 10
86.67426916030695
 20
59.48329960591166
 30
0.0
 11
84.67426916030694
 21
59.48329960591166
 31
0.0
  0
LINE
  5
69
330
2
100
AcDbEntity
  8
TEXT
  6
HIDDEN
 48
0.1
100
AcDbLine
 10
86.67426916030695
 20
44.24329960591191
 30
0.0
 11
84.67426916030694
 21
44.24329960591191
 31
0.0
  0
LINE
  5
6A
330
2
100
AcDbEntity
  8
TEXT
  6
HIDDEN
 48
0.1
100
AcDbLine
 10
86.67426916030695
 20
46.24329960591191
 30
0.0
 11
84.67426916030694
 21
46.24329960591191
 31
0.0
  0
LINE
  5
6B
330
2
100
AcDbEntity
  8
TEXT
  6
HIDDEN
 48
0.1
100
AcDbLine
 10
86.67426916030695
 20
49.32329960591189
 30
0.0
 11
84.67426916030694
 21
49.32329960591189
 31
0.0
  0
LINE
  5
6C
330
2
100
AcDbEntity
  8
OBJECT
100
AcDbLine
 10
87.45854772611801
 20
63.98329960591166
 30
0.0
 11
73.3585477261181
 21
63.98329960591166
 31
0.0
  0
LINE
  5
6D
330
2
100
AcDbEntity
  8
OBJECT
100
AcDbLine
 10
87.45854772611801
 20
62.48329960591167
 30
0.0
 11
73.3585477261181
 21
62.48329960591167
 31
0.0
  0
LINE
  5
6E
330
2
100
AcDbEntity
  8
OBJECT
100
AcDbLine
 10
87.45854772611801
 20
41.74329960591168
 30
0.0
 11
73.3585477261181
 21
41.74329960591168
 31
0.0
  0
LINE
  5
6F
330
2
100
AcDbEntity
  8
OBJECT
100
AcDbLine
 10
87.45854772611801
 20
43.24329960591168
 30
0.0
 11
73.3585477261181
 21
43.24329960591168
 31
0.0
  0
TEXT
  5
B3
330
2
100
AcDbEntity
  8
TEXT
100
AcDbText
 10
14.50776093087393
 20
60.44240721121844
 30
0.0
 40
1.5
  1
1
100
AcDbText
  0
LINE
  5
B4
330
2
100
AcDbEntity
  8
OBJECT
100
AcDbLine
 10
72.3585477261181
 20
68.20329960591184
 30
0.0
 11
72.3585477261181
 21
62.4032996059116
 31
0.0
  0
LINE
  5
B5
330
2
100
AcDbEntity
  8
OBJECT
100
AcDbLine
 10
72.3585477261181
 20
68.20329960591184
 30
0.0
 11
73.3585477261181
 21
63.98329960591201
 31
0.0
  0
LINE
  5
B6
330
2
100
AcDbEntity
  8
OBJECT
100
AcDbLine
 10
72.3585477261181
 20
66.70329960591184
 30
0.0
 11
73.3585477261181
 21
62.48329960591201
 31
0.0
  0
DIMENSION
  5
B7
330
2
100
AcDbEntity
  8
TEXT
100
AcDbDimension
  2
*D8
 10
43.8917108560911
 20
36.26829975586559
 30
0.0
 11
43.89171085609109
 21
51.94275677955491
 31
0.0
 70
   160
  3
STANDARD
100
AcDbAlignedDimension
 13
32.462636374265
 23
69.45829975586551
 33
0.0
 14
32.46263637426409
 24
36.26829975586559
 34
0.0
 50
90.0
100
AcDbRotatedDimension
1001
ACAD
1000
DSTYLE
1002
{
1070
   140
1040
3.0
1070
    41
1040
2.5
1070
    40
1040
1.0
1070
   176
1070
     0
1070
   177
1070
     0
1070
   178
1070
     0
1002
}
  0
LINE
  5
C4
330
2
100
AcDbEntity
  8
OBJECT
100
AcDbLine
 10
54.3585477261181
 20
66.98329960591149
 30
0.0
 11
54.3585477261181
 21
52.86329960591183
 31
0.0
  0
LINE
  5
C5
330
2
100
AcDbEntity
  8
OBJECT
100
AcDbLine
 10
59.3585477261181
 20
68.95829960591189
 30
0.0
 11
59.3585477261181
 21
52.86329960591183
 31
0.0
  0
LINE
  5
C6
330
2
100
AcDbEntity
  8
OBJECT
100
AcDbLine
 10
63.3585477261181
 20
69.45829960591189
 30
0.0
 11
63.3585477261181
 21
52.86329960591183
 31
0.0
  0
LINE
  5
C7
330
2
100
AcDbEntity
  8
OBJECT
100
AcDbLine
 10
59.8585477261181
 20
69.45829960591189
 30
0.0
 11
59.8585477261181
 21
52.86329960591183
 31
0.0
  0
LINE
  5
C8
330
2
100
AcDbEntity
  8
OBJECT
100
AcDbLine
 10
54.8585477261181
 20
38.243299605912
 30
0.0
 11
54.3585477261181
 21
38.743299605912
 31
0.0
  0
LINE
  5
C9
330
2
100
AcDbEntity
  8
OBJECT
100
AcDbLine
 10
54.3585477261181
 20
38.743299605912
 30
0.0
 11
54.3585477261181
 21
52.86329960591183
 31
0.0
  0
LINE
  5
CA
330
2
100
AcDbEntity
  8
TEXT
  6
HIDDEN
 48
0.1
100
AcDbLine
 10
84.67426916030694
 20
51.3232996059119
 30
0.0
 11
84.67426916030694
 21
49.32329960591189
 31
0.0
  0
TEXT
  5
CB
330
2
100
AcDbEntity
  8
OBJECT
100
AcDbText
 10
80.61654930250893
 20
48.54187103448326
 30
0.0
 40
1.5
  1
D-3200
 50
90.0
 72
     1
 11
79.86654930250892
 21
52.86329960591183
 31
0.0
100
AcDbText
 73
     2
  0
LINE
  5
CD
330
2
100
AcDbEntity
  8
OBJECT
100
AcDbLine
 10
72.3585477261181
 20
49.32329960591189
 30
0.0
 11
72.3585477261181
 21
51.3232996059119
 31
0.0
  0
LINE
  5
CE
330
2
100
AcDbEntity
  8
OBJECT
100
AcDbLine
 10
73.3585477261181
 20
41.74329960591168
 30
0.0
 11
73.3585477261181
 21
52.8632996059116
 31
0.0
  0
LINE
  5
CF
330
2
100
AcDbEntity
  8
OBJECT
100
AcDbLine
 10
59.8585477261181
 20
36.2682996059118
 30
0.0
 11
59.8585477261181
 21
52.86329960591183
 31
0.0
  0
LINE
  5
D0
330
2
100
AcDbEntity
  8
OBJECT
100
AcDbLine
 10
59.3585477261181
 20
36.7682996059118
 30
0.0
 11
59.3585477261181
 21
52.86329960591183
 31
0.0
  0
LINE
  5
D1
330
2
100
AcDbEntity
  8
OBJECT
100
AcDbLine
 10
63.3585477261181
 20
36.2682996059118
 30
0.0
 11
63.3585477261181
 21
52.86329960591183
 31
0.0
  0
LWPOLYLINE
  5
D2
330
2
100
AcDbEntity
  8
TEXT
  6
HIDDEN
 48
0.2
100
AcDbPolyline
 90
        4
 70
     1
 43
0.0
 10
81.092282829841
 20
58.64654695058681
 10
81.092282829841
 20
47.13569172344998
 10
74.02886042024988
 20
47.13569172344998
 10
74.02886042024988
 20
58.64654695058681
  0
LINE
  5
D3
330
2
100
AcDbEntity
  8
OBJECT
100
AcDbLine
 10
63.3585477261181
 20
45.3232996059119
 30
0.0
 11
73.3585477261181
 21
45.3232996059119
 31
0.0
  0
LINE
  5
D4
330
2
100
AcDbEntity
  8
OBJECT
100
AcDbLine
 10
63.3585477261181
 20
37.52329960591191
 30
0.0
 11
72.3585477261181
 21
37.52329960591191
 31
0.0
  0
LINE
  5
D5
330
2
100
AcDbEntity
  8
OBJECT
100
AcDbLine
 10
63.3585477261181
 20
39.02329960591191
 30
0.0
 11
72.3585477261181
 21
39.02329960591191
 31
0.0
  0
LINE
  5
D6
330
2
100
AcDbEntity
  8
OBJECT
100
AcDbLine
 10
63.3585477261181
 20
43.3232996059119
 30
0.0
 11
73.3585477261181
 21
43.3232996059119
 31
0.0
  0
LINE
  5
D7
330
2
100
AcDbEntity
  8
OBJECT
100
AcDbLine
 10
63.3585477261181
 20
49.32329960591189
 30
0.0
 11
73.3585477261181
 21
49.32329960591189
 31
0.0
  0
LINE
  5
D8
330
2
100
AcDbEntity
  8
OBJECT
100
AcDbLine
 10
63.3585477261181
 20
47.32329960591189
 30
0.0
 11
73.3585477261181
 21
47.32329960591189
 31
0.0
  0
LINE
  5
D9
330
2
100
AcDbEntity
  8
OBJECT
100
AcDbLine
 10
63.3585477261181
 20
36.2682996059118
 30
0.0
 11
59.8585477261181
 21
36.2682996059118
 31
0.0
  0
LINE
  5
DA
330
2
100
AcDbEntity
  8
OBJECT
100
AcDbLine
 10
59.8585477261181
 20
36.2682996059118
 30
0.0
 11
59.3585477261181
 21
36.7682996059118
 31
0.0
  0
LINE
  5
DB
330
2
100
AcDbEntity
  8
OBJECT
100
AcDbLine
 10
54.8585477261181
 20
38.243299605912
 30
0.0
 11
59.3585477261181
 21
38.24329960591168
 31
0.0
  0
LINE
  5
DC
330
2
100
AcDbEntity
  8
TEXT
  6
HIDDEN
 48
0.1
100
AcDbLine
 10
84.67426916030694
 20
46.24329960591191
 30
0.0
 11
84.67426916030694
 21
44.24329960591191
 31
0.0
  0
LINE
  5
DD
330
2
100
AcDbEntity
  8
OBJECT
100
AcDbLine
 10
72.3585477261181
 20
39.02329960591191
 30
0.0
 11
73.3585477261181
 21
43.24329960591168
 31
0.0
  0
LINE
  5
DE
330
2
100
AcDbEntity
  8
OBJECT
100
AcDbLine
 10
72.3585477261181
 20
37.52329960591191
 30
0.0
 11
72.3585477261181
 21
43.3232996059119
 31
0.0
  0
LINE
  5
DF
330
2
100
AcDbEntity
  8
OBJECT
100
AcDbLine
 10
72.3585477261181
 20
37.52329960591191
 30
0.0
 11
73.3585477261181
 21
41.74329960591168
 31
0.0
  0
LINE
  5
E0
330
2
100
AcDbEntity
  8
OBJECT
100
AcDbLine
 10
72.3585477261181
 20
45.3232996059119
 30
0.0
 11
72.3585477261181
 21
47.32329960591189
 31
0.0
  0
LINE
  5
E1
330
2
100
AcDbEntity
  8
OBJECT
100
AcDbLine
 10
63.3585477261181
 20
56.40329960591182
 30
0.0
 11
73.3585477261181
 21
56.40329960591182
 31
0.0
  0
LINE
  5
E2
330
2
100
AcDbEntity
  8
OBJECT
100
AcDbLine
 10
63.3585477261181
 20
58.40329960591183
 30
0.0
 11
73.3585477261181
 21
58.40329960591183
 31
0.0
  0
LINE
  5
E3
330
2
100
AcDbEntity
  8
OBJECT
100
AcDbLine
 10
63.3585477261181
 20
60.40329960591183
 30
0.0
 11
73.3585477261181
 21
60.40329960591183
 31
0.0
  0
LINE
  5
E4
330
2
100
AcDbEntity
  8
OBJECT
100
AcDbLine
 10
63.3585477261181
 20
62.4032996059116
 30
0.0
 11
73.3585477261181
 21
62.4032996059116
 31
0.0
  0
LINE
  5
E5
330
2
100
AcDbEntity
  8
OBJECT
100
AcDbLine
 10
63.3585477261181
 20
54.40329960591182
 30
0.0
 11
73.3585477261181
 21
54.40329960591182
 31
0.0
  0
LINE
  5
E6
330
2
100
AcDbEntity
  8
OBJECT
100
AcDbLine
 10
63.3585477261181
 20
51.3232996059119
 30
0.0
 11
73.3585477261181
 21
51.3232996059119
 31
0.0
  0
LINE
  5
E7
330
2
100
AcDbEntity
  8
TEXT
  6
HIDDEN
 48
0.1
100
AcDbLine
 10
84.67426916030694
 20
56.40329960591182
 30
0.0
 11
84.67426916030694
 21
54.40329960591182
 31
0.0
  0
LINE
  5
E8
330
2
100
AcDbEntity
  8
TEXT
  6
HIDDEN
 48
0.1
100
AcDbLine
 10
84.67426916030694
 20
61.48329960591166
 30
0.0
 11
84.67426916030694
 21
59.48329960591166
 31
0.0
  0
TEXT
  5
E9
330
2
100
AcDbEntity
  8
OBJECT
100
AcDbText
 10
76.76717109598917
 20
50.07758532019755
 30
0.0
 40
1.5
  1
AMP
 50
90.0
 41
1.3
 72
     1
 11
76.01717109598917
 21
52.86329960591183
 31
0.0
100
AcDbText
 73
     2
  0
LINE
  5
EA
330
2
100
AcDbEntity
  8
OBJECT
100
AcDbLine
 10
72.3585477261181
 20
56.40329960591182
 30
0.0
 11
72.3585477261181
 21
54.40329960591182
 31
0.0
  0
LINE
  5
EB
330
2
100
AcDbEntity
  8
OBJECT
100
AcDbLine
 10
72.3585477261181
 20
60.40329960591183
 30
0.0
 11
72.3585477261181
 21
58.40329960591183
 31
0.0
  0
LINE
  5
EC
330
2
100
AcDbEntity
  8
OBJECT
100
AcDbLine
 10
73.3585477261181
 20
63.98329960591201
 30
0.0
 11
73.3585477261181
 21
52.86329960591183
 31
0.0
  0
LINE
  5
ED
330
2
100
AcDbEntity
  8
OBJECT
100
AcDbLine
 10
54.8585477261181
 20
67.48329960591167
 30
0.0
 11
54.3585477261181
 21
66.98329960591166
 31
0.0
  0
LINE
  5
EE
330
2
100
AcDbEntity
  8
OBJECT
100
AcDbLine
 10
63.3585477261181
 20
68.20329960591184
 30
0.0
 11
72.3585477261181
 21
68.20329960591184
 31
0.0
  0
LINE
  5
EF
330
2
100
AcDbEntity
  8
OBJECT
100
AcDbLine
 10
63.3585477261181
 20
66.70329960591184
 30
0.0
 11
72.3585477261181
 21
66.70329960591184
 31
0.0
  0
LINE
  5
F0
330
2
100
AcDbEntity
  8
OBJECT
100
AcDbLine
 10
63.3585477261181
 20
69.45829960591189
 30
0.0
 11
59.8585477261181
 21
69.45829960591189
 31
0.0
  0
LINE
  5
F1
330
2
100
AcDbEntity
  8
OBJECT
100
AcDbLine
 10
59.8585477261181
 20
69.45829960591189
 30
0.0
 11
59.3585477261181
 21
68.95829960591189
 31
0.0
  0
LINE
  5
F2
330
2
100
AcDbEntity
  8
OBJECT
100
AcDbLine
 10
54.8585477261181
 20
67.48329960591167
 30
0.0
 11
59.3585477261181
 21
67.48329960591167
 31
0.0
  0
LINE
  5
F3
330
2
100
AcDbEntity
  8
OBJECT
100
AcDbLine
 10
117.3243824645778
 20
48.9582996059118
 30
0.0
 11
158.63868688771
 21
48.9582996059118
 31
0.0
  0
LINE
  5
F4
330
2
100
AcDbEntity
  8
OBJECT
100
AcDbLine
 10
161.243773988627
 20
56.76829960591184
 30
0.0
 11
117.3243824645778
 21
56.76829960591184
 31
0.0
  0
LWPOLYLINE
  5
F5
330
2
100
AcDbEntity
  8
OBJECT
100
AcDbPolyline
 90
        4
 70
     1
 43
0.0
 10
103.458547726118
 20
57.51829960591184
 10
117.3243824645778
 20
57.51829960591184
 10
117.3243824645778
 20
48.2082996059118
 10
103.458547726118
 20
48.2082996059118
  0
LINE
  5
F6
330
2
100
AcDbEntity
  8
TEXT
  6
HIDDEN
 48
0.1
100
AcDbLine
 10
86.67426916030695
 20
51.3232996059119
 30
0.0
 11
86.67426916030695
 21
49.32329960591189
 31
0.0
  0
LINE
  5
F7
330
2
100
AcDbEntity
  8
OBJECT
100
AcDbLine
 10
87.45854772611801
 20
41.74329960591168
 30
0.0
 11
87.45854772611801
 21
52.86329960591183
 31
0.0
  0
LINE
  5
F8
330
2
100
AcDbEntity
  8
OBJECT
100
AcDbLine
 10
87.95854772611802
 20
42.24329960591169
 30
0.0
 11
87.95854772611802
 21
52.86329960591183
 31
0.0
  0
LWPOLYLINE
  5
F9
330
2
100
AcDbEntity
  8
OBJECT
100
AcDbPolyline
 90
        2
 70
     0
 43
0.3
 10
98.45854772611801
 20
50.95829960591188
 10
93.45854772611801
 20
47.14829960591191
  0
LINE
  5
FA
330
2
100
AcDbEntity
  8
OBJECT
100
AcDbLine
 10
87.45854772611801
 20
41.74329960591168
 30
0.0
 11
87.95854772611802
 21
42.24329960591169
 31
0.0
  0
TEXT
  5
FB
330
2
100
AcDbEntity
  8
TEXT
100
AcDbText
 10
86.08600323035899
 20
44.85670592514892
 30
0.0
 40
1.0
  1
4
 50
90.0
100
AcDbText
  0
LINE
  5
FC
330
2
100
AcDbEntity
  8
TEXT
  6
HIDDEN
 48
0.1
100
AcDbLine
 10
86.67426916030695
 20
46.24329960591191
 30
0.0
 11
86.67426916030695
 21
44.24329960591191
 31
0.0
  0
LWPOLYLINE
  5
FD
330
2
100
AcDbEntity
  8
OBJECT
100
AcDbPolyline
 90
        2
 70
     0
 43
0.3
 10
87.95854772611802
 20
47.14829960591191
 10
93.45854772611801
 20
47.14829960591191
  0
LWPOLYLINE
  5
FE
330
2
100
AcDbEntity
  8
OBJECT
100
AcDbPolyline
 90
        2
 70
     0
 43
0.3
 10
87.95854772611802
 20
50.95829960591188
 10
103.458547726118
 20
50.95829960591188
  0
LWPOLYLINE
  5
FF
330
2
100
AcDbEntity
  8
OBJECT
100
AcDbPolyline
 90
        2
 70
     0
 43
0.3
 10
87.95854772611802
 20
54.76829960591183
 10
103.458547726118
 20
54.76829960591183
  0
LWPOLYLINE
  5
100
330
2
100
AcDbEntity
  8
OBJECT
100
AcDbPolyline
 90
        2
 70
     0
 43
0.3
 10
98.45854772611801
 20
54.76829960591183
 10
93.45854772611801
 20
58.57829960591184
  0
TEXT
  5
101
330
2
100
AcDbEntity
  8
TEXT
100
AcDbText
 10
86.08600323035899
 20
49.93670592514883
 30
0.0
 40
1.0
  1
3
 50
90.0
100
AcDbText
  0
TEXT
  5
102
330
2
100
AcDbEntity
  8
TEXT
100
AcDbText
 10
86.08600323035899
 20
55.01670592514881
 30
0.0
 40
1.0
  1
2
 50
90.0
100
AcDbText
  0
LINE
  5
103
330
2
100
AcDbEntity
  8
TEXT
  6
HIDDEN
 48
0.1
100
AcDbLine
 10
86.67426916030695
 20
56.40329960591182
 30
0.0
 11
86.67426916030695
 21
54.40329960591182
 31
0.0
  0
TEXT
  5
104
330
2
100
AcDbEntity
  8
TEXT
100
AcDbText
 10
86.08600323035899
 20
60.09670592514871
 30
0.0
 40
1.0
  1
1
 50
90.0
100
AcDbText
  0
LINE
  5
105
330
2
100
AcDbEntity
  8
TEXT
  6
HIDDEN
 48
0.1
100
AcDbLine
 10
86.67426916030695
 20
61.48329960591166
 30
0.0
 11
86.67426916030695
 21
59.48329960591166
 31
0.0
  0
LINE
  5
106
330
2
100
AcDbEntity
  8
OBJECT
100
AcDbLine
 10
87.45854772611801
 20
63.98329960591166
 30
0.0
 11
87.95854772611802
 21
63.48329960591167
 31
0.0
  0
LINE
  5
107
330
2
100
AcDbEntity
  8
OBJECT
100
AcDbLine
 10
87.95854772611802
 20
63.48329960591167
 30
0.0
 11
87.95854772611802
 21
52.86329960591183
 31
0.0
  0
LINE
  5
108
330
2
100
AcDbEntity
  8
OBJECT
100
AcDbLine
 10
87.45854772611801
 20
63.98329960591166
 30
0.0
 11
87.45854772611801
 21
52.8632996059116
 31
0.0
  0
LWPOLYLINE
  5
109
330
2
100
AcDbEntity
  8
OBJECT
100
AcDbPolyline
 90
        2
 70
     0
 43
0.3
 10
87.95854772611802
 20
58.57829960591184
 10
93.45854772611801
 20
58.57829960591184
  0
DIMENSION
  5
10A
330
2
100
AcDbEntity
  8
TEXT
100
AcDbDimension
  2
*D12
 10
149.141970980198
 20
48.95829960591189
 30
0.0
 11
149.141970980198
 21
64.85401389162632
 31
0.0
 70
   160
  1
φ9.9
  3
STANDARD
100
AcDbAlignedDimension
 13
144.9470452398379
 23
56.76829960591184
 33
0.0
 14
144.9470452398379
 24
48.95829960591189
 34
0.0
 50
90.0
100
AcDbRotatedDimension
1001
ACAD
1000
DSTYLE
1002
{
1070
   140
1040
3.0
1070
    41
1040
2.5
1070
    40
1040
1.0
1070
   176
1070
     0
1070
   177
1070
     0
1070
   178
1070
     0
1002
}
  0
LINE
  5
118
330
2
100
AcDbEntity
  8
OBJECT
100
AcDbLine
 10
196.915050474854
 20
56.76829960591184
 30
0.0
 11
163.5334310504729
 21
56.76829960591184
 31
0.0
  0
LINE
  5
119
330
2
100
AcDbEntity
  8
OBJECT
100
AcDbLine
 10
160.9283439495559
 20
48.95829960591189
 30
0.0
 11
196.915050474854
 21
48.95829960591189
 31
0.0
  0
LINE
  5
11A
330
2
100
AcDbEntity
  8
OBJECT
100
AcDbLine
 10
160.261228174673
 20
46.95829960591189
 30
0.0
 11
164.200546825356
 21
58.76829960591184
 31
0.0
  0
LINE
  5
11B
330
2
100
AcDbEntity
  8
OBJECT
100
AcDbLine
 10
157.971571112828
 20
46.95829960591189
 30
0.0
 11
161.9108897635098
 21
58.76829960591184
 31
0.0
  0
LINE
  5
11C
330
2
100
AcDbEntity
  8
OBJECT
 48
0.2
100
AcDbLine
 10
196.915050474854
 20
56.76829960591184
 30
0.0
 11
196.915050474854
 21
48.958299605912
 31
0.0
  0
TEXT
  5
181
330
2
100
AcDbEntity
  8
OBJECT
100
AcDbText
 10
22.11819711961857
 20
88.77043587866337
 30
0.0
 40
2.5
  1
1-179552-4　（AMP）
100
AcDbText
  0
LINE
  5
183
330
2
100
AcDbEntity
  8
OBJECT
100
AcDbLine
 10
33.46263637426477
 20
68.45829975586551
 30
0.0
 11
33.46263637426455
 21
37.26829975586563
 31
0.0
  0
LINE
  5
184
330
2
100
AcDbEntity
  8
OBJECT
100
AcDbLine
 10
31.78763637426459
 20
66.48329975586571
 30
0.0
 11
31.78763637426459
 21
39.24329975586568
 31
0.0
  0
LINE
  5
185
330
2
100
AcDbEntity
  8
OBJECT
100
AcDbLine
 10
30.78763637426459
 20
66.48329975586571
 30
0.0
 11
30.78763637426459
 21
39.2432997558655
 31
0.0
  0
LINE
  5
186
330
2
100
AcDbEntity
  8
OBJECT
100
AcDbLine
 10
23.43763637426468
 20
66.48329975586548
 30
0.0
 11
23.43763637426491
 21
39.24329975586539
 31
0.0
  0
LINE
  5
187
330
2
100
AcDbEntity
  8
OBJECT
100
AcDbLine
 10
22.43763637426468
 20
66.48329975586548
 30
0.0
 11
22.43763637426468
 21
39.2432997558653
 31
0.0
  0
LINE
  5
188
330
2
100
AcDbEntity
  8
OBJECT
100
AcDbLine
 10
20.76263637426518
 20
68.45829975586525
 30
0.0
 11
20.76263637426654
 21
37.26829975586537
 31
0.0
  0
LINE
  5
189
330
2
100
AcDbEntity
  8
OBJECT
100
AcDbLine
 10
30.48763637426464
 20
40.2432997558655
 30
0.0
 11
23.73763637426463
 21
40.24329975586539
 31
0.0
  0
LINE
  5
18A
330
2
100
AcDbEntity
  8
OBJECT
100
AcDbLine
 10
32.46263637426455
 20
36.26829975586559
 30
0.0
 11
21.76263637426472
 21
36.26829975586537
 31
0.0
  0
LINE
  5
18B
330
2
100
AcDbEntity
  8
OBJECT
100
AcDbLine
 10
30.78763637426459
 20
39.2432997558655
 30
0.0
 11
23.43763637426468
 21
39.24329975586539
 31
0.0
  0
LINE
  5
18C
330
2
100
AcDbEntity
  8
OBJECT
100
AcDbLine
 10
30.78763637426459
 20
38.2432997558655
 30
0.0
 11
23.43763637426468
 21
38.24329975586539
 31
0.0
  0
LINE
  5
18D
330
2
100
AcDbEntity
  8
OBJECT
100
AcDbLine
 10
23.73763637426463
 20
39.24329975586539
 30
0.0
 11
23.73763637426463
 21
41.58212308085199
 31
0.0
  0
LINE
  5
18E
330
2
100
AcDbEntity
  8
OBJECT
100
AcDbLine
 10
20.76263637426472
 20
37.26829975586537
 30
0.0
 11
21.76263637426472
 21
36.26829975586537
 31
0.0
  0
LINE
  5
18F
330
2
100
AcDbEntity
  8
OBJECT
100
AcDbLine
 10
23.43763637426468
 20
38.24329975586539
 30
0.0
 11
22.43763637426468
 21
39.24329975586539
 31
0.0
  0
LINE
  5
190
330
2
100
AcDbEntity
  8
OBJECT
100
AcDbLine
 10
23.43763637426468
 20
41.58212308085189
 30
0.0
 11
23.73763637426463
 21
41.58212308085199
 31
0.0
  0
LINE
  5
191
330
2
100
AcDbEntity
  8
OBJECT
100
AcDbLine
 10
31.78763637426459
 20
39.2432997558655
 30
0.0
 11
30.78763637426459
 21
38.2432997558655
 31
0.0
  0
LINE
  5
192
330
2
100
AcDbEntity
  8
OBJECT
100
AcDbLine
 10
30.78763637426482
 20
41.58212308085189
 30
0.0
 11
30.48763637426464
 21
41.58212308085199
 31
0.0
  0
LINE
  5
193
330
2
100
AcDbEntity
  8
OBJECT
100
AcDbLine
 10
30.48763637426464
 20
39.24329975586539
 30
0.0
 11
30.48763637426464
 21
41.58212308085199
 31
0.0
  0
LINE
  5
194
330
2
100
AcDbEntity
  8
OBJECT
100
AcDbLine
 10
33.46263637426455
 20
37.26829975586559
 30
0.0
 11
32.46263637426455
 21
36.26829975586559
 31
0.0
  0
LINE
  5
195
330
2
100
AcDbEntity
  8
OBJECT
100
AcDbLine
 10
28.90294021616478
 20
44.74329975586528
 30
0.0
 11
27.11263637426464
 21
44.74329975586528
 31
0.0
  0
LINE
  5
196
330
2
100
AcDbEntity
  8
OBJECT
100
AcDbLine
 10
28.90294021616478
 20
50.82329975586526
 30
0.0
 11
27.11263637426464
 21
50.82329975586526
 31
0.0
  0
LINE
  5
197
330
2
100
AcDbEntity
  8
OBJECT
100
AcDbLine
 10
28.90294021616478
 20
49.82329975586527
 30
0.0
 11
27.11263637426464
 21
49.82329975586527
 31
0.0
  0
LINE
  5
198
330
2
100
AcDbEntity
  8
OBJECT
100
AcDbLine
 10
28.90294021616478
 20
45.74329975586528
 30
0.0
 11
27.11263637426464
 21
45.74329975586528
 31
0.0
  0
LINE
  5
199
330
2
100
AcDbEntity
  8
OBJECT
100
AcDbLine
 10
26.61263637426463
 20
46.2432997558655
 30
0.0
 11
26.61263637426463
 21
44.24329975586539
 31
0.0
  0
LINE
  5
19A
330
2
100
AcDbEntity
  8
OBJECT
100
AcDbLine
 10
27.11263637426464
 20
44.74329975586539
 30
0.0
 11
27.11263637426464
 21
44.24329975586539
 31
0.0
  0
LINE
  5
19B
330
2
100
AcDbEntity
  8
OBJECT
100
AcDbLine
 10
27.11263637426464
 20
44.24329975586561
 30
0.0
 11
26.61263637426463
 21
44.24329975586551
 31
0.0
  0
LINE
  5
19C
330
2
100
AcDbEntity
  8
OBJECT
100
AcDbLine
 10
27.11263637426464
 20
51.32329975586549
 30
0.0
 11
26.61263637426463
 21
51.32329975586549
 31
0.0
  0
LINE
  5
19D
330
2
100
AcDbEntity
  8
OBJECT
100
AcDbLine
 10
27.11263637426464
 20
51.32329975586549
 30
0.0
 11
27.11263637426464
 21
50.82329975586526
 31
0.0
  0
LINE
  5
19E
330
2
100
AcDbEntity
  8
OBJECT
100
AcDbLine
 10
27.11263637426464
 20
49.32329975586561
 30
0.0
 11
26.61263637426463
 21
49.32329975586549
 31
0.0
  0
LINE
  5
19F
330
2
100
AcDbEntity
  8
OBJECT
100
AcDbLine
 10
27.11263637426464
 20
49.82329975586537
 30
0.0
 11
27.11263637426464
 21
49.32329975586537
 31
0.0
  0
LINE
  5
1A0
330
2
100
AcDbEntity
  8
OBJECT
100
AcDbLine
 10
26.61263637426463
 20
51.32329975586549
 30
0.0
 11
26.61263637426463
 21
49.32329975586537
 31
0.0
  0
LINE
  5
1A1
330
2
100
AcDbEntity
  8
OBJECT
100
AcDbLine
 10
27.11263637426464
 20
46.2432997558655
 30
0.0
 11
27.11263637426464
 21
45.74329975586528
 31
0.0
  0
LINE
  5
1A2
330
2
100
AcDbEntity
  8
OBJECT
100
AcDbLine
 10
27.11263637426464
 20
46.2432997558655
 30
0.0
 11
26.61263637426463
 21
46.2432997558655
 31
0.0
  0
LINE
  5
1A3
330
2
100
AcDbEntity
  8
OBJECT
100
AcDbLine
 10
28.90294021616478
 20
45.74329975586539
 30
0.0
 11
28.90294021616478
 21
44.74329975586539
 31
0.0
  0
LINE
  5
1A4
330
2
100
AcDbEntity
  8
OBJECT
100
AcDbLine
 10
28.90294021616478
 20
50.82329975586538
 30
0.0
 11
28.90294021616478
 21
49.82329975586537
 31
0.0
  0
LINE
  5
1A5
330
2
100
AcDbEntity
  8
OBJECT
100
AcDbLine
 10
28.90294021616478
 20
54.90329975586533
 30
0.0
 11
27.11263637426464
 21
54.90329975586533
 31
0.0
  0
LINE
  5
1A6
330
2
100
AcDbEntity
  8
OBJECT
100
AcDbLine
 10
28.90294021616478
 20
60.98329975586537
 30
0.0
 11
27.11263637426464
 21
60.98329975586537
 31
0.0
  0
LINE
  5
1A7
330
2
100
AcDbEntity
  8
OBJECT
100
AcDbLine
 10
28.90294021616478
 20
59.98329975586537
 30
0.0
 11
27.11263637426464
 21
59.98329975586537
 31
0.0
  0
LINE
  5
1A8
330
2
100
AcDbEntity
  8
OBJECT
100
AcDbLine
 10
28.90294021616478
 20
55.90329975586533
 30
0.0
 11
27.11263637426464
 21
55.90329975586533
 31
0.0
  0
LINE
  5
1A9
330
2
100
AcDbEntity
  8
OBJECT
100
AcDbLine
 10
26.61263637426463
 20
56.40329975586556
 30
0.0
 11
26.61263637426463
 21
54.40329975586545
 31
0.0
  0
LINE
  5
1AA
330
2
100
AcDbEntity
  8
OBJECT
100
AcDbLine
 10
27.11263637426464
 20
54.90329975586544
 30
0.0
 11
27.11263637426464
 21
54.40329975586545
 31
0.0
  0
LINE
  5
1AB
330
2
100
AcDbEntity
  8
OBJECT
100
AcDbLine
 10
27.11263637426464
 20
54.40329975586568
 30
0.0
 11
26.61263637426463
 21
54.40329975586556
 31
0.0
  0
LINE
  5
1AC
330
2
100
AcDbEntity
  8
OBJECT
100
AcDbLine
 10
26.61263637426463
 20
61.4832997558656
 30
0.0
 11
26.61263637426463
 21
59.48329975586549
 31
0.0
  0
LINE
  5
1AD
330
2
100
AcDbEntity
  8
OBJECT
100
AcDbLine
 10
27.11263637426464
 20
61.4832997558656
 30
0.0
 11
26.61263637426463
 21
61.4832997558656
 31
0.0
  0
LINE
  5
1AE
330
2
100
AcDbEntity
  8
OBJECT
100
AcDbLine
 10
27.11263637426464
 20
59.48329975586571
 30
0.0
 11
26.61263637426463
 21
59.4832997558656
 31
0.0
  0
LINE
  5
1AF
330
2
100
AcDbEntity
  8
OBJECT
100
AcDbLine
 10
27.11263637426464
 20
59.98329975586549
 30
0.0
 11
27.11263637426464
 21
59.48329975586549
 31
0.0
  0
LINE
  5
1B0
330
2
100
AcDbEntity
  8
OBJECT
100
AcDbLine
 10
27.11263637426464
 20
61.4832997558656
 30
0.0
 11
27.11263637426464
 21
60.98329975586537
 31
0.0
  0
LINE
  5
1B1
330
2
100
AcDbEntity
  8
OBJECT
100
AcDbLine
 10
27.11263637426464
 20
56.40329975586556
 30
0.0
 11
27.11263637426464
 21
55.90329975586533
 31
0.0
  0
LINE
  5
1B2
330
2
100
AcDbEntity
  8
OBJECT
100
AcDbLine
 10
27.11263637426464
 20
56.40329975586556
 30
0.0
 11
26.61263637426463
 21
56.40329975586556
 31
0.0
  0
LINE
  5
1B3
330
2
100
AcDbEntity
  8
OBJECT
100
AcDbLine
 10
28.90294021616478
 20
55.90329975586545
 30
0.0
 11
28.90294021616478
 21
54.90329975586544
 31
0.0
  0
LINE
  5
1B4
330
2
100
AcDbEntity
  8
OBJECT
100
AcDbLine
 10
28.90294021616478
 20
60.98329975586548
 30
0.0
 11
28.90294021616478
 21
59.98329975586549
 31
0.0
  0
LINE
  5
1B5
330
2
100
AcDbEntity
  8
OBJECT
100
AcDbLine
 10
30.48763637426464
 20
65.48329975586572
 30
0.0
 11
23.73763637426463
 21
65.48329975586537
 31
0.0
  0
LINE
  5
1B6
330
2
100
AcDbEntity
  8
OBJECT
100
AcDbLine
 10
32.46263637426477
 20
69.45829975586551
 30
0.0
 11
21.76263637426472
 21
69.45829975586528
 31
0.0
  0
LINE
  5
1B7
330
2
100
AcDbEntity
  8
OBJECT
100
AcDbLine
 10
30.78763637426459
 20
67.48329975586571
 30
0.0
 11
23.43763637426468
 21
67.48329975586549
 31
0.0
  0
LINE
  5
1B8
330
2
100
AcDbEntity
  8
OBJECT
100
AcDbLine
 10
30.78763637426482
 20
66.48329975586571
 30
0.0
 11
23.43763637426468
 21
66.48329975586548
 31
0.0
  0
LINE
  5
1B9
330
2
100
AcDbEntity
  8
OBJECT
100
AcDbLine
 10
23.73763637426463
 20
66.48329975586571
 30
0.0
 11
23.73763637426463
 21
64.1444764308791
 31
0.0
  0
LINE
  5
1BA
330
2
100
AcDbEntity
  8
OBJECT
100
AcDbLine
 10
23.43763637426468
 20
67.48329975586549
 30
0.0
 11
22.43763637426468
 21
66.48329975586548
 31
0.0
  0
LINE
  5
1BB
330
2
100
AcDbEntity
  8
OBJECT
100
AcDbLine
 10
21.76263637426472
 20
69.45829975586528
 30
0.0
 11
20.76263637426472
 21
68.45829975586529
 31
0.0
  0
LINE
  5
1BC
330
2
100
AcDbEntity
  8
OBJECT
100
AcDbLine
 10
23.43763637426468
 20
64.14447643087922
 30
0.0
 11
23.73763637426463
 21
64.1444764308791
 31
0.0
  0
LINE
  5
1BD
330
2
100
AcDbEntity
  8
OBJECT
100
AcDbLine
 10
31.78763637426459
 20
66.48329975586571
 30
0.0
 11
30.78763637426459
 21
67.48329975586571
 31
0.0
  0
LINE
  5
1BE
330
2
100
AcDbEntity
  8
OBJECT
100
AcDbLine
 10
30.48763637426464
 20
66.48329975586571
 30
0.0
 11
30.48763637426464
 21
64.1444764308791
 31
0.0
  0
LINE
  5
1BF
330
2
100
AcDbEntity
  8
OBJECT
100
AcDbLine
 10
30.78763637426482
 20
64.14447643087922
 30
0.0
 11
30.48763637426464
 21
64.1444764308791
 31
0.0
  0
LINE
  5
1C0
330
2
100
AcDbEntity
  8
OBJECT
100
AcDbLine
 10
33.46263637426477
 20
68.45829975586551
 30
0.0
 11
32.46263637426477
 21
69.45829975586551
 31
0.0
  0
TEXT
  5
221
330
2
100
AcDbEntity
  8
TEXT
100
AcDbText
 10
14.50776093087393
 20
54.44240721121843
 30
0.0
 40
1.5
  1
2
100
AcDbText
  0
TEXT
  5
222
330
2
100
AcDbEntity
  8
TEXT
100
AcDbText
 10
14.50776093087393
 20
42.44240721121843
 30
0.0
 40
1.5
  1
4
100
AcDbText
  0
TEXT
  5
223
330
2
100
AcDbEntity
  8
TEXT
100
AcDbText
 10
14.50776093087393
 20
48.44240721121844
 30
0.0
 40
1.5
  1
3
100
AcDbText
  0
ENDSEC
  0
SECTION
  2
OBJECTS
  0
DICTIONARY
  5
7
330
0
100
AcDbDictionary
  3
ACAD_GROUP
350
24
  3
ACAD_LAYOUT
350
B
  3
ACAD_MLINESTYLE
350
25
  3
ACAD_PLOTSETTINGS
350
26
  3
ACAD_PLOTSTYLENAME
350
6
  3
ACDBHEADERROUNDTRIPXREC
350
2DC
  3
ACDBVARIABLEDICTIONARY
350
121
  0
DICTIONARY
  5
11
330
10
100
AcDbDictionary
280
     1
  3
ACAD_LAYERFILTERS
360
12
  3
ACAD_LAYERSTATES
360
13
  0
DICTIONARY
  5
16F
330
2
100
AcDbDictionary
280
     1
  3
ACAD_LAYOUTSELFREF
360
2FD
  0
DICTIONARY
  5
171
330
C
100
AcDbDictionary
280
     1
  3
ACAD_LAYOUTSELFREF
360
2FE
  0
DICTIONARY
  5
24
102
{ACAD_REACTORS
330
7
102
}
330
7
100
AcDbDictionary
  0
DICTIONARY
  5
B
102
{ACAD_REACTORS
330
7
102
}
330
7
100
AcDbDictionary
  0
DICTIONARY
  5
25
102
{ACAD_REACTORS
330
7
102
}
330
7
100
AcDbDictionary
  3
STANDARD
350
28
  0
DICTIONARY
  5
26
102
{ACAD_REACTORS
330
7
102
}
330
7
100
AcDbDictionary
  0
ACDBDICTIONARYWDFLT
  5
6
102
{ACAD_REACTORS
330
7
102
}
330
7
100
AcDbDictionary
281
     1
  3
Normal
350
5
100
AcDbDictionaryWithDefault
340
5
  0
DICTIONARY
  5
2DC
102
{ACAD_REACTORS
330
7
102
}
330
7
100
AcDbDictionary
  3
CEPSNTYPE
350
2E6
  3
DIMSTYLEDATA
350
2EA
  3
FINGERPRINTGUID
350
2E7
  3
HYPERLINKBASE
350
2DF
  3
INSUNITS
350
2E5
  3
LAYOUTDICT
350
2E1
  3
LWETCUNION
350
2E4
  3
PLOTSETDICT
350
2E2
  3
PLOTSTYLNAMDICT
350
2E3
  3
PSVPSCALE
350
2E9
  3
PUCSBASE
350
2ED
  3
PUCSORGBACK
350
2F3
  3
PUCSORGBOTTOM
350
2EF
  3
PUCSORGFRONT
350
2F2
  3
PUCSORGLEFT
350
2F0
  3
PUCSORGRIGHT
350
2F1
  3
PUCSORGTOP
350
2EE
  3
PUCSORTHOREF
350
2EB
  3
PUCSORTHOVIEW
350
2EC
  3
STYLESHEET
350
2E0
  3
TSTACKALIGN
350
2DD
  3
TSTACKSIZE
350
2DE
  3
UCSBASE
350
2F6
  3
UCSORGBACK
350
2FC
  3
UCSORGBOTTOM
350
2F8
  3
UCSORGFRONT
350
2FB
  3
UCSORGLEFT
350
2F9
  3
UCSORGRIGHT
350
2FA
  3
UCSORGTOP
350
2F7
  3
UCSORTHOREF
350
2F4
  3
UCSORTHOVIEW
350
2F5
  3
VERSIONGUID
350
2E8
  0
DICTIONARY
  5
121
102
{ACAD_REACTORS
330
7
102
}
330
7
100
AcDbDictionary
  3
DIMASSOC
350
123
  3
HIDETEXT
350
122
  0
DICTIONARY
  5
12
102
{ACAD_REACTORS
330
11
102
}
330
11
100
AcDbDictionary
280
     1
  0
DICTIONARY
  5
13
102
{ACAD_REACTORS
330
11
102
}
330
11
100
AcDbDictionary
  0
XRECORD
  5
2FD
102
{ACAD_REACTORS
330
16F
102
}
330
16F
100
AcDbXrecord
340
2
  0
XRECORD
  5
2FE
102
{ACAD_REACTORS
330
171
102
}
330
171
100
AcDbXrecord
340
C
  0
MLINESTYLE
  5
28
102
{ACAD_REACTORS
330
25
102
}
330
25
100
AcDbMlineStyle
  2
STANDARD
 70
     0
  3

 62
   256
 51
90.0
 52
90.0
 71
     2
 49
0.5
 62
   256
  6
BYLAYER
 49
-0.5
 62
   256
  6
BYLAYER
  0
ACDBPLACEHOLDER
  5
5
102
{ACAD_REACTORS
330
6
102
}
330
6
100
AcDbPlaceHolder
280
     0
  0
XRECORD
  5
2E6
102
{ACAD_REACTORS
330
2DC
102
}
330
2DC
100
AcDbXrecord
 90
        0
  0
XRECORD
  5
2EA
102
{ACAD_REACTORS
330
2DC
102
}
330
2DC
100
AcDbXrecord
1000
DSTYLE
1002
{
1070
    79
 70
     2
1070
   179
 70
     2
1002
}
  0
XRECORD
  5
2E7
102
{ACAD_REACTORS
330
2DC
102
}
330
2DC
100
AcDbXrecord
  1
{19C29E87-2D4A-44F5-9CA9-8E2C957C07B1}
  0
XRECORD
  5
2DF
102
{ACAD_REACTORS
330
2DC
102
}
330
2DC
100
AcDbXrecord
  1

  0
XRECORD
  5
2E5
102
{ACAD_REACTORS
330
2DC
102
}
330
2DC
100
AcDbXrecord
 90
        0
  0
XRECORD
  5
2E1
102
{ACAD_REACTORS
330
2DC
102
}
330
2DC
100
AcDbXrecord
340
B
  0
XRECORD
  5
2E4
102
{ACAD_REACTORS
330
2DC
102
}
330
2DC
100
AcDbXrecord
 90
    10781
  0
XRECORD
  5
2E2
102
{ACAD_REACTORS
330
2DC
102
}
330
2DC
100
AcDbXrecord
340
26
  0
XRECORD
  5
2E3
102
{ACAD_REACTORS
330
2DC
102
}
330
2DC
100
AcDbXrecord
340
6
  0
XRECORD
  5
2E9
102
{ACAD_REACTORS
330
2DC
102
}
330
2DC
100
AcDbXrecord
 40
0.0
  0
XRECORD
  5
2ED
102
{ACAD_REACTORS
330
2DC
102
}
330
2DC
100
AcDbXrecord
340
0
  0
XRECORD
  5
2F3
102
{ACAD_REACTORS
330
2DC
102
}
330
2DC
100
AcDbXrecord
 10
0.0
 20
0.0
 30
0.0
  0
XRECORD
  5
2EF
102
{ACAD_REACTORS
330
2DC
102
}
330
2DC
100
AcDbXrecord
 10
0.0
 20
0.0
 30
0.0
  0
XRECORD
  5
2F2
102
{ACAD_REACTORS
330
2DC
102
}
330
2DC
100
AcDbXrecord
 10
0.0
 20
0.0
 30
0.0
  0
XRECORD
  5
2F0
102
{ACAD_REACTORS
330
2DC
102
}
330
2DC
100
AcDbXrecord
 10
0.0
 20
0.0
 30
0.0
  0
XRECORD
  5
2F1
102
{ACAD_REACTORS
330
2DC
102
}
330
2DC
100
AcDbXrecord
 10
0.0
 20
0.0
 30
0.0
  0
XRECORD
  5
2EE
102
{ACAD_REACTORS
330
2DC
102
}
330
2DC
100
AcDbXrecord
 10
0.0
 20
0.0
 30
0.0
  0
XRECORD
  5
2EB
102
{ACAD_REACTORS
330
2DC
102
}
330
2DC
100
AcDbXrecord
340
0
  0
XRECORD
  5
2EC
102
{ACAD_REACTORS
330
2DC
102
}
330
2DC
100
AcDbXrecord
 70
     0
  0
XRECORD
  5
2E0
102
{ACAD_REACTORS
330
2DC
102
}
330
2DC
100
AcDbXrecord
  1

  0
XRECORD
  5
2DD
102
{ACAD_REACTORS
330
2DC
102
}
330
2DC
100
AcDbXrecord
 90
        1
  0
XRECORD
  5
2DE
102
{ACAD_REACTORS
330
2DC
102
}
330
2DC
100
AcDbXrecord
 90
       70
  0
XRECORD
  5
2F6
102
{ACAD_REACTORS
330
2DC
102
}
330
2DC
100
AcDbXrecord
340
0
  0
XRECORD
  5
2FC
102
{ACAD_REACTORS
330
2DC
102
}
330
2DC
100
AcDbXrecord
 10
0.0
 20
0.0
 30
0.0
  0
XRECORD
  5
2F8
102
{ACAD_REACTORS
330
2DC
102
}
330
2DC
100
AcDbXrecord
 10
0.0
 20
0.0
 30
0.0
  0
XRECORD
  5
2FB
102
{ACAD_REACTORS
330
2DC
102
}
330
2DC
100
AcDbXrecord
 10
0.0
 20
0.0
 30
0.0
  0
XRECORD
  5
2F9
102
{ACAD_REACTORS
330
2DC
102
}
330
2DC
100
AcDbXrecord
 10
0.0
 20
0.0
 30
0.0
  0
XRECORD
  5
2FA
102
{ACAD_REACTORS
330
2DC
102
}
330
2DC
100
AcDbXrecord
 10
0.0
 20
0.0
 30
0.0
  0
XRECORD
  5
2F7
102
{ACAD_REACTORS
330
2DC
102
}
330
2DC
100
AcDbXrecord
 10
0.0
 20
0.0
 30
0.0
  0
XRECORD
  5
2F4
102
{ACAD_REACTORS
330
2DC
102
}
330
2DC
100
AcDbXrecord
340
0
  0
XRECORD
  5
2F5
102
{ACAD_REACTORS
330
2DC
102
}
330
2DC
100
AcDbXrecord
 70
     0
  0
XRECORD
  5
2E8
102
{ACAD_REACTORS
330
2DC
102
}
330
2DC
100
AcDbXrecord
  1
{02AF13BA-56DF-40FF-96EB-B3A05DE0FED1}
  0
DICTIONARYVAR
  5
123
102
{ACAD_REACTORS
330
121
102
}
330
121
100
DictionaryVariables
280
     0
  1
1
  0
DICTIONARYVAR
  5
122
102
{ACAD_REACTORS
330
121
102
}
330
121
100
DictionaryVariables
280
     0
  1
1
  0
ENDSEC
  0
EOF
