  0
SECTION
  2
HEADER
  9
$ACADVER
  1
AC1014
  9
$ACADMAINTVER
 70
     9
  9
$DWGCODEPAGE
  3
ANSI_932
  9
$INSBASE
 10
0.0
 20
0.0
 30
0.0
  9
$EXTMIN
 10
12.58790981381844
 20
8.271387484727711
 30
-0.0015258207003583
  9
$EXTMAX
 10
213.9352263756918
 20
40.401861575275
 30
0.0000000349246037
  9
$LIMMIN
 10
0.0
 20
0.0
  9
$LIMMAX
 10
420.0
 20
297.0
  9
$ORTHOMODE
 70
     1
  9
$REGENMODE
 70
     1
  9
$FILLMODE
 70
     1
  9
$QTEXTMODE
 70
     0
  9
$MIRRTEXT
 70
     0
  9
$DRAGMODE
 70
     2
  9
$LTSCALE
 40
2.0
  9
$OSMODE
 70
   191
  9
$ATTMODE
 70
     1
  9
$TEXTSIZE
 40
2.5
  9
$TRACEWID
 40
1.0
  9
$TEXTSTYLE
  7
STANDARD
  9
$CLAYER
  8
OBJECT
  9
$CELTYPE
  6
BYLAYER
  9
$CECOLOR
 62
   256
  9
$CELTSCALE
 40
1.0
  9
$DELOBJ
 70
     1
  9
$DISPSILH
 70
     0
  9
$DIMSCALE
 40
0.4600000000000001
  9
$DIMASZ
 40
2.5
  9
$DIMEXO
 40
1.25
  9
$DIMDLI
 40
1.0
  9
$DIMRND
 40
0.0
  9
$DIMDLE
 40
0.0
  9
$DIMEXE
 40
0.625
  9
$DIMTP
 40
0.0
  9
$DIMTM
 40
0.0
  9
$DIMTXT
 40
2.5
  9
$DIMCEN
 40
0.0
  9
$DIMTSZ
 40
0.0
  9
$DIMTOL
 70
     0
  9
$DIMLIM
 70
     0
  9
$DIMTIH
 70
     0
  9
$DIMTOH
 70
     0
  9
$DIMSE1
 70
     0
  9
$DIMSE2
 70
     0
  9
$DIMTAD
 70
     1
  9
$DIMZIN
 70
     8
  9
$DIMBLK
  1

  9
$DIMASO
 70
     1
  9
$DIMSHO
 70
     1
  9
$DIMPOST
  1

  9
$DIMAPOST
  1

  9
$DIMALT
 70
     0
  9
$DIMALTD
 70
     4
  9
$DIMALTF
 40
0.0394
  9
$DIMLFAC
 40
1.0
  9
$DIMTOFL
 70
     1
  9
$DIMTVP
 40
0.0
  9
$DIMTIX
 70
     0
  9
$DIMSOXD
 70
     0
  9
$DIMSAH
 70
     0
  9
$DIMBLK1
  1

  9
$DIMBLK2
  1

  9
$DIMSTYLE
  2
STANDARD
  9
$DIMCLRD
 70
     3
  9
$DIMCLRE
 70
     3
  9
$DIMCLRT
 70
     3
  9
$DIMTFAC
 40
1.0
  9
$DIMGAP
 40
0.625
  9
$DIMJUST
 70
     0
  9
$DIMSD1
 70
     0
  9
$DIMSD2
 70
     0
  9
$DIMTOLJ
 70
     1
  9
$DIMTZIN
 70
     8
  9
$DIMALTZ
 70
     0
  9
$DIMALTTZ
 70
     0
  9
$DIMFIT
 70
     3
  9
$DIMUPT
 70
     0
  9
$DIMUNIT
 70
     2
  9
$DIMDEC
 70
     2
  9
$DIMTDEC
 70
     2
  9
$DIMALTU
 70
     8
  9
$DIMALTTD
 70
     4
  9
$DIMTXSTY
  7
STANDARD
  9
$DIMAUNIT
 70
     0
  9
$LUNITS
 70
     2
  9
$LUPREC
 70
     4
  9
$SKETCHINC
 40
1.0
  9
$FILLETRAD
 40
0.5
  9
$AUNITS
 70
     0
  9
$AUPREC
 70
     0
  9
$MENU
  1
.
  9
$ELEVATION
 40
0.0
  9
$PELEVATION
 40
0.0
  9
$THICKNESS
 40
0.0
  9
$LIMCHECK
 70
     0
  9
$BLIPMODE
 70
     0
  9
$CHAMFERA
 40
0.0
  9
$CHAMFERB
 40
0.0
  9
$CHAMFERC
 40
20.0
  9
$CHAMFERD
 40
0.0
  9
$SKPOLY
 70
     0
  9
$TDCREATE
 40
2452136.870343981
  9
$TDUPDATE
 40
2454518.468405845
  9
$TDINDWG
 40
10.8264631481
  9
$TDUSRTIMER
 40
10.8264631481
  9
$USRTIMER
 70
     1
  9
$ANGBASE
 50
0.0
  9
$ANGDIR
 70
     0
  9
$PDMODE
 70
     0
  9
$PDSIZE
 40
0.0
  9
$PLINEWID
 40
0.3
  9
$COORDS
 70
     0
  9
$SPLFRAME
 70
     0
  9
$SPLINETYPE
 70
     6
  9
$SPLINESEGS
 70
     8
  9
$ATTDIA
 70
     0
  9
$ATTREQ
 70
     1
  9
$HANDLING
 70
 22529
  9
$HANDSEED
  5
322
  9
$SURFTAB1
 70
     6
  9
$SURFTAB2
 70
     6
  9
$SURFTYPE
 70
     6
  9
$SURFU
 70
     6
  9
$SURFV
 70
     6
  9
$UCSNAME
  2

  9
$UCSORG
 10
0.0
 20
0.0
 30
0.0
  9
$UCSXDIR
 10
1.0
 20
0.0
 30
0.0
  9
$UCSYDIR
 10
0.0
 20
1.0
 30
0.0
  9
$PUCSNAME
  2

  9
$PUCSORG
 10
0.0
 20
0.0
 30
0.0
  9
$PUCSXDIR
 10
1.0
 20
0.0
 30
0.0
  9
$PUCSYDIR
 10
0.0
 20
1.0
 30
0.0
  9
$USERI1
 70
     0
  9
$USERI2
 70
     0
  9
$USERI3
 70
     0
  9
$USERI4
 70
     0
  9
$USERI5
 70
     0
  9
$USERR1
 40
0.0
  9
$USERR2
 40
0.0
  9
$USERR3
 40
0.0
  9
$USERR4
 40
0.0
  9
$USERR5
 40
0.0
  9
$WORLDVIEW
 70
     1
  9
$SHADEDGE
 70
     3
  9
$SHADEDIF
 70
    70
  9
$TILEMODE
 70
     1
  9
$MAXACTVP
 70
    48
  9
$PINSBASE
 10
0.0
 20
0.0
 30
0.0
  9
$PLIMCHECK
 70
     0
  9
$PEXTMIN
 10
0.9598916571909988
 20
0.8043799099959727
 30
0.0
  9
$PEXTMAX
 10
8.639024914718985
 20
7.239419189963752
 30
0.0
  9
$PLIMMIN
 10
-0.7005418191744587
 20
-0.2281003861915408
  9
$PLIMMAX
 10
10.29945794052965
 20
8.271899373512567
  9
$UNITMODE
 70
     0
  9
$VISRETAIN
 70
     1
  9
$PLINEGEN
 70
     0
  9
$PSLTSCALE
 70
     1
  9
$TREEDEPTH
 70
  3020
  9
$PICKSTYLE
 70
     1
  9
$CMLSTYLE
  2
STANDARD
  9
$CMLJUST
 70
     0
  9
$CMLSCALE
 40
20.0
  9
$PROXYGRAPHICS
 70
     1
  9
$MEASUREMENT
 70
     0
  0
ENDSEC
  0
SECTION
  2
CLASSES
  0
CLASS
  1
DICTIONARYVAR
  2
AcDbDictionaryVar
  3
AutoCAD 2000
 90
        0
280
     0
281
     0
  0
CLASS
  1
HATCH
  2
AcDbHatch
  3
AutoCAD 2000
 90
        0
280
     0
281
     1
  0
CLASS
  1
XRECORD
  2
AcDbXrecord
  3
AutoCAD 2000
 90
        0
280
     0
281
     0
  0
CLASS
  1
LWPOLYLINE
  2
AcDbPolyline
  3
AutoCAD 2000
 90
        0
280
     0
281
     1
  0
CLASS
  1
ACDBDICTIONARYWDFLT
  2
AcDbDictionaryWithDefault
  3
AutoCAD 2000
 90
        0
280
     0
281
     0
  0
CLASS
  1
ACDBPLACEHOLDER
  2
AcDbPlaceHolder
  3
AutoCAD 2000
 90
        0
280
     0
281
     0
  0
CLASS
  1
LAYOUT
  2
AcDbLayout
  3
AutoCAD 2000
 90
        0
280
     0
281
     0
  0
CLASS
  1
DIMASSOC
  2
AcDbDimAssoc
  3
"AcDbDimAssoc|Product Desc:     AcDim ARX App For Dimension|Company:          Autodesk, Inc.|WEB Address:      www.autodesk.com"
 90
        0
280
     0
281
     0
  0
CLASS
  1
PLOTSETTINGS
  2
AcDbPlotSettings
  3
AutoCAD 2000
 90
        0
280
     0
281
     0
  0
CLASS
  1
LONG_TRANSACTION
  2
AcDbLongTransaction
  3
AutoCAD 2000
 90
        0
280
     0
281
     0
  0
CLASS
  1
LWPOLYLINE
  2
AcDbPolyline
  3
AutoCAD 2000
 90
        0
280
     0
281
     1
  0
CLASS
  1
HATCH
  2
AcDbHatch
  3
AutoCAD 2000
 90
        0
280
     0
281
     1
  0
CLASS
  1
XRECORD
  2
AcDbXrecord
  3
AutoCAD 2000
 90
        0
280
     0
281
     0
  0
ENDSEC
  0
SECTION
  2
TABLES
  0
TABLE
  2
VPORT
  5
1C
330
0
100
AcDbSymbolTable
 70
     3
  0
VPORT
  5
2FC
330
1C
100
AcDbSymbolTableRecord
100
AcDbViewportTableRecord
  2
*ACTIVE
 70
     0
 10
0.0
 20
0.0
 11
1.0
 21
1.0
 12
114.055268085045
 22
23.8288433675375
 13
0.0
 23
0.0
 14
10.0
 24
10.0
 15
10.0
 25
10.0
 16
0.0
 26
0.0
 36
1.0
 17
0.0
 27
0.0
 37
0.0
 40
219.0704085614499
 41
1.493654822335025
 42
50.0
 43
0.0
 44
0.0
 50
0.0
 51
0.0
 71
     0
 72
 20000
 73
     1
 74
     1
 75
     0
 76
     0
 77
     0
 78
     0
  0
ENDTAB
  0
TABLE
  2
LTYPE
  5
17
330
0
100
AcDbSymbolTable
 70
     1
  0
LTYPE
  5
18
330
17
100
AcDbSymbolTableRecord
100
AcDbLinetypeTableRecord
  2
BYBLOCK
 70
     0
  3

 72
    65
 73
     0
 40
0.0
  0
LTYPE
  5
19
330
17
100
AcDbSymbolTableRecord
100
AcDbLinetypeTableRecord
  2
BYLAYER
 70
     0
  3

 72
    65
 73
     0
 40
0.0
  0
LTYPE
  5
8
330
17
100
AcDbSymbolTableRecord
100
AcDbLinetypeTableRecord
  2
CONTINUOUS
 70
     0
  3
Solid line
 72
    65
 73
     0
 40
0.0
  0
ENDTAB
  0
TABLE
  2
LAYER
  5
10
102
{ACAD_XDICTIONARY
360
11
102
}
330
0
100
AcDbSymbolTable
 70
     4
  0
LAYER
  5
4
330
10
100
AcDbSymbolTableRecord
100
AcDbLayerTableRecord
  2
0
 70
     0
 62
     7
  6
CONTINUOUS
  0
LAYER
  5
2A
330
10
100
AcDbSymbolTableRecord
100
AcDbLayerTableRecord
  2
TEXT
 70
     0
 62
     3
  6
CONTINUOUS
  0
LAYER
  5
27
330
10
100
AcDbSymbolTableRecord
100
AcDbLayerTableRecord
  2
OBJECT
 70
     0
 62
     7
  6
CONTINUOUS
  0
LAYER
  5
57
330
10
100
AcDbSymbolTableRecord
100
AcDbLayerTableRecord
  2
DEFPOINTS
 70
     0
 62
     2
  6
CONTINUOUS
  0
ENDTAB
  0
TABLE
  2
STYLE
  5
14
330
0
100
AcDbSymbolTable
 70
     2
  0
STYLE
  5
15
330
14
100
AcDbSymbolTableRecord
100
AcDbTextStyleTableRecord
  2
STANDARD
 70
     0
 40
0.0
 41
1.0
 50
0.0
 71
     0
 42
2.5
  3
simplex.shx
  4
bigfont.shx
  0
ENDTAB
  0
TABLE
  2
VIEW
  5
1A
330
0
100
AcDbSymbolTable
 70
     0
  0
ENDTAB
  0
TABLE
  2
UCS
  5
1B
330
0
100
AcDbSymbolTable
 70
     0
  0
ENDTAB
  0
TABLE
  2
APPID
  5
1E
330
0
100
AcDbSymbolTable
 70
     1
  0
APPID
  5
1F
330
1E
100
AcDbSymbolTableRecord
100
AcDbRegAppTableRecord
  2
ACAD
 70
     0
  0
ENDTAB
  0
TABLE
  2
DIMSTYLE
  5
20
330
0
100
AcDbSymbolTable
 70
     1
  0
DIMSTYLE
105
21
102
{ACAD_REACTORS
330
C6
330
7A
330
9F
330
D9
330
4E
330
FF
330
EE
330
88
102
}
330
20
100
AcDbSymbolTableRecord
100
AcDbDimStyleTableRecord
  2
STANDARD
 70
     0
  3

  4

  5

  6

  7

 40
0.4600000000000001
 41
2.5
 42
1.25
 43
1.0
 44
0.625
 45
0.0
 46
0.0
 47
0.0
 48
0.0
140
2.5
141
0.0
142
0.0
143
0.0394
144
1.0
145
0.0
146
1.0
147
0.625
 71
     0
 72
     0
 73
     0
 74
     0
 75
     0
 76
     0
 77
     1
 78
     8
170
     0
171
     4
172
     1
173
     0
174
     0
175
     0
176
     3
177
     3
178
     3
270
     2
271
     2
272
     2
273
     8
274
     4
340
15
275
     0
280
     0
281
     0
282
     0
283
     1
284
     8
285
     0
286
     0
287
     3
288
     0
  0
ENDTAB
  0
TABLE
  2
BLOCK_RECORD
  5
1
330
0
100
AcDbSymbolTable
 70
    18
  0
BLOCK_RECORD
  5
2
102
{ACAD_XDICTIONARY
360
31E
102
}
330
1
100
AcDbSymbolTableRecord
100
AcDbBlockTableRecord
  2
*MODEL_SPACE
  0
BLOCK_RECORD
  5
C
102
{ACAD_XDICTIONARY
360
320
102
}
330
1
100
AcDbSymbolTableRecord
100
AcDbBlockTableRecord
  2
*PAPER_SPACE
  0
BLOCK_RECORD
  5
1E4
330
1
100
AcDbSymbolTableRecord
100
AcDbBlockTableRecord
  2
*D10
  0
BLOCK_RECORD
  5
1F2
330
1
100
AcDbSymbolTableRecord
100
AcDbBlockTableRecord
  2
*D11
  0
BLOCK_RECORD
  5
1FE
330
1
100
AcDbSymbolTableRecord
100
AcDbBlockTableRecord
  2
*D12
  0
BLOCK_RECORD
  5
20B
330
1
100
AcDbSymbolTableRecord
100
AcDbBlockTableRecord
  2
*D13
  0
BLOCK_RECORD
  5
217
330
1
100
AcDbSymbolTableRecord
100
AcDbBlockTableRecord
  2
*D14
  0
BLOCK_RECORD
  5
223
330
1
100
AcDbSymbolTableRecord
100
AcDbBlockTableRecord
  2
*D15
  0
BLOCK_RECORD
  5
22F
330
1
100
AcDbSymbolTableRecord
100
AcDbBlockTableRecord
  2
*D16
  0
BLOCK_RECORD
  5
23B
330
1
100
AcDbSymbolTableRecord
100
AcDbBlockTableRecord
  2
*D17
  0
ENDTAB
  0
ENDSEC
  0
SECTION
  2
BLOCKS
  0
BLOCK
  5
3
330
2
100
AcDbEntity
  8
0
100
AcDbBlockBegin
  2
*MODEL_SPACE
 70
     2
 10
0.0
 20
0.0
 30
0.0
  3
*MODEL_SPACE
  1

  0
ENDBLK
  5
9
330
2
100
AcDbEntity
  8
0
100
AcDbBlockEnd
  0
BLOCK
  5
D
330
C
100
AcDbEntity
 67
     1
  8
0
100
AcDbBlockBegin
  2
*PAPER_SPACE
 70
     0
 10
0.0
 20
0.0
 30
0.0
  3
*PAPER_SPACE
  1

  0
ENDBLK
  5
E
330
C
100
AcDbEntity
 67
     1
  8
0
100
AcDbBlockEnd
  0
BLOCK
  5
1F0
330
1E4
100
AcDbEntity
  8
0
100
AcDbBlockBegin
  2
*D10
 70
     1
 10
0.0
 20
0.0
 30
0.0
  3
*D10
  1

  0
LINE
  5
2B9
330
1E4
100
AcDbEntity
  8
TEXT
 62
     0
100
AcDbLine
 10
94.0737246311353
 20
25.54653961008856
 30
0.0
 11
88.85979706130205
 21
25.54653961008856
 31
0.0
  0
LINE
  5
2BA
330
1E4
100
AcDbEntity
  8
TEXT
 62
     0
100
AcDbLine
 10
94.0737246311353
 20
21.54653961008855
 30
0.0
 11
88.85979706130205
 21
21.54653961008855
 31
0.0
  0
LINE
  5
2BB
330
1E4
100
AcDbEntity
  8
TEXT
 62
     0
100
AcDbLine
 10
89.48479706130205
 20
19.04653961008856
 30
0.0
 11
89.48479706130205
 21
16.54653961008856
 31
0.0
  0
LINE
  5
2BC
330
1E4
100
AcDbEntity
  8
TEXT
 62
     0
100
AcDbLine
 10
89.48479706130205
 20
28.04653961008856
 30
0.0
 11
89.48479706130207
 21
40.40011103866016
 31
0.0
  0
LINE
  5
2BD
330
1E4
100
AcDbEntity
  8
TEXT
 62
     0
100
AcDbLine
 10
89.48479706130205
 20
21.54653961008855
 30
0.0
 11
89.48479706130205
 21
25.54653961008856
 31
0.0
  0
SOLID
  5
2BE
330
1E4
100
AcDbEntity
  8
TEXT
 62
     0
100
AcDbTrace
 10
89.06813039463539
 20
19.04653961008856
 30
0.0
 11
89.90146372796873
 21
19.04653961008856
 31
0.0
 12
89.48479706130205
 22
21.54653961008855
 32
0.0
 13
89.48479706130205
 23
21.54653961008855
 33
0.0
  0
SOLID
  5
2BF
330
1E4
100
AcDbEntity
  8
TEXT
 62
     0
100
AcDbTrace
 10
89.06813039463539
 20
28.04653961008856
 30
0.0
 11
89.90146372796873
 21
28.04653961008856
 31
0.0
 12
89.48479706130205
 22
25.54653961008856
 32
0.0
 13
89.48479706130205
 23
25.54653961008856
 33
0.0
  0
MTEXT
  5
2C0
330
1E4
100
AcDbEntity
  8
TEXT
 62
     0
100
AcDbMText
 10
87.35979706130207
 20
35.77511103866018
 30
0.0
 40
3.0
 41
0.0
 71
     5
 72
     1
  1
\A1;φ4.1
 11
0.0000000000000001
 21
1.0
 31
0.0
1001
ACAD
1000
MTEXTBEGIN
1070
    73
1070
     1
1070
    44
1040
1.0
1070
    74
1070
     0
1000
MTEXTEND
  0
POINT
  5
2C1
330
1E4
100
AcDbEntity
  8
DEFPOINTS
 62
     0
100
AcDbPoint
 10
95.3237246311353
 20
25.54653961008856
 30
0.0
  0
POINT
  5
2C2
330
1E4
100
AcDbEntity
  8
DEFPOINTS
 62
     0
100
AcDbPoint
 10
95.3237246311353
 20
21.54653961008855
 30
0.0
  0
POINT
  5
2C3
330
1E4
100
AcDbEntity
  8
DEFPOINTS
 62
     0
100
AcDbPoint
 10
89.48479706130205
 20
21.54653961008855
 30
0.0
  0
ENDBLK
  5
1F1
330
1E4
100
AcDbEntity
  8
0
100
AcDbBlockEnd
  0
BLOCK
  5
1FC
330
1F2
100
AcDbEntity
  8
0
100
AcDbBlockBegin
  2
*D11
 70
     1
 10
0.0
 20
0.0
 30
0.0
  3
*D11
  1

  0
LINE
  5
2C4
330
1F2
100
AcDbEntity
  8
TEXT
 62
     0
100
AcDbLine
 10
24.28996881658213
 20
28.44653961008725
 30
0.0
 11
32.50419525803023
 21
28.44653961008725
 31
0.0
  0
LINE
  5
2C5
330
1F2
100
AcDbEntity
  8
TEXT
 62
     0
100
AcDbLine
 10
24.28996881658213
 20
18.64653961008891
 30
0.0
 11
32.50419525803023
 21
18.64653961008891
 31
0.0
  0
LINE
  5
2C6
330
1F2
100
AcDbEntity
  8
TEXT
 62
     0
100
AcDbLine
 10
31.87919525803023
 20
25.94653961008725
 30
0.0
 11
31.87919525803022
 21
21.14653961008892
 31
0.0
  0
SOLID
  5
2C7
330
1F2
100
AcDbEntity
  8
TEXT
 62
     0
100
AcDbTrace
 10
31.46252859136356
 20
25.94653961008725
 30
0.0
 11
32.29586192469689
 21
25.94653961008725
 31
0.0
 12
31.87919525803023
 22
28.44653961008725
 32
0.0
 13
31.87919525803023
 23
28.44653961008725
 33
0.0
  0
SOLID
  5
2C8
330
1F2
100
AcDbEntity
  8
TEXT
 62
     0
100
AcDbTrace
 10
31.46252859136355
 20
21.14653961008892
 30
0.0
 11
32.29586192469689
 21
21.14653961008892
 31
0.0
 12
31.87919525803022
 22
18.64653961008891
 32
0.0
 13
31.87919525803022
 23
18.64653961008891
 33
0.0
  0
MTEXT
  5
2C9
330
1F2
100
AcDbEntity
  8
TEXT
 62
     0
100
AcDbMText
 10
29.75419525803022
 20
23.76386378912536
 30
0.0
 40
3.0
 41
0.0
 71
     5
 72
     1
  1
\A1;9.8
 11
0.0000000000000001
 21
1.0
 31
0.0
1001
ACAD
1000
MTEXTBEGIN
1070
    73
1070
     1
1070
    44
1040
1.0
1070
    74
1070
     0
1000
MTEXTEND
  0
POINT
  5
2CA
330
1F2
100
AcDbEntity
  8
DEFPOINTS
 62
     0
100
AcDbPoint
 10
23.03996881658213
 20
28.44653961008726
 30
0.0
  0
POINT
  5
2CB
330
1F2
100
AcDbEntity
  8
DEFPOINTS
 62
     0
100
AcDbPoint
 10
23.03996881658213
 20
18.64653961008892
 30
0.0
  0
POINT
  5
2CC
330
1F2
100
AcDbEntity
  8
DEFPOINTS
 62
     0
100
AcDbPoint
 10
31.87919525803022
 20
18.64653961008891
 30
0.0
  0
ENDBLK
  5
1FD
330
1F2
100
AcDbEntity
  8
0
100
AcDbBlockEnd
  0
BLOCK
  5
209
330
1FE
100
AcDbEntity
  8
0
100
AcDbBlockBegin
  2
*D12
 70
     1
 10
0.0
 20
0.0
 30
0.0
  3
*D12
  1

  0
LINE
  5
2D6
330
1FE
100
AcDbEntity
  8
TEXT
 62
     0
100
AcDbLine
 10
17.0003442447296
 20
17.39653961008892
 30
0.0
 11
17.0003442447296
 21
8.320606454868794
 31
0.0
  0
LINE
  5
2D7
330
1FE
100
AcDbEntity
  8
TEXT
 62
     0
100
AcDbLine
 10
23.90034424472923
 20
18.29653961008895
 30
0.0
 11
23.90034424472923
 21
8.320606454868794
 31
0.0
  0
LINE
  5
2D8
330
1FE
100
AcDbEntity
  8
TEXT
 62
     0
100
AcDbLine
 10
19.5003442447296
 20
8.945606454868794
 30
0.0
 11
21.40034424472923
 21
8.945606454868794
 31
0.0
  0
LINE
  5
2D9
330
1FE
100
AcDbEntity
  8
TEXT
 62
     0
100
AcDbLine
 10
23.90034424472923
 20
8.945606454868794
 30
0.0
 11
33.79320138758638
 21
8.945606454868794
 31
0.0
  0
SOLID
  5
2DA
330
1FE
100
AcDbEntity
  8
TEXT
 62
     0
100
AcDbTrace
 10
19.5003442447296
 20
9.36227312153546
 30
0.0
 11
19.5003442447296
 21
8.528939788202128
 31
0.0
 12
17.0003442447296
 22
8.945606454868794
 32
0.0
 13
17.0003442447296
 23
8.945606454868794
 33
0.0
  0
SOLID
  5
2DB
330
1FE
100
AcDbEntity
  8
TEXT
 62
     0
100
AcDbTrace
 10
21.40034424472923
 20
9.36227312153546
 30
0.0
 11
21.40034424472923
 21
8.528939788202128
 31
0.0
 12
23.90034424472923
 22
8.945606454868794
 32
0.0
 13
23.90034424472923
 23
8.945606454868794
 33
0.0
  0
MTEXT
  5
2DC
330
1FE
100
AcDbEntity
  8
TEXT
 62
     0
100
AcDbMText
 10
30.09677281615781
 20
11.07060645486879
 30
0.0
 40
3.0
 41
0.0
 71
     5
 72
     1
  1
\A1;6.9
1001
ACAD
1000
MTEXTBEGIN
1070
    73
1070
     1
1070
    44
1040
1.0
1070
    74
1070
     0
1000
MTEXTEND
  0
POINT
  5
2DD
330
1FE
100
AcDbEntity
  8
DEFPOINTS
 62
     0
100
AcDbPoint
 10
17.0003442447296
 20
18.64653961008892
 30
0.0
  0
POINT
  5
2DE
330
1FE
100
AcDbEntity
  8
DEFPOINTS
 62
     0
100
AcDbPoint
 10
23.90034424472923
 20
19.54653961008895
 30
0.0
  0
POINT
  5
2DF
330
1FE
100
AcDbEntity
  8
DEFPOINTS
 62
     0
100
AcDbPoint
 10
23.90034424472923
 20
8.945606454868794
 30
0.0
  0
ENDBLK
  5
20A
330
1FE
100
AcDbEntity
  8
0
100
AcDbBlockEnd
  0
BLOCK
  5
215
330
20B
100
AcDbEntity
  8
0
100
AcDbBlockBegin
  2
*D13
 70
     1
 10
0.0
 20
0.0
 30
0.0
  3
*D13
  1

  0
LINE
  5
2CD
330
20B
100
AcDbEntity
  8
TEXT
 62
     0
100
AcDbLine
 10
52.13200016790143
 20
17.39653961008863
 30
0.0
 11
52.13200016790143
 21
8.319206912419787
 31
0.0
  0
LINE
  5
2CE
330
20B
100
AcDbEntity
  8
TEXT
 62
     0
100
AcDbLine
 10
162.5444787911355
 20
18.49653961008885
 30
0.0
 11
162.5444787911355
 21
8.319206912419787
 31
0.0
  0
LINE
  5
2CF
330
20B
100
AcDbEntity
  8
TEXT
 62
     0
100
AcDbLine
 10
54.63200016790143
 20
8.944206912419787
 30
0.0
 11
160.0444787911355
 21
8.944206912419787
 31
0.0
  0
SOLID
  5
2D0
330
20B
100
AcDbEntity
  8
TEXT
 62
     0
100
AcDbTrace
 10
54.63200016790143
 20
9.360873579086453
 30
0.0
 11
54.63200016790143
 21
8.527540245753121
 31
0.0
 12
52.13200016790143
 22
8.944206912419787
 32
0.0
 13
52.13200016790143
 23
8.944206912419787
 33
0.0
  0
SOLID
  5
2D1
330
20B
100
AcDbEntity
  8
TEXT
 62
     0
100
AcDbTrace
 10
160.0444787911355
 20
9.360873579086453
 30
0.0
 11
160.0444787911355
 21
8.527540245753121
 31
0.0
 12
162.5444787911355
 22
8.944206912419787
 32
0.0
 13
162.5444787911355
 23
8.944206912419787
 33
0.0
  0
MTEXT
  5
2D2
330
20B
100
AcDbEntity
  8
TEXT
 62
     0
100
AcDbMText
 10
107.3382394795185
 20
11.06920691241978
 30
0.0
 40
3.0
 41
0.0
 71
     5
 72
     1
  1
\A1;500／1000／2000
1001
ACAD
1000
MTEXTBEGIN
1070
    73
1070
     1
1070
    44
1040
1.0
1070
    74
1070
     0
1000
MTEXTEND
  0
POINT
  5
2D3
330
20B
100
AcDbEntity
  8
DEFPOINTS
 62
     0
100
AcDbPoint
 10
52.13200016790143
 20
18.64653961008863
 30
0.0
  0
POINT
  5
2D4
330
20B
100
AcDbEntity
  8
DEFPOINTS
 62
     0
100
AcDbPoint
 10
162.5444787911355
 20
19.74653961008885
 30
0.0
  0
POINT
  5
2D5
330
20B
100
AcDbEntity
  8
DEFPOINTS
 62
     0
100
AcDbPoint
 10
162.5444787911355
 20
8.944206912419787
 30
0.0
  0
ENDBLK
  5
216
330
20B
100
AcDbEntity
  8
0
100
AcDbBlockEnd
  0
BLOCK
  5
221
330
217
100
AcDbEntity
  8
0
100
AcDbBlockBegin
  2
*D14
 70
     1
 10
0.0
 20
0.0
 30
0.0
  3
*D14
  1

  0
LINE
  5
2E0
330
217
100
AcDbEntity
  8
TEXT
 62
     0
100
AcDbLine
 10
52.13200016790143
 20
17.39653961008863
 30
0.0
 11
52.13200016790143
 21
8.319206912419787
 31
0.0
  0
LINE
  5
2E1
330
217
100
AcDbEntity
  8
TEXT
 62
     0
100
AcDbLine
 10
42.63200016790142
 20
18.29653961008861
 30
0.0
 11
42.63200016790142
 21
8.319206912419787
 31
0.0
  0
LINE
  5
2E2
330
217
100
AcDbEntity
  8
TEXT
 62
     0
100
AcDbLine
 10
49.63200016790143
 20
8.944206912419787
 30
0.0
 11
45.13200016790142
 21
8.944206912419787
 31
0.0
  0
SOLID
  5
2E3
330
217
100
AcDbEntity
  8
TEXT
 62
     0
100
AcDbTrace
 10
49.63200016790143
 20
9.360873579086453
 30
0.0
 11
49.63200016790143
 21
8.527540245753121
 31
0.0
 12
52.13200016790143
 22
8.944206912419787
 32
0.0
 13
52.13200016790143
 23
8.944206912419787
 33
0.0
  0
SOLID
  5
2E4
330
217
100
AcDbEntity
  8
TEXT
 62
     0
100
AcDbTrace
 10
45.13200016790142
 20
9.360873579086453
 30
0.0
 11
45.13200016790142
 21
8.527540245753121
 31
0.0
 12
42.63200016790142
 22
8.944206912419787
 32
0.0
 13
42.63200016790142
 23
8.944206912419787
 33
0.0
  0
MTEXT
  5
2E5
330
217
100
AcDbEntity
  8
TEXT
 62
     0
100
AcDbMText
 10
47.68588672834221
 20
11.06920691241978
 30
0.0
 40
3.0
 41
0.0
 71
     5
 72
     1
  1
\A1;9.5
1001
ACAD
1000
MTEXTBEGIN
1070
    73
1070
     1
1070
    44
1040
1.0
1070
    74
1070
     0
1000
MTEXTEND
  0
POINT
  5
2E6
330
217
100
AcDbEntity
  8
DEFPOINTS
 62
     0
100
AcDbPoint
 10
52.13200016790143
 20
18.64653961008863
 30
0.0
  0
POINT
  5
2E7
330
217
100
AcDbEntity
  8
DEFPOINTS
 62
     0
100
AcDbPoint
 10
42.63200016790142
 20
19.54653961008861
 30
0.0
  0
POINT
  5
2E8
330
217
100
AcDbEntity
  8
DEFPOINTS
 62
     0
100
AcDbPoint
 10
42.63200016790142
 20
8.944206912419787
 30
0.0
  0
ENDBLK
  5
222
330
217
100
AcDbEntity
  8
0
100
AcDbBlockEnd
  0
BLOCK
  5
22D
330
223
100
AcDbEntity
  8
0
100
AcDbBlockBegin
  2
*D15
 70
     1
 10
0.0
 20
0.0
 30
0.0
  3
*D15
  1

  0
LINE
  5
2B0
330
223
100
AcDbEntity
  8
TEXT
 62
     0
100
AcDbLine
 10
162.5444787911355
 20
18.49653961008883
 30
0.0
 11
162.5444787911355
 21
8.319206912419787
 31
0.0
  0
LINE
  5
2B1
330
223
100
AcDbEntity
  8
TEXT
 62
     0
100
AcDbLine
 10
184.1444787911354
 20
17.49653961008888
 30
0.0
 11
184.1444787911354
 21
8.319206912419787
 31
0.0
  0
LINE
  5
2B2
330
223
100
AcDbEntity
  8
TEXT
 62
     0
100
AcDbLine
 10
165.0444787911355
 20
8.944206912419787
 30
0.0
 11
181.6444787911354
 21
8.944206912419787
 31
0.0
  0
SOLID
  5
2B3
330
223
100
AcDbEntity
  8
TEXT
 62
     0
100
AcDbTrace
 10
165.0444787911355
 20
9.360873579086453
 30
0.0
 11
165.0444787911355
 21
8.527540245753121
 31
0.0
 12
162.5444787911355
 22
8.944206912419787
 32
0.0
 13
162.5444787911355
 23
8.944206912419787
 33
0.0
  0
SOLID
  5
2B4
330
223
100
AcDbEntity
  8
TEXT
 62
     0
100
AcDbTrace
 10
181.6444787911354
 20
9.360873579086453
 30
0.0
 11
181.6444787911354
 21
8.527540245753121
 31
0.0
 12
184.1444787911354
 22
8.944206912419787
 32
0.0
 13
184.1444787911354
 23
8.944206912419787
 33
0.0
  0
MTEXT
  5
2B5
330
223
100
AcDbEntity
  8
TEXT
 62
     0
100
AcDbMText
 10
172.6989787575892
 20
11.06920691241978
 30
0.0
 40
3.0
 41
0.0
 71
     5
 72
     1
  1
\A1;21.6
1001
ACAD
1000
MTEXTBEGIN
1070
    73
1070
     1
1070
    44
1040
1.0
1070
    74
1070
     0
1000
MTEXTEND
  0
POINT
  5
2B6
330
223
100
AcDbEntity
  8
DEFPOINTS
 62
     0
100
AcDbPoint
 10
162.5444787911355
 20
19.74653961008883
 30
0.0
  0
POINT
  5
2B7
330
223
100
AcDbEntity
  8
DEFPOINTS
 62
     0
100
AcDbPoint
 10
184.1444787911354
 20
18.74653961008888
 30
0.0
  0
POINT
  5
2B8
330
223
100
AcDbEntity
  8
DEFPOINTS
 62
     0
100
AcDbPoint
 10
184.1444787911354
 20
8.944206912419787
 30
0.0
  0
ENDBLK
  5
22E
330
223
100
AcDbEntity
  8
0
100
AcDbBlockEnd
  0
BLOCK
  5
239
330
22F
100
AcDbEntity
  8
0
100
AcDbBlockBegin
  2
*D16
 70
     1
 10
0.0
 20
0.0
 30
0.0
  3
*D16
  1

  0
LINE
  5
2E9
330
22F
100
AcDbEntity
  8
TEXT
 62
     0
100
AcDbLine
 10
202.192412688747
 20
28.54653961008887
 30
0.0
 11
198.35844275464
 21
28.54653961008887
 31
0.0
  0
LINE
  5
2EA
330
22F
100
AcDbEntity
  8
TEXT
 62
     0
100
AcDbLine
 10
202.192412688747
 20
18.54653961008887
 30
0.0
 11
198.35844275464
 21
18.54653961008887
 31
0.0
  0
LINE
  5
2EB
330
22F
100
AcDbEntity
  8
TEXT
 62
     0
100
AcDbLine
 10
198.98344275464
 20
26.04653961008887
 30
0.0
 11
198.98344275464
 21
21.04653961008887
 31
0.0
  0
SOLID
  5
2EC
330
22F
100
AcDbEntity
  8
TEXT
 62
     0
100
AcDbTrace
 10
198.5667760879733
 20
26.04653961008887
 30
0.0
 11
199.4001094213066
 21
26.04653961008887
 31
0.0
 12
198.98344275464
 22
28.54653961008887
 32
0.0
 13
198.98344275464
 23
28.54653961008887
 33
0.0
  0
SOLID
  5
2ED
330
22F
100
AcDbEntity
  8
TEXT
 62
     0
100
AcDbTrace
 10
198.5667760879733
 20
21.04653961008887
 30
0.0
 11
199.4001094213066
 21
21.04653961008887
 31
0.0
 12
198.98344275464
 22
18.54653961008887
 32
0.0
 13
198.98344275464
 23
18.54653961008887
 33
0.0
  0
MTEXT
  5
2EE
330
22F
100
AcDbEntity
  8
TEXT
 62
     0
100
AcDbMText
 10
196.85844275464
 20
23.40790565471414
 30
0.0
 40
3.0
 41
0.0
 71
     5
 72
     1
  1
\A1;10
 11
0.0000000000000001
 21
1.0
 31
0.0
1001
ACAD
1000
MTEXTBEGIN
1070
    73
1070
     1
1070
    44
1040
1.0
1070
    74
1070
     0
1000
MTEXTEND
  0
POINT
  5
2EF
330
22F
100
AcDbEntity
  8
DEFPOINTS
 62
     0
100
AcDbPoint
 10
203.442412688747
 20
28.54653961008887
 30
0.0
  0
POINT
  5
2F0
330
22F
100
AcDbEntity
  8
DEFPOINTS
 62
     0
100
AcDbPoint
 10
203.442412688747
 20
18.54653961008887
 30
0.0
  0
POINT
  5
2F1
330
22F
100
AcDbEntity
  8
DEFPOINTS
 62
     0
100
AcDbPoint
 10
198.98344275464
 20
18.54653961008887
 30
0.0
  0
ENDBLK
  5
23A
330
22F
100
AcDbEntity
  8
0
100
AcDbBlockEnd
  0
BLOCK
  5
247
330
23B
100
AcDbEntity
  8
0
100
AcDbBlockBegin
  2
*D17
 70
     1
 10
0.0
 20
0.0
 30
0.0
  3
*D17
  1

  0
LINE
  5
2F2
330
23B
100
AcDbEntity
  8
TEXT
 62
     0
100
AcDbLine
 10
203.4424126887472
 20
17.29653961008887
 30
0.0
 11
203.4424126887472
 21
8.300551792645052
 31
0.0
  0
LINE
  5
2F3
330
23B
100
AcDbEntity
  8
TEXT
 62
     0
100
AcDbLine
 10
210.0424126887469
 20
17.29653961008887
 30
0.0
 11
210.0424126887469
 21
8.300551792645052
 31
0.0
  0
LINE
  5
2F4
330
23B
100
AcDbEntity
  8
TEXT
 62
     0
100
AcDbLine
 10
205.9424126887472
 20
8.925551792645052
 30
0.0
 11
207.5424126887469
 21
8.925551792645052
 31
0.0
  0
SOLID
  5
2F5
330
23B
100
AcDbEntity
  8
TEXT
 62
     0
100
AcDbTrace
 10
205.9424126887472
 20
9.342218459311718
 30
0.0
 11
205.9424126887472
 21
8.508885125978386
 31
0.0
 12
203.4424126887472
 22
8.925551792645052
 32
0.0
 13
203.4424126887472
 23
8.925551792645052
 33
0.0
  0
SOLID
  5
2F6
330
23B
100
AcDbEntity
  8
TEXT
 62
     0
100
AcDbTrace
 10
207.5424126887469
 20
9.342218459311718
 30
0.0
 11
207.5424126887469
 21
8.508885125978386
 31
0.0
 12
210.0424126887469
 22
8.925551792645052
 32
0.0
 13
210.0424126887469
 23
8.925551792645052
 33
0.0
  0
MTEXT
  5
2F7
330
23B
100
AcDbEntity
  8
TEXT
 62
     0
100
AcDbMText
 10
206.7424126887471
 20
11.05055179264505
 30
0.0
 40
3.0
 41
0.0
 71
     5
 72
     1
  1
\A1;6.6
1001
ACAD
1000
MTEXTBEGIN
1070
    73
1070
     1
1070
    44
1040
1.0
1070
    74
1070
     0
1000
MTEXTEND
  0
POINT
  5
2F8
330
23B
100
AcDbEntity
  8
DEFPOINTS
 62
     0
100
AcDbPoint
 10
203.4424126887472
 20
18.54653961008887
 30
0.0
  0
POINT
  5
2F9
330
23B
100
AcDbEntity
  8
DEFPOINTS
 62
     0
100
AcDbPoint
 10
210.0424126887469
 20
18.54653961008887
 30
0.0
  0
POINT
  5
2FA
330
23B
100
AcDbEntity
  8
DEFPOINTS
 62
     0
100
AcDbPoint
 10
210.0424126887469
 20
8.925551792645052
 30
0.0
  0
ENDBLK
  5
248
330
23B
100
AcDbEntity
  8
0
100
AcDbBlockEnd
  0
ENDSEC
  0
SECTION
  2
ENTITIES
  0
DIMENSION
  5
4E
330
2
100
AcDbEntity
  8
TEXT
100
AcDbDimension
  2
*D15
 10
184.1444787911354
 20
8.944206912419787
 30
0.0
 11
172.6989787575892
 21
8.944206912419787
 31
0.0
 70
   160
  3
STANDARD
100
AcDbAlignedDimension
 13
162.5444787911355
 23
19.74653961008883
 33
0.0
 14
184.1444787911354
 24
18.74653961008888
 34
0.0
100
AcDbRotatedDimension
1001
ACAD
1000
DSTYLE
1002
{
1070
   140
1040
3.0
1070
    41
1040
2.5
1070
    40
1040
1.0
1070
   176
1070
     0
1070
   177
1070
     0
1070
   178
1070
     0
1002
}
  0
TEXT
  5
5C
330
2
100
AcDbEntity
  8
OBJECT
100
AcDbText
 10
161.402159616191
 20
36.73855930378923
 30
0.0
 40
2.5
  1
XARR-03VF　（JST）　
100
AcDbText
  0
DIMENSION
  5
7A
330
2
100
AcDbEntity
  8
TEXT
100
AcDbDimension
  2
*D14
 10
42.63200016790142
 20
8.944206912419787
 30
0.0
 11
47.68588672834221
 21
8.944206912419787
 31
0.0
 70
   160
  3
STANDARD
100
AcDbAlignedDimension
 13
52.13200016790143
 23
18.64653961008863
 33
0.0
 14
42.63200016790142
 24
19.54653961008861
 34
0.0
100
AcDbRotatedDimension
1001
ACAD
1000
DSTYLE
1002
{
1070
   140
1040
3.0
1070
    41
1040
2.5
1070
    40
1040
1.0
1070
   176
1070
     0
1070
   177
1070
     0
1070
   178
1070
     0
1002
}
  0
TEXT
  5
87
330
2
100
AcDbEntity
  8
OBJECT
100
AcDbText
 10
20.39733347233527
 20
36.73855930378923
 30
0.0
 40
2.5
  1
XAP-03V-1　（JST）
100
AcDbText
  0
DIMENSION
  5
88
330
2
100
AcDbEntity
  8
TEXT
100
AcDbDimension
  2
*D12
 10
23.90034424472923
 20
8.945606454868794
 30
0.0
 11
30.09677281615781
 21
11.07060645486879
 31
0.0
 70
    32
  3
STANDARD
100
AcDbAlignedDimension
 13
17.0003442447296
 23
18.64653961008892
 33
0.0
 14
23.90034424472923
 24
19.54653961008895
 34
0.0
100
AcDbRotatedDimension
1001
ACAD
1000
DSTYLE
1002
{
1070
   140
1040
3.0
1070
    40
1040
1.0
1070
   176
1070
     0
1070
   177
1070
     0
1070
   178
1070
     0
1002
}
  0
LINE
  5
96
330
2
100
AcDbEntity
  8
OBJECT
100
AcDbLine
 10
17.0003442447296
 20
28.44653961008887
 30
0.0
 11
23.03996881658213
 21
28.44653961008726
 31
0.0
  0
LINE
  5
98
330
2
100
AcDbEntity
  8
OBJECT
100
AcDbLine
 10
17.0003442447296
 20
18.64653961008892
 30
0.0
 11
21.62109510102891
 21
18.64653961008892
 31
0.0
  0
LINE
  5
99
330
2
100
AcDbEntity
  8
OBJECT
100
AcDbLine
 10
17.0003442447296
 20
18.64653961008903
 30
0.0
 11
17.0003442447296
 21
28.44653961008887
 31
0.0
  0
TEXT
  5
9A
330
2
100
AcDbEntity
  8
TEXT
100
AcDbText
 10
12.6702039994775
 20
19.44824410076193
 30
0.0
 40
1.5
  1
1
100
AcDbText
  0
LINE
  5
9B
330
2
100
AcDbEntity
  8
OBJECT
100
AcDbLine
 10
23.62898537804494
 20
26.54653961008867
 30
0.0
 11
23.62898537804494
 21
27.54653961008699
 31
0.0
  0
LINE
  5
9C
330
2
100
AcDbEntity
  8
OBJECT
100
AcDbLine
 10
18.20034424472942
 20
27.54653961008895
 30
0.0
 11
18.20034424472919
 21
23.54653961008912
 31
0.0
  0
LINE
  5
9D
330
2
100
AcDbEntity
  8
OBJECT
100
AcDbLine
 10
18.78381431402931
 20
27.54653961008895
 30
0.0
 11
18.78381431402931
 21
23.54653961008895
 31
0.0
  0
LINE
  5
9E
330
2
100
AcDbEntity
  8
OBJECT
100
AcDbLine
 10
23.90034424472969
 20
26.54653961008867
 30
0.0
 11
23.90034424472969
 21
27.54653961008699
 31
0.0
  0
DIMENSION
  5
9F
330
2
100
AcDbEntity
  8
TEXT
100
AcDbDimension
  2
*D11
 10
31.87919525803022
 20
18.64653961008891
 30
0.0
 11
31.87919525803022
 21
23.76386378912536
 31
0.0
 70
   160
  3
STANDARD
100
AcDbAlignedDimension
 13
23.03996881658213
 23
28.44653961008726
 33
0.0
 14
23.03996881658213
 24
18.64653961008892
 34
0.0
 50
90.0
100
AcDbRotatedDimension
1001
ACAD
1000
DSTYLE
1002
{
1070
   140
1040
3.0
1070
    41
1040
2.5
1070
    40
1040
1.0
1070
   176
1070
     0
1070
   177
1070
     0
1070
   178
1070
     0
1002
}
  0
LINE
  5
AC
330
2
100
AcDbEntity
  8
OBJECT
100
AcDbLine
 10
23.62898537804448
 20
19.54653961008895
 30
0.0
 11
23.62898537804472
 21
20.54653961008889
 31
0.0
  0
LINE
  5
AD
330
2
100
AcDbEntity
  8
OBJECT
100
AcDbLine
 10
23.62898537804472
 20
21.44653961008864
 30
0.0
 11
23.62898537804472
 21
25.64653961008869
 31
0.0
  0
LINE
  5
AE
330
2
100
AcDbEntity
  8
OBJECT
100
AcDbLine
 10
22.17959338842888
 20
18.64653961008892
 30
0.0
 11
23.03996881657963
 21
18.64653961008892
 31
0.0
  0
LINE
  5
AF
330
2
100
AcDbEntity
  8
OBJECT
100
AcDbLine
 10
21.90034424472924
 20
19.08597345772909
 30
0.0
 11
22.17959338842888
 21
18.64653961008878
 31
0.0
  0
LINE
  5
B0
330
2
100
AcDbEntity
  8
OBJECT
100
AcDbLine
 10
23.03996881657963
 20
19.54653961008898
 30
0.0
 11
23.03996881657963
 21
18.64653961008892
 31
0.0
  0
LINE
  5
B1
330
2
100
AcDbEntity
  8
OBJECT
100
AcDbLine
 10
22.20034424472942
 20
21.44653961008882
 30
0.0
 11
22.20034424472964
 21
25.64653961008861
 31
0.0
  0
LINE
  5
B2
330
2
100
AcDbEntity
  8
OBJECT
100
AcDbLine
 10
23.90034424472923
 20
19.54653961008895
 30
0.0
 11
23.90034424472947
 21
20.54653961008889
 31
0.0
  0
LINE
  5
B3
330
2
100
AcDbEntity
  8
OBJECT
100
AcDbLine
 10
23.90034424472947
 20
21.44653961008864
 30
0.0
 11
23.90034424472947
 21
25.64653961008869
 31
0.0
  0
LWPOLYLINE
  5
B4
330
2
100
AcDbEntity
  8
OBJECT
100
AcDbPolyline
 90
        4
 70
     1
 43
0.0
 10
20.21028184089891
 20
25.65813640966237
 10
19.40362813058027
 20
25.65813640966237
 10
19.40362813058027
 20
26.43494281051474
 10
20.21028184089891
 20
26.43494281051474
  0
LWPOLYLINE
  5
B5
330
2
100
AcDbEntity
  8
OBJECT
100
AcDbPolyline
 90
        4
 70
     1
 43
0.0
 10
20.21028184089891
 20
23.93494281051514
 10
19.40362813058027
 20
23.93494281051514
 10
19.40362813058027
 20
23.15813640966277
 10
20.21028184089891
 20
23.15813640966277
  0
LWPOLYLINE
  5
B6
330
2
100
AcDbEntity
  8
OBJECT
100
AcDbPolyline
 90
        4
 70
     1
 43
0.0
 10
20.21028184089891
 20
21.43494281051553
 10
19.40362813058027
 20
21.43494281051553
 10
19.40362813058027
 20
20.65813640966317
 10
20.21028184089891
 20
20.65813640966317
  0
LINE
  5
B7
330
2
100
AcDbEntity
  8
OBJECT
100
AcDbLine
 10
18.78381431402931
 20
19.54653961008895
 30
0.0
 11
18.78381431402931
 21
23.54653961008895
 31
0.0
  0
LINE
  5
B8
330
2
100
AcDbEntity
  8
OBJECT
100
AcDbLine
 10
18.20034424472942
 20
19.54653961008895
 30
0.0
 11
18.20034424472919
 21
23.54653961008878
 31
0.0
  0
LINE
  5
B9
330
2
100
AcDbEntity
  8
OBJECT
100
AcDbLine
 10
21.60034424472951
 20
20.54653961008878
 30
0.0
 11
21.60034424472974
 21
26.54653961008878
 31
0.0
  0
LINE
  5
BA
330
2
100
AcDbEntity
  8
OBJECT
100
AcDbLine
 10
21.90034424472924
 20
19.08597345772909
 30
0.0
 11
21.62109510102891
 21
18.64653961008883
 31
0.0
  0
LINE
  5
BB
330
2
100
AcDbEntity
  8
OBJECT
100
AcDbLine
 10
18.20034424472942
 20
19.54653961008904
 30
0.0
 11
23.90034424472923
 21
19.54653961008895
 31
0.0
  0
LINE
  5
BC
330
2
100
AcDbEntity
  8
OBJECT
100
AcDbLine
 10
22.20034424472964
 20
22.44653961008864
 30
0.0
 11
21.60034424472974
 21
22.44653961008864
 31
0.0
  0
LINE
  5
BD
330
2
100
AcDbEntity
  8
OBJECT
100
AcDbLine
 10
22.20034424472964
 20
24.64653961008869
 30
0.0
 11
21.60034424472974
 21
24.64653961008881
 31
0.0
  0
LINE
  5
BE
330
2
100
AcDbEntity
  8
OBJECT
100
AcDbLine
 10
21.60034424472974
 20
21.44653961008887
 30
0.0
 11
23.90034424472947
 21
21.44653961008864
 31
0.0
  0
LINE
  5
BF
330
2
100
AcDbEntity
  8
OBJECT
100
AcDbLine
 10
21.60034424472974
 20
25.64653961008858
 30
0.0
 11
23.90034424472947
 21
25.64653961008869
 31
0.0
  0
LINE
  5
C0
330
2
100
AcDbEntity
  8
OBJECT
100
AcDbLine
 10
21.60034424472951
 20
20.54653961008878
 30
0.0
 11
23.90034424472947
 21
20.54653961008889
 31
0.0
  0
LINE
  5
C1
330
2
100
AcDbEntity
  8
OBJECT
100
AcDbLine
 10
21.60034424472974
 20
26.54653961008889
 30
0.0
 11
23.90034424472969
 21
26.54653961008867
 31
0.0
  0
LINE
  5
C2
330
2
100
AcDbEntity
  8
OBJECT
100
AcDbLine
 10
23.03996881658213
 20
28.44653961008726
 30
0.0
 11
23.03996881658213
 21
27.54653961008722
 31
0.0
  0
LINE
  5
C3
330
2
100
AcDbEntity
  8
OBJECT
100
AcDbLine
 10
18.20034424473055
 20
27.54653961008853
 30
0.0
 11
23.90034424473037
 21
27.54653961008699
 31
0.0
  0
LINE
  5
C4
330
2
100
AcDbEntity
  8
OBJECT
 48
10.0
100
AcDbLine
 10
107.368509936138
 20
25.54653961008861
 30
0.0
 11
156.1481737375704
 21
25.54653961008844
 31
0.0
  0
LINE
  5
C5
330
2
100
AcDbEntity
  8
OBJECT
 48
10.0
100
AcDbLine
 10
106.6850399782354
 20
21.54653961008855
 30
0.0
 11
156.1481737375704
 21
21.54653961008873
 31
0.0
  0
DIMENSION
  5
C6
330
2
100
AcDbEntity
  8
TEXT
100
AcDbDimension
  2
*D13
 10
162.5444787911355
 20
8.944206912419787
 30
0.0
 11
107.3382394795185
 21
11.06920691241978
 31
0.0
 70
    32
  1
500／1000／2000
  3
STANDARD
100
AcDbAlignedDimension
 13
52.13200016790143
 23
18.64653961008863
 33
0.0
 14
162.5444787911355
 24
19.74653961008885
 34
0.0
100
AcDbRotatedDimension
1001
ACAD
1000
DSTYLE
1002
{
1070
   140
1040
3.0
1070
    41
1040
2.5
1070
    40
1040
1.0
1070
   176
1070
     0
1070
   177
1070
     0
1070
   178
1070
     0
1002
}
  0
LINE
  5
D3
330
2
100
AcDbEntity
  8
OBJECT
 48
10.0
100
AcDbLine
 10
56.98168577382808
 20
25.54653961008867
 30
0.0
 11
106.6528756461395
 21
25.54653961008847
 31
0.0
  0
LINE
  5
D4
330
2
100
AcDbEntity
  8
OBJECT
 48
10.0
100
AcDbLine
 10
56.98168577382808
 20
21.54653961008855
 30
0.0
 11
105.9694056882367
 21
21.54653961008855
 31
0.0
  0
LWPOLYLINE
  5
D5
330
2
100
AcDbEntity
  8
OBJECT
100
AcDbPolyline
 90
        2
 70
     0
 43
0.3
 10
52.13200016790143
 20
25.04653961008861
 10
53.51370565501724
 20
25.04653961008861
  0
LWPOLYLINE
  5
D6
330
2
100
AcDbEntity
  8
OBJECT
100
AcDbPolyline
 90
        2
 70
     0
 43
0.3
 10
52.13200016790143
 20
22.04653961008861
 10
53.51370565501724
 20
22.04653961008861
  0
LWPOLYLINE
  5
D7
330
2
100
AcDbEntity
  8
OBJECT
100
AcDbPolyline
 90
        2
 70
     0
 43
0.3
 10
52.13200016790143
 20
23.54653961008861
 10
53.51370565501724
 20
23.54653961008861
  0
LWPOLYLINE
  5
D8
330
2
100
AcDbEntity
  8
OBJECT
 48
10.0
100
AcDbPolyline
 90
        4
 70
     1
 43
0.0
 10
53.51370565501724
 20
26.0776360357643
 10
56.98168577382808
 20
26.0776360357643
 10
56.98168577382808
 20
21.01544318441292
 10
53.51370565501724
 20
21.01544318441292
  0
DIMENSION
  5
D9
330
2
100
AcDbEntity
  8
TEXT
100
AcDbDimension
  2
*D10
 10
89.48479706130205
 20
21.54653961008855
 30
0.0
 11
89.48479706130205
 21
35.77511103866018
 31
0.0
 70
   160
  1
φ4.1
  3
STANDARD
100
AcDbAlignedDimension
 13
95.3237246311353
 23
25.54653961008856
 33
0.0
 14
95.3237246311353
 24
21.54653961008855
 34
0.0
 50
90.0
100
AcDbRotatedDimension
1001
ACAD
1000
DSTYLE
1002
{
1070
   140
1040
3.0
1070
    41
1040
2.5
1070
    40
1040
1.0
1070
   176
1070
     0
1070
   177
1070
     0
1070
   178
1070
     0
1002
}
  0
LINE
  5
E8
330
2
100
AcDbEntity
  8
OBJECT
 48
10.0
100
AcDbLine
 10
107.4586133158875
 20
26.07386859482412
 30
0.0
 11
106.5478037673408
 21
20.74336627784427
 31
0.0
  0
LINE
  5
E9
330
2
100
AcDbEntity
  8
OBJECT
 48
10.0
100
AcDbLine
 10
106.742979025889
 20
26.07386859482412
 30
0.0
 11
105.8321694773423
 21
20.74336627784427
 31
0.0
  0
LWPOLYLINE
  5
EA
330
2
100
AcDbEntity
  8
OBJECT
 48
10.0
100
AcDbPolyline
 90
        4
 70
     1
 43
0.0
 10
156.1481737375704
 20
26.0776360357643
 10
159.6161538563812
 20
26.0776360357643
 10
159.6161538563812
 20
21.01544318441292
 10
156.1481737375704
 20
21.01544318441292
  0
LWPOLYLINE
  5
EB
330
2
100
AcDbEntity
  8
OBJECT
100
AcDbPolyline
 90
        2
 70
     0
 43
0.3
 10
159.6161538563812
 20
25.04653961008861
 10
162.5444787911355
 20
25.04653961008861
  0
LWPOLYLINE
  5
EC
330
2
100
AcDbEntity
  8
OBJECT
100
AcDbPolyline
 90
        2
 70
     0
 43
0.3
 10
159.6161538563812
 20
23.54653961008861
 10
162.5444787911355
 20
23.54653961008861
  0
LWPOLYLINE
  5
ED
330
2
100
AcDbEntity
  8
OBJECT
100
AcDbPolyline
 90
        2
 70
     0
 43
0.3
 10
159.6161538563812
 20
22.04653961008861
 10
162.5444787911355
 20
22.04653961008861
  0
DIMENSION
  5
EE
330
2
100
AcDbEntity
  8
TEXT
100
AcDbDimension
  2
*D17
 10
210.0424126887469
 20
8.925551792645052
 30
0.0
 11
206.7424126887471
 21
8.925551792645052
 31
0.0
 70
   160
  3
STANDARD
100
AcDbAlignedDimension
 13
203.4424126887472
 23
18.54653961008887
 33
0.0
 14
210.0424126887469
 24
18.54653961008887
 34
0.0
100
AcDbRotatedDimension
1001
ACAD
1000
DSTYLE
1002
{
1070
   140
1040
3.0
1070
    41
1040
2.5
1070
    40
1040
1.0
1070
   176
1070
     0
1070
   177
1070
     0
1070
   178
1070
     0
1002
}
  0
DIMENSION
  5
FF
330
2
100
AcDbEntity
  8
TEXT
100
AcDbDimension
  2
*D16
 10
198.98344275464
 20
18.54653961008887
 30
0.0
 11
198.98344275464
 21
23.40790565471414
 31
0.0
 70
   160
  3
STANDARD
100
AcDbAlignedDimension
 13
203.442412688747
 23
28.54653961008887
 33
0.0
 14
203.442412688747
 24
18.54653961008887
 34
0.0
 50
90.0
100
AcDbRotatedDimension
1001
ACAD
1000
DSTYLE
1002
{
1070
   140
1040
3.0
1070
    41
1040
2.5
1070
    40
1040
1.0
1070
   176
1070
     0
1070
   177
1070
     0
1070
   178
1070
     0
1002
}
  0
LINE
  5
10D
330
2
100
AcDbEntity
  8
OBJECT
 48
10.0
100
AcDbLine
 10
206.2424126887469
 20
26.84653961008894
 30
0.0
 11
206.2424126887469
 21
25.24653961008891
 31
0.0
  0
LINE
  5
10E
330
2
100
AcDbEntity
  8
OBJECT
 48
10.0
100
AcDbLine
 10
207.2424126887469
 20
26.84653961008894
 30
0.0
 11
207.2424126887469
 21
26.04653961008898
 31
0.0
  0
LINE
  5
10F
330
2
100
AcDbEntity
  8
OBJECT
 48
10.0
100
AcDbLine
 10
203.442412688747
 20
28.54653961008887
 30
0.0
 11
203.442412688747
 21
26.04653961008887
 31
0.0
  0
LINE
  5
110
330
2
100
AcDbEntity
  8
OBJECT
 48
10.0
100
AcDbLine
 10
205.2424126887469
 20
26.84653961008882
 30
0.0
 11
205.2424126887472
 21
20.2465396100888
 31
0.0
  0
LINE
  5
111
330
2
100
AcDbEntity
  8
OBJECT
 48
10.0
100
AcDbLine
 10
209.2424126887467
 20
27.74653961008903
 30
0.0
 11
209.2424126887469
 21
19.34653961008882
 31
0.0
  0
LINE
  5
112
330
2
100
AcDbEntity
  8
OBJECT
 48
10.0
100
AcDbLine
 10
210.0424126887469
 20
28.54653961008898
 30
0.0
 11
210.0424126887469
 21
18.54653961008887
 31
0.0
  0
LINE
  5
113
330
2
100
AcDbEntity
  8
OBJECT
 48
10.0
100
AcDbLine
 10
207.8424126887469
 20
26.44653961008884
 30
0.0
 11
207.8424126887469
 21
25.646539610089
 31
0.0
  0
LINE
  5
114
330
2
100
AcDbEntity
  8
OBJECT
 48
10.0
100
AcDbLine
 10
209.2424126887467
 20
26.04653961008887
 30
0.0
 11
210.0424126887469
 21
26.04653961008887
 31
0.0
  0
LINE
  5
115
330
2
100
AcDbEntity
  8
OBJECT
 48
10.0
100
AcDbLine
 10
207.8424126887469
 20
20.64653961008889
 30
0.0
 11
207.8424126887469
 21
21.44653961008873
 31
0.0
  0
LINE
  5
116
330
2
100
AcDbEntity
  8
OBJECT
 48
10.0
100
AcDbLine
 10
209.2424126887469
 20
21.04653961008875
 30
0.0
 11
210.0424126887471
 21
21.04653961008875
 31
0.0
  0
LINE
  5
117
330
2
100
AcDbEntity
  8
OBJECT
 48
10.0
100
AcDbLine
 10
207.8424126887469
 20
23.94653961008884
 30
0.0
 11
207.8424126887469
 21
23.146539610089
 31
0.0
  0
LINE
  5
118
330
2
100
AcDbEntity
  8
OBJECT
 48
10.0
100
AcDbLine
 10
206.2424126887469
 20
25.24653961008891
 30
0.0
 11
207.2424126887469
 21
25.24653961008891
 31
0.0
  0
LINE
  5
119
330
2
100
AcDbEntity
  8
OBJECT
 48
10.0
100
AcDbLine
 10
207.2424126887471
 20
26.04653961008887
 30
0.0
 11
207.2424126887469
 21
25.24653961008891
 31
0.0
  0
LINE
  5
11A
330
2
100
AcDbEntity
  8
OBJECT
 48
10.0
100
AcDbLine
 10
207.2424126887469
 20
24.34653961008894
 30
0.0
 11
207.2424126887469
 21
23.54653961008898
 31
0.0
  0
LINE
  5
11B
330
2
100
AcDbEntity
  8
OBJECT
 48
10.0
100
AcDbLine
 10
206.2424126887469
 20
24.34653961008894
 30
0.0
 11
207.2424126887469
 21
24.34653961008882
 31
0.0
  0
LINE
  5
11C
330
2
100
AcDbEntity
  8
OBJECT
 48
10.0
100
AcDbLine
 10
203.442412688747
 20
24.04653961008887
 30
0.0
 11
204.442412688747
 21
24.04653961008875
 31
0.0
  0
LINE
  5
11D
330
2
100
AcDbEntity
  8
OBJECT
 48
10.0
100
AcDbLine
 10
203.442412688747
 20
26.04653961008887
 30
0.0
 11
204.442412688747
 21
26.04653961008875
 31
0.0
  0
LINE
  5
11E
330
2
100
AcDbEntity
  8
OBJECT
 48
10.0
100
AcDbLine
 10
207.2424126887471
 20
21.04653961008887
 30
0.0
 11
207.2424126887469
 21
21.84653961008882
 31
0.0
  0
LINE
  5
11F
330
2
100
AcDbEntity
  8
OBJECT
 48
10.0
100
AcDbLine
 10
207.2424126887469
 20
20.2465396100888
 30
0.0
 11
207.2424126887469
 21
21.04653961008875
 31
0.0
  0
LINE
  5
120
330
2
100
AcDbEntity
  8
OBJECT
 48
10.0
100
AcDbLine
 10
206.2424126887469
 20
21.84653961008882
 30
0.0
 11
207.2424126887469
 21
21.84653961008882
 31
0.0
  0
LINE
  5
121
330
2
100
AcDbEntity
  8
OBJECT
 48
10.0
100
AcDbLine
 10
206.2424126887469
 20
20.2465396100888
 30
0.0
 11
207.2424126887469
 21
20.24653961008891
 31
0.0
  0
LINE
  5
122
330
2
100
AcDbEntity
  8
OBJECT
 48
10.0
100
AcDbLine
 10
206.2424126887469
 20
20.2465396100888
 30
0.0
 11
206.2424126887469
 21
21.84653961008882
 31
0.0
  0
LINE
  5
123
330
2
100
AcDbEntity
  8
OBJECT
 48
10.0
100
AcDbLine
 10
206.2424126887469
 20
22.74653961008891
 30
0.0
 11
207.2424126887469
 21
22.74653961008891
 31
0.0
  0
LINE
  5
124
330
2
100
AcDbEntity
  8
OBJECT
 48
10.0
100
AcDbLine
 10
203.4424126887472
 20
21.04653961008887
 30
0.0
 11
203.4424126887472
 21
18.54653961008887
 31
0.0
  0
LINE
  5
125
330
2
100
AcDbEntity
  8
OBJECT
 48
10.0
100
AcDbLine
 10
203.442412688747
 20
23.04653961008887
 30
0.0
 11
204.442412688747
 21
23.04653961008898
 31
0.0
  0
LINE
  5
126
330
2
100
AcDbEntity
  8
OBJECT
 48
10.0
100
AcDbLine
 10
204.2424126887472
 20
20.24653961008891
 30
0.0
 11
205.2424126887469
 21
20.24653961008891
 31
0.0
  0
LINE
  5
127
330
2
100
AcDbEntity
  8
OBJECT
 48
10.0
100
AcDbLine
 10
204.2424126887472
 20
19.34653961008882
 30
0.0
 11
204.2424126887472
 21
20.24653961008891
 31
0.0
  0
LINE
  5
128
330
2
100
AcDbEntity
  8
OBJECT
 48
10.0
100
AcDbLine
 10
203.442412688747
 20
21.04653961008887
 30
0.0
 11
204.442412688747
 21
21.04653961008898
 31
0.0
  0
LINE
  5
129
330
2
100
AcDbEntity
  8
OBJECT
 48
10.0
100
AcDbLine
 10
203.442412688747
 20
24.04653961008887
 30
0.0
 11
203.442412688747
 21
23.04653961008887
 31
0.0
  0
LINE
  5
12A
330
2
100
AcDbEntity
  8
OBJECT
 48
10.0
100
AcDbLine
 10
204.442412688747
 20
26.04653961008887
 30
0.0
 11
204.4424126887472
 21
21.04653961008898
 31
0.0
  0
LINE
  5
12B
330
2
100
AcDbEntity
  8
OBJECT
 48
10.0
100
AcDbLine
 10
207.2424126887471
 20
23.54653961008887
 30
0.0
 11
207.2424126887469
 21
22.74653961008891
 31
0.0
  0
LINE
  5
12C
330
2
100
AcDbEntity
  8
OBJECT
 48
10.0
100
AcDbLine
 10
206.2424126887469
 20
24.34653961008894
 30
0.0
 11
206.2424126887469
 21
22.74653961008891
 31
0.0
  0
LINE
  5
12D
330
2
100
AcDbEntity
  8
OBJECT
 48
10.0
100
AcDbLine
 10
207.2424126887469
 20
26.44653961008873
 30
0.0
 11
207.8424126887469
 21
26.44653961008884
 31
0.0
  0
LINE
  5
12E
330
2
100
AcDbEntity
  8
OBJECT
 48
10.0
100
AcDbLine
 10
207.2424126887469
 20
25.64653961008889
 30
0.0
 11
207.8424126887469
 21
25.64653961008889
 31
0.0
  0
LINE
  5
12F
330
2
100
AcDbEntity
  8
OBJECT
 48
10.0
100
AcDbLine
 10
207.2424126887469
 20
23.94653961008873
 30
0.0
 11
207.8424126887469
 21
23.94653961008884
 31
0.0
  0
LINE
  5
130
330
2
100
AcDbEntity
  8
OBJECT
 48
10.0
100
AcDbLine
 10
207.2424126887469
 20
21.44653961008884
 30
0.0
 11
207.8424126887469
 21
21.44653961008884
 31
0.0
  0
LINE
  5
131
330
2
100
AcDbEntity
  8
OBJECT
 48
10.0
100
AcDbLine
 10
207.2424126887469
 20
20.646539610089
 30
0.0
 11
207.8424126887469
 21
20.64653961008889
 31
0.0
  0
LINE
  5
132
330
2
100
AcDbEntity
  8
OBJECT
 48
10.0
100
AcDbLine
 10
207.2424126887469
 20
23.14653961008889
 30
0.0
 11
207.8424126887469
 21
23.14653961008889
 31
0.0
  0
LINE
  5
133
330
2
100
AcDbEntity
  8
OBJECT
 48
10.0
100
AcDbLine
 10
203.442412688747
 20
19.34653961008882
 30
0.0
 11
209.2424126887469
 21
19.34653961008882
 31
0.0
  0
LINE
  5
134
330
2
100
AcDbEntity
  8
OBJECT
 48
10.0
100
AcDbLine
 10
203.442412688747
 20
18.54653961008887
 30
0.0
 11
210.0424126887469
 21
18.54653961008887
 31
0.0
  0
LINE
  5
135
330
2
100
AcDbEntity
  8
OBJECT
 48
10.0
100
AcDbLine
 10
206.2424126887469
 20
26.84653961008894
 30
0.0
 11
207.2424126887469
 21
26.84653961008882
 31
0.0
  0
LINE
  5
136
330
2
100
AcDbEntity
  8
OBJECT
 48
10.0
100
AcDbLine
 10
204.2424126887472
 20
27.74653961008891
 30
0.0
 11
204.2424126887472
 21
26.84653961008882
 31
0.0
  0
LINE
  5
137
330
2
100
AcDbEntity
  8
OBJECT
 48
10.0
100
AcDbLine
 10
204.2424126887472
 20
26.84653961008882
 30
0.0
 11
205.2424126887469
 21
26.84653961008882
 31
0.0
  0
LINE
  5
138
330
2
100
AcDbEntity
  8
OBJECT
 48
10.0
100
AcDbLine
 10
203.442412688747
 20
27.74653961008891
 30
0.0
 11
209.2424126887467
 21
27.74653961008891
 31
0.0
  0
LINE
  5
139
330
2
100
AcDbEntity
  8
OBJECT
 48
10.0
100
AcDbLine
 10
203.442412688747
 20
28.54653961008887
 30
0.0
 11
210.0424126887469
 21
28.54653961008887
 31
0.0
  0
LINE
  5
1A7
330
2
100
AcDbEntity
  8
OBJECT
100
AcDbLine
 10
51.33200016790147
 20
28.44653961008859
 30
0.0
 11
51.33200016790147
 21
27.54653961008861
 31
0.0
  0
LINE
  5
1A8
330
2
100
AcDbEntity
  8
OBJECT
100
AcDbLine
 10
52.13200016790143
 20
28.44653961008859
 30
0.0
 11
52.13200016790143
 21
18.64653961008863
 31
0.0
  0
LINE
  5
1A9
330
2
100
AcDbEntity
  8
OBJECT
100
AcDbLine
 10
52.13200016790143
 20
26.54653961008861
 30
0.0
 11
42.63200016790142
 21
26.54653961008861
 31
0.0
  0
LINE
  5
1AA
330
2
100
AcDbEntity
  8
OBJECT
100
AcDbLine
 10
52.13200016790143
 20
25.64653961008863
 30
0.0
 11
42.63200016790142
 21
25.64653961008875
 31
0.0
  0
LINE
  5
1AB
330
2
100
AcDbEntity
  8
OBJECT
100
AcDbLine
 10
51.33200016790147
 20
27.54653961008861
 30
0.0
 11
42.63200016790142
 21
27.54653961008861
 31
0.0
  0
LINE
  5
1AC
330
2
100
AcDbEntity
  8
OBJECT
100
AcDbLine
 10
52.13200016790143
 20
20.54653961008861
 30
0.0
 11
42.63200016790142
 21
20.54653961008861
 31
0.0
  0
LINE
  5
1AD
330
2
100
AcDbEntity
  8
OBJECT
100
AcDbLine
 10
52.13200016790143
 20
21.44653961008859
 30
0.0
 11
42.63200016790142
 21
21.4465396100887
 31
0.0
  0
LINE
  5
1AE
330
2
100
AcDbEntity
  8
OBJECT
100
AcDbLine
 10
51.33200016790147
 20
19.54653961008861
 30
0.0
 11
42.63200016790142
 21
19.54653961008861
 31
0.0
  0
LINE
  5
1AF
330
2
100
AcDbEntity
  8
OBJECT
100
AcDbLine
 10
42.63200016790142
 20
27.54653961008861
 30
0.0
 11
42.63200016790142
 21
19.54653961008861
 31
0.0
  0
LINE
  5
1B0
330
2
100
AcDbEntity
  8
OBJECT
100
AcDbLine
 10
51.33200016790147
 20
22.79653961008861
 30
0.0
 11
47.63200016790142
 21
22.79653961008861
 31
0.0
  0
LINE
  5
1B1
330
2
100
AcDbEntity
  8
OBJECT
100
AcDbLine
 10
51.33200016790147
 20
24.29653961008861
 30
0.0
 11
47.63200016790142
 21
24.29653961008861
 31
0.0
  0
TEXT
  5
1B2
330
2
100
AcDbEntity
  8
TEXT
100
AcDbText
 10
47.38780971305118
 20
19.75501631997786
 30
0.0
 40
1.5
  1
1
 50
90.0
100
AcDbText
  0
LINE
  5
1B3
330
2
100
AcDbEntity
  8
OBJECT
100
AcDbLine
 10
47.63200016790142
 20
27.54653961008861
 30
0.0
 11
47.63200016790142
 21
26.54653961008861
 31
0.0
  0
LINE
  5
1B4
330
2
100
AcDbEntity
  8
OBJECT
100
AcDbLine
 10
47.63200016790142
 20
24.29653961008861
 30
0.0
 11
47.63200016790142
 21
22.79653961008861
 31
0.0
  0
LINE
  5
1B5
330
2
100
AcDbEntity
  8
OBJECT
100
AcDbLine
 10
47.63200016790142
 20
19.54653961008861
 30
0.0
 11
47.63200016790142
 21
20.54653961008861
 31
0.0
  0
LINE
  5
1B6
330
2
100
AcDbEntity
  8
OBJECT
100
AcDbLine
 10
52.13200016790143
 20
18.64653961008863
 30
0.0
 11
51.33200016790124
 21
18.64653961008852
 31
0.0
  0
LINE
  5
1B7
330
2
100
AcDbEntity
  8
OBJECT
100
AcDbLine
 10
51.33200016790147
 20
19.54653961008861
 30
0.0
 11
51.33200016790124
 21
18.64653961008863
 31
0.0
  0
LINE
  5
1B8
330
2
100
AcDbEntity
  8
OBJECT
100
AcDbLine
 10
51.33200016790124
 20
25.64653961008852
 30
0.0
 11
51.33200016790147
 21
24.29653961008861
 31
0.0
  0
LINE
  5
1B9
330
2
100
AcDbEntity
  8
OBJECT
100
AcDbLine
 10
51.33200016790147
 20
22.79653961008861
 30
0.0
 11
51.33200016790147
 21
21.44653961008847
 31
0.0
  0
LINE
  5
1BA
330
2
100
AcDbEntity
  8
OBJECT
100
AcDbLine
 10
48.13200016790142
 20
19.54653961008861
 30
0.0
 11
48.13200016790142
 21
19.14653961008863
 31
0.0
  0
LINE
  5
1BB
330
2
100
AcDbEntity
  8
OBJECT
100
AcDbLine
 10
48.13200016790142
 20
27.94653961008859
 30
0.0
 11
48.13200016790142
 21
27.54653961008861
 31
0.0
  0
LINE
  5
1BC
330
2
100
AcDbEntity
  8
OBJECT
100
AcDbLine
 10
51.33200016790147
 20
19.14653961008863
 30
0.0
 11
48.13200016790142
 21
19.14653961008863
 31
0.0
  0
LINE
  5
1BD
330
2
100
AcDbEntity
  8
OBJECT
100
AcDbLine
 10
51.33200016790147
 20
27.94653961008859
 30
0.0
 11
48.13200016790142
 21
27.94653961008859
 31
0.0
  0
LINE
  5
1BE
330
2
100
AcDbEntity
  8
OBJECT
100
AcDbLine
 10
52.13200016790143
 20
28.44653961008859
 30
0.0
 11
51.33200016790147
 21
28.44653961008859
 31
0.0
  0
LINE
  5
1BF
330
2
100
AcDbEntity
  8
OBJECT
100
AcDbLine
 10
162.7444787911358
 20
27.54653961008884
 30
0.0
 11
176.1444787911355
 21
27.5465396100889
 31
0.0
  0
LINE
  5
1C0
330
2
100
AcDbEntity
  8
OBJECT
100
AcDbLine
 10
162.5444787911355
 20
20.34653961008885
 30
0.0
 11
176.1444787911355
 21
20.34653961008879
 31
0.0
  0
LINE
  5
1C1
330
2
100
AcDbEntity
  8
OBJECT
100
AcDbLine
 10
162.7444787911358
 20
19.54653961008884
 30
0.0
 11
176.1444787911355
 21
19.54653961008878
 31
0.0
  0
LINE
  5
1C2
330
2
100
AcDbEntity
  8
OBJECT
100
AcDbLine
 10
162.5444787911355
 20
27.34653961008885
 30
0.0
 11
162.7444787911358
 21
27.54653961008884
 31
0.0
  0
LINE
  5
1C3
330
2
100
AcDbEntity
  8
OBJECT
100
AcDbLine
 10
162.5444787911355
 20
19.74653961008883
 30
0.0
 11
162.7444787911358
 21
19.54653961008884
 31
0.0
  0
LINE
  5
1C4
330
2
100
AcDbEntity
  8
OBJECT
100
AcDbLine
 10
162.5444787911353
 20
27.3465396100884
 30
0.0
 11
162.5444787911355
 21
19.74653961008883
 31
0.0
  0
LINE
  5
1C5
330
2
100
AcDbEntity
  8
OBJECT
100
AcDbLine
 10
176.1444787911355
 20
27.54653961008884
 30
0.0
 11
178.1444787911355
 21
28.54653961008912
 31
0.0
  0
LINE
  5
1C6
330
2
100
AcDbEntity
  8
OBJECT
100
AcDbLine
 10
176.1444787911355
 20
19.54653961008884
 30
0.0
 11
178.1444787911355
 21
18.54653961008855
 31
0.0
  0
TEXT
  5
1C7
330
2
100
AcDbEntity
  8
TEXT
100
AcDbText
 10
174.0364801010177
 20
20.256817579216
 30
0.0
 40
1.5
  1
1
 50
270.0
100
AcDbText
  0
ARC
  5
1C8
330
2
100
AcDbEntity
  8
OBJECT
100
AcDbCircle
 10
176.1444787911355
 20
19.94653961008881
 30
0.0
 40
0.4
100
AcDbArc
 50
270.0
 51
90.0
  0
LINE
  5
1C9
330
2
100
AcDbEntity
  8
OBJECT
100
AcDbLine
 10
176.1444787911345
 20
27.54653961008844
 30
0.0
 11
176.1444787911355
 21
20.34653961008879
 31
0.0
  0
LINE
  5
1CA
330
2
100
AcDbEntity
  8
OBJECT
100
AcDbLine
 10
184.144478791135
 20
26.24653961008883
 30
0.0
 11
184.1444787911354
 21
28.34653961008879
 31
0.0
  0
LINE
  5
1CB
330
2
100
AcDbEntity
  8
OBJECT
100
AcDbLine
 10
178.1444787911355
 20
26.04653961008884
 30
0.0
 11
178.1444787911355
 21
28.54653961008912
 31
0.0
  0
LINE
  5
1CC
330
2
100
AcDbEntity
  8
OBJECT
100
AcDbLine
 10
177.1444787911355
 20
26.04653961008884
 30
0.0
 11
183.9444787911352
 21
26.04653961008884
 31
0.0
  0
LINE
  5
1CD
330
2
100
AcDbEntity
  8
OBJECT
100
AcDbLine
 10
177.1444787911355
 20
21.04653961008884
 30
0.0
 11
183.9444787911352
 21
21.04653961008884
 31
0.0
  0
LINE
  5
1CE
330
2
100
AcDbEntity
  8
OBJECT
100
AcDbLine
 10
178.1444787911348
 20
18.5465396100889
 30
0.0
 11
183.9444787911356
 21
18.5465396100889
 31
0.0
  0
LINE
  5
1CF
330
2
100
AcDbEntity
  8
OBJECT
100
AcDbLine
 10
179.1444787911355
 20
24.04653961008889
 30
0.0
 11
180.144478791135
 21
24.04653961008889
 31
0.0
  0
LINE
  5
1D0
330
2
100
AcDbEntity
  8
OBJECT
100
AcDbLine
 10
180.144478791135
 20
24.04653961008889
 30
0.0
 11
180.144478791135
 21
23.04653961008884
 31
0.0
  0
LINE
  5
1D1
330
2
100
AcDbEntity
  8
OBJECT
100
AcDbLine
 10
179.6444787911352
 20
24.04653961008889
 30
0.0
 11
179.644478791135
 21
23.04653961008878
 31
0.0
  0
LINE
  5
1D2
330
2
100
AcDbEntity
  8
OBJECT
100
AcDbLine
 10
179.1444787911355
 20
23.04653961008878
 30
0.0
 11
180.144478791135
 21
23.04653961008878
 31
0.0
  0
LINE
  5
1D3
330
2
100
AcDbEntity
  8
OBJECT
100
AcDbLine
 10
177.144478791135
 20
26.04653961008884
 30
0.0
 11
177.1444787911355
 21
21.04653961008884
 31
0.0
  0
LINE
  5
1D4
330
2
100
AcDbEntity
  8
OBJECT
100
AcDbLine
 10
178.1444787911355
 20
21.04653961008884
 30
0.0
 11
178.1444787911355
 21
18.54653961008855
 31
0.0
  0
LINE
  5
1D5
330
2
100
AcDbEntity
  8
OBJECT
100
AcDbLine
 10
179.144478791135
 20
24.04653961008889
 30
0.0
 11
179.1444787911352
 21
23.04653961008884
 31
0.0
  0
LINE
  5
1D6
330
2
100
AcDbEntity
  8
OBJECT
100
AcDbLine
 10
183.9444787911352
 20
26.04653961008884
 30
0.0
 11
184.144478791135
 21
26.24653961008883
 31
0.0
  0
LINE
  5
1D7
330
2
100
AcDbEntity
  8
OBJECT
100
AcDbLine
 10
184.1444787911354
 20
18.74653961008888
 30
0.0
 11
183.9444787911356
 21
18.5465396100889
 31
0.0
  0
LINE
  5
1D8
330
2
100
AcDbEntity
  8
OBJECT
100
AcDbLine
 10
183.9444787911352
 20
21.04653961008884
 30
0.0
 11
184.144478791135
 21
20.84653961008885
 31
0.0
  0
LINE
  5
1D9
330
2
100
AcDbEntity
  8
OBJECT
100
AcDbLine
 10
181.6444787911354
 20
26.04653961008884
 30
0.0
 11
181.6444787911354
 21
21.0465396100889
 31
0.0
  0
LINE
  5
1DA
330
2
100
AcDbEntity
  8
OBJECT
100
AcDbLine
 10
181.8944787911354
 20
26.04653961008884
 30
0.0
 11
181.8944787911354
 21
21.0465396100889
 31
0.0
  0
LINE
  5
1DB
330
2
100
AcDbEntity
  8
OBJECT
100
AcDbLine
 10
184.144478791135
 20
20.84653961008885
 30
0.0
 11
184.1444787911354
 21
18.74653961008888
 31
0.0
  0
LINE
  5
1DC
330
2
100
AcDbEntity
  8
OBJECT
100
AcDbLine
 10
182.1444787911355
 20
26.04653961008884
 30
0.0
 11
182.1444787911355
 21
21.0465396100889
 31
0.0
  0
LINE
  5
1DD
330
2
100
AcDbEntity
  8
OBJECT
100
AcDbLine
 10
178.1444787911348
 20
28.54653961008878
 30
0.0
 11
183.9444787911356
 21
28.54653961008878
 31
0.0
  0
LINE
  5
1DE
330
2
100
AcDbEntity
  8
OBJECT
100
AcDbLine
 10
184.1444787911354
 20
28.34653961008879
 30
0.0
 11
183.9444787911356
 21
28.54653961008878
 31
0.0
  0
TEXT
  5
1DF
330
2
100
AcDbEntity
  8
TEXT
100
AcDbText
 10
12.6702039994775
 20
22.44824410076194
 30
0.0
 40
1.5
  1
2
100
AcDbText
  0
TEXT
  5
1E0
330
2
100
AcDbEntity
  8
TEXT
100
AcDbText
 10
12.6702039994775
 20
25.44824410076194
 30
0.0
 40
1.5
  1
3
100
AcDbText
  0
TEXT
  5
1E1
330
2
100
AcDbEntity
  8
TEXT
100
AcDbText
 10
212.8564667296152
 20
22.44824410076194
 30
0.0
 40
1.5
  1
2
100
AcDbText
  0
TEXT
  5
1E2
330
2
100
AcDbEntity
  8
TEXT
100
AcDbText
 10
212.8564667296152
 20
19.44824410076193
 30
0.0
 40
1.5
  1
1
100
AcDbText
  0
TEXT
  5
1E3
330
2
100
AcDbEntity
  8
TEXT
100
AcDbText
 10
212.8564667296152
 20
25.44824410076194
 30
0.0
 40
1.5
  1
3
100
AcDbText
  0
ENDSEC
  0
SECTION
  2
OBJECTS
  0
DICTIONARY
  5
7
330
0
100
AcDbDictionary
  3
ACAD_GROUP
350
24
  3
ACAD_LAYOUT
350
B
  3
ACAD_MLINESTYLE
350
25
  3
ACAD_PLOTSETTINGS
350
26
  3
ACAD_PLOTSTYLENAME
350
6
  3
ACDBHEADERROUNDTRIPXREC
350
2FD
  3
ACDBVARIABLEDICTIONARY
350
13D
  0
DICTIONARY
  5
11
330
10
100
AcDbDictionary
280
     1
  3
ACAD_LAYERFILTERS
360
12
  3
ACAD_LAYERSTATES
360
13
  0
DICTIONARY
  5
31E
330
2
100
AcDbDictionary
280
     1
  3
ACAD_LAYOUTSELFREF
360
31F
  0
DICTIONARY
  5
320
330
C
100
AcDbDictionary
280
     1
  3
ACAD_LAYOUTSELFREF
360
321
  0
DICTIONARY
  5
24
102
{ACAD_REACTORS
330
7
102
}
330
7
100
AcDbDictionary
  0
DICTIONARY
  5
B
102
{ACAD_REACTORS
330
7
102
}
330
7
100
AcDbDictionary
  0
DICTIONARY
  5
25
102
{ACAD_REACTORS
330
7
102
}
330
7
100
AcDbDictionary
  3
STANDARD
350
28
  0
DICTIONARY
  5
26
102
{ACAD_REACTORS
330
7
102
}
330
7
100
AcDbDictionary
  0
ACDBDICTIONARYWDFLT
  5
6
102
{ACAD_REACTORS
330
7
102
}
330
7
100
AcDbDictionary
281
     1
  3
Normal
350
5
100
AcDbDictionaryWithDefault
340
5
  0
DICTIONARY
  5
2FD
102
{ACAD_REACTORS
330
7
102
}
330
7
100
AcDbDictionary
  3
CEPSNTYPE
350
307
  3
DIMSTYLEDATA
350
30B
  3
FINGERPRINTGUID
350
308
  3
HYPERLINKBASE
350
300
  3
INSUNITS
350
306
  3
LAYOUTDICT
350
302
  3
LWETCUNION
350
305
  3
PLOTSETDICT
350
303
  3
PLOTSTYLNAMDICT
350
304
  3
PSVPSCALE
350
30A
  3
PUCSBASE
350
30E
  3
PUCSORGBACK
350
314
  3
PUCSORGBOTTOM
350
310
  3
PUCSORGFRONT
350
313
  3
PUCSORGLEFT
350
311
  3
PUCSORGRIGHT
350
312
  3
PUCSORGTOP
350
30F
  3
PUCSORTHOREF
350
30C
  3
PUCSORTHOVIEW
350
30D
  3
STYLESHEET
350
301
  3
TSTACKALIGN
350
2FE
  3
TSTACKSIZE
350
2FF
  3
UCSBASE
350
317
  3
UCSORGBACK
350
31D
  3
UCSORGBOTTOM
350
319
  3
UCSORGFRONT
350
31C
  3
UCSORGLEFT
350
31A
  3
UCSORGRIGHT
350
31B
  3
UCSORGTOP
350
318
  3
UCSORTHOREF
350
315
  3
UCSORTHOVIEW
350
316
  3
VERSIONGUID
350
309
  0
DICTIONARY
  5
13D
102
{ACAD_REACTORS
330
7
102
}
330
7
100
AcDbDictionary
  3
DIMASSOC
350
13F
  3
HIDETEXT
350
13E
  0
DICTIONARY
  5
12
102
{ACAD_REACTORS
330
11
102
}
330
11
100
AcDbDictionary
280
     1
  0
DICTIONARY
  5
13
102
{ACAD_REACTORS
330
11
102
}
330
11
100
AcDbDictionary
  0
XRECORD
  5
31F
102
{ACAD_REACTORS
330
31E
102
}
330
31E
100
AcDbXrecord
340
2
  0
XRECORD
  5
321
102
{ACAD_REACTORS
330
320
102
}
330
320
100
AcDbXrecord
340
C
  0
MLINESTYLE
  5
28
102
{ACAD_REACTORS
330
25
102
}
330
25
100
AcDbMlineStyle
  2
STANDARD
 70
     0
  3

 62
   256
 51
90.0
 52
90.0
 71
     2
 49
0.5
 62
   256
  6
BYLAYER
 49
-0.5
 62
   256
  6
BYLAYER
  0
ACDBPLACEHOLDER
  5
5
102
{ACAD_REACTORS
330
6
102
}
330
6
100
AcDbPlaceHolder
280
     0
  0
XRECORD
  5
307
102
{ACAD_REACTORS
330
2FD
102
}
330
2FD
100
AcDbXrecord
 90
        0
  0
XRECORD
  5
30B
102
{ACAD_REACTORS
330
2FD
102
}
330
2FD
100
AcDbXrecord
1000
DSTYLE
1002
{
1070
    79
 70
     2
1070
   179
 70
     2
1002
}
  0
XRECORD
  5
308
102
{ACAD_REACTORS
330
2FD
102
}
330
2FD
100
AcDbXrecord
  1
{19C29E87-2D4A-44F5-9CA9-8E2C957C07B1}
  0
XRECORD
  5
300
102
{ACAD_REACTORS
330
2FD
102
}
330
2FD
100
AcDbXrecord
  1

  0
XRECORD
  5
306
102
{ACAD_REACTORS
330
2FD
102
}
330
2FD
100
AcDbXrecord
 90
        0
  0
XRECORD
  5
302
102
{ACAD_REACTORS
330
2FD
102
}
330
2FD
100
AcDbXrecord
340
B
  0
XRECORD
  5
305
102
{ACAD_REACTORS
330
2FD
102
}
330
2FD
100
AcDbXrecord
 90
     2589
  0
XRECORD
  5
303
102
{ACAD_REACTORS
330
2FD
102
}
330
2FD
100
AcDbXrecord
340
26
  0
XRECORD
  5
304
102
{ACAD_REACTORS
330
2FD
102
}
330
2FD
100
AcDbXrecord
340
6
  0
XRECORD
  5
30A
102
{ACAD_REACTORS
330
2FD
102
}
330
2FD
100
AcDbXrecord
 40
0.0
  0
XRECORD
  5
30E
102
{ACAD_REACTORS
330
2FD
102
}
330
2FD
100
AcDbXrecord
340
0
  0
XRECORD
  5
314
102
{ACAD_REACTORS
330
2FD
102
}
330
2FD
100
AcDbXrecord
 10
0.0
 20
0.0
 30
0.0
  0
XRECORD
  5
310
102
{ACAD_REACTORS
330
2FD
102
}
330
2FD
100
AcDbXrecord
 10
0.0
 20
0.0
 30
0.0
  0
XRECORD
  5
313
102
{ACAD_REACTORS
330
2FD
102
}
330
2FD
100
AcDbXrecord
 10
0.0
 20
0.0
 30
0.0
  0
XRECORD
  5
311
102
{ACAD_REACTORS
330
2FD
102
}
330
2FD
100
AcDbXrecord
 10
0.0
 20
0.0
 30
0.0
  0
XRECORD
  5
312
102
{ACAD_REACTORS
330
2FD
102
}
330
2FD
100
AcDbXrecord
 10
0.0
 20
0.0
 30
0.0
  0
XRECORD
  5
30F
102
{ACAD_REACTORS
330
2FD
102
}
330
2FD
100
AcDbXrecord
 10
0.0
 20
0.0
 30
0.0
  0
XRECORD
  5
30C
102
{ACAD_REACTORS
330
2FD
102
}
330
2FD
100
AcDbXrecord
340
0
  0
XRECORD
  5
30D
102
{ACAD_REACTORS
330
2FD
102
}
330
2FD
100
AcDbXrecord
 70
     0
  0
XRECORD
  5
301
102
{ACAD_REACTORS
330
2FD
102
}
330
2FD
100
AcDbXrecord
  1

  0
XRECORD
  5
2FE
102
{ACAD_REACTORS
330
2FD
102
}
330
2FD
100
AcDbXrecord
 90
        1
  0
XRECORD
  5
2FF
102
{ACAD_REACTORS
330
2FD
102
}
330
2FD
100
AcDbXrecord
 90
       70
  0
XRECORD
  5
317
102
{ACAD_REACTORS
330
2FD
102
}
330
2FD
100
AcDbXrecord
340
0
  0
XRECORD
  5
31D
102
{ACAD_REACTORS
330
2FD
102
}
330
2FD
100
AcDbXrecord
 10
0.0
 20
0.0
 30
0.0
  0
XRECORD
  5
319
102
{ACAD_REACTORS
330
2FD
102
}
330
2FD
100
AcDbXrecord
 10
0.0
 20
0.0
 30
0.0
  0
XRECORD
  5
31C
102
{ACAD_REACTORS
330
2FD
102
}
330
2FD
100
AcDbXrecord
 10
0.0
 20
0.0
 30
0.0
  0
XRECORD
  5
31A
102
{ACAD_REACTORS
330
2FD
102
}
330
2FD
100
AcDbXrecord
 10
0.0
 20
0.0
 30
0.0
  0
XRECORD
  5
31B
102
{ACAD_REACTORS
330
2FD
102
}
330
2FD
100
AcDbXrecord
 10
0.0
 20
0.0
 30
0.0
  0
XRECORD
  5
318
102
{ACAD_REACTORS
330
2FD
102
}
330
2FD
100
AcDbXrecord
 10
0.0
 20
0.0
 30
0.0
  0
XRECORD
  5
315
102
{ACAD_REACTORS
330
2FD
102
}
330
2FD
100
AcDbXrecord
340
0
  0
XRECORD
  5
316
102
{ACAD_REACTORS
330
2FD
102
}
330
2FD
100
AcDbXrecord
 70
     0
  0
XRECORD
  5
309
102
{ACAD_REACTORS
330
2FD
102
}
330
2FD
100
AcDbXrecord
  1
{341F4813-F4BF-4C56-A121-A7DBEBEDA6D7}
  0
DICTIONARYVAR
  5
13F
102
{ACAD_REACTORS
330
13D
102
}
330
13D
100
DictionaryVariables
280
     0
  1
1
  0
DICTIONARYVAR
  5
13E
102
{ACAD_REACTORS
330
13D
102
}
330
13D
100
DictionaryVariables
280
     0
  1
1
  0
ENDSEC
  0
EOF
