  0
SECTION
  2
HEADER
  9
$ACADVER
  1
AC1015
  9
$ACADMAINTVER
 70
     6
  9
$DWGCODEPAGE
  3
ANSI_932
  9
$INSBASE
 10
-236.7303131288699
 20
-1699.618133803998
 30
0.0
  9
$EXTMIN
 10
-117.234224620501
 20
-1792.40834908001
 30
0.0
  9
$EXTMAX
 10
230.4670007230248
 20
-1508.03539421769
 30
0.0
  9
$LIMMIN
 10
36.5367069936281
 20
113.324853577772
  9
$LIMMAX
 10
338.3638017977693
 20
295.4885977298599
  9
$ORTHOMODE
 70
     1
  9
$REGENMODE
 70
     1
  9
$FILLMODE
 70
     1
  9
$QTEXTMODE
 70
     0
  9
$MIRRTEXT
 70
     1
  9
$LTSCALE
 40
1.0
  9
$ATTMODE
 70
     1
  9
$TEXTSIZE
 40
3.5
  9
$TRACEWID
 40
0.5
  9
$TEXTSTYLE
  7
STANDARD
  9
$CLAYER
  8
Object
  9
$CELTYPE
  6
ByLayer
  9
$CECOLOR
 62
   256
  9
$CELTSCALE
 40
1.0
  9
$DISPSILH
 70
     0
  9
$DIMSCALE
 40
1.0
  9
$DIMASZ
 40
5.0
  9
$DIMEXO
 40
2.0
  9
$DIMDLI
 40
0.38
  9
$DIMRND
 40
0.0
  9
$DIMDLE
 40
0.0
  9
$DIMEXE
 40
0.18
  9
$DIMTP
 40
0.0
  9
$DIMTM
 40
0.0
  9
$DIMTXT
 40
4.0
  9
$DIMCEN
 40
1.0
  9
$DIMTSZ
 40
0.0
  9
$DIMTOL
 70
     0
  9
$DIMLIM
 70
     0
  9
$DIMTIH
 70
     0
  9
$DIMTOH
 70
     0
  9
$DIMSE1
 70
     0
  9
$DIMSE2
 70
     0
  9
$DIMTAD
 70
     1
  9
$DIMZIN
 70
     8
  9
$DIMBLK
  1

  9
$DIMASO
 70
     1
  9
$DIMSHO
 70
     1
  9
$DIMPOST
  1

  9
$DIMAPOST
  1

  9
$DIMALT
 70
     0
  9
$DIMALTD
 70
     2
  9
$DIMALTF
 40
25.4
  9
$DIMLFAC
 40
1.0
  9
$DIMTOFL
 70
     0
  9
$DIMTVP
 40
0.0
  9
$DIMTIX
 70
     0
  9
$DIMSOXD
 70
     0
  9
$DIMSAH
 70
     0
  9
$DIMBLK1
  1

  9
$DIMBLK2
  1

  9
$DIMSTYLE
  2
DMST_1
  9
$DIMCLRD
 70
     0
  9
$DIMCLRE
 70
     0
  9
$DIMCLRT
 70
     0
  9
$DIMTFAC
 40
1.0
  9
$DIMGAP
 40
1.5
  9
$DIMJUST
 70
     0
  9
$DIMSD1
 70
     0
  9
$DIMSD2
 70
     0
  9
$DIMTOLJ
 70
     1
  9
$DIMTZIN
 70
     0
  9
$DIMALTZ
 70
     0
  9
$DIMALTTZ
 70
     0
  9
$DIMUPT
 70
     0
  9
$DIMDEC
 70
     4
  9
$DIMTDEC
 70
     4
  9
$DIMALTU
 70
     2
  9
$DIMALTTD
 70
     2
  9
$DIMTXSTY
  7
STANDARD
  9
$DIMAUNIT
 70
     0
  9
$DIMADEC
 70
     2
  9
$DIMALTRND
 40
0.0
  9
$DIMAZIN
 70
     2
  9
$DIMDSEP
 70
    46
  9
$DIMATFIT
 70
     3
  9
$DIMFRAC
 70
     0
  9
$DIMLDRBLK
  1

  9
$DIMLUNIT
 70
     2
  9
$DIMLWD
 70
    -2
  9
$DIMLWE
 70
    -2
  9
$DIMTMOVE
 70
     0
  9
$LUNITS
 70
     2
  9
$LUPREC
 70
     4
  9
$SKETCHINC
 40
0.1
  9
$FILLETRAD
 40
5.0
  9
$AUNITS
 70
     0
  9
$AUPREC
 70
     0
  9
$MENU
  1
ACAD
  9
$ELEVATION
 40
0.0
  9
$PELEVATION
 40
0.0
  9
$THICKNESS
 40
0.0
  9
$LIMCHECK
 70
     0
  9
$CHAMFERA
 40
0.0
  9
$CHAMFERB
 40
0.0
  9
$CHAMFERC
 40
0.0
  9
$CHAMFERD
 40
0.0
  9
$SKPOLY
 70
     0
  9
$TDCREATE
 40
2453781.394197072
  9
$TDUCREATE
 40
2453781.019197072
  9
$TDUPDATE
 40
2456724.484189803
  9
$TDUUPDATE
 40
2456724.109189803
  9
$TDINDWG
 40
2.1414469213
  9
$TDUSRTIMER
 40
2456724.109035324
  9
$USRTIMER
 70
     1
  9
$ANGBASE
 50
0.0
  9
$ANGDIR
 70
     0
  9
$PDMODE
 70
     0
  9
$PDSIZE
 40
0.0
  9
$PLINEWID
 40
0.3
  9
$SPLFRAME
 70
     0
  9
$SPLINETYPE
 70
     6
  9
$SPLINESEGS
 70
     8
  9
$HANDSEED
  5
12E0
  9
$SURFTAB1
 70
     6
  9
$SURFTAB2
 70
     6
  9
$SURFTYPE
 70
     6
  9
$SURFU
 70
     6
  9
$SURFV
 70
     6
  9
$UCSBASE
  2

  9
$UCSNAME
  2

  9
$UCSORG
 10
0.0
 20
0.0
 30
0.0
  9
$UCSXDIR
 10
1.0
 20
0.0
 30
0.0
  9
$UCSYDIR
 10
0.0
 20
1.0
 30
0.0
  9
$UCSORTHOREF
  2

  9
$UCSORTHOVIEW
 70
     0
  9
$UCSORGTOP
 10
0.0
 20
0.0
 30
0.0
  9
$UCSORGBOTTOM
 10
0.0
 20
0.0
 30
0.0
  9
$UCSORGLEFT
 10
0.0
 20
0.0
 30
0.0
  9
$UCSORGRIGHT
 10
0.0
 20
0.0
 30
0.0
  9
$UCSORGFRONT
 10
0.0
 20
0.0
 30
0.0
  9
$UCSORGBACK
 10
0.0
 20
0.0
 30
0.0
  9
$PUCSBASE
  2

  9
$PUCSNAME
  2

  9
$PUCSORG
 10
0.0
 20
0.0
 30
0.0
  9
$PUCSXDIR
 10
1.0
 20
0.0
 30
0.0
  9
$PUCSYDIR
 10
0.0
 20
1.0
 30
0.0
  9
$PUCSORTHOREF
  2

  9
$PUCSORTHOVIEW
 70
     0
  9
$PUCSORGTOP
 10
0.0
 20
0.0
 30
0.0
  9
$PUCSORGBOTTOM
 10
0.0
 20
0.0
 30
0.0
  9
$PUCSORGLEFT
 10
0.0
 20
0.0
 30
0.0
  9
$PUCSORGRIGHT
 10
0.0
 20
0.0
 30
0.0
  9
$PUCSORGFRONT
 10
0.0
 20
0.0
 30
0.0
  9
$PUCSORGBACK
 10
0.0
 20
0.0
 30
0.0
  9
$USERI1
 70
     0
  9
$USERI2
 70
     0
  9
$USERI3
 70
     0
  9
$USERI4
 70
     0
  9
$USERI5
 70
     0
  9
$USERR1
 40
0.0
  9
$USERR2
 40
0.0
  9
$USERR3
 40
0.0
  9
$USERR4
 40
0.0
  9
$USERR5
 40
0.0
  9
$WORLDVIEW
 70
     1
  9
$SHADEDGE
 70
     3
  9
$SHADEDIF
 70
    70
  9
$TILEMODE
 70
     1
  9
$MAXACTVP
 70
    64
  9
$PINSBASE
 10
0.0
 20
0.0
 30
0.0
  9
$PLIMCHECK
 70
     0
  9
$PEXTMIN
 10
1.000000000000000E+20
 20
1.000000000000000E+20
 30
1.000000000000000E+20
  9
$PEXTMAX
 10
-1.000000000000000E+20
 20
-1.000000000000000E+20
 30
-1.000000000000000E+20
  9
$PLIMMIN
 10
0.0
 20
0.0
  9
$PLIMMAX
 10
0.0
 20
0.0
  9
$UNITMODE
 70
     0
  9
$VISRETAIN
 70
     1
  9
$PLINEGEN
 70
     0
  9
$PSLTSCALE
 70
     1
  9
$TREEDEPTH
 70
  3020
  9
$CMLSTYLE
  2
Standard
  9
$CMLJUST
 70
     0
  9
$CMLSCALE
 40
1.0
  9
$PROXYGRAPHICS
 70
     1
  9
$MEASUREMENT
 70
     0
  9
$CELWEIGHT
370
    -1
  9
$ENDCAPS
280
     0
  9
$JOINSTYLE
280
     0
  9
$LWDISPLAY
290
     0
  9
$INSUNITS
 70
     0
  9
$HYPERLINKBASE
  1

  9
$STYLESHEET
  1
monochrome.ctb
  9
$XEDIT
290
     1
  9
$CEPSNTYPE
380
     0
  9
$PSTYLEMODE
290
     1
  9
$FINGERPRINTGUID
  2
{0E1C3B67-B1A7-47AE-8141-559CC396A0AE}
  9
$VERSIONGUID
  2
{C1083051-5BFD-4954-B694-954438DFD218}
  9
$EXTNAMES
290
     1
  9
$PSVPSCALE
 40
0.0
  9
$OLESTARTUP
290
     0
  0
ENDSEC
  0
SECTION
  2
CLASSES
  0
CLASS
  1
ACDBDICTIONARYWDFLT
  2
AcDbDictionaryWithDefault
  3
ObjectDBX Classes
 90
        0
280
     0
281
     0
  0
CLASS
  1
ACDBPLACEHOLDER
  2
AcDbPlaceHolder
  3
ObjectDBX Classes
 90
        0
280
     0
281
     0
  0
CLASS
  1
LAYOUT
  2
AcDbLayout
  3
ObjectDBX Classes
 90
        0
280
     0
281
     0
  0
CLASS
  1
DICTIONARYVAR
  2
AcDbDictionaryVar
  3
ObjectDBX Classes
 90
        0
280
     0
281
     0
  0
CLASS
  1
DIMASSOC
  2
AcDbDimAssoc
  3
"AcDbDimAssoc|Product Desc:     AcDim ARX App For Dimension|Company:          Autodesk, Inc.|WEB Address:      www.autodesk.com"
 90
        0
280
     0
281
     0
  0
CLASS
  1
SCALE
  2
AcDbScale
  3
ObjectDBX Classes
 90
     1153
280
     0
281
     0
  0
CLASS
  1
MATERIAL
  2
AcDbMaterial
  3
ObjectDBX Classes
 90
     1153
280
     0
281
     0
  0
CLASS
  1
VISUALSTYLE
  2
AcDbVisualStyle
  3
ObjectDBX Classes
 90
     4095
280
     0
281
     0
  0
CLASS
  1
TABLESTYLE
  2
AcDbTableStyle
  3
ObjectDBX Classes
 90
     4095
280
     0
281
     0
  0
CLASS
  1
RASTERVARIABLES
  2
AcDbRasterVariables
  3
ISM
 90
        0
280
     0
281
     0
  0
ENDSEC
  0
SECTION
  2
TABLES
  0
TABLE
  2
VPORT
  5
19
330
0
100
AcDbSymbolTable
 70
     1
  0
VPORT
  5
1285
330
19
100
AcDbSymbolTableRecord
100
AcDbViewportTableRecord
  2
*Active
 70
     0
 10
0.0
 20
0.0
 11
1.0
 21
1.0
 12
201.9807811604066
 22
-1685.508612068402
 13
0.0
 23
0.0
 14
1.0
 24
1.0
 15
0.0
 25
0.0
 16
0.0
 26
0.0
 36
1.0
 17
0.0
 27
0.0
 37
0.0
 40
558.2145368534998
 41
1.733038348082596
 42
50.0
 43
0.0
 44
0.0
 50
0.0
 51
0.0
 71
    16
 72
   100
 73
     1
 74
     1
 75
     0
 76
     1
 77
     0
 78
     0
281
     0
 65
     1
110
0.0
120
0.0
130
0.0
111
1.0
121
0.0
131
0.0
112
0.0
122
1.0
132
0.0
 79
     0
146
0.0
  0
ENDTAB
  0
TABLE
  2
LTYPE
  5
14
330
0
100
AcDbSymbolTable
 70
     4
  0
LTYPE
  5
15
330
14
100
AcDbSymbolTableRecord
100
AcDbLinetypeTableRecord
  2
ByBlock
 70
     0
  3

 72
    65
 73
     0
 40
0.0
  0
LTYPE
  5
16
330
14
100
AcDbSymbolTableRecord
100
AcDbLinetypeTableRecord
  2
ByLayer
 70
     0
  3

 72
    65
 73
     0
 40
0.0
  0
LTYPE
  5
8
330
14
100
AcDbSymbolTableRecord
100
AcDbLinetypeTableRecord
  2
CONTINUOUS
 70
     0
  3
Solid line
 72
    65
 73
     0
 40
0.0
  0
LTYPE
  5
1A1
330
14
100
AcDbSymbolTableRecord
100
AcDbLinetypeTableRecord
  2
CENTER
 70
     0
  3
____ _ ____ _
 72
    65
 73
     4
 40
15.885636568639
 49
9.928522855399383
 74
     0
 49
-1.985704571079876
 74
     0
 49
1.985704571079876
 74
     0
 49
-1.985704571079876
 74
     0
  0
LTYPE
  5
D1
330
14
100
AcDbSymbolTableRecord
100
AcDbLinetypeTableRecord
  2
HIDDEN
 70
     0
  3
_ _ _ _ _ _ _
 72
    65
 73
     2
 40
2.978556856619814
 49
1.985704571079876
 74
     0
 49
-0.9928522855399382
 74
     0
  0
LTYPE
  5
197
330
14
100
AcDbSymbolTableRecord
100
AcDbLinetypeTableRecord
  2
DOT_CENTER
 70
     0
  3
Dot_Center
 72
    65
 73
     4
 40
14.0
 49
12.0
 74
     0
 49
-1.0
 74
     0
 49
0.0
 74
     0
 49
-1.0
 74
     0
  0
ENDTAB
  0
TABLE
  2
LAYER
  5
10
102
{ACAD_XDICTIONARY
360
372
102
}
330
0
100
AcDbSymbolTable
 70
    13
  0
LAYER
  5
4
330
10
100
AcDbSymbolTableRecord
100
AcDbLayerTableRecord
  2
0
 70
     0
 62
     7
  6
CONTINUOUS
370
    -3
390
5
  0
LAYER
  5
56
330
10
100
AcDbSymbolTableRecord
100
AcDbLayerTableRecord
  2
1
 70
     0
 62
     7
  6
CONTINUOUS
370
    -3
390
5
  0
LAYER
  5
2E
330
10
100
AcDbSymbolTableRecord
100
AcDbLayerTableRecord
  2
Defpoints
 70
     0
 62
     7
  6
CONTINUOUS
290
     0
370
    -3
390
5
  0
LAYER
  5
53
330
10
100
AcDbSymbolTableRecord
100
AcDbLayerTableRecord
  2
Center
 70
     0
 62
     1
  6
CONTINUOUS
370
    25
390
5
  0
LAYER
  5
4E
330
10
100
AcDbSymbolTableRecord
100
AcDbLayerTableRecord
  2
Object
 70
     0
 62
     7
  6
CONTINUOUS
370
    25
390
5
  0
LAYER
  5
2A0
330
10
100
AcDbSymbolTableRecord
100
AcDbLayerTableRecord
  2
Hidden
 70
     0
 62
     4
  6
CONTINUOUS
370
    25
390
5
  0
LAYER
  5
106
330
10
100
AcDbSymbolTableRecord
100
AcDbLayerTableRecord
  2
Text
 70
     0
 62
     3
  6
CONTINUOUS
370
    -3
390
5
  0
LAYER
  5
195
330
10
100
AcDbSymbolTableRecord
100
AcDbLayerTableRecord
  2
Object2
 70
     0
 62
     3
  6
CONTINUOUS
370
    -3
390
5
  0
LAYER
  5
D0
330
10
100
AcDbSymbolTableRecord
100
AcDbLayerTableRecord
  2
HIDDEN-1
 70
     0
 62
     7
  6
HIDDEN
370
    -3
390
5
  0
LAYER
  5
23
330
10
100
AcDbSymbolTableRecord
100
AcDbLayerTableRecord
  2
text3
 70
     0
 62
     2
  6
CONTINUOUS
370
    -3
390
5
  0
LAYER
  5
2B4
330
10
100
AcDbSymbolTableRecord
100
AcDbLayerTableRecord
  2
画層1
 70
     0
 62
     7
  6
CONTINUOUS
370
    -3
390
5
  0
LAYER
  5
36E
330
10
100
AcDbSymbolTableRecord
100
AcDbLayerTableRecord
  2
Dims
 70
     0
 62
     6
  6
CONTINUOUS
370
    -3
390
5
  0
LAYER
  5
BB5
330
10
100
AcDbSymbolTableRecord
100
AcDbLayerTableRecord
  2
DIM
 70
     0
 62
     6
  6
CONTINUOUS
370
    -3
390
5
  0
ENDTAB
  0
TABLE
  2
STYLE
  5
11
330
0
100
AcDbSymbolTable
 70
     4
  0
STYLE
  5
12
330
11
100
AcDbSymbolTableRecord
100
AcDbTextStyleTableRecord
  2
STANDARD
 70
     0
 40
0.0
 41
1.0
 50
0.0
 71
     0
 42
3.5
  3
txt.shx
  4
bigfont.shx
  0
STYLE
  5
126
330
11
100
AcDbSymbolTableRecord
100
AcDbTextStyleTableRecord
  2
Roman
 70
     0
 40
0.0
 41
1.0
 50
0.0
 71
     0
 42
4.0
  3
romans.shx
  4
bigfont.shx
  0
STYLE
  5
36F
330
11
100
AcDbSymbolTableRecord
100
AcDbTextStyleTableRecord
  2
ROMANS
 70
     0
 40
0.0
 41
1.0
 50
0.0
 71
     0
 42
2.0
  3
romans.shx
  4
bigfont.shx
  0
STYLE
  5
370
330
11
100
AcDbSymbolTableRecord
100
AcDbTextStyleTableRecord
  2
GDT
 70
     0
 40
0.0
 41
1.0
 50
0.0
 71
     0
 42
1.0
  3
gdt.shx
  4
bigfont.shx
  0
ENDTAB
  0
TABLE
  2
VIEW
  5
17
330
0
100
AcDbSymbolTable
 70
     0
  0
ENDTAB
  0
TABLE
  2
UCS
  5
18
330
0
100
AcDbSymbolTable
 70
     0
  0
ENDTAB
  0
TABLE
  2
APPID
  5
1B
330
0
100
AcDbSymbolTable
 70
     1
  0
APPID
  5
1C
330
1B
100
AcDbSymbolTableRecord
100
AcDbRegAppTableRecord
  2
ACAD
 70
     0
  0
ENDTAB
  0
TABLE
  2
DIMSTYLE
  5
1D
330
0
100
AcDbSymbolTable
 70
     2
100
AcDbDimStyleTable
  0
DIMSTYLE
105
1E
102
{ACAD_REACTORS
330
40
330
25
330
33
330
2CE
330
2B8
330
142
330
16C
330
1A2
330
26E
330
15F
330
135
330
E67
330
FF6
330
FF9
330
FFB
330
100B
330
100C
330
1034
330
1035
330
1040
330
1041
330
104A
330
104B
330
1070
330
1071
330
1075
102
}
330
1D
100
AcDbSymbolTableRecord
100
AcDbDimStyleTableRecord
  2
DMST_1
 70
     0
 41
3.5
 42
1.0
 43
7.0
 44
1.5
 47
0.1
 48
0.1
 71
     1
 73
     0
 74
     0
 77
     1
 78
     9
140
3.5
141
0.0
146
0.7
176
     2
177
     2
178
     2
279
     2
340
12
  0
DIMSTYLE
105
371
330
1D
100
AcDbSymbolTableRecord
100
AcDbDimStyleTableRecord
  2
STANDARD
 70
     0
 40
0.4600000000000001
 41
2.5
 42
1.0
 43
1.0
 44
1.0
 73
     0
 74
     0
 77
     1
 78
     8
140
2.5
141
0.0
143
0.0394
147
0.8
171
     4
172
     1
176
     3
177
     3
178
     3
273
     8
274
     4
284
     8
340
36F
  0
ENDTAB
  0
TABLE
  2
BLOCK_RECORD
  5
1
330
0
100
AcDbSymbolTable
 70
    27
  0
BLOCK_RECORD
  5
2
330
1
100
AcDbSymbolTableRecord
100
AcDbBlockTableRecord
  2
*Model_Space
340
A
  0
BLOCK_RECORD
  5
C
330
1
100
AcDbSymbolTableRecord
100
AcDbBlockTableRecord
  2
*Paper_Space
340
F
  0
BLOCK_RECORD
  5
41
330
1
100
AcDbSymbolTableRecord
100
AcDbBlockTableRecord
  2
*D0
340
0
  0
BLOCK_RECORD
  5
26
330
1
100
AcDbSymbolTableRecord
100
AcDbBlockTableRecord
  2
*D1
340
0
  0
BLOCK_RECORD
  5
34
330
1
100
AcDbSymbolTableRecord
100
AcDbBlockTableRecord
  2
*D2
340
0
  0
BLOCK_RECORD
  5
2CF
330
1
100
AcDbSymbolTableRecord
100
AcDbBlockTableRecord
  2
*D3
340
0
  0
BLOCK_RECORD
  5
2B9
330
1
100
AcDbSymbolTableRecord
100
AcDbBlockTableRecord
  2
*D4
340
0
  0
BLOCK_RECORD
  5
143
330
1
100
AcDbSymbolTableRecord
100
AcDbBlockTableRecord
  2
*D5
340
0
  0
BLOCK_RECORD
  5
16D
330
1
100
AcDbSymbolTableRecord
100
AcDbBlockTableRecord
  2
*D6
340
0
  0
BLOCK_RECORD
  5
26F
330
1
100
AcDbSymbolTableRecord
100
AcDbBlockTableRecord
  2
*D7
340
0
  0
BLOCK_RECORD
  5
160
330
1
100
AcDbSymbolTableRecord
100
AcDbBlockTableRecord
  2
*D8
340
0
  0
BLOCK_RECORD
  5
136
330
1
100
AcDbSymbolTableRecord
100
AcDbBlockTableRecord
  2
*D9
340
0
  0
BLOCK_RECORD
  5
312
330
1
100
AcDbSymbolTableRecord
100
AcDbBlockTableRecord
  2
1-178128-4-jo1
340
0
310
2800000020000000200000000100080000000000000400000000000000000000000000000000000000000000000080000080000000808000800000008000800080800000C0C0C000C0DCC000F0CAA6000020400000206000002080000020A0000020C0000020E00000400000004020000040400000406000004080000040A0
310
000040C0000040E00000600000006020000060400000606000006080000060A0000060C0000060E00000800000008020000080400000806000008080000080A0000080C0000080E00000A0000000A0200000A0400000A0600000A0800000A0A00000A0C00000A0E00000C0000000C0200000C0400000C0600000C0800000C0
310
A00000C0C00000C0E00000E0000000E0200000E0400000E0600000E0800000E0A00000E0C00000E0E00040000000400020004000400040006000400080004000A0004000C0004000E00040200000402020004020400040206000402080004020A0004020C0004020E000404000004040200040404000404060004040800040
310
40A0004040C0004040E00040600000406020004060400040606000406080004060A0004060C0004060E00040800000408020004080400040806000408080004080A0004080C0004080E00040A0000040A0200040A0400040A0600040A0800040A0A00040A0C00040A0E00040C0000040C0200040C0400040C0600040C08000
310
40C0A00040C0C00040C0E00040E0000040E0200040E0400040E0600040E0800040E0A00040E0C00040E0E00080000000800020008000400080006000800080008000A0008000C0008000E00080200000802020008020400080206000802080008020A0008020C0008020E00080400000804020008040400080406000804080
310
008040A0008040C0008040E00080600000806020008060400080606000806080008060A0008060C0008060E00080800000808020008080400080806000808080008080A0008080C0008080E00080A0000080A0200080A0400080A0600080A0800080A0A00080A0C00080A0E00080C0000080C0200080C0400080C0600080C0
310
800080C0A00080C0C00080C0E00080E0000080E0200080E0400080E0600080E0800080E0A00080E0C00080E0E000C0000000C0002000C0004000C0006000C0008000C000A000C000C000C000E000C0200000C0202000C0204000C0206000C0208000C020A000C020C000C020E000C0400000C0402000C0404000C0406000C0
310
408000C040A000C040C000C040E000C0600000C0602000C0604000C0606000C0608000C060A000C060C000C060E000C0800000C0802000C0804000C0806000C0808000C080A000C080C000C080E000C0A00000C0A02000C0A04000C0A06000C0A08000C0A0A000C0A0C000C0A0E000C0C00000C0C02000C0C04000C0C06000
310
C0C08000C0C0A000F0FBFF00A4A0A000808080000000FF0000FF000000FFFF00FF000000FF00FF00FFFF0000FFFFFF0000000000000000000000000000000000000000000000000000000000000000000000000000000000000000000000000000000000000000000000000000000000000000000000000000000000000000
310
0000000000000000000000000000000000000000000000000000000000000000000000000000000000000000000000000000000000000000000000000000000000000000000000000000000000000000000000000000000000000000000000000000000000000000000000000000000000000000000000FFFFFFFFFFFFFFF9
310
FFFFFFFFFFFFFFFFFFFFFFFF000000000000000000000000FF0000F9FFFFFFF9FFFFF9FFF9FFFF00F90000FF000000000000000000000000FF0000F9FFFFFFF9FFFFF9FFF9FFFF00F90000FF000000000000000000000000FF0000F9FFFFFFF9FFFFF9FFF9FFFF00F90000FF000000000000000000000000FF0000F9FFFFFF
310
F9FFFFF9FFF9FFFF00F90000FF000000000000000000000000FF0000F9FFFFFFF9FFFFF9FFF9FFFF00F90000FF000000000000000000000000FF0000F9FFFFFFF9FFFFF9FFF9FFFF00F90000FF000000000000000000000000FF0000F9FFFFFFF9FFFFF9FFF9FFFF00F90000FF000000000000000000000000FF0000F9FFFF
310
FFF9FFFFF9FFF9FFFF00F90000FF000000000000000000000000FF0000F9FFFFFFF9FFFFF9FFF9FFFF00F90000FF0000000000000000000000FFFF0000F9FFFFFFF9FFFFFFFFF9FFFF00F90000FFFF00000000000000000000FFFF0000F9FF00FFF9FF00F9FFF9FFFF00F9FAFFFAFF00000000000000000000FFFF0000F9FF
310
00FFF9FF00F9FFF9FFFF00F9FAFFFAFF000000000000000000FFFFFFFFFFF9FFFFFFF9FFFFF9FFF9FFFFFFF9FAFAFAFFFF00000000000000FF00FFFAFAFAFAFAFA00000000F90000000000FAFAFAFAFF00FF00000000FFFFFA00FFFA00FFFFFFFA00000000F90000000000FFFFFFFAFF00FAFFFF0000FFFAFAFFFFFFFAFAFA
310
FAFA00000000F90000000000FAFAFAFFFFFFFAFAFF0000FFFAFAFF00FF0000FFFA0000FAFA00F9FFFF0000FAFF0000FF00FFFAFAFF0000FFFFFFFF00FF0000FFFF0000FAFA00F9FFFF0000FAFF0000FF00FFFFFFFF0000000000FFFFFFFFFFFFFFFFFFFFFFFFF9FFFFFFFFFFFFFFFFFFFFFF00000000000000000000000000
310
00000000000000000000000000000000000000000000000000000000000000000000000000000000000000000000000000000000000000000000000000000000000000000000000000000000000000000000000000000000000000000000000000000000000000000000000000000000000000000000000000000000000000
310
0000000000000000000000000000000000000000000000000000000000000000000000000000000000000000000000000000000000000000
102
{BLKREFS
331
E18
102
}
  0
BLOCK_RECORD
  5
AB3
330
1
100
AcDbSymbolTableRecord
100
AcDbBlockTableRecord
  2
*D11
340
0
  0
BLOCK_RECORD
  5
E68
330
1
100
AcDbSymbolTableRecord
100
AcDbBlockTableRecord
  2
*D12
340
0
  0
BLOCK_RECORD
  5
109E
330
1
100
AcDbSymbolTableRecord
100
AcDbBlockTableRecord
  2
*D13
340
0
  0
BLOCK_RECORD
  5
10AB
330
1
100
AcDbSymbolTableRecord
100
AcDbBlockTableRecord
  2
*D14
340
0
  0
BLOCK_RECORD
  5
10B8
330
1
100
AcDbSymbolTableRecord
100
AcDbBlockTableRecord
  2
*D15
340
0
  0
BLOCK_RECORD
  5
10C5
330
1
100
AcDbSymbolTableRecord
100
AcDbBlockTableRecord
  2
*D16
340
0
  0
BLOCK_RECORD
  5
10D1
330
1
100
AcDbSymbolTableRecord
100
AcDbBlockTableRecord
  2
*D17
340
0
  0
BLOCK_RECORD
  5
10DD
330
1
100
AcDbSymbolTableRecord
100
AcDbBlockTableRecord
  2
*D18
340
0
  0
BLOCK_RECORD
  5
10E9
330
1
100
AcDbSymbolTableRecord
100
AcDbBlockTableRecord
  2
*D19
340
0
  0
BLOCK_RECORD
  5
10F5
330
1
100
AcDbSymbolTableRecord
100
AcDbBlockTableRecord
  2
*D20
340
0
  0
BLOCK_RECORD
  5
1102
330
1
100
AcDbSymbolTableRecord
100
AcDbBlockTableRecord
  2
*D21
340
0
  0
BLOCK_RECORD
  5
110F
330
1
100
AcDbSymbolTableRecord
100
AcDbBlockTableRecord
  2
*D22
340
0
  0
BLOCK_RECORD
  5
111B
330
1
100
AcDbSymbolTableRecord
100
AcDbBlockTableRecord
  2
*D23
340
0
  0
BLOCK_RECORD
  5
1127
330
1
100
AcDbSymbolTableRecord
100
AcDbBlockTableRecord
  2
*D24
340
0
  0
BLOCK_RECORD
  5
1134
330
1
100
AcDbSymbolTableRecord
100
AcDbBlockTableRecord
  2
*D25
340
0
  0
BLOCK_RECORD
  5
1141
330
1
100
AcDbSymbolTableRecord
100
AcDbBlockTableRecord
  2
*D26
340
0
  0
ENDTAB
  0
ENDSEC
  0
SECTION
  2
BLOCKS
  0
BLOCK
  5
3
330
2
100
AcDbEntity
  8
0
100
AcDbBlockBegin
  2
*Model_Space
 70
     0
 10
0.0
 20
0.0
 30
0.0
  3
*Model_Space
  1

  0
ENDBLK
  5
9
330
2
100
AcDbEntity
  8
0
100
AcDbBlockEnd
  0
BLOCK
  5
D
330
C
100
AcDbEntity
 67
     1
  8
0
100
AcDbBlockBegin
  2
*Paper_Space
 70
     0
 10
0.0
 20
0.0
 30
0.0
  3
*Paper_Space
  1

  0
ENDBLK
  5
E
330
C
100
AcDbEntity
 67
     1
  8
0
100
AcDbBlockEnd
  0
BLOCK
  5
4B
330
41
100
AcDbEntity
  8
0
100
AcDbBlockBegin
  2
*D0
 70
     1
 10
0.0
 20
0.0
 30
0.0
  3
*D0
  1

  0
LINE
  5
42
330
41
100
AcDbEntity
  8
text3
 62
     0
370
    -2
100
AcDbLine
 10
-92.83076851602118
 20
-1538.20956382715
 30
0.0
 11
-92.83076851602118
 21
-1516.950010837352
 31
0.0
  0
LINE
  5
43
330
41
100
AcDbEntity
  8
text3
 62
     0
370
    -2
100
AcDbLine
 10
-25.83076851602118
 20
-1538.20956382715
 30
0.0
 11
-25.83076851602118
 21
-1516.950010837352
 31
0.0
  0
LINE
  5
44
330
41
100
AcDbEntity
  8
text3
 62
     0
370
    -2
100
AcDbLine
 10
-87.83076851602118
 20
-1521.950010837352
 30
0.0
 11
-30.83076851602118
 21
-1521.950010837352
 31
0.0
  0
SOLID
  5
45
330
41
100
AcDbEntity
  8
text3
 62
     0
100
AcDbTrace
 10
-87.83076851602118
 20
-1521.116677504019
 30
0.0
 11
-87.83076851602118
 21
-1522.783344170686
 31
0.0
 12
-92.83076851602118
 22
-1521.950010837352
 32
0.0
 13
-92.83076851602118
 23
-1521.950010837352
 33
0.0
  0
SOLID
  5
46
330
41
100
AcDbEntity
  8
text3
 62
     0
100
AcDbTrace
 10
-30.83076851602118
 20
-1521.116677504019
 30
0.0
 11
-30.83076851602118
 21
-1522.783344170686
 31
0.0
 12
-25.83076851602118
 22
-1521.950010837352
 32
0.0
 13
-25.83076851602118
 23
-1521.950010837352
 33
0.0
  0
MTEXT
  5
47
330
41
100
AcDbEntity
  8
text3
 62
     0
100
AcDbMText
 10
-59.33076851602118
 20
-1518.450010837352
 30
0.0
 40
4.0
 41
0.0
 71
     5
 72
     1
  1
\A1;67±1
 73
     1
 44
1.0
  0
POINT
  5
48
330
41
100
AcDbEntity
  8
Defpoints
 62
     0
100
AcDbPoint
 10
-92.83076851602118
 20
-1540.20956382715
 30
0.0
  0
POINT
  5
49
330
41
100
AcDbEntity
  8
Defpoints
 62
     0
100
AcDbPoint
 10
-25.83076851602118
 20
-1540.20956382715
 30
0.0
  0
POINT
  5
4A
330
41
100
AcDbEntity
  8
Defpoints
 62
     0
100
AcDbPoint
 10
-25.83076851602118
 20
-1521.950010837352
 30
0.0
  0
ENDBLK
  5
4C
330
41
100
AcDbEntity
  8
0
100
AcDbBlockEnd
  0
BLOCK
  5
31
330
26
100
AcDbEntity
  8
0
100
AcDbBlockBegin
  2
*D1
 70
     1
 10
0.0
 20
0.0
 30
0.0
  3
*D1
  1

  0
LINE
  5
27
330
26
100
AcDbEntity
  8
text3
 62
     0
370
    -2
100
AcDbLine
 10
-87.53076851602077
 20
-1649.20956382715
 30
0.0
 11
-87.53076851602077
 21
-1679.935836631309
 31
0.0
  0
LINE
  5
28
330
26
100
AcDbEntity
  8
text3
 62
     0
370
    -2
100
AcDbLine
 10
-31.13076851602068
 20
-1649.20956382715
 30
0.0
 11
-31.13076851602068
 21
-1679.935836631309
 31
0.0
  0
LINE
  5
29
330
26
100
AcDbEntity
  8
text3
 62
     0
370
    -2
100
AcDbLine
 10
-82.53076851602077
 20
-1674.935836631308
 30
0.0
 11
-36.13076851602068
 21
-1674.935836631308
 31
0.0
  0
SOLID
  5
2A
330
26
100
AcDbEntity
  8
text3
 62
     0
100
AcDbTrace
 10
-82.53076851602077
 20
-1674.102503297975
 30
0.0
 11
-82.53076851602077
 21
-1675.769169964642
 31
0.0
 12
-87.53076851602077
 22
-1674.935836631308
 32
0.0
 13
-87.53076851602077
 23
-1674.935836631308
 33
0.0
  0
SOLID
  5
2B
330
26
100
AcDbEntity
  8
text3
 62
     0
100
AcDbTrace
 10
-36.13076851602068
 20
-1674.102503297975
 30
0.0
 11
-36.13076851602068
 21
-1675.769169964642
 31
0.0
 12
-31.13076851602068
 22
-1674.935836631308
 32
0.0
 13
-31.13076851602068
 23
-1674.935836631308
 33
0.0
  0
MTEXT
  5
2C
330
26
100
AcDbEntity
  8
text3
 62
     0
100
AcDbMText
 10
-59.33076851602073
 20
-1671.435836631308
 30
0.0
 40
4.0
 41
0.0
 71
     5
 72
     1
  1
\A1;□56.4±0.1
 73
     1
 44
1.0
  0
POINT
  5
2D
330
26
100
AcDbEntity
  8
Defpoints
 62
     0
100
AcDbPoint
 10
-87.53076851602077
 20
-1647.20956382715
 30
0.0
  0
POINT
  5
2F
330
26
100
AcDbEntity
  8
Defpoints
 62
     0
100
AcDbPoint
 10
-31.13076851602068
 20
-1647.209563827149
 30
0.0
  0
POINT
  5
30
330
26
100
AcDbEntity
  8
Defpoints
 62
     0
100
AcDbPoint
 10
-31.13076851602068
 20
-1674.935836631308
 30
0.0
  0
ENDBLK
  5
32
330
26
100
AcDbEntity
  8
0
100
AcDbBlockEnd
  0
BLOCK
  5
3E
330
34
100
AcDbEntity
  8
0
100
AcDbBlockBegin
  2
*D2
 70
     1
 10
0.0
 20
0.0
 30
0.0
  3
*D2
  1

  0
LINE
  5
35
330
34
100
AcDbEntity
  8
text3
 62
     0
370
    -2
100
AcDbLine
 10
-82.90076851602078
 20
-1649.20956382715
 30
0.0
 11
-82.90076851602078
 21
-1666.960197144294
 31
0.0
  0
LINE
  5
36
330
34
100
AcDbEntity
  8
text3
 62
     0
370
    -2
100
AcDbLine
 10
-35.76076851602067
 20
-1649.20956382715
 30
0.0
 11
-35.76076851602067
 21
-1666.960197144294
 31
0.0
  0
LINE
  5
37
330
34
100
AcDbEntity
  8
text3
 62
     0
370
    -2
100
AcDbLine
 10
-77.90076851602078
 20
-1661.960197144295
 30
0.0
 11
-40.76076851602067
 21
-1661.960197144295
 31
0.0
  0
SOLID
  5
38
330
34
100
AcDbEntity
  8
text3
 62
     0
100
AcDbTrace
 10
-77.90076851602078
 20
-1661.126863810961
 30
0.0
 11
-77.90076851602078
 21
-1662.793530477627
 31
0.0
 12
-82.90076851602078
 22
-1661.960197144295
 32
0.0
 13
-82.90076851602078
 23
-1661.960197144295
 33
0.0
  0
SOLID
  5
39
330
34
100
AcDbEntity
  8
text3
 62
     0
100
AcDbTrace
 10
-40.76076851602067
 20
-1661.126863810961
 30
0.0
 11
-40.76076851602067
 21
-1662.793530477627
 31
0.0
 12
-35.76076851602067
 22
-1661.960197144295
 32
0.0
 13
-35.76076851602067
 23
-1661.960197144295
 33
0.0
  0
MTEXT
  5
3A
330
34
100
AcDbEntity
  8
text3
 62
     0
100
AcDbMText
 10
-59.33076851602073
 20
-1658.460197144295
 30
0.0
 40
4.0
 41
0.0
 71
     5
 72
     1
  1
\A1;□47.14±0.1
 73
     1
 44
1.0
  0
POINT
  5
3B
330
34
100
AcDbEntity
  8
Defpoints
 62
     0
100
AcDbPoint
 10
-82.90076851602078
 20
-1647.20956382715
 30
0.0
  0
POINT
  5
3C
330
34
100
AcDbEntity
  8
Defpoints
 62
     0
100
AcDbPoint
 10
-35.76076851602067
 20
-1647.209563827149
 30
0.0
  0
POINT
  5
3D
330
34
100
AcDbEntity
  8
Defpoints
 62
     0
100
AcDbPoint
 10
-35.76076851602067
 20
-1661.960197144295
 30
0.0
  0
ENDBLK
  5
3F
330
34
100
AcDbEntity
  8
0
100
AcDbBlockEnd
  0
BLOCK
  5
2D9
330
2CF
100
AcDbEntity
  8
0
100
AcDbBlockBegin
  2
*D3
 70
     1
 10
0.0
 20
0.0
 30
0.0
  3
*D3
  1

  0
LINE
  5
2D0
330
2CF
100
AcDbEntity
  8
text3
 62
     0
370
    -2
100
AcDbLine
 10
107.5260915295795
 20
-1649.709563827149
 30
0.0
 11
107.5260915295795
 21
-1661.837853911733
 31
0.0
  0
LINE
  5
2D1
330
2CF
100
AcDbEntity
  8
text3
 62
     0
370
    -2
100
AcDbLine
 10
148.6260915295791
 20
-1649.70956382715
 30
0.0
 11
148.6260915295791
 21
-1661.837853911733
 31
0.0
  0
LINE
  5
2D2
330
2CF
100
AcDbEntity
  8
text3
 62
     0
370
    -2
100
AcDbLine
 10
112.5260915295795
 20
-1656.837853911734
 30
0.0
 11
143.6260915295791
 21
-1656.837853911734
 31
0.0
  0
SOLID
  5
2D3
330
2CF
100
AcDbEntity
  8
text3
 62
     0
100
AcDbTrace
 10
112.5260915295795
 20
-1656.0045205784
 30
0.0
 11
112.5260915295795
 21
-1657.671187245067
 31
0.0
 12
107.5260915295795
 22
-1656.837853911734
 32
0.0
 13
107.5260915295795
 23
-1656.837853911734
 33
0.0
  0
SOLID
  5
2D4
330
2CF
100
AcDbEntity
  8
text3
 62
     0
100
AcDbTrace
 10
143.6260915295791
 20
-1656.0045205784
 30
0.0
 11
143.6260915295791
 21
-1657.671187245067
 31
0.0
 12
148.6260915295791
 22
-1656.837853911734
 32
0.0
 13
148.6260915295791
 23
-1656.837853911734
 33
0.0
  0
MTEXT
  5
2D5
330
2CF
100
AcDbEntity
  8
text3
 62
     0
100
AcDbMText
 10
128.0760915295793
 20
-1653.337853911734
 30
0.0
 40
4.0
 41
0.0
 71
     5
 72
     1
  1
\A1;41.1±1
 73
     1
 44
1.0
  0
POINT
  5
2D6
330
2CF
100
AcDbEntity
  8
Defpoints
 62
     0
100
AcDbPoint
 10
107.5260915295795
 20
-1646.70956382715
 30
0.0
  0
POINT
  5
2D7
330
2CF
100
AcDbEntity
  8
Defpoints
 62
     0
100
AcDbPoint
 10
148.6260915295791
 20
-1646.70956382715
 30
0.0
  0
POINT
  5
2D8
330
2CF
100
AcDbEntity
  8
Defpoints
 62
     0
100
AcDbPoint
 10
148.6260915295791
 20
-1656.837853911734
 30
0.0
  0
ENDBLK
  5
2DA
330
2CF
100
AcDbEntity
  8
0
100
AcDbBlockEnd
  0
BLOCK
  5
2C3
330
2B9
100
AcDbEntity
  8
0
100
AcDbBlockBegin
  2
*D4
 70
     1
 10
0.0
 20
0.0
 30
0.0
  3
*D4
  1

  0
LINE
  5
2BA
330
2B9
100
AcDbEntity
  8
text3
 62
     0
370
    -2
100
AcDbLine
 10
150.62609152958
 20
-1540.209563827149
 30
0.0
 11
170.5654766151451
 21
-1540.209563827149
 31
0.0
  0
LINE
  5
2BB
330
2B9
100
AcDbEntity
  8
text3
 62
     0
370
    -2
100
AcDbLine
 10
150.6260915295792
 20
-1647.20956382715
 30
0.0
 11
170.5654766151451
 21
-1647.20956382715
 31
0.0
  0
LINE
  5
2BC
330
2B9
100
AcDbEntity
  8
text3
 62
     0
370
    -2
100
AcDbLine
 10
165.5654766151451
 20
-1543.209563827149
 30
0.0
 11
165.5654766151451
 21
-1644.20956382715
 31
0.0
  0
SOLID
  5
2BD
330
2B9
100
AcDbEntity
  8
text3
 62
     0
100
AcDbTrace
 10
165.0654766151451
 20
-1543.209563827149
 30
0.0
 11
166.0654766151451
 21
-1543.209563827149
 31
0.0
 12
165.5654766151451
 22
-1540.209563827149
 32
0.0
 13
165.5654766151451
 23
-1540.209563827149
 33
0.0
  0
SOLID
  5
2BE
330
2B9
100
AcDbEntity
  8
text3
 62
     0
100
AcDbTrace
 10
165.0654766151451
 20
-1644.20956382715
 30
0.0
 11
166.0654766151451
 21
-1644.20956382715
 31
0.0
 12
165.5654766151451
 22
-1647.20956382715
 32
0.0
 13
165.5654766151451
 23
-1647.20956382715
 33
0.0
  0
MTEXT
  5
2BF
330
2B9
100
AcDbEntity
  8
text3
 62
     0
100
AcDbMText
 10
162.0654766151454
 20
-1593.709563827149
 30
0.0
 40
4.0
 41
0.0
 71
     5
 72
     1
  1
\A1;107±1
 11
1.000000000000000E-16
 21
1.0
 31
0.0
 73
     1
 44
1.0
  0
POINT
  5
2C0
330
2B9
100
AcDbEntity
  8
Defpoints
 62
     0
100
AcDbPoint
 10
148.62609152958
 20
-1540.209563827149
 30
0.0
  0
POINT
  5
2C1
330
2B9
100
AcDbEntity
  8
Defpoints
 62
     0
100
AcDbPoint
 10
148.6260915295791
 20
-1647.20956382715
 30
0.0
  0
POINT
  5
2C2
330
2B9
100
AcDbEntity
  8
Defpoints
 62
     0
100
AcDbPoint
 10
165.5654766151451
 20
-1647.20956382715
 30
0.0
  0
ENDBLK
  5
2C4
330
2B9
100
AcDbEntity
  8
0
100
AcDbBlockEnd
  0
BLOCK
  5
14D
330
143
100
AcDbEntity
  8
0
100
AcDbBlockBegin
  2
*D5
 70
     1
 10
0.0
 20
0.0
 30
0.0
  3
*D5
  1

  0
LINE
  5
144
330
143
100
AcDbEntity
  8
text3
 62
     0
370
    -2
100
AcDbLine
 10
82.42609152956635
 20
-1538.20956382715
 30
0.0
 11
82.42609152956635
 21
-1522.222972708187
 31
0.0
  0
LINE
  5
145
330
143
100
AcDbEntity
  8
text3
 62
     0
370
    -2
100
AcDbLine
 10
148.6260915295671
 20
-1538.20956382715
 30
0.0
 11
148.6260915295671
 21
-1522.222972708187
 31
0.0
  0
LINE
  5
146
330
143
100
AcDbEntity
  8
text3
 62
     0
370
    -2
100
AcDbLine
 10
87.42609152956635
 20
-1527.222972708187
 30
0.0
 11
143.6260915295671
 21
-1527.222972708187
 31
0.0
  0
SOLID
  5
147
330
143
100
AcDbEntity
  8
text3
 62
     0
100
AcDbTrace
 10
87.42609152956635
 20
-1526.389639374853
 30
0.0
 11
87.42609152956635
 21
-1528.05630604152
 31
0.0
 12
82.42609152956635
 22
-1527.222972708187
 32
0.0
 13
82.42609152956635
 23
-1527.222972708187
 33
0.0
  0
SOLID
  5
148
330
143
100
AcDbEntity
  8
text3
 62
     0
100
AcDbTrace
 10
143.6260915295671
 20
-1526.389639374853
 30
0.0
 11
143.6260915295671
 21
-1528.05630604152
 31
0.0
 12
148.6260915295671
 22
-1527.222972708187
 32
0.0
 13
148.6260915295671
 23
-1527.222972708187
 33
0.0
  0
MTEXT
  5
149
330
143
100
AcDbEntity
  8
text3
 62
     0
100
AcDbMText
 10
115.5260915295667
 20
-1523.722972708187
 30
0.0
 40
4.0
 41
0.0
 71
     5
 72
     1
  1
\A1;66.2±1
 73
     1
 44
1.0
  0
POINT
  5
14A
330
143
100
AcDbEntity
  8
Defpoints
 62
     0
100
AcDbPoint
 10
82.42609152956635
 20
-1540.20956382715
 30
0.0
  0
POINT
  5
14B
330
143
100
AcDbEntity
  8
Defpoints
 62
     0
100
AcDbPoint
 10
148.6260915295671
 20
-1540.20956382715
 30
0.0
  0
POINT
  5
14C
330
143
100
AcDbEntity
  8
Defpoints
 62
     0
100
AcDbPoint
 10
148.6260915295671
 20
-1527.222972708187
 30
0.0
  0
ENDBLK
  5
14E
330
143
100
AcDbEntity
  8
0
100
AcDbBlockEnd
  0
BLOCK
  5
177
330
16D
100
AcDbEntity
  8
0
100
AcDbBlockBegin
  2
*D6
 70
     1
 10
0.0
 20
0.0
 30
0.0
  3
*D6
  1

  0
LINE
  5
16E
330
16D
100
AcDbEntity
  8
text3
 62
     0
370
    -2
100
AcDbLine
 10
25.12609152957969
 20
-1599.959563827149
 30
0.0
 11
-16.34001055924389
 21
-1599.959563827149
 31
0.0
  0
LINE
  5
16F
330
16D
100
AcDbEntity
  8
text3
 62
     0
370
    -2
100
AcDbLine
 10
25.12609152957969
 20
-1638.05956382715
 30
0.0
 11
-16.3400105592439
 21
-1638.05956382715
 31
0.0
  0
LINE
  5
170
330
16D
100
AcDbEntity
  8
text3
 62
     0
370
    -2
100
AcDbLine
 10
-11.34001055924389
 20
-1604.959563827149
 30
0.0
 11
-11.3400105592439
 21
-1633.05956382715
 31
0.0
  0
SOLID
  5
171
330
16D
100
AcDbEntity
  8
text3
 62
     0
100
AcDbTrace
 10
-12.17334389257723
 20
-1604.959563827149
 30
0.0
 11
-10.50667722591056
 21
-1604.959563827149
 31
0.0
 12
-11.34001055924389
 22
-1599.959563827149
 32
0.0
 13
-11.34001055924389
 23
-1599.959563827149
 33
0.0
  0
SOLID
  5
172
330
16D
100
AcDbEntity
  8
text3
 62
     0
100
AcDbTrace
 10
-12.17334389257723
 20
-1633.05956382715
 30
0.0
 11
-10.50667722591056
 21
-1633.05956382715
 31
0.0
 12
-11.3400105592439
 22
-1638.05956382715
 32
0.0
 13
-11.3400105592439
 23
-1638.05956382715
 33
0.0
  0
MTEXT
  5
173
330
16D
100
AcDbEntity
  8
text3
 62
     0
100
AcDbMText
 10
-14.84001055924363
 20
-1625.024532013833
 30
0.0
 40
4.0
 41
0.0
 71
     5
 72
     1
  1
\A1;Φ38.1h7
 11
1.000000000000000E-16
 21
1.0
 31
0.0
 73
     1
 44
1.0
  0
POINT
  5
174
330
16D
100
AcDbEntity
  8
Defpoints
 62
     0
100
AcDbPoint
 10
28.12609152957969
 20
-1599.959563827149
 30
0.0
  0
POINT
  5
175
330
16D
100
AcDbEntity
  8
Defpoints
 62
     0
100
AcDbPoint
 10
28.12609152957969
 20
-1638.05956382715
 30
0.0
  0
POINT
  5
176
330
16D
100
AcDbEntity
  8
Defpoints
 62
     0
100
AcDbPoint
 10
-11.3400105592439
 20
-1638.05956382715
 30
0.0
  0
ENDBLK
  5
178
330
16D
100
AcDbEntity
  8
0
100
AcDbBlockEnd
  0
BLOCK
  5
27A
330
26F
100
AcDbEntity
  8
0
100
AcDbBlockBegin
  2
*D7
 70
     1
 10
0.0
 20
0.0
 30
0.0
  3
*D7
  1

  0
LINE
  5
270
330
26F
100
AcDbEntity
  8
text3
 62
     0
370
    -2
100
AcDbLine
 10
34.42609152957965
 20
-1649.20956382715
 30
0.0
 11
34.42609152957965
 21
-1666.728643041652
 31
0.0
  0
LINE
  5
271
330
26F
100
AcDbEntity
  8
text3
 62
     0
370
    -2
100
AcDbLine
 10
29.42609152957965
 20
-1649.20956382715
 30
0.0
 11
29.42609152957965
 21
-1666.728643041652
 31
0.0
  0
LINE
  5
272
330
26F
100
AcDbEntity
  8
text3
 62
     0
370
    -2
100
AcDbLine
 10
24.42609152957965
 20
-1661.728643041652
 30
0.0
 11
19.42609152957965
 21
-1661.728643041652
 31
0.0
  0
LINE
  5
273
330
26F
100
AcDbEntity
  8
text3
 62
     0
370
    -2
100
AcDbLine
 10
39.42609152957965
 20
-1661.728643041652
 30
0.0
 11
50.0927581962463
 21
-1661.728643041652
 31
0.0
  0
SOLID
  5
274
330
26F
100
AcDbEntity
  8
text3
 62
     0
100
AcDbTrace
 10
24.42609152957965
 20
-1660.895309708319
 30
0.0
 11
24.42609152957965
 21
-1662.561976374985
 31
0.0
 12
29.42609152957965
 22
-1661.728643041652
 32
0.0
 13
29.42609152957965
 23
-1661.728643041652
 33
0.0
  0
SOLID
  5
275
330
26F
100
AcDbEntity
  8
text3
 62
     0
100
AcDbTrace
 10
39.42609152957965
 20
-1660.895309708319
 30
0.0
 11
39.42609152957965
 21
-1662.561976374985
 31
0.0
 12
34.42609152957965
 22
-1661.728643041652
 32
0.0
 13
34.42609152957965
 23
-1661.728643041652
 33
0.0
  0
MTEXT
  5
276
330
26F
100
AcDbEntity
  8
text3
 62
     0
100
AcDbMText
 10
47.25942486291297
 20
-1658.228643041652
 30
0.0
 40
4.0
 41
0.0
 71
     5
 72
     1
  1
\A1;5
 73
     1
 44
1.0
  0
POINT
  5
277
330
26F
100
AcDbEntity
  8
Defpoints
 62
     0
100
AcDbPoint
 10
34.42609152957965
 20
-1647.20956382715
 30
0.0
  0
POINT
  5
278
330
26F
100
AcDbEntity
  8
Defpoints
 62
     0
100
AcDbPoint
 10
29.42609152957965
 20
-1647.20956382715
 30
0.0
  0
POINT
  5
279
330
26F
100
AcDbEntity
  8
Defpoints
 62
     0
100
AcDbPoint
 10
29.42609152957965
 20
-1661.728643041652
 30
0.0
  0
ENDBLK
  5
27B
330
26F
100
AcDbEntity
  8
0
100
AcDbBlockEnd
  0
BLOCK
  5
16A
330
160
100
AcDbEntity
  8
0
100
AcDbBlockBegin
  2
*D8
 70
     1
 10
0.0
 20
0.0
 30
0.0
  3
*D8
  1

  0
LINE
  5
161
330
160
100
AcDbEntity
  8
text3
 62
     0
370
    -2
100
AcDbLine
 10
29.42609152957958
 20
-1649.20956382715
 30
0.0
 11
29.42609152957878
 21
-1672.920570216942
 31
0.0
  0
LINE
  5
162
330
160
100
AcDbEntity
  8
text3
 62
     0
370
    -2
100
AcDbLine
 10
9.426091529578894
 20
-1649.209563827149
 30
0.0
 11
9.426091529578091
 21
-1672.920570216941
 31
0.0
  0
LINE
  5
163
330
160
100
AcDbEntity
  8
text3
 62
     0
370
    -2
100
AcDbLine
 10
24.42609152957878
 20
-1672.740570216942
 30
0.0
 11
14.4260915295781
 21
-1672.740570216941
 31
0.0
  0
SOLID
  5
164
330
160
100
AcDbEntity
  8
text3
 62
     0
100
AcDbTrace
 10
24.42609152957881
 20
-1671.907236883608
 30
0.0
 11
24.42609152957876
 21
-1673.573903550275
 31
0.0
 12
29.42609152957878
 22
-1672.740570216942
 32
0.0
 13
29.42609152957878
 23
-1672.740570216942
 33
0.0
  0
SOLID
  5
165
330
160
100
AcDbEntity
  8
text3
 62
     0
100
AcDbTrace
 10
14.42609152957812
 20
-1671.907236883608
 30
0.0
 11
14.42609152957807
 21
-1673.573903550274
 31
0.0
 12
9.426091529578098
 22
-1672.740570216941
 32
0.0
 13
9.426091529578098
 23
-1672.740570216941
 33
0.0
  0
MTEXT
  5
166
330
160
100
AcDbEntity
  8
text3
 62
     0
100
AcDbMText
 10
19.42609152957856
 20
-1669.240570216942
 30
0.0
 40
4.0
 41
0.0
 71
     5
 72
     1
  1
\A1;20±1
 73
     1
 44
1.0
  0
POINT
  5
167
330
160
100
AcDbEntity
  8
Defpoints
 62
     0
100
AcDbPoint
 10
29.42609152957965
 20
-1647.20956382715
 30
0.0
  0
POINT
  5
168
330
160
100
AcDbEntity
  8
Defpoints
 62
     0
100
AcDbPoint
 10
9.426091529578962
 20
-1647.209563827149
 30
0.0
  0
POINT
  5
169
330
160
100
AcDbEntity
  8
Defpoints
 62
     0
100
AcDbPoint
 10
9.426091529578098
 20
-1672.740570216941
 30
0.0
  0
ENDBLK
  5
16B
330
160
100
AcDbEntity
  8
0
100
AcDbBlockEnd
  0
BLOCK
  5
140
330
136
100
AcDbEntity
  8
0
100
AcDbBlockBegin
  2
*D9
 70
     1
 10
0.0
 20
0.0
 30
0.0
  3
*D9
  1

  0
LINE
  5
137
330
136
100
AcDbEntity
  8
text3
 62
     0
370
    -2
100
AcDbLine
 10
29.42609152957965
 20
-1649.20956382715
 30
0.0
 11
29.42609152957965
 21
-1672.920570216943
 31
0.0
  0
LINE
  5
138
330
136
100
AcDbEntity
  8
text3
 62
     0
370
    -2
100
AcDbLine
 10
148.6260915295791
 20
-1649.209563827151
 30
0.0
 11
148.6260915295791
 21
-1672.920570216943
 31
0.0
  0
LINE
  5
139
330
136
100
AcDbEntity
  8
text3
 62
     0
370
    -2
100
AcDbLine
 10
34.42609152957965
 20
-1672.740570216943
 30
0.0
 11
143.6260915295791
 21
-1672.740570216943
 31
0.0
  0
SOLID
  5
13A
330
136
100
AcDbEntity
  8
text3
 62
     0
100
AcDbTrace
 10
34.42609152957965
 20
-1671.90723688361
 30
0.0
 11
34.42609152957965
 21
-1673.573903550276
 31
0.0
 12
29.42609152957965
 22
-1672.740570216943
 32
0.0
 13
29.42609152957965
 23
-1672.740570216943
 33
0.0
  0
SOLID
  5
13B
330
136
100
AcDbEntity
  8
text3
 62
     0
100
AcDbTrace
 10
143.6260915295791
 20
-1671.90723688361
 30
0.0
 11
143.6260915295791
 21
-1673.573903550276
 31
0.0
 12
148.6260915295791
 22
-1672.740570216943
 32
0.0
 13
148.6260915295791
 23
-1672.740570216943
 33
0.0
  0
MTEXT
  5
13C
330
136
100
AcDbEntity
  8
text3
 62
     0
100
AcDbMText
 10
89.0260915295794
 20
-1669.240570216943
 30
0.0
 40
4.0
 41
0.0
 71
     5
 72
     1
  1
\A1;119.2±1
 73
     1
 44
1.0
  0
POINT
  5
13D
330
136
100
AcDbEntity
  8
Defpoints
 62
     0
100
AcDbPoint
 10
29.42609152957965
 20
-1647.20956382715
 30
0.0
  0
POINT
  5
13E
330
136
100
AcDbEntity
  8
Defpoints
 62
     0
100
AcDbPoint
 10
148.6260915295791
 20
-1647.209563827151
 30
0.0
  0
POINT
  5
13F
330
136
100
AcDbEntity
  8
Defpoints
 62
     0
100
AcDbPoint
 10
148.6260915295791
 20
-1672.740570216943
 30
0.0
  0
ENDBLK
  5
141
330
136
100
AcDbEntity
  8
0
100
AcDbBlockEnd
  0
BLOCK
  5
36C
330
312
100
AcDbEntity
  8
0
100
AcDbBlockBegin
  2
1-178128-4-jo1
 70
     0
 10
0.0
 20
0.0
 30
0.0
  3
1-178128-4-jo1
  1

  0
LINE
  5
313
330
312
100
AcDbEntity
  8
Object
100
AcDbLine
 10
-4.579999999999927
 20
-22.79999999999995
 30
0.0
 11
-0.5
 21
-22.79999999999995
 31
0.0
  0
LINE
  5
314
330
312
100
AcDbEntity
  8
Object
100
AcDbLine
 10
-12.16000000000008
 20
-6.5
 30
0.0
 11
12.15999999999985
 21
-6.5
 31
0.0
  0
LINE
  5
315
330
312
100
AcDbEntity
  8
Object
100
AcDbLine
 10
-14.46000000000003
 20
0.0000000000000568
 30
0.0
 11
14.46000000000003
 21
-0.0000000000000568
 31
0.0
  0
LINE
  5
316
330
312
100
AcDbEntity
  8
Object
100
AcDbLine
 10
-5.579999999999927
 20
-10.29999999999995
 30
0.0
 11
-5.579999999999927
 21
-22.80000000000001
 31
0.0
  0
LINE
  5
317
330
312
100
AcDbEntity
  8
Object
100
AcDbLine
 10
-4.579999999999927
 20
-10.29999999999995
 30
0.0
 11
-4.579999999999927
 21
-22.80000000000001
 31
0.0
  0
LINE
  5
318
330
312
100
AcDbEntity
  8
Object
100
AcDbLine
 10
-6.36999999999989
 20
-6.499999999999943
 30
0.0
 11
-6.36999999999989
 21
-22.79999999999995
 31
0.0
  0
LINE
  5
319
330
312
100
AcDbEntity
  8
Center
100
AcDbLine
 10
-7.61999999999989
 20
-6.499999999999943
 30
0.0
 11
-7.61999999999989
 21
-22.79999999999995
 31
0.0
  0
LINE
  5
31A
330
312
100
AcDbEntity
  8
Object
100
AcDbLine
 10
-3.789999999999963
 20
-6.5
 30
0.0
 11
-3.789999999999963
 21
-22.79999999999995
 31
0.0
  0
LINE
  5
31B
330
312
100
AcDbEntity
  8
Object
100
AcDbLine
 10
-12.16000000000008
 20
0.0000000000000568
 30
0.0
 11
-12.16000000000008
 21
-22.79999999999995
 31
0.0
  0
LINE
  5
31C
330
312
100
AcDbEntity
  8
Object
100
AcDbLine
 10
-12.16000000000008
 20
-22.79999999999995
 30
0.0
 11
-5.579999999999927
 21
-22.79999999999995
 31
0.0
  0
TEXT
  5
31D
330
312
100
AcDbEntity
  8
Object
100
AcDbText
 10
-6.876163952245633
 20
-3.85990293482564
 30
0.0
 40
1.0
  1
AMP
 50
180.0
  7
GDT
100
AcDbText
  0
LINE
  5
31E
330
312
100
AcDbEntity
  8
Text
  6
HIDDEN
 48
0.1
100
AcDbLine
 10
-11.16000000000008
 20
-3.5
 30
0.0
 11
-11.16000000000008
 21
-5.499999999999943
 31
0.0
  0
LINE
  5
31F
330
312
100
AcDbEntity
  8
Text
  6
HIDDEN
 48
0.1
100
AcDbLine
 10
-5.160000000000081
 20
-3.5
 30
0.0
 11
-5.160000000000081
 21
-5.5
 31
0.0
  0
LINE
  5
320
330
312
100
AcDbEntity
  8
Text
  6
HIDDEN
 48
0.2
100
AcDbLine
 10
-15.88999999999987
 20
-0.9999999999998863
 30
0.0
 11
-15.88999999999987
 21
-5.074688351406507
 31
0.0
  0
LINE
  5
321
330
312
100
AcDbEntity
  8
Text
  6
HIDDEN
 48
0.2
100
AcDbLine
 10
-16.38999999999987
 20
-0.9999999999998863
 30
0.0
 11
-16.38999999999987
 21
-5.074688351406507
 31
0.0
  0
LINE
  5
322
330
312
100
AcDbEntity
  8
Object
100
AcDbLine
 10
-12.66000000000008
 20
-3.0
 30
0.0
 11
-12.66000000000031
 21
-9.5
 31
0.0
  0
LINE
  5
323
330
312
100
AcDbEntity
  8
Object
100
AcDbLine
 10
-17.38999999999987
 20
-1.499999999999886
 30
0.0
 11
-17.38999999999987
 21
-4.204150096994339
 31
0.0
  0
LINE
  5
324
330
312
100
AcDbEntity
  8
Object
100
AcDbLine
 10
-12.16000000000008
 20
-13.5
 30
0.0
 11
-13.16000000000008
 21
-10.0
 31
0.0
  0
LINE
  5
325
330
312
100
AcDbEntity
  8
Object
100
AcDbLine
 10
-12.66000000000008
 20
-9.5
 30
0.0
 11
-12.16000000000008
 21
-13.5
 31
0.0
  0
LINE
  5
326
330
312
100
AcDbEntity
  8
Object
100
AcDbLine
 10
-5.579999999999927
 20
-10.29999999999995
 30
0.0
 11
-4.579999999999927
 21
-10.29999999999995
 31
0.0
  0
ARC
  5
327
330
312
100
AcDbEntity
  8
Object
100
AcDbCircle
 10
-16.88999999999987
 20
-4.204150096994339
 30
0.0
 40
0.5
100
AcDbArc
 50
180.0
 51
240.8494098705589
  0
LINE
  5
328
330
312
100
AcDbEntity
  8
Text
  6
HIDDEN
 48
0.1
100
AcDbLine
 10
-11.16000000000008
 20
-5.5
 30
0.0
 11
-5.160000000000081
 21
-5.5
 31
0.0
  0
ARC
  5
329
330
312
100
AcDbEntity
  8
Object
100
AcDbCircle
 10
-27.92601118199945
 20
-23.99081533531295
 30
0.0
 40
22.15624999999976
100
AcDbArc
 50
46.44773132824703
 51
60.84940987055894
  0
LINE
  5
32A
330
312
100
AcDbEntity
  8
Object
100
AcDbLine
 10
-13.16000000000008
 20
-9.5
 30
0.0
 11
-13.16000000000008
 21
-10.00000000000022
 31
0.0
  0
LINE
  5
32B
330
312
100
AcDbEntity
  8
Object
100
AcDbLine
 10
-13.16000000000008
 20
-9.5
 30
0.0
 11
-12.66000000000031
 21
-9.5
 31
0.0
  0
ARC
  5
32C
330
312
100
AcDbEntity
  8
Object
100
AcDbCircle
 10
-16.88999999999987
 20
-1.499999999999886
 30
0.0
 40
0.5
100
AcDbArc
 50
90.0
 51
180.0
  0
LINE
  5
32D
330
312
100
AcDbEntity
  8
Text
  6
HIDDEN
 48
0.1
100
AcDbLine
 10
-8.61999999999989
 20
-0.5
 30
0.0
 11
-6.61999999999989
 21
-0.5
 31
0.0
  0
LINE
  5
32E
330
312
100
AcDbEntity
  8
Text
  6
HIDDEN
 48
0.1
100
AcDbLine
 10
-8.61999999999989
 20
-2.5
 30
0.0
 11
-6.61999999999989
 21
-2.5
 31
0.0
  0
LINE
  5
32F
330
312
100
AcDbEntity
  8
Text
  6
HIDDEN
 48
0.1
100
AcDbLine
 10
-6.61999999999989
 20
-0.5
 30
0.0
 11
-6.61999999999989
 21
-2.5
 31
0.0
  0
LINE
  5
330
330
312
100
AcDbEntity
  8
Text
  6
HIDDEN
 48
0.1
100
AcDbLine
 10
-8.61999999999989
 20
-0.5
 30
0.0
 11
-8.61999999999989
 21
-2.5
 31
0.0
  0
TEXT
  5
331
330
312
100
AcDbEntity
  8
Object
100
AcDbText
 10
-7.064293675741055
 20
-1.088265929947908
 30
0.0
 40
1.0
  1
4
 50
180.0
  7
GDT
100
AcDbText
  0
LINE
  5
332
330
312
100
AcDbEntity
  8
Text
  6
HIDDEN
 48
0.1
100
AcDbLine
 10
-11.16000000000008
 20
-3.5
 30
0.0
 11
-5.160000000000309
 21
-3.5
 31
0.0
  0
LINE
  5
333
330
312
100
AcDbEntity
  8
Object
100
AcDbLine
 10
-14.46000000000003
 20
0.0
 30
0.0
 11
-14.46000000000003
 21
-3.0
 31
0.0
  0
LINE
  5
334
330
312
100
AcDbEntity
  8
Object
100
AcDbLine
 10
-16.88999999999987
 20
-0.9999999999998863
 30
0.0
 11
-14.46000000000003
 21
-0.9999999999998863
 31
0.0
  0
LINE
  5
335
330
312
100
AcDbEntity
  8
Object
100
AcDbLine
 10
-14.46000000000003
 20
-3.0
 30
0.0
 11
-12.16000000000008
 21
-3.0
 31
0.0
  0
LINE
  5
336
330
312
100
AcDbEntity
  8
Object
100
AcDbLine
 10
5.579999999999927
 20
-6.5
 30
0.0
 11
5.579999999999927
 21
-22.80000000000001
 31
0.0
  0
LINE
  5
337
330
312
100
AcDbEntity
  8
Object
100
AcDbLine
 10
4.579999999999927
 20
-6.5
 30
0.0
 11
4.579999999999927
 21
-22.80000000000001
 31
0.0
  0
LINE
  5
338
330
312
100
AcDbEntity
  8
Center
100
AcDbLine
 10
7.620000000000118
 20
-6.5
 30
0.0
 11
7.61999999999989
 21
-22.80000000000001
 31
0.0
  0
LINE
  5
339
330
312
100
AcDbEntity
  8
Object
100
AcDbLine
 10
1.289999999999963
 20
-6.5
 30
0.0
 11
1.289999999999963
 21
-22.79999999999995
 31
0.0
  0
LINE
  5
33A
330
312
100
AcDbEntity
  8
Object
100
AcDbLine
 10
-1.289999999999963
 20
-6.5
 30
0.0
 11
-1.289999999999963
 21
-22.79999999999995
 31
0.0
  0
LINE
  5
33B
330
312
100
AcDbEntity
  8
Center
100
AcDbLine
 10
-2.539999999999963
 20
-6.5
 30
0.0
 11
-2.539999999999963
 21
-22.79999999999995
 31
0.0
  0
LINE
  5
33C
330
312
100
AcDbEntity
  8
Center
100
AcDbLine
 10
2.539999999999963
 20
-6.5
 30
0.0
 11
2.539999999999963
 21
-22.79999999999995
 31
0.0
  0
LINE
  5
33D
330
312
100
AcDbEntity
  8
Object
100
AcDbLine
 10
0.5
 20
-10.29999999999995
 30
0.0
 11
0.5
 21
-22.79999999999995
 31
0.0
  0
LINE
  5
33E
330
312
100
AcDbEntity
  8
Object
100
AcDbLine
 10
-0.5
 20
-10.29999999999995
 30
0.0
 11
-0.5
 21
-22.79999999999995
 31
0.0
  0
LINE
  5
33F
330
312
100
AcDbEntity
  8
Center
100
AcDbLine
 10
0.0
 20
0.0
 30
0.0
 11
0.0
 21
-22.79999999999995
 31
0.0
  0
LINE
  5
340
330
312
100
AcDbEntity
  8
Object
100
AcDbLine
 10
12.15999999999985
 20
-0.0000000000000568
 30
0.0
 11
12.15999999999985
 21
-22.79999999999995
 31
0.0
  0
LINE
  5
341
330
312
100
AcDbEntity
  8
Object
100
AcDbLine
 10
5.579999999999927
 20
-22.80000000000001
 30
0.0
 11
12.15999999999985
 21
-22.79999999999995
 31
0.0
  0
LINE
  5
342
330
312
100
AcDbEntity
  8
Object
100
AcDbLine
 10
0.5
 20
-22.79999999999995
 30
0.0
 11
4.579999999999927
 21
-22.80000000000001
 31
0.0
  0
LINE
  5
343
330
312
100
AcDbEntity
  8
Object
100
AcDbLine
 10
17.38999999999987
 20
-1.499999999999886
 30
0.0
 11
17.38999999999987
 21
-4.204150096994339
 31
0.0
  0
LINE
  5
344
330
312
100
AcDbEntity
  8
Text
  6
HIDDEN
 48
0.2
100
AcDbLine
 10
16.38999999999987
 20
-0.9999999999998863
 30
0.0
 11
16.38999999999987
 21
-5.074688351406507
 31
0.0
  0
LINE
  5
345
330
312
100
AcDbEntity
  8
Text
  6
HIDDEN
 48
0.2
100
AcDbLine
 10
15.88999999999987
 20
-0.9999999999998863
 30
0.0
 11
15.88999999999987
 21
-5.074688351406507
 31
0.0
  0
LINE
  5
346
330
312
100
AcDbEntity
  8
Object
100
AcDbLine
 10
12.65999999999985
 20
-3.0
 30
0.0
 11
12.66000000000008
 21
-9.5
 31
0.0
  0
LINE
  5
347
330
312
100
AcDbEntity
  8
Text
  6
HIDDEN
 48
0.1
100
AcDbLine
 10
8.159999999999854
 20
-3.5
 30
0.0
 11
8.159999999999854
 21
-5.499999999999943
 31
0.0
  0
LINE
  5
348
330
312
100
AcDbEntity
  8
Text
  6
HIDDEN
 48
0.1
100
AcDbLine
 10
11.15999999999985
 20
-3.5
 30
0.0
 11
11.15999999999985
 21
-5.499999999999943
 31
0.0
  0
LINE
  5
349
330
312
100
AcDbEntity
  8
Object
100
AcDbLine
 10
12.15999999999985
 20
-13.5
 30
0.0
 11
13.16000000000008
 21
-10.0
 31
0.0
  0
LINE
  5
34A
330
312
100
AcDbEntity
  8
Object
100
AcDbLine
 10
12.66000000000008
 20
-9.5
 30
0.0
 11
12.15999999999985
 21
-13.5
 31
0.0
  0
LINE
  5
34B
330
312
100
AcDbEntity
  8
Object
100
AcDbLine
 10
5.579999999999927
 20
-10.29999999999995
 30
0.0
 11
4.579999999999927
 21
-10.29999999999995
 31
0.0
  0
LINE
  5
34C
330
312
100
AcDbEntity
  8
Object
100
AcDbLine
 10
-0.5
 20
-10.29999999999995
 30
0.0
 11
0.5
 21
-10.29999999999995
 31
0.0
  0
LINE
  5
34D
330
312
100
AcDbEntity
  8
Text
  6
HIDDEN
 48
0.1
100
AcDbLine
 10
9.159999999999854
 20
-9.5
 30
0.0
 11
11.15999999999985
 21
-9.5
 31
0.0
  0
LINE
  5
34E
330
312
100
AcDbEntity
  8
Text
  6
HIDDEN
 48
0.1
100
AcDbLine
 10
9.159999999999854
 20
-7.499999999999943
 30
0.0
 11
11.15999999999985
 21
-7.5
 31
0.0
  0
TEXT
  5
34F
330
312
100
AcDbEntity
  8
Object
100
AcDbText
 10
11.23469542004477
 20
-4.107628057664555
 30
0.0
 40
1.0
  1
D-3
 50
180.0
  7
GDT
100
AcDbText
  0
LINE
  5
350
330
312
100
AcDbEntity
  8
Text
  6
HIDDEN
 48
0.1
100
AcDbLine
 10
8.160000000000082
 20
-5.499999999999943
 30
0.0
 11
11.15999999999985
 21
-5.5
 31
0.0
  0
LINE
  5
351
330
312
100
AcDbEntity
  8
Text
  6
HIDDEN
 48
0.1
100
AcDbLine
 10
9.159999999999854
 20
-7.499999999999943
 30
0.0
 11
9.159999999999854
 21
-9.499999999999943
 31
0.0
  0
TEXT
  5
352
330
312
100
AcDbEntity
  8
Object
100
AcDbText
 10
10.71570632425891
 20
-8.088265929947852
 30
0.0
 40
1.0
  1
X
 50
180.0
  7
GDT
100
AcDbText
  0
LINE
  5
353
330
312
100
AcDbEntity
  8
Text
  6
HIDDEN
 48
0.1
100
AcDbLine
 10
11.15999999999985
 20
-7.5
 30
0.0
 11
11.15999999999985
 21
-9.5
 31
0.0
  0
ARC
  5
354
330
312
100
AcDbEntity
  8
Object
100
AcDbCircle
 10
16.88999999999987
 20
-4.204150096994339
 30
0.0
 40
0.5
100
AcDbArc
 50
299.150590129441
 51
0.0
  0
LINE
  5
355
330
312
100
AcDbEntity
  8
Object
100
AcDbLine
 10
13.16000000000008
 20
-9.5
 30
0.0
 11
13.15999999999985
 21
-10.00000000000022
 31
0.0
  0
LINE
  5
356
330
312
100
AcDbEntity
  8
Object
100
AcDbLine
 10
13.16000000000008
 20
-9.5
 30
0.0
 11
12.66000000000008
 21
-9.5
 31
0.0
  0
ARC
  5
357
330
312
100
AcDbEntity
  8
Object
100
AcDbCircle
 10
27.92601118199923
 20
-23.99081533531295
 30
0.0
 40
22.15624999999976
100
AcDbArc
 50
119.150590129441
 51
133.5522686717529
  0
LINE
  5
358
330
312
100
AcDbEntity
  8
Text
  6
HIDDEN
 48
0.1
100
AcDbLine
 10
8.159999999999854
 20
-3.499999999999943
 30
0.0
 11
11.15999999999985
 21
-3.5
 31
0.0
  0
LINE
  5
359
330
312
100
AcDbEntity
  8
Text
  6
HIDDEN
 48
0.1
100
AcDbLine
 10
-3.539999999999963
 20
-0.5
 30
0.0
 11
-1.539999999999963
 21
-0.5
 31
0.0
  0
LINE
  5
35A
330
312
100
AcDbEntity
  8
Text
  6
HIDDEN
 48
0.1
100
AcDbLine
 10
-3.539999999999963
 20
-2.5
 30
0.0
 11
-1.539999999999963
 21
-2.5
 31
0.0
  0
TEXT
  5
35B
330
312
100
AcDbEntity
  8
Object
100
AcDbText
 10
-1.9842936757409
 20
-1.088265929947908
 30
0.0
 40
1.0
  1
3
 50
180.0
  7
GDT
100
AcDbText
  0
LINE
  5
35C
330
312
100
AcDbEntity
  8
Text
  6
HIDDEN
 48
0.1
100
AcDbLine
 10
-3.539999999999963
 20
-0.5
 30
0.0
 11
-3.539999999999963
 21
-2.5
 31
0.0
  0
LINE
  5
35D
330
312
100
AcDbEntity
  8
Text
  6
HIDDEN
 48
0.1
100
AcDbLine
 10
-1.539999999999963
 20
-0.5
 30
0.0
 11
-1.539999999999963
 21
-2.5
 31
0.0
  0
LINE
  5
35E
330
312
100
AcDbEntity
  8
Text
  6
HIDDEN
 48
0.1
100
AcDbLine
 10
1.539999999999963
 20
-0.5
 30
0.0
 11
3.539999999999963
 21
-0.5
 31
0.0
  0
LINE
  5
35F
330
312
100
AcDbEntity
  8
Text
  6
HIDDEN
 48
0.1
100
AcDbLine
 10
1.539999999999963
 20
-2.5
 30
0.0
 11
3.539999999999963
 21
-2.500000000000056
 31
0.0
  0
LINE
  5
360
330
312
100
AcDbEntity
  8
Text
  6
HIDDEN
 48
0.1
100
AcDbLine
 10
3.539999999999963
 20
-0.5
 30
0.0
 11
3.539999999999963
 21
-2.5
 31
0.0
  0
LINE
  5
361
330
312
100
AcDbEntity
  8
Text
  6
HIDDEN
 48
0.1
100
AcDbLine
 10
1.539999999999963
 20
-0.5
 30
0.0
 11
1.539999999999963
 21
-2.5
 31
0.0
  0
TEXT
  5
362
330
312
100
AcDbEntity
  8
Object
100
AcDbText
 10
3.095706324259026
 20
-1.088265929947965
 30
0.0
 40
1.0
  1
2
 50
180.0
  7
GDT
100
AcDbText
  0
LINE
  5
363
330
312
100
AcDbEntity
  8
Text
  6
HIDDEN
 48
0.1
100
AcDbLine
 10
6.620000000000118
 20
-2.500000000000056
 30
0.0
 11
8.620000000000118
 21
-2.500000000000113
 31
0.0
  0
LINE
  5
364
330
312
100
AcDbEntity
  8
Text
  6
HIDDEN
 48
0.1
100
AcDbLine
 10
6.620000000000118
 20
-0.5
 30
0.0
 11
8.620000000000118
 21
-0.500000000000057
 31
0.0
  0
LINE
  5
365
330
312
100
AcDbEntity
  8
Text
  6
HIDDEN
 48
0.1
100
AcDbLine
 10
6.620000000000118
 20
-0.5
 30
0.0
 11
6.620000000000118
 21
-2.5
 31
0.0
  0
LINE
  5
366
330
312
100
AcDbEntity
  8
Text
  6
HIDDEN
 48
0.1
100
AcDbLine
 10
8.620000000000118
 20
-0.500000000000057
 30
0.0
 11
8.620000000000118
 21
-2.500000000000056
 31
0.0
  0
TEXT
  5
367
330
312
100
AcDbEntity
  8
Object
100
AcDbText
 10
8.175706324258954
 20
-1.088265929947965
 30
0.0
 40
1.0
  1
1
 50
180.0
  7
GDT
100
AcDbText
  0
LINE
  5
368
330
312
100
AcDbEntity
  8
Object
100
AcDbLine
 10
16.88999999999987
 20
-0.9999999999998863
 30
0.0
 11
14.46000000000003
 21
-0.9999999999998863
 31
0.0
  0
LINE
  5
369
330
312
100
AcDbEntity
  8
Object
100
AcDbLine
 10
14.46000000000003
 20
-3.0
 30
0.0
 11
12.15999999999985
 21
-3.0
 31
0.0
  0
LINE
  5
36A
330
312
100
AcDbEntity
  8
Object
100
AcDbLine
 10
14.46000000000003
 20
0.0
 30
0.0
 11
14.46000000000003
 21
-3.0
 31
0.0
  0
ARC
  5
36B
330
312
100
AcDbEntity
  8
Object
100
AcDbCircle
 10
16.88999999999987
 20
-1.499999999999886
 30
0.0
 40
0.5
100
AcDbArc
 50
0.0
 51
90.0
  0
ENDBLK
  5
36D
330
312
100
AcDbEntity
  8
0
100
AcDbBlockEnd
  0
BLOCK
  5
ABE
330
AB3
100
AcDbEntity
  8
0
100
AcDbBlockBegin
  2
*D11
 70
     1
 10
0.0
 20
0.0
 30
0.0
  3
*D11
  1

  0
LINE
  5
AB4
330
AB3
100
AcDbEntity
  8
text3
 62
     0
370
    -2
100
AcDbLine
 10
6.926091529579764
 20
-1623.00956382715
 30
0.0
 11
-4.513435769865541
 21
-1623.00956382715
 31
0.0
  0
LINE
  5
AB5
330
AB3
100
AcDbEntity
  8
text3
 62
     0
370
    -2
100
AcDbLine
 10
6.926091529579764
 20
-1615.00956382715
 30
0.0
 11
-4.513435769865539
 21
-1615.00956382715
 31
0.0
  0
LINE
  5
AB6
330
AB3
100
AcDbEntity
  8
text3
 62
     0
370
    -2
100
AcDbLine
 10
0.4865642301344613
 20
-1610.00956382715
 30
0.0
 11
0.4865642301344624
 21
-1605.00956382715
 31
0.0
  0
LINE
  5
AB7
330
AB3
100
AcDbEntity
  8
text3
 62
     0
370
    -2
100
AcDbLine
 10
0.4865642301344573
 20
-1628.00956382715
 30
0.0
 11
0.4865642301344512
 21
-1655.774499966669
 31
0.0
  0
SOLID
  5
AB8
330
AB3
100
AcDbEntity
  8
text3
 62
     0
100
AcDbTrace
 10
-0.346769103198872
 20
-1610.00956382715
 30
0.0
 11
1.319897563467794
 21
-1610.00956382715
 31
0.0
 12
0.4865642301344602
 22
-1615.00956382715
 32
0.0
 13
0.4865642301344602
 23
-1615.00956382715
 33
0.0
  0
SOLID
  5
AB9
330
AB3
100
AcDbEntity
  8
text3
 62
     0
100
AcDbTrace
 10
-0.346769103198876
 20
-1628.00956382715
 30
0.0
 11
1.31989756346779
 21
-1628.00956382715
 31
0.0
 12
0.4865642301344585
 22
-1623.00956382715
 32
0.0
 13
0.4865642301344585
 23
-1623.00956382715
 33
0.0
  0
MTEXT
  5
ABA
330
AB3
100
AcDbEntity
  8
text3
 62
     0
100
AcDbMText
 10
-3.013435769865282
 20
-1646.674499966669
 30
0.0
 40
4.0
 41
0.0
 71
     5
 72
     1
  1
\A1;Φ8h6
 11
1.000000000000000E-16
 21
1.0
 31
0.0
 73
     1
 44
1.0
  0
POINT
  5
ABB
330
AB3
100
AcDbEntity
  8
Defpoints
 62
     0
100
AcDbPoint
 10
9.926091529579764
 20
-1623.00956382715
 30
0.0
  0
POINT
  5
ABC
330
AB3
100
AcDbEntity
  8
Defpoints
 62
     0
100
AcDbPoint
 10
9.926091529579764
 20
-1615.00956382715
 30
0.0
  0
POINT
  5
ABD
330
AB3
100
AcDbEntity
  8
Defpoints
 62
     0
100
AcDbPoint
 10
0.4865642301344602
 20
-1615.00956382715
 30
0.0
  0
ENDBLK
  5
ABF
330
AB3
100
AcDbEntity
  8
0
100
AcDbBlockEnd
  0
BLOCK
  5
E72
330
E68
100
AcDbEntity
  8
0
100
AcDbBlockBegin
  2
*D12
 70
     1
 10
0.0
 20
0.0
 30
0.0
  3
*D12
  1

  0
LINE
  5
E7D
330
E68
100
AcDbEntity
  8
text3
 62
     0
370
    -2
100
AcDbLine
 10
8.04735404077536
 20
-1579.059563827151
 30
0.0
 11
8.04735404077536
 21
-1587.215294001915
 31
0.0
  0
LINE
  5
E7E
330
E68
100
AcDbEntity
  8
text3
 62
     0
370
    -2
100
AcDbLine
 10
82.42609152957903
 20
-1579.059563827151
 30
0.0
 11
82.42609152957903
 21
-1587.215294001915
 31
0.0
  0
LINE
  5
E7F
330
E68
100
AcDbEntity
  8
text3
 62
     0
370
    -2
100
AcDbLine
 10
13.04735404077536
 20
-1582.215294001915
 30
0.0
 11
77.42609152957903
 21
-1582.215294001915
 31
0.0
  0
SOLID
  5
E80
330
E68
100
AcDbEntity
  8
text3
 62
     0
100
AcDbTrace
 10
13.04735404077536
 20
-1581.381960668582
 30
0.0
 11
13.04735404077536
 21
-1583.048627335249
 31
0.0
 12
8.04735404077536
 22
-1582.215294001915
 32
0.0
 13
8.04735404077536
 23
-1582.215294001915
 33
0.0
  0
SOLID
  5
E81
330
E68
100
AcDbEntity
  8
text3
 62
     0
100
AcDbTrace
 10
77.42609152957903
 20
-1581.381960668582
 30
0.0
 11
77.42609152957903
 21
-1583.048627335249
 31
0.0
 12
82.42609152957903
 22
-1582.215294001915
 32
0.0
 13
82.42609152957903
 23
-1582.215294001915
 33
0.0
  0
MTEXT
  5
E82
330
E68
100
AcDbEntity
  8
text3
 62
     0
100
AcDbMText
 10
45.23672278517719
 20
-1578.715294001915
 30
0.0
 40
4.0
 41
0.0
 71
     5
 72
     1
  1
\A1;300±50
 73
     1
 44
1.0
  0
POINT
  5
E83
330
E68
100
AcDbEntity
  8
Defpoints
 62
     0
100
AcDbPoint
 10
8.04735404077536
 20
-1577.059563827151
 30
0.0
  0
POINT
  5
E84
330
E68
100
AcDbEntity
  8
Defpoints
 62
     0
100
AcDbPoint
 10
82.42609152957903
 20
-1577.059563827151
 30
0.0
  0
POINT
  5
E85
330
E68
100
AcDbEntity
  8
Defpoints
 62
     0
100
AcDbPoint
 10
82.42609152957903
 20
-1582.215294001915
 30
0.0
  0
ENDBLK
  5
E73
330
E68
100
AcDbEntity
  8
0
100
AcDbBlockEnd
  0
BLOCK
  5
10A9
330
109E
100
AcDbEntity
  8
0
100
AcDbBlockBegin
  2
*D13
 70
     1
 10
0.0
 20
0.0
 30
0.0
  3
*D13
  1

  0
LINE
  5
1202
330
109E
100
AcDbEntity
  8
text3
 62
     0
370
    -2
100
AcDbLine
 10
-86.46982420408443
 20
-1753.055195824497
 30
0.0
 11
-86.46982420408443
 21
-1779.404591248674
 31
0.0
  0
LINE
  5
1203
330
109E
100
AcDbEntity
  8
text3
 62
     0
370
    -2
100
AcDbLine
 10
-92.66982420408448
 20
-1753.055195824497
 30
0.0
 11
-92.66982420408448
 21
-1779.404591248674
 31
0.0
  0
LINE
  5
1204
330
109E
100
AcDbEntity
  8
text3
 62
     0
370
    -2
100
AcDbLine
 10
-97.66982420408448
 20
-1774.404591248674
 30
0.0
 11
-102.6698242040844
 21
-1774.404591248674
 31
0.0
  0
LINE
  5
1205
330
109E
100
AcDbEntity
  8
text3
 62
     0
370
    -2
100
AcDbLine
 10
-81.46982420408443
 20
-1774.404591248674
 30
0.0
 11
-65.46982420408443
 21
-1774.404591248674
 31
0.0
  0
SOLID
  5
1206
330
109E
100
AcDbEntity
  8
text3
 62
     0
100
AcDbTrace
 10
-97.66982420408448
 20
-1773.571257915341
 30
0.0
 11
-97.66982420408448
 21
-1775.237924582007
 31
0.0
 12
-92.66982420408448
 22
-1774.404591248674
 32
0.0
 13
-92.66982420408448
 23
-1774.404591248674
 33
0.0
  0
SOLID
  5
1207
330
109E
100
AcDbEntity
  8
text3
 62
     0
100
AcDbTrace
 10
-81.46982420408443
 20
-1773.571257915341
 30
0.0
 11
-81.46982420408443
 21
-1775.237924582007
 31
0.0
 12
-86.46982420408443
 22
-1774.404591248674
 32
0.0
 13
-86.46982420408443
 23
-1774.404591248674
 33
0.0
  0
MTEXT
  5
1208
330
109E
100
AcDbEntity
  8
text3
 62
     0
100
AcDbMText
 10
-70.96982420408443
 20
-1770.904591248674
 30
0.0
 40
4.0
 41
0.0
 71
     5
 72
     1
  1
\A1;6.2
 73
     1
 44
1.0
  0
POINT
  5
1209
330
109E
100
AcDbEntity
  8
Defpoints
 62
     0
100
AcDbPoint
 10
-86.46982420408443
 20
-1751.055195824497
 30
0.0
  0
POINT
  5
120A
330
109E
100
AcDbEntity
  8
Defpoints
 62
     0
100
AcDbPoint
 10
-92.66982420408448
 20
-1751.055195824497
 30
0.0
  0
POINT
  5
120B
330
109E
100
AcDbEntity
  8
Defpoints
 62
     0
100
AcDbPoint
 10
-92.66982420408448
 20
-1774.404591248674
 30
0.0
  0
ENDBLK
  5
10AA
330
109E
100
AcDbEntity
  8
0
100
AcDbBlockEnd
  0
BLOCK
  5
10B6
330
10AB
100
AcDbEntity
  8
0
100
AcDbBlockBegin
  2
*D14
 70
     1
 10
0.0
 20
0.0
 30
0.0
  3
*D14
  1

  0
LINE
  5
1216
330
10AB
100
AcDbEntity
  8
text3
 62
     0
370
    -2
100
AcDbLine
 10
-56.49301703440591
 20
-1747.055195824496
 30
0.0
 11
-69.11377455072648
 21
-1747.055195824496
 31
0.0
  0
LINE
  5
1217
330
10AB
100
AcDbEntity
  8
text3
 62
     0
370
    -2
100
AcDbLine
 10
-56.49301703440659
 20
-1755.055195824497
 30
0.0
 11
-69.11377455072648
 21
-1755.055195824497
 31
0.0
  0
LINE
  5
1218
330
10AB
100
AcDbEntity
  8
text3
 62
     0
370
    -2
100
AcDbLine
 10
-64.11377455072649
 20
-1760.055195824497
 30
0.0
 11
-64.11377455072649
 21
-1765.055195824496
 31
0.0
  0
LINE
  5
1219
330
10AB
100
AcDbEntity
  8
text3
 62
     0
370
    -2
100
AcDbLine
 10
-64.11377455072648
 20
-1742.055195824496
 30
0.0
 11
-64.11377455072648
 21
-1718.855195824496
 31
0.0
  0
SOLID
  5
121A
330
10AB
100
AcDbEntity
  8
text3
 62
     0
100
AcDbTrace
 10
-64.9471078840598
 20
-1760.055195824497
 30
0.0
 11
-63.28044121739314
 21
-1760.055195824497
 31
0.0
 12
-64.11377455072648
 22
-1755.055195824497
 32
0.0
 13
-64.11377455072648
 23
-1755.055195824497
 33
0.0
  0
SOLID
  5
121B
330
10AB
100
AcDbEntity
  8
text3
 62
     0
100
AcDbTrace
 10
-64.9471078840598
 20
-1742.055195824496
 30
0.0
 11
-63.28044121739313
 21
-1742.055195824496
 31
0.0
 12
-64.11377455072648
 22
-1747.055195824496
 32
0.0
 13
-64.11377455072648
 23
-1747.055195824496
 33
0.0
  0
MTEXT
  5
121C
330
10AB
100
AcDbEntity
  8
text3
 62
     0
100
AcDbMText
 10
-67.61377455072619
 20
-1727.955195824496
 30
0.0
 40
4.0
 41
0.0
 71
     5
 72
     1
  1
\A1;Φ8h6
 11
1.000000000000000E-16
 21
1.0
 31
0.0
 73
     1
 44
1.0
  0
POINT
  5
121D
330
10AB
100
AcDbEntity
  8
Defpoints
 62
     0
100
AcDbPoint
 10
-54.49301703440591
 20
-1747.055195824496
 30
0.0
  0
POINT
  5
121E
330
10AB
100
AcDbEntity
  8
Defpoints
 62
     0
100
AcDbPoint
 10
-54.49301703440659
 20
-1755.055195824497
 30
0.0
  0
POINT
  5
121F
330
10AB
100
AcDbEntity
  8
Defpoints
 62
     0
100
AcDbPoint
 10
-64.11377455072648
 20
-1755.055195824497
 30
0.0
  0
ENDBLK
  5
10B7
330
10AB
100
AcDbEntity
  8
0
100
AcDbBlockEnd
  0
BLOCK
  5
10C3
330
10B8
100
AcDbEntity
  8
0
100
AcDbBlockBegin
  2
*D15
 70
     1
 10
0.0
 20
0.0
 30
0.0
  3
*D15
  1

  0
LINE
  5
120C
330
10B8
100
AcDbEntity
  8
text3
 62
     0
370
    -2
100
AcDbLine
 10
-84.46982420408445
 20
-1749.555195824497
 30
0.0
 11
-75.31318540316077
 21
-1749.555195824497
 31
0.0
  0
LINE
  5
120D
330
10B8
100
AcDbEntity
  8
text3
 62
     0
370
    -2
100
AcDbLine
 10
-84.46982420408445
 20
-1752.555195824496
 30
0.0
 11
-75.31318540316077
 21
-1752.555195824496
 31
0.0
  0
LINE
  5
120E
330
10B8
100
AcDbEntity
  8
text3
 62
     0
370
    -2
100
AcDbLine
 10
-80.31318540316077
 20
-1757.555195824497
 30
0.0
 11
-80.3131854031608
 21
-1762.555195824496
 31
0.0
  0
LINE
  5
120F
330
10B8
100
AcDbEntity
  8
text3
 62
     0
370
    -2
100
AcDbLine
 10
-80.31318540316077
 20
-1744.555195824497
 30
0.0
 11
-80.31318540316077
 21
-1725.88852915783
 31
0.0
  0
SOLID
  5
1210
330
10B8
100
AcDbEntity
  8
text3
 62
     0
100
AcDbTrace
 10
-81.14651873649412
 20
-1757.555195824497
 30
0.0
 11
-79.47985206982746
 21
-1757.555195824497
 31
0.0
 12
-80.31318540316077
 22
-1752.555195824496
 32
0.0
 13
-80.31318540316077
 23
-1752.555195824496
 33
0.0
  0
SOLID
  5
1211
330
10B8
100
AcDbEntity
  8
text3
 62
     0
100
AcDbTrace
 10
-81.14651873649412
 20
-1744.555195824497
 30
0.0
 11
-79.47985206982746
 21
-1744.555195824497
 31
0.0
 12
-80.31318540316077
 22
-1749.555195824497
 32
0.0
 13
-80.31318540316077
 23
-1749.555195824497
 33
0.0
  0
MTEXT
  5
1212
330
10B8
100
AcDbEntity
  8
text3
 62
     0
100
AcDbMText
 10
-83.81318540316049
 20
-1732.721862491163
 30
0.0
 40
4.0
 41
0.0
 71
     5
 72
     1
  1
\A1;3P9
 11
1.000000000000000E-16
 21
1.0
 31
0.0
 73
     1
 44
1.0
  0
POINT
  5
1213
330
10B8
100
AcDbEntity
  8
Defpoints
 62
     0
100
AcDbPoint
 10
-86.46982420408443
 20
-1749.555195824497
 30
0.0
  0
POINT
  5
1214
330
10B8
100
AcDbEntity
  8
Defpoints
 62
     0
100
AcDbPoint
 10
-86.46982420408443
 20
-1752.555195824496
 30
0.0
  0
POINT
  5
1215
330
10B8
100
AcDbEntity
  8
Defpoints
 62
     0
100
AcDbPoint
 10
-80.31318540316077
 20
-1752.555195824496
 30
0.0
  0
ENDBLK
  5
10C4
330
10B8
100
AcDbEntity
  8
0
100
AcDbBlockEnd
  0
BLOCK
  5
10CF
330
10C5
100
AcDbEntity
  8
0
100
AcDbBlockBegin
  2
*D16
 70
     1
 10
0.0
 20
0.0
 30
0.0
  3
*D16
  1

  0
LINE
  5
11F9
330
10C5
100
AcDbEntity
  8
text3
 62
     0
370
    -2
100
AcDbLine
 10
-54.99301703440568
 20
-1745.555195824496
 30
0.0
 11
-54.99301703440568
 21
-1710.239272295592
 31
0.0
  0
LINE
  5
11FA
330
10C5
100
AcDbEntity
  8
text3
 62
     0
370
    -2
100
AcDbLine
 10
-34.99301703440568
 20
-1745.555195824496
 30
0.0
 11
-34.99301703440568
 21
-1710.239272295592
 31
0.0
  0
LINE
  5
11FB
330
10C5
100
AcDbEntity
  8
text3
 62
     0
370
    -2
100
AcDbLine
 10
-49.99301703440568
 20
-1715.239272295593
 30
0.0
 11
-39.99301703440568
 21
-1715.239272295593
 31
0.0
  0
SOLID
  5
11FC
330
10C5
100
AcDbEntity
  8
text3
 62
     0
100
AcDbTrace
 10
-49.99301703440568
 20
-1714.405938962259
 30
0.0
 11
-49.99301703440568
 21
-1716.072605628926
 31
0.0
 12
-54.99301703440568
 22
-1715.239272295593
 32
0.0
 13
-54.99301703440568
 23
-1715.239272295593
 33
0.0
  0
SOLID
  5
11FD
330
10C5
100
AcDbEntity
  8
text3
 62
     0
100
AcDbTrace
 10
-39.99301703440568
 20
-1714.405938962259
 30
0.0
 11
-39.99301703440568
 21
-1716.072605628926
 31
0.0
 12
-34.99301703440568
 22
-1715.239272295593
 32
0.0
 13
-34.99301703440568
 23
-1715.239272295593
 33
0.0
  0
MTEXT
  5
11FE
330
10C5
100
AcDbEntity
  8
text3
 62
     0
100
AcDbMText
 10
-44.99301703440568
 20
-1711.739272295593
 30
0.0
 40
4.0
 41
0.0
 71
     5
 72
     1
  1
\A1;20±1
 73
     1
 44
1.0
  0
POINT
  5
11FF
330
10C5
100
AcDbEntity
  8
Defpoints
 62
     0
100
AcDbPoint
 10
-54.99301703440568
 20
-1747.555195824496
 30
0.0
  0
POINT
  5
1200
330
10C5
100
AcDbEntity
  8
Defpoints
 62
     0
100
AcDbPoint
 10
-34.99301703440568
 20
-1747.555195824496
 30
0.0
  0
POINT
  5
1201
330
10C5
100
AcDbEntity
  8
Defpoints
 62
     0
100
AcDbPoint
 10
-34.99301703440568
 20
-1715.239272295593
 30
0.0
  0
ENDBLK
  5
10D0
330
10C5
100
AcDbEntity
  8
0
100
AcDbBlockEnd
  0
BLOCK
  5
10DB
330
10D1
100
AcDbEntity
  8
0
100
AcDbBlockBegin
  2
*D17
 70
     1
 10
0.0
 20
0.0
 30
0.0
  3
*D17
  1

  0
LINE
  5
11F0
330
10D1
100
AcDbEntity
  8
text3
 62
     0
370
    -2
100
AcDbLine
 10
-38.99301703440608
 20
-1745.555195824497
 30
0.0
 11
-38.99301703440567
 21
-1730.909486400263
 31
0.0
  0
LINE
  5
11F1
330
10D1
100
AcDbEntity
  8
text3
 62
     0
370
    -2
100
AcDbLine
 10
-54.99301703440562
 20
-1745.555195824496
 30
0.0
 11
-54.99301703440521
 21
-1730.909486400263
 31
0.0
  0
LINE
  5
11F2
330
10D1
100
AcDbEntity
  8
text3
 62
     0
370
    -2
100
AcDbLine
 10
-43.9930170344058
 20
-1735.909486400263
 30
0.0
 11
-49.99301703440536
 21
-1735.909486400263
 31
0.0
  0
SOLID
  5
11F3
330
10D1
100
AcDbEntity
  8
text3
 62
     0
100
AcDbTrace
 10
-43.99301703440578
 20
-1735.07615306693
 30
0.0
 11
-43.99301703440583
 21
-1736.742819733597
 31
0.0
 12
-38.99301703440581
 22
-1735.909486400263
 32
0.0
 13
-38.99301703440581
 23
-1735.909486400263
 33
0.0
  0
SOLID
  5
11F4
330
10D1
100
AcDbEntity
  8
text3
 62
     0
100
AcDbTrace
 10
-49.99301703440533
 20
-1735.07615306693
 30
0.0
 11
-49.99301703440537
 21
-1736.742819733596
 31
0.0
 12
-54.99301703440536
 22
-1735.909486400262
 32
0.0
 13
-54.99301703440536
 23
-1735.909486400262
 33
0.0
  0
MTEXT
  5
11F5
330
10D1
100
AcDbEntity
  8
text3
 62
     0
100
AcDbMText
 10
-46.99301703440513
 20
-1732.409486400263
 30
0.0
 40
4.0
 41
0.0
 71
     5
 72
     1
  1
\A1;16
 73
     1
 44
1.0
  0
POINT
  5
11F6
330
10D1
100
AcDbEntity
  8
Defpoints
 62
     0
100
AcDbPoint
 10
-38.99301703440613
 20
-1747.555195824497
 30
0.0
  0
POINT
  5
11F7
330
10D1
100
AcDbEntity
  8
Defpoints
 62
     0
100
AcDbPoint
 10
-54.99301703440568
 20
-1747.555195824496
 30
0.0
  0
POINT
  5
11F8
330
10D1
100
AcDbEntity
  8
Defpoints
 62
     0
100
AcDbPoint
 10
-54.99301703440536
 20
-1735.909486400262
 30
0.0
  0
ENDBLK
  5
10DC
330
10D1
100
AcDbEntity
  8
0
100
AcDbBlockEnd
  0
BLOCK
  5
10E7
330
10DD
100
AcDbEntity
  8
0
100
AcDbBlockBegin
  2
*D18
 70
     1
 10
0.0
 20
0.0
 30
0.0
  3
*D18
  1

  0
LINE
  5
11E7
330
10DD
100
AcDbEntity
  8
text3
 62
     0
370
    -2
100
AcDbLine
 10
130.4672476425983
 20
-1745.555195824496
 30
0.0
 11
130.4672476425983
 21
-1710.923731606339
 31
0.0
  0
LINE
  5
11E8
330
10DD
100
AcDbEntity
  8
text3
 62
     0
370
    -2
100
AcDbLine
 10
150.4672476425983
 20
-1745.555195824496
 30
0.0
 11
150.4672476425983
 21
-1710.923731606339
 31
0.0
  0
LINE
  5
11E9
330
10DD
100
AcDbEntity
  8
text3
 62
     0
370
    -2
100
AcDbLine
 10
135.4672476425983
 20
-1715.923731606339
 30
0.0
 11
145.4672476425983
 21
-1715.923731606339
 31
0.0
  0
SOLID
  5
11EA
330
10DD
100
AcDbEntity
  8
text3
 62
     0
100
AcDbTrace
 10
135.4672476425983
 20
-1715.090398273005
 30
0.0
 11
135.4672476425983
 21
-1716.757064939672
 31
0.0
 12
130.4672476425983
 22
-1715.923731606339
 32
0.0
 13
130.4672476425983
 23
-1715.923731606339
 33
0.0
  0
SOLID
  5
11EB
330
10DD
100
AcDbEntity
  8
text3
 62
     0
100
AcDbTrace
 10
145.4672476425983
 20
-1715.090398273005
 30
0.0
 11
145.4672476425983
 21
-1716.757064939672
 31
0.0
 12
150.4672476425983
 22
-1715.923731606339
 32
0.0
 13
150.4672476425983
 23
-1715.923731606339
 33
0.0
  0
MTEXT
  5
11EC
330
10DD
100
AcDbEntity
  8
text3
 62
     0
100
AcDbMText
 10
140.4672476425983
 20
-1712.423731606339
 30
0.0
 40
4.0
 41
0.0
 71
     5
 72
     1
  1
\A1;20±1
 73
     1
 44
1.0
  0
POINT
  5
11ED
330
10DD
100
AcDbEntity
  8
Defpoints
 62
     0
100
AcDbPoint
 10
130.4672476425983
 20
-1747.555195824497
 30
0.0
  0
POINT
  5
11EE
330
10DD
100
AcDbEntity
  8
Defpoints
 62
     0
100
AcDbPoint
 10
150.4672476425983
 20
-1747.555195824497
 30
0.0
  0
POINT
  5
11EF
330
10DD
100
AcDbEntity
  8
Defpoints
 62
     0
100
AcDbPoint
 10
150.4672476425983
 20
-1715.923731606339
 30
0.0
  0
ENDBLK
  5
10E8
330
10DD
100
AcDbEntity
  8
0
100
AcDbBlockEnd
  0
BLOCK
  5
10F3
330
10E9
100
AcDbEntity
  8
0
100
AcDbBlockBegin
  2
*D19
 70
     1
 10
0.0
 20
0.0
 30
0.0
  3
*D19
  1

  0
LINE
  5
11DE
330
10E9
100
AcDbEntity
  8
text3
 62
     0
370
    -2
100
AcDbLine
 10
146.4672476425977
 20
-1745.555195824497
 30
0.0
 11
146.467247642598
 21
-1735.806889725894
 31
0.0
  0
LINE
  5
11DF
330
10E9
100
AcDbEntity
  8
text3
 62
     0
370
    -2
100
AcDbLine
 10
130.4672476425984
 20
-1745.555195824496
 30
0.0
 11
130.4672476425986
 21
-1735.806889725893
 31
0.0
  0
LINE
  5
11E0
330
10E9
100
AcDbEntity
  8
text3
 62
     0
370
    -2
100
AcDbLine
 10
141.4672476425978
 20
-1740.806889725893
 30
0.0
 11
135.4672476425985
 21
-1740.806889725893
 31
0.0
  0
SOLID
  5
11E1
330
10E9
100
AcDbEntity
  8
text3
 62
     0
100
AcDbTrace
 10
141.4672476425979
 20
-1739.97355639256
 30
0.0
 11
141.4672476425978
 21
-1741.640223059227
 31
0.0
 12
146.4672476425978
 22
-1740.806889725893
 32
0.0
 13
146.4672476425978
 23
-1740.806889725893
 33
0.0
  0
SOLID
  5
11E2
330
10E9
100
AcDbEntity
  8
text3
 62
     0
100
AcDbTrace
 10
135.4672476425985
 20
-1739.97355639256
 30
0.0
 11
135.4672476425985
 21
-1741.640223059226
 31
0.0
 12
130.4672476425985
 22
-1740.806889725893
 32
0.0
 13
130.4672476425985
 23
-1740.806889725893
 33
0.0
  0
MTEXT
  5
11E3
330
10E9
100
AcDbEntity
  8
text3
 62
     0
100
AcDbMText
 10
138.4672476425983
 20
-1737.306889725893
 30
0.0
 40
4.0
 41
0.0
 71
     5
 72
     1
  1
\A1;16
 73
     1
 44
1.0
  0
POINT
  5
11E4
330
10E9
100
AcDbEntity
  8
Defpoints
 62
     0
100
AcDbPoint
 10
146.4672476425976
 20
-1747.555195824497
 30
0.0
  0
POINT
  5
11E5
330
10E9
100
AcDbEntity
  8
Defpoints
 62
     0
100
AcDbPoint
 10
130.4672476425983
 20
-1747.555195824497
 30
0.0
  0
POINT
  5
11E6
330
10E9
100
AcDbEntity
  8
Defpoints
 62
     0
100
AcDbPoint
 10
130.4672476425985
 20
-1740.806889725893
 30
0.0
  0
ENDBLK
  5
10F4
330
10E9
100
AcDbEntity
  8
0
100
AcDbBlockEnd
  0
BLOCK
  5
1100
330
10F5
100
AcDbEntity
  8
0
100
AcDbBlockBegin
  2
*D20
 70
     1
 10
0.0
 20
0.0
 30
0.0
  3
*D20
  1

  0
LINE
  5
1232
330
10F5
100
AcDbEntity
  8
text3
 62
     0
370
    -2
100
AcDbLine
 10
-1.815581826470122
 20
-1753.055195824497
 30
0.0
 11
-1.815581826470124
 21
-1780.334068565263
 31
0.0
  0
LINE
  5
1233
330
10F5
100
AcDbEntity
  8
text3
 62
     0
370
    -2
100
AcDbLine
 10
5.684418173529877
 20
-1753.055195824497
 30
0.0
 11
5.684418173529875
 21
-1780.334068565263
 31
0.0
  0
LINE
  5
1234
330
10F5
100
AcDbEntity
  8
text3
 62
     0
370
    -2
100
AcDbLine
 10
-6.815581826470124
 20
-1775.334068565263
 30
0.0
 11
-11.81558182647012
 21
-1775.334068565263
 31
0.0
  0
LINE
  5
1235
330
10F5
100
AcDbEntity
  8
text3
 62
     0
370
    -2
100
AcDbLine
 10
10.68441817352987
 20
-1775.334068565263
 30
0.0
 11
40.15108484019656
 21
-1775.334068565263
 31
0.0
  0
SOLID
  5
1236
330
10F5
100
AcDbEntity
  8
text3
 62
     0
100
AcDbTrace
 10
-6.815581826470124
 20
-1774.50073523193
 30
0.0
 11
-6.815581826470124
 21
-1776.167401898596
 31
0.0
 12
-1.815581826470124
 22
-1775.334068565263
 32
0.0
 13
-1.815581826470124
 23
-1775.334068565263
 33
0.0
  0
SOLID
  5
1237
330
10F5
100
AcDbEntity
  8
text3
 62
     0
100
AcDbTrace
 10
10.68441817352987
 20
-1774.50073523193
 30
0.0
 11
10.68441817352987
 21
-1776.167401898596
 31
0.0
 12
5.684418173529875
 22
-1775.334068565263
 32
0.0
 13
5.684418173529875
 23
-1775.334068565263
 33
0.0
  0
MTEXT
  5
1238
330
10F5
100
AcDbEntity
  8
text3
 62
     0
100
AcDbMText
 10
27.91775150686322
 20
-1771.834068565263
 30
0.0
 40
4.0
 41
0.0
 71
     5
 72
     1
  1
\A1;7.5±0.2
 73
     1
 44
1.0
  0
POINT
  5
1239
330
10F5
100
AcDbEntity
  8
Defpoints
 62
     0
100
AcDbPoint
 10
-1.815581826470122
 20
-1751.055195824497
 30
0.0
  0
POINT
  5
123A
330
10F5
100
AcDbEntity
  8
Defpoints
 62
     0
100
AcDbPoint
 10
5.684418173529877
 20
-1751.055195824497
 30
0.0
  0
POINT
  5
123B
330
10F5
100
AcDbEntity
  8
Defpoints
 62
     0
100
AcDbPoint
 10
5.684418173529875
 20
-1775.334068565263
 30
0.0
  0
ENDBLK
  5
1101
330
10F5
100
AcDbEntity
  8
0
100
AcDbBlockEnd
  0
BLOCK
  5
110D
330
1102
100
AcDbEntity
  8
0
100
AcDbBlockBegin
  2
*D21
 70
     1
 10
0.0
 20
0.0
 30
0.0
  3
*D21
  1

  0
LINE
  5
123C
330
1102
100
AcDbEntity
  8
text3
 62
     0
370
    -2
100
AcDbLine
 10
29.30360859550643
 20
-1747.055195824496
 30
0.0
 11
16.68285107918586
 21
-1747.055195824496
 31
0.0
  0
LINE
  5
123D
330
1102
100
AcDbEntity
  8
text3
 62
     0
370
    -2
100
AcDbLine
 10
29.30360859550575
 20
-1755.055195824496
 30
0.0
 11
16.68285107918586
 21
-1755.055195824496
 31
0.0
  0
LINE
  5
123E
330
1102
100
AcDbEntity
  8
text3
 62
     0
370
    -2
100
AcDbLine
 10
21.68285107918586
 20
-1760.055195824496
 30
0.0
 11
21.68285107918586
 21
-1765.055195824496
 31
0.0
  0
LINE
  5
123F
330
1102
100
AcDbEntity
  8
text3
 62
     0
370
    -2
100
AcDbLine
 10
21.68285107918586
 20
-1742.055195824496
 30
0.0
 11
21.68285107918587
 21
-1718.855195824496
 31
0.0
  0
SOLID
  5
1240
330
1102
100
AcDbEntity
  8
text3
 62
     0
100
AcDbTrace
 10
20.84951774585253
 20
-1760.055195824496
 30
0.0
 11
22.5161844125192
 21
-1760.055195824496
 31
0.0
 12
21.68285107918586
 22
-1755.055195824496
 32
0.0
 13
21.68285107918586
 23
-1755.055195824496
 33
0.0
  0
SOLID
  5
1241
330
1102
100
AcDbEntity
  8
text3
 62
     0
100
AcDbTrace
 10
20.84951774585253
 20
-1742.055195824496
 30
0.0
 11
22.5161844125192
 21
-1742.055195824496
 31
0.0
 12
21.68285107918586
 22
-1747.055195824496
 32
0.0
 13
21.68285107918586
 23
-1747.055195824496
 33
0.0
  0
MTEXT
  5
1242
330
1102
100
AcDbEntity
  8
text3
 62
     0
100
AcDbMText
 10
18.18285107918615
 20
-1727.955195824496
 30
0.0
 40
4.0
 41
0.0
 71
     5
 72
     1
  1
\A1;Φ8h6
 11
1.000000000000000E-16
 21
1.0
 31
0.0
 73
     1
 44
1.0
  0
POINT
  5
1243
330
1102
100
AcDbEntity
  8
Defpoints
 62
     0
100
AcDbPoint
 10
31.30360859550643
 20
-1747.055195824496
 30
0.0
  0
POINT
  5
1244
330
1102
100
AcDbEntity
  8
Defpoints
 62
     0
100
AcDbPoint
 10
31.30360859550575
 20
-1755.055195824496
 30
0.0
  0
POINT
  5
1245
330
1102
100
AcDbEntity
  8
Defpoints
 62
     0
100
AcDbPoint
 10
21.68285107918586
 20
-1755.055195824496
 30
0.0
  0
ENDBLK
  5
110E
330
1102
100
AcDbEntity
  8
0
100
AcDbBlockEnd
  0
BLOCK
  5
1119
330
110F
100
AcDbEntity
  8
0
100
AcDbBlockBegin
  2
*D22
 70
     1
 10
0.0
 20
0.0
 30
0.0
  3
*D22
  1

  0
LINE
  5
1229
330
110F
100
AcDbEntity
  8
text3
 62
     0
370
    -2
100
AcDbLine
 10
30.80360859550665
 20
-1745.555195824496
 30
0.0
 11
30.80360859550666
 21
-1710.239272295592
 31
0.0
  0
LINE
  5
122A
330
110F
100
AcDbEntity
  8
text3
 62
     0
370
    -2
100
AcDbLine
 10
50.80360859550665
 20
-1745.555195824496
 30
0.0
 11
50.80360859550665
 21
-1710.239272295592
 31
0.0
  0
LINE
  5
122B
330
110F
100
AcDbEntity
  8
text3
 62
     0
370
    -2
100
AcDbLine
 10
35.80360859550665
 20
-1715.239272295593
 30
0.0
 11
45.80360859550665
 21
-1715.239272295593
 31
0.0
  0
SOLID
  5
122C
330
110F
100
AcDbEntity
  8
text3
 62
     0
100
AcDbTrace
 10
35.80360859550665
 20
-1714.405938962259
 30
0.0
 11
35.80360859550665
 21
-1716.072605628926
 31
0.0
 12
30.80360859550666
 22
-1715.239272295593
 32
0.0
 13
30.80360859550666
 23
-1715.239272295593
 33
0.0
  0
SOLID
  5
122D
330
110F
100
AcDbEntity
  8
text3
 62
     0
100
AcDbTrace
 10
45.80360859550665
 20
-1714.405938962259
 30
0.0
 11
45.80360859550665
 21
-1716.072605628926
 31
0.0
 12
50.80360859550665
 22
-1715.239272295593
 32
0.0
 13
50.80360859550665
 23
-1715.239272295593
 33
0.0
  0
MTEXT
  5
122E
330
110F
100
AcDbEntity
  8
text3
 62
     0
100
AcDbMText
 10
40.80360859550665
 20
-1711.739272295593
 30
0.0
 40
4.0
 41
0.0
 71
     5
 72
     1
  1
\A1;20±1
 73
     1
 44
1.0
  0
POINT
  5
122F
330
110F
100
AcDbEntity
  8
Defpoints
 62
     0
100
AcDbPoint
 10
30.80360859550665
 20
-1747.555195824496
 30
0.0
  0
POINT
  5
1230
330
110F
100
AcDbEntity
  8
Defpoints
 62
     0
100
AcDbPoint
 10
50.80360859550665
 20
-1747.555195824496
 30
0.0
  0
POINT
  5
1231
330
110F
100
AcDbEntity
  8
Defpoints
 62
     0
100
AcDbPoint
 10
50.80360859550665
 20
-1715.239272295593
 30
0.0
  0
ENDBLK
  5
111A
330
110F
100
AcDbEntity
  8
0
100
AcDbBlockEnd
  0
BLOCK
  5
1125
330
111B
100
AcDbEntity
  8
0
100
AcDbBlockBegin
  2
*D23
 70
     1
 10
0.0
 20
0.0
 30
0.0
  3
*D23
  1

  0
LINE
  5
1220
330
111B
100
AcDbEntity
  8
text3
 62
     0
370
    -2
100
AcDbLine
 10
46.80360859550603
 20
-1745.555195824497
 30
0.0
 11
46.80360859550645
 21
-1730.909486400263
 31
0.0
  0
LINE
  5
1221
330
111B
100
AcDbEntity
  8
text3
 62
     0
370
    -2
100
AcDbLine
 10
30.80360859550649
 20
-1745.555195824496
 30
0.0
 11
30.8036085955069
 21
-1730.909486400263
 31
0.0
  0
LINE
  5
1222
330
111B
100
AcDbEntity
  8
text3
 62
     0
370
    -2
100
AcDbLine
 10
41.8036085955063
 20
-1735.909486400263
 30
0.0
 11
35.80360859550676
 21
-1735.909486400263
 31
0.0
  0
SOLID
  5
1223
330
111B
100
AcDbEntity
  8
text3
 62
     0
100
AcDbTrace
 10
41.80360859550633
 20
-1735.07615306693
 30
0.0
 11
41.80360859550628
 21
-1736.742819733597
 31
0.0
 12
46.8036085955063
 22
-1735.909486400263
 32
0.0
 13
46.8036085955063
 23
-1735.909486400263
 33
0.0
  0
SOLID
  5
1224
330
111B
100
AcDbEntity
  8
text3
 62
     0
100
AcDbTrace
 10
35.80360859550678
 20
-1735.07615306693
 30
0.0
 11
35.80360859550673
 21
-1736.742819733596
 31
0.0
 12
30.80360859550676
 22
-1735.909486400263
 32
0.0
 13
30.80360859550676
 23
-1735.909486400263
 33
0.0
  0
MTEXT
  5
1225
330
111B
100
AcDbEntity
  8
text3
 62
     0
100
AcDbMText
 10
38.80360859550698
 20
-1732.409486400263
 30
0.0
 40
4.0
 41
0.0
 71
     5
 72
     1
  1
\A1;16
 73
     1
 44
1.0
  0
POINT
  5
1226
330
111B
100
AcDbEntity
  8
Defpoints
 62
     0
100
AcDbPoint
 10
46.80360859550598
 20
-1747.555195824497
 30
0.0
  0
POINT
  5
1227
330
111B
100
AcDbEntity
  8
Defpoints
 62
     0
100
AcDbPoint
 10
30.80360859550643
 20
-1747.555195824497
 30
0.0
  0
POINT
  5
1228
330
111B
100
AcDbEntity
  8
Defpoints
 62
     0
100
AcDbPoint
 10
30.80360859550676
 20
-1735.909486400263
 30
0.0
  0
ENDBLK
  5
1126
330
111B
100
AcDbEntity
  8
0
100
AcDbBlockEnd
  0
BLOCK
  5
1132
330
1127
100
AcDbEntity
  8
0
100
AcDbBlockBegin
  2
*D24
 70
     1
 10
0.0
 20
0.0
 30
0.0
  3
*D24
  1

  0
LINE
  5
11D4
330
1127
100
AcDbEntity
  8
text3
 62
     0
370
    -2
100
AcDbLine
 10
101.1478342682765
 20
-1753.055195824497
 30
0.0
 11
101.1478342682765
 21
-1783.113130227839
 31
0.0
  0
LINE
  5
11D5
330
1127
100
AcDbEntity
  8
text3
 62
     0
370
    -2
100
AcDbLine
 10
93.64783426827655
 20
-1753.055195824497
 30
0.0
 11
93.64783426827655
 21
-1783.113130227839
 31
0.0
  0
LINE
  5
11D6
330
1127
100
AcDbEntity
  8
text3
 62
     0
370
    -2
100
AcDbLine
 10
88.64783426827655
 20
-1778.113130227839
 30
0.0
 11
83.64783426827655
 21
-1778.113130227839
 31
0.0
  0
LINE
  5
11D7
330
1127
100
AcDbEntity
  8
text3
 62
     0
370
    -2
100
AcDbLine
 10
106.1478342682765
 20
-1778.113130227839
 30
0.0
 11
135.6145009349432
 21
-1778.113130227839
 31
0.0
  0
SOLID
  5
11D8
330
1127
100
AcDbEntity
  8
text3
 62
     0
100
AcDbTrace
 10
88.64783426827655
 20
-1777.279796894505
 30
0.0
 11
88.64783426827655
 21
-1778.946463561172
 31
0.0
 12
93.64783426827655
 22
-1778.113130227839
 32
0.0
 13
93.64783426827655
 23
-1778.113130227839
 33
0.0
  0
SOLID
  5
11D9
330
1127
100
AcDbEntity
  8
text3
 62
     0
100
AcDbTrace
 10
106.1478342682765
 20
-1777.279796894505
 30
0.0
 11
106.1478342682765
 21
-1778.946463561172
 31
0.0
 12
101.1478342682765
 22
-1778.113130227839
 32
0.0
 13
101.1478342682765
 23
-1778.113130227839
 33
0.0
  0
MTEXT
  5
11DA
330
1127
100
AcDbEntity
  8
text3
 62
     0
100
AcDbMText
 10
123.3811676016098
 20
-1774.613130227838
 30
0.0
 40
4.0
 41
0.0
 71
     5
 72
     1
  1
\A1;7.5±0.2
 73
     1
 44
1.0
  0
POINT
  5
11DB
330
1127
100
AcDbEntity
  8
Defpoints
 62
     0
100
AcDbPoint
 10
101.1478342682765
 20
-1751.055195824497
 30
0.0
  0
POINT
  5
11DC
330
1127
100
AcDbEntity
  8
Defpoints
 62
     0
100
AcDbPoint
 10
93.64783426827655
 20
-1751.055195824497
 30
0.0
  0
POINT
  5
11DD
330
1127
100
AcDbEntity
  8
Defpoints
 62
     0
100
AcDbPoint
 10
93.64783426827655
 20
-1778.113130227839
 30
0.0
  0
ENDBLK
  5
1133
330
1127
100
AcDbEntity
  8
0
100
AcDbBlockEnd
  0
BLOCK
  5
113F
330
1134
100
AcDbEntity
  8
0
100
AcDbBlockBegin
  2
*D25
 70
     1
 10
0.0
 20
0.0
 30
0.0
  3
*D25
  1

  0
LINE
  5
1246
330
1134
100
AcDbEntity
  8
text3
 62
     0
370
    -2
100
AcDbLine
 10
99.64783426827654
 20
-1747.555195824497
 30
0.0
 11
113.5703504349071
 21
-1747.555195824497
 31
0.0
  0
LINE
  5
1247
330
1134
100
AcDbEntity
  8
text3
 62
     0
370
    -2
100
AcDbLine
 10
99.64783426827654
 20
-1755.055195824497
 30
0.0
 11
113.5703504349071
 21
-1755.055195824497
 31
0.0
  0
LINE
  5
1248
330
1134
100
AcDbEntity
  8
text3
 62
     0
370
    -2
100
AcDbLine
 10
108.5703504349071
 20
-1760.055195824497
 30
0.0
 11
108.5703504349071
 21
-1765.055195824496
 31
0.0
  0
LINE
  5
1249
330
1134
100
AcDbEntity
  8
text3
 62
     0
370
    -2
100
AcDbLine
 10
108.5703504349071
 20
-1742.555195824497
 30
0.0
 11
108.5703504349071
 21
-1713.08852915783
 31
0.0
  0
SOLID
  5
124A
330
1134
100
AcDbEntity
  8
text3
 62
     0
100
AcDbTrace
 10
107.7370171015737
 20
-1760.055195824497
 30
0.0
 11
109.4036837682404
 21
-1760.055195824497
 31
0.0
 12
108.5703504349071
 22
-1755.055195824497
 32
0.0
 13
108.5703504349071
 23
-1755.055195824497
 33
0.0
  0
SOLID
  5
124B
330
1134
100
AcDbEntity
  8
text3
 62
     0
100
AcDbTrace
 10
107.7370171015738
 20
-1742.555195824497
 30
0.0
 11
109.4036837682404
 21
-1742.555195824497
 31
0.0
 12
108.5703504349071
 22
-1747.555195824497
 32
0.0
 13
108.5703504349071
 23
-1747.555195824497
 33
0.0
  0
MTEXT
  5
124C
330
1134
100
AcDbEntity
  8
text3
 62
     0
100
AcDbMText
 10
105.0703504349074
 20
-1725.321862491163
 30
0.0
 40
4.0
 41
0.0
 71
     5
 72
     1
  1
\A1;7.5±0.2
 11
1.000000000000000E-16
 21
1.0
 31
0.0
 73
     1
 44
1.0
  0
POINT
  5
124D
330
1134
100
AcDbEntity
  8
Defpoints
 62
     0
100
AcDbPoint
 10
97.64783426827655
 20
-1747.555195824497
 30
0.0
  0
POINT
  5
124E
330
1134
100
AcDbEntity
  8
Defpoints
 62
     0
100
AcDbPoint
 10
97.64783426827655
 20
-1755.055195824497
 30
0.0
  0
POINT
  5
124F
330
1134
100
AcDbEntity
  8
Defpoints
 62
     0
100
AcDbPoint
 10
108.5703504349071
 20
-1755.055195824497
 30
0.0
  0
ENDBLK
  5
1140
330
1134
100
AcDbEntity
  8
0
100
AcDbBlockEnd
  0
BLOCK
  5
114C
330
1141
100
AcDbEntity
  8
0
100
AcDbBlockBegin
  2
*D26
 70
     1
 10
0.0
 20
0.0
 30
0.0
  3
*D26
  1

  0
LINE
  5
1250
330
1141
100
AcDbEntity
  8
text3
 62
     0
370
    -2
100
AcDbLine
 10
128.9672476425988
 20
-1747.055195824496
 30
0.0
 11
116.3464901262782
 21
-1747.055195824496
 31
0.0
  0
LINE
  5
1251
330
1141
100
AcDbEntity
  8
text3
 62
     0
370
    -2
100
AcDbLine
 10
128.9672476425981
 20
-1755.055195824497
 30
0.0
 11
116.3464901262782
 21
-1755.055195824497
 31
0.0
  0
LINE
  5
1252
330
1141
100
AcDbEntity
  8
text3
 62
     0
370
    -2
100
AcDbLine
 10
121.3464901262782
 20
-1760.055195824497
 30
0.0
 11
121.3464901262782
 21
-1765.055195824496
 31
0.0
  0
LINE
  5
1253
330
1141
100
AcDbEntity
  8
text3
 62
     0
370
    -2
100
AcDbLine
 10
121.3464901262782
 20
-1742.055195824496
 30
0.0
 11
121.3464901262782
 21
-1718.855195824496
 31
0.0
  0
SOLID
  5
1254
330
1141
100
AcDbEntity
  8
text3
 62
     0
100
AcDbTrace
 10
120.5131567929448
 20
-1760.055195824497
 30
0.0
 11
122.1798234596115
 21
-1760.055195824497
 31
0.0
 12
121.3464901262782
 22
-1755.055195824497
 32
0.0
 13
121.3464901262782
 23
-1755.055195824497
 33
0.0
  0
SOLID
  5
1255
330
1141
100
AcDbEntity
  8
text3
 62
     0
100
AcDbTrace
 10
120.5131567929449
 20
-1742.055195824496
 30
0.0
 11
122.1798234596115
 21
-1742.055195824496
 31
0.0
 12
121.3464901262782
 22
-1747.055195824496
 32
0.0
 13
121.3464901262782
 23
-1747.055195824496
 33
0.0
  0
MTEXT
  5
1256
330
1141
100
AcDbEntity
  8
text3
 62
     0
100
AcDbMText
 10
117.8464901262785
 20
-1727.955195824496
 30
0.0
 40
4.0
 41
0.0
 71
     5
 72
     1
  1
\A1;Φ8h6
 11
1.000000000000000E-16
 21
1.0
 31
0.0
 73
     1
 44
1.0
  0
POINT
  5
1257
330
1141
100
AcDbEntity
  8
Defpoints
 62
     0
100
AcDbPoint
 10
130.9672476425988
 20
-1747.055195824496
 30
0.0
  0
POINT
  5
1258
330
1141
100
AcDbEntity
  8
Defpoints
 62
     0
100
AcDbPoint
 10
130.9672476425981
 20
-1755.055195824497
 30
0.0
  0
POINT
  5
1259
330
1141
100
AcDbEntity
  8
Defpoints
 62
     0
100
AcDbPoint
 10
121.3464901262782
 20
-1755.055195824497
 30
0.0
  0
ENDBLK
  5
114D
330
1141
100
AcDbEntity
  8
0
100
AcDbBlockEnd
  0
ENDSEC
  0
SECTION
  2
ENTITIES
  0
DIMENSION
  5
25
330
2
100
AcDbEntity
  8
text3
100
AcDbDimension
  2
*D1
 10
-31.13076851602068
 20
-1674.935836631308
 30
0.0
 11
-59.33076851602073
 21
-1671.435836631308
 31
0.0
 70
     1
  1
□<>±0.1
 71
     5
 42
56.40000000000009
  3
DMST_1
100
AcDbAlignedDimension
 13
-87.53076851602077
 23
-1647.20956382715
 33
0.0
 14
-31.13076851602068
 24
-1647.209563827149
 34
0.0
1001
ACAD
1000
DSTYLE
1002
{
1070
    41
1040
5.0
1070
    42
1040
2.0
1070
    43
1040
0.38
1070
    44
1040
5.0
1070
    47
1040
0.0
1070
    48
1040
0.0
1070
    71
1070
     0
1070
    78
1070
     8
1070
    79
1070
     2
1070
   140
1040
4.0
1070
   141
1040
1.0
1070
   146
1040
1.0
1070
   147
1040
1.5
1070
   176
1070
     0
1070
   177
1070
     0
1070
   178
1070
     0
1070
   179
1070
     2
1070
   279
1070
     0
1002
}
  0
DIMENSION
  5
33
330
2
100
AcDbEntity
  8
text3
100
AcDbDimension
  2
*D2
 10
-35.76076851602067
 20
-1661.960197144295
 30
0.0
 11
-59.33076851602073
 21
-1658.460197144295
 31
0.0
 70
     1
  1
□<>±0.1
 71
     5
 42
47.1400000000001
  3
DMST_1
100
AcDbAlignedDimension
 13
-82.90076851602078
 23
-1647.20956382715
 33
0.0
 14
-35.76076851602067
 24
-1647.209563827149
 34
0.0
1001
ACAD
1000
DSTYLE
1002
{
1070
    41
1040
5.0
1070
    42
1040
2.0
1070
    43
1040
0.38
1070
    44
1040
5.0
1070
    47
1040
0.0
1070
    48
1040
0.0
1070
    71
1070
     0
1070
    78
1070
     8
1070
    79
1070
     2
1070
   140
1040
4.0
1070
   141
1040
1.0
1070
   146
1040
1.0
1070
   147
1040
1.5
1070
   176
1070
     0
1070
   177
1070
     0
1070
   178
1070
     0
1070
   179
1070
     2
1070
   279
1070
     0
1002
}
  0
DIMENSION
  5
40
330
2
100
AcDbEntity
  8
text3
100
AcDbDimension
  2
*D0
 10
-25.83076851602118
 20
-1521.950010837352
 30
0.0
 11
-59.33076851602118
 21
-1518.450010837352
 31
0.0
 70
     1
  1
<>±1
 71
     5
 42
67.0
  3
DMST_1
100
AcDbAlignedDimension
 13
-92.83076851602118
 23
-1540.20956382715
 33
0.0
 14
-25.83076851602118
 24
-1540.20956382715
 34
0.0
1001
ACAD
1000
DSTYLE
1002
{
1070
    41
1040
5.0
1070
    42
1040
2.0
1070
    43
1040
0.38
1070
    44
1040
5.0
1070
    47
1040
0.0
1070
    48
1040
0.0
1070
    71
1070
     0
1070
    78
1070
     8
1070
    79
1070
     2
1070
   140
1040
4.0
1070
   141
1040
1.0
1070
   146
1040
1.0
1070
   147
1040
1.5
1070
   176
1070
     0
1070
   177
1070
     0
1070
   178
1070
     0
1070
   179
1070
     2
1070
   279
1070
     0
1002
}
  0
ARC
  5
4D
330
2
100
AcDbEntity
  8
Object
100
AcDbCircle
 10
-57.33076851602072
 20
-1562.209563827156
 30
0.0
 40
7.099999999999999
100
AcDbArc
 50
295.1220601866221
 51
0.0
  0
ARC
  5
4F
330
2
100
AcDbEntity
  8
Object
100
AcDbCircle
 10
-57.33076851602072
 20
-1562.209563827156
 30
0.0
 40
7.0
100
AcDbArc
 50
270.0
 51
0.0
  0
LINE
  5
50
330
2
100
AcDbEntity
  8
Object
100
AcDbLine
 10
-82.23076851602082
 20
-1540.20956382715
 30
0.0
 11
-36.43076851602109
 21
-1540.209563827149
 31
0.0
  0
LINE
  5
51
330
2
100
AcDbEntity
  8
text3
100
AcDbLine
 10
-75.33076851602073
 20
-1569.209563827156
 30
0.0
 11
-43.33076851602072
 21
-1569.209563827156
 31
0.0
  0
LINE
  5
52
330
2
100
AcDbEntity
  8
Center
100
AcDbLine
 10
-65.58076851602084
 20
-1619.00956382715
 30
0.0
 11
-53.08076851602084
 21
-1619.00956382715
 31
0.0
  0
LINE
  5
54
330
2
100
AcDbEntity
  8
Object
100
AcDbLine
 10
-38.33076851602072
 20
-1589.682260207824
 30
0.0
 11
-80.33076851602073
 21
-1589.682260207824
 31
0.0
  0
LINE
  5
55
330
2
100
AcDbEntity
  8
1
 62
     2
100
AcDbLine
 10
-72.33076851602084
 20
-1591.50956382715
 30
0.0
 11
-46.33076851602072
 21
-1591.50956382715
 31
0.0
  0
LINE
  5
57
330
2
100
AcDbEntity
  8
1
 62
     7
100
AcDbLine
 10
-36.13076851602068
 20
-1590.80956382715
 30
0.0
 11
-82.53076851602077
 21
-1590.80956382715
 31
0.0
  0
LINE
  5
58
330
2
100
AcDbEntity
  8
1
 62
     2
100
AcDbLine
 10
-46.33076851602072
 20
-1646.50956382715
 30
0.0
 11
-72.33076851602084
 21
-1646.50956382715
 31
0.0
  0
LINE
  5
59
330
2
100
AcDbEntity
  8
1
 62
     7
100
AcDbLine
 10
-82.53076851602077
 20
-1647.20956382715
 30
0.0
 11
-36.13076851602068
 21
-1647.20956382715
 31
0.0
  0
LINE
  5
5A
330
2
100
AcDbEntity
  8
Object
100
AcDbLine
 10
-28.83076851602027
 20
-1647.209563827149
 30
0.0
 11
-89.8307685160212
 21
-1647.20956382715
 31
0.0
  0
CIRCLE
  5
5B
330
2
100
AcDbEntity
  8
1
 62
     2
100
AcDbCircle
 10
-59.33076851602084
 20
-1619.00956382715
 30
0.0
 40
18.85000000000003
  0
CIRCLE
  5
5C
330
2
100
AcDbEntity
  8
1
 62
     7
100
AcDbCircle
 10
-59.33076851602084
 20
-1619.00956382715
 30
0.0
 40
19.05000000000003
  0
LINE
  5
5D
330
2
100
AcDbEntity
  8
Center
100
AcDbLine
 10
-59.33076851602084
 20
-1625.25956382715
 30
0.0
 11
-59.33076851602084
 21
-1612.75956382715
 31
0.0
  0
LINE
  5
5E
330
2
100
AcDbEntity
  8
Object
100
AcDbLine
 10
-92.39332519839218
 20
-1624.957005809961
 30
0.0
 11
-92.39332519839218
 21
-1621.839609649592
 31
0.0
  0
LINE
  5
5F
330
2
100
AcDbEntity
  8
1
 62
     2
100
AcDbLine
 10
-86.83076851602073
 20
-1642.20956382715
 30
0.0
 11
-86.83076851602073
 21
-1595.80956382715
 31
0.0
  0
LINE
  5
60
330
2
100
AcDbEntity
  8
1
 62
     7
100
AcDbLine
 10
-87.53076851602077
 20
-1595.80956382715
 30
0.0
 11
-87.53076851602077
 21
-1642.20956382715
 31
0.0
  0
LINE
  5
61
330
2
100
AcDbEntity
  8
Object
100
AcDbLine
 10
-92.83076851602073
 20
-1628.343538423365
 30
0.0
 11
-92.83076851602073
 21
-1625.498238961744
 31
0.0
  0
LINE
  5
62
330
2
100
AcDbEntity
  8
Object
100
AcDbLine
 10
-92.39332519839218
 20
-1631.957005809961
 30
0.0
 11
-92.39332519839218
 21
-1628.839609649593
 31
0.0
  0
POINT
  5
63
330
2
100
AcDbEntity
  8
Object
100
AcDbPoint
 10
-92.83076851602073
 20
-1632.20956382715
 30
0.0
  0
POINT
  5
64
330
2
100
AcDbEntity
  8
Object
100
AcDbPoint
 10
-92.83076851602118
 20
-1629.209563827149
 30
0.0
  0
LINE
  5
65
330
2
100
AcDbEntity
  8
Object
100
AcDbLine
 10
-92.58076851602073
 20
-1632.065226259852
 30
0.0
 11
-92.39332519839171
 21
-1631.957005809961
 31
0.0
  0
ARC
  5
66
330
2
100
AcDbEntity
  8
Object
100
AcDbCircle
 10
-92.33076851602073
 20
-1628.343538423365
 30
0.0
 40
0.5
100
AcDbArc
 50
180.0
 51
262.8126975029318
  0
ARC
  5
67
330
2
100
AcDbEntity
  8
Object
100
AcDbCircle
 10
-92.33076851602073
 20
-1632.498238961744
 30
0.0
 40
0.5
100
AcDbArc
 50
119.9999999999951
 51
180.0
  0
POINT
  5
68
330
2
100
AcDbEntity
  8
Object
100
AcDbPoint
 10
-92.83076851602073
 20
-1625.209563827149
 30
0.0
  0
LINE
  5
69
330
2
100
AcDbEntity
  8
Object
100
AcDbLine
 10
-92.58076851602073
 20
-1625.065226259852
 30
0.0
 11
-92.39332519839218
 21
-1624.957005809961
 31
0.0
  0
ARC
  5
6A
330
2
100
AcDbEntity
  8
Object
100
AcDbCircle
 10
-92.33076851602073
 20
-1625.498238961744
 30
0.0
 40
0.5
100
AcDbArc
 50
119.9999999999951
 51
180.0
  0
LINE
  5
6B
330
2
100
AcDbEntity
  8
Object
100
AcDbLine
 10
-92.83076851602118
 20
-1628.343538423365
 30
0.0
 11
-92.83076851602118
 21
-1625.498238961744
 31
0.0
  0
LINE
  5
6C
330
2
100
AcDbEntity
  8
Object
100
AcDbLine
 10
-92.83076851602118
 20
-1644.20956382715
 30
0.0
 11
-92.83076851602118
 21
-1639.498238961744
 31
0.0
  0
ARC
  5
6D
330
2
100
AcDbEntity
  8
Object
100
AcDbCircle
 10
-89.8307685160212
 20
-1644.20956382715
 30
0.0
 40
3.0
100
AcDbArc
 50
180.0
 51
270.0
  0
ARC
  5
6E
330
2
100
AcDbEntity
  8
Object
100
AcDbCircle
 10
-92.33076851602073
 20
-1635.343538423365
 30
0.0
 40
0.5
100
AcDbArc
 50
180.0
 51
262.8126975029318
  0
LINE
  5
6F
330
2
100
AcDbEntity
  8
Object
100
AcDbLine
 10
-92.39332519839171
 20
-1638.957005809961
 30
0.0
 11
-92.39332519839218
 21
-1635.839609649592
 31
0.0
  0
POINT
  5
70
330
2
100
AcDbEntity
  8
Object
100
AcDbPoint
 10
-92.83076851602073
 20
-1639.209563827149
 30
0.0
  0
LINE
  5
71
330
2
100
AcDbEntity
  8
Object
100
AcDbLine
 10
-92.58076851602073
 20
-1639.065226259852
 30
0.0
 11
-92.39332519839171
 21
-1638.957005809961
 31
0.0
  0
ARC
  5
72
330
2
100
AcDbEntity
  8
Object
100
AcDbCircle
 10
-92.33076851602073
 20
-1639.498238961744
 30
0.0
 40
0.5
100
AcDbArc
 50
119.9999999999951
 51
180.0
  0
POINT
  5
73
330
2
100
AcDbEntity
  8
Object
100
AcDbPoint
 10
-92.83076851602118
 20
-1636.209563827149
 30
0.0
  0
LINE
  5
74
330
2
100
AcDbEntity
  8
Object
100
AcDbLine
 10
-92.83076851602073
 20
-1635.343538423365
 30
0.0
 11
-92.83076851602073
 21
-1632.498238961744
 31
0.0
  0
LINE
  5
75
330
2
100
AcDbEntity
  8
Object
100
AcDbLine
 10
-92.83076851602118
 20
-1635.343538423365
 30
0.0
 11
-92.83076851602118
 21
-1632.498238961744
 31
0.0
  0
LINE
  5
76
330
2
100
AcDbEntity
  8
1
 62
     2
100
AcDbLine
 10
-72.33076851602084
 20
-1646.50956382715
 30
0.0
 11
-73.03076851602077
 21
-1647.20956382715
 31
0.0
  0
LINE
  5
77
330
2
100
AcDbEntity
  8
1
 62
     2
100
AcDbLine
 10
-72.33076851602084
 20
-1646.50956382715
 30
0.0
 11
-72.33076851602084
 21
-1644.00956382715
 31
0.0
  0
LINE
  5
78
330
2
100
AcDbEntity
  8
1
 62
     7
100
AcDbLine
 10
-73.03076851602077
 20
-1647.20956382715
 30
0.0
 11
-73.03076851602077
 21
-1644.10956382715
 31
0.0
  0
LINE
  5
79
330
2
100
AcDbEntity
  8
1
 62
     2
100
AcDbLine
 10
-74.57794466517589
 20
-1643.736330845735
 30
0.0
 11
-75.34055916581724
 21
-1643.723019360112
 31
0.0
  0
LINE
  5
7A
330
2
100
AcDbEntity
  8
1
 62
     2
100
AcDbLine
 10
-75.34055916581724
 20
-1644.496108294188
 30
0.0
 11
-74.57794466517589
 21
-1644.482796808564
 31
0.0
  0
ARC
  5
7B
330
2
100
AcDbEntity
  8
1
 62
     2
100
AcDbCircle
 10
-76.03076851602077
 20
-1644.10956382715
 30
0.0
 40
1.499999999999738
100
AcDbArc
 50
345.5921855646394
 51
14.40781443536065
  0
LINE
  5
7C
330
2
100
AcDbEntity
  8
1
 62
     2
100
AcDbLine
 10
-79.73076851602082
 20
-1646.50956382715
 30
0.0
 11
-79.03076851602077
 21
-1647.20956382715
 31
0.0
  0
LINE
  5
7D
330
2
100
AcDbEntity
  8
1
 62
     2
100
AcDbLine
 10
-79.73076851602082
 20
-1646.50956382715
 30
0.0
 11
-79.73076851602082
 21
-1644.10956382715
 31
0.0
  0
LINE
  5
7E
330
2
100
AcDbEntity
  8
1
 62
     7
100
AcDbLine
 10
-79.03076851602077
 20
-1647.20956382715
 30
0.0
 11
-79.03076851602077
 21
-1644.10956382715
 31
0.0
  0
LINE
  5
7F
330
2
100
AcDbEntity
  8
1
 62
     2
100
AcDbLine
 10
-82.53076851602077
 20
-1646.50956382715
 30
0.0
 11
-79.73076851602082
 21
-1646.50956382715
 31
0.0
  0
LINE
  5
80
330
2
100
AcDbEntity
  8
1
 62
     2
100
AcDbLine
 10
-76.40400149743505
 20
-1642.656739976305
 30
0.0
 11
-76.41731298305899
 21
-1643.419354476946
 31
0.0
  0
LINE
  5
81
330
2
100
AcDbEntity
  8
1
 62
     2
100
AcDbLine
 10
-75.64422404898244
 20
-1643.419354476946
 30
0.0
 11
-75.6575355346065
 21
-1642.656739976305
 31
0.0
  0
LINE
  5
82
330
2
100
AcDbEntity
  8
1
 62
     2
100
AcDbLine
 10
-76.51086241096652
 20
-1643.629469932204
 30
0.0
 11
-76.72097786622408
 21
-1643.723019360112
 31
0.0
  0
LINE
  5
83
330
2
100
AcDbEntity
  8
1
 62
     2
100
AcDbLine
 10
-76.72097786622408
 20
-1643.723019360112
 30
0.0
 11
-77.48359236686565
 21
-1643.736330845735
 31
0.0
  0
LINE
  5
84
330
2
100
AcDbEntity
  8
1
 62
     2
100
AcDbLine
 10
-76.41731298305899
 20
-1643.419354476946
 30
0.0
 11
-76.51086241096652
 21
-1643.629469932204
 31
0.0
  0
LINE
  5
85
330
2
100
AcDbEntity
  8
1
 62
     2
100
AcDbLine
 10
-75.55067462107513
 20
-1643.629469932204
 30
0.0
 11
-75.64422404898244
 21
-1643.419354476946
 31
0.0
  0
LINE
  5
86
330
2
100
AcDbEntity
  8
1
 62
     2
100
AcDbLine
 10
-75.64422404898244
 20
-1644.799773177353
 30
0.0
 11
-75.55067462107513
 21
-1644.589657722095
 31
0.0
  0
LINE
  5
87
330
2
100
AcDbEntity
  8
1
 62
     2
100
AcDbLine
 10
-75.6575355346065
 20
-1645.562387677995
 30
0.0
 11
-75.64422404898244
 21
-1644.799773177353
 31
0.0
  0
LINE
  5
88
330
2
100
AcDbEntity
  8
1
 62
     2
100
AcDbLine
 10
-76.5108624109663
 20
-1644.589657722095
 30
0.0
 11
-76.41731298305899
 21
-1644.799773177353
 31
0.0
  0
LINE
  5
89
330
2
100
AcDbEntity
  8
1
 62
     2
100
AcDbLine
 10
-76.41731298305899
 20
-1644.799773177353
 30
0.0
 11
-76.40400149743505
 21
-1645.562387677995
 31
0.0
  0
LINE
  5
8A
330
2
100
AcDbEntity
  8
1
 62
     2
100
AcDbLine
 10
-76.72097786622408
 20
-1644.496108294188
 30
0.0
 11
-76.5108624109663
 21
-1644.589657722095
 31
0.0
  0
LINE
  5
8B
330
2
100
AcDbEntity
  8
1
 62
     2
100
AcDbLine
 10
-77.48359236686565
 20
-1644.482796808564
 30
0.0
 11
-76.72097786622408
 21
-1644.496108294188
 31
0.0
  0
ARC
  5
8C
330
2
100
AcDbEntity
  8
1
 62
     2
100
AcDbCircle
 10
-76.03076851602077
 20
-1644.10956382715
 30
0.0
 40
1.49999999999971
100
AcDbArc
 50
255.5921855646433
 51
284.407814435363
  0
ARC
  5
8D
330
2
100
AcDbEntity
  8
1
 62
     2
100
AcDbCircle
 10
-76.03076851602077
 20
-1644.10956382715
 30
0.0
 40
1.499999999999718
100
AcDbArc
 50
165.5921855646394
 51
194.4078144353606
  0
ARC
  5
8E
330
2
100
AcDbEntity
  8
1
 62
     2
100
AcDbCircle
 10
-76.03076851602077
 20
-1644.10956382715
 30
0.0
 40
1.499999999999745
100
AcDbArc
 50
75.59218556463703
 51
104.4078144353565
  0
LINE
  5
8F
330
2
100
AcDbEntity
  8
Center
100
AcDbLine
 10
-83.90076851602078
 20
-1642.57956382715
 30
0.0
 11
-81.90076851602078
 21
-1642.57956382715
 31
0.0
  0
LINE
  5
90
330
2
100
AcDbEntity
  8
Center
100
AcDbLine
 10
-82.90076851602078
 20
-1643.57956382715
 30
0.0
 11
-82.90076851602078
 21
-1641.57956382715
 31
0.0
  0
ARC
  5
91
330
2
100
AcDbEntity
  8
1
 62
     2
100
AcDbCircle
 10
-76.03076851602077
 20
-1644.05956382715
 30
0.0
 40
3.700337822415669
100
AcDbArc
 50
0.7742201649296822
 51
180.7742201649264
  0
ARC
  5
92
330
2
100
AcDbEntity
  8
1
 62
     7
100
AcDbCircle
 10
-76.03076851602077
 20
-1644.10956382715
 30
0.0
 40
3.0
100
AcDbArc
 50
0.0
 51
180.0
  0
CIRCLE
  5
93
330
2
100
AcDbEntity
  8
1
 62
     7
100
AcDbCircle
 10
-76.03076851602077
 20
-1644.10956382715
 30
0.0
 40
2.800000000000011
  0
LINE
  5
94
330
2
100
AcDbEntity
  8
1
 62
     2
100
AcDbLine
 10
-75.34055916581724
 20
-1643.723019360112
 30
0.0
 11
-75.55067462107513
 21
-1643.629469932204
 31
0.0
  0
LINE
  5
95
330
2
100
AcDbEntity
  8
1
 62
     2
100
AcDbLine
 10
-75.55067462107513
 20
-1644.589657722095
 30
0.0
 11
-75.34055916581724
 21
-1644.496108294188
 31
0.0
  0
CIRCLE
  5
96
330
2
100
AcDbEntity
  8
1
 62
     7
100
AcDbCircle
 10
-82.90076851602078
 20
-1642.57956382715
 30
0.0
 40
2.25
  0
CIRCLE
  5
97
330
2
100
AcDbEntity
  8
1
 62
     2
100
AcDbCircle
 10
-82.90076851602078
 20
-1642.57956382715
 30
0.0
 40
2.75
  0
ARC
  5
98
330
2
100
AcDbEntity
  8
1
 62
     7
100
AcDbCircle
 10
-82.53076851602077
 20
-1642.20956382715
 30
0.0
 40
5.0
100
AcDbArc
 50
180.0
 51
270.0
  0
ARC
  5
99
330
2
100
AcDbEntity
  8
1
 62
     2
100
AcDbCircle
 10
-82.53076851602077
 20
-1642.20956382715
 30
0.0
 40
4.299999999999982
100
AcDbArc
 50
180.0
 51
270.0
  0
ARC
  5
9A
330
2
100
AcDbEntity
  8
Object
100
AcDbCircle
 10
-85.83076851602118
 20
-1547.209563827149
 30
0.0
 40
7.0
100
AcDbArc
 50
90.0
 51
180.0
  0
ARC
  5
9B
330
2
100
AcDbEntity
  8
Object
100
AcDbCircle
 10
-85.04549878404919
 20
-1547.755242986898
 30
0.0
 40
5.0
100
AcDbArc
 50
89.99999999999991
 51
180.0
  0
LINE
  5
9C
330
2
100
AcDbEntity
  8
Object
100
AcDbLine
 10
-92.781879438734
 20
-1572.20956382715
 30
0.0
 11
-84.06833059549852
 21
-1572.20956382715
 31
0.0
  0
LINE
  5
9D
330
2
100
AcDbEntity
  8
Object
100
AcDbLine
 10
-92.781879438734
 20
-1555.209563827149
 30
0.0
 11
-84.06833059549852
 21
-1555.209563827149
 31
0.0
  0
ARC
  5
9E
330
2
100
AcDbEntity
  8
Object
100
AcDbCircle
 10
-85.04549878404873
 20
-1584.538920978018
 30
0.0
 40
5.0
100
AcDbArc
 50
180.0
 51
270.0
  0
ARC
  5
9F
330
2
100
AcDbEntity
  8
Object
100
AcDbCircle
 10
-86.66075866315816
 20
-1585.20956382715
 30
0.0
 40
5.0
100
AcDbArc
 50
179.9999999999974
 51
270.0
  0
LINE
  5
A0
330
2
100
AcDbEntity
  8
Object
100
AcDbLine
 10
-92.781879438734
 20
-1555.209563827149
 30
0.0
 11
-92.781879438734
 21
-1572.20956382715
 31
0.0
  0
LINE
  5
A1
330
2
100
AcDbEntity
  8
Object
100
AcDbLine
 10
-91.71208968899192
 20
-1556.209563827149
 30
0.0
 11
-91.71208968899192
 21
-1571.209563827149
 31
0.0
  0
LINE
  5
A2
330
2
100
AcDbEntity
  8
Object
100
AcDbLine
 10
-92.83076851602118
 20
-1621.343538423365
 30
0.0
 11
-92.83076851602118
 21
-1547.209563827149
 31
0.0
  0
LINE
  5
A3
330
2
100
AcDbEntity
  8
Object
100
AcDbLine
 10
-91.66075866315622
 20
-1572.20956382715
 30
0.0
 11
-91.66075866315622
 21
-1585.20956382715
 31
0.0
  0
LINE
  5
A4
330
2
100
AcDbEntity
  8
Object
100
AcDbLine
 10
-90.04549878404919
 20
-1572.209563827149
 30
0.0
 11
-90.04549878404919
 21
-1584.538920978018
 31
0.0
  0
POINT
  5
A5
330
2
100
AcDbEntity
  8
Object
100
AcDbPoint
 10
-92.83076851602118
 20
-1622.209563827149
 30
0.0
  0
ARC
  5
A6
330
2
100
AcDbEntity
  8
Object
100
AcDbCircle
 10
-92.33076851602073
 20
-1621.343538423365
 30
0.0
 40
0.5
100
AcDbArc
 50
180.0
 51
262.8126975029318
  0
LINE
  5
A7
330
2
100
AcDbEntity
  8
Object
100
AcDbLine
 10
-90.04549878404919
 20
-1547.755242986898
 30
0.0
 11
-90.04549878404919
 21
-1555.209563827149
 31
0.0
  0
LINE
  5
A8
330
2
100
AcDbEntity
  8
Object
100
AcDbLine
 10
-84.06833059549852
 20
-1555.209563827149
 30
0.0
 11
-84.06833059549852
 21
-1572.20956382715
 31
0.0
  0
ARC
  5
A9
330
2
100
AcDbEntity
  8
Object
100
AcDbCircle
 10
-75.33076851602073
 20
-1562.209563827156
 30
0.0
 40
7.0
100
AcDbArc
 50
180.0
 51
270.0
  0
LINE
  5
AA
330
2
100
AcDbEntity
  8
Object
100
AcDbLine
 10
-89.04930408595737
 20
-1556.209563827149
 30
0.0
 11
-89.04930408595692
 21
-1571.209563827149
 31
0.0
  0
ARC
  5
AB
330
2
100
AcDbEntity
  8
Object
100
AcDbCircle
 10
-61.33076851602073
 20
-1562.209563827156
 30
0.0
 40
7.0
100
AcDbArc
 50
180.0
 51
270.0
  0
LINE
  5
AC
330
2
100
AcDbEntity
  8
1
 62
     2
100
AcDbLine
 10
-72.33076851602084
 20
-1593.90956382715
 30
0.0
 11
-72.33076851602084
 21
-1591.50956382715
 31
0.0
  0
LINE
  5
AD
330
2
100
AcDbEntity
  8
1
 62
     7
100
AcDbLine
 10
-73.03076851602077
 20
-1593.90956382715
 30
0.0
 11
-73.03076851602077
 21
-1590.80956382715
 31
0.0
  0
LINE
  5
AE
330
2
100
AcDbEntity
  8
1
 62
     2
100
AcDbLine
 10
-75.34055916581735
 20
-1594.296108294188
 30
0.0
 11
-74.57794466517589
 21
-1594.282796808564
 31
0.0
  0
LINE
  5
AF
330
2
100
AcDbEntity
  8
1
 62
     2
100
AcDbLine
 10
-74.57794466517589
 20
-1593.536330845735
 30
0.0
 11
-75.34055916581735
 21
-1593.523019360111
 31
0.0
  0
ARC
  5
B0
330
2
100
AcDbEntity
  8
1
 62
     2
100
AcDbCircle
 10
-76.03076851602077
 20
-1593.90956382715
 30
0.0
 40
1.499999999999774
100
AcDbArc
 50
345.5921855646362
 51
14.40781443536065
  0
LINE
  5
B1
330
2
100
AcDbEntity
  8
1
 62
     2
100
AcDbLine
 10
-73.03076851602077
 20
-1590.80956382715
 30
0.0
 11
-72.33076851602084
 21
-1591.50956382715
 31
0.0
  0
LINE
  5
B2
330
2
100
AcDbEntity
  8
Object
100
AcDbLine
 10
-80.33076851602027
 20
-1590.20956382715
 30
0.0
 11
-80.33076851602073
 21
-1589.682260207824
 31
0.0
  0
LINE
  5
B3
330
2
100
AcDbEntity
  8
1
 62
     2
100
AcDbLine
 10
-79.73076851602082
 20
-1593.90956382715
 30
0.0
 11
-79.73076851602082
 21
-1591.50956382715
 31
0.0
  0
LINE
  5
B4
330
2
100
AcDbEntity
  8
1
 62
     7
100
AcDbLine
 10
-79.03076851602077
 20
-1593.90956382715
 30
0.0
 11
-79.03076851602077
 21
-1590.80956382715
 31
0.0
  0
LINE
  5
B5
330
2
100
AcDbEntity
  8
1
 62
     2
100
AcDbLine
 10
-79.03076851602077
 20
-1590.80956382715
 30
0.0
 11
-79.73076851602082
 21
-1591.50956382715
 31
0.0
  0
LINE
  5
B6
330
2
100
AcDbEntity
  8
1
 62
     2
100
AcDbLine
 10
-79.73076851602082
 20
-1591.50956382715
 30
0.0
 11
-82.53076851602077
 21
-1591.50956382715
 31
0.0
  0
LINE
  5
B7
330
2
100
AcDbEntity
  8
1
 62
     2
100
AcDbLine
 10
-75.55067462107513
 20
-1593.429469932204
 30
0.0
 11
-75.64422404898255
 21
-1593.219354476946
 31
0.0
  0
LINE
  5
B8
330
2
100
AcDbEntity
  8
1
 62
     2
100
AcDbLine
 10
-76.41731298305899
 20
-1593.219354476946
 30
0.0
 11
-76.51086241096641
 21
-1593.429469932204
 31
0.0
  0
LINE
  5
B9
330
2
100
AcDbEntity
  8
1
 62
     2
100
AcDbLine
 10
-76.72097786622419
 20
-1594.296108294188
 30
0.0
 11
-76.51086241096652
 21
-1594.389657722095
 31
0.0
  0
LINE
  5
BA
330
2
100
AcDbEntity
  8
1
 62
     2
100
AcDbLine
 10
-77.48359236686565
 20
-1594.282796808564
 30
0.0
 11
-76.72097786622419
 21
-1594.296108294188
 31
0.0
  0
LINE
  5
BB
330
2
100
AcDbEntity
  8
1
 62
     2
100
AcDbLine
 10
-76.51086241096652
 20
-1594.389657722095
 30
0.0
 11
-76.41731298305899
 21
-1594.599773177353
 31
0.0
  0
LINE
  5
BC
330
2
100
AcDbEntity
  8
1
 62
     2
100
AcDbLine
 10
-76.41731298305899
 20
-1594.599773177353
 30
0.0
 11
-76.40400149743505
 21
-1595.362387677995
 31
0.0
  0
LINE
  5
BD
330
2
100
AcDbEntity
  8
1
 62
     2
100
AcDbLine
 10
-75.64422404898255
 20
-1594.599773177353
 30
0.0
 11
-75.55067462107513
 21
-1594.389657722095
 31
0.0
  0
LINE
  5
BE
330
2
100
AcDbEntity
  8
1
 62
     2
100
AcDbLine
 10
-75.6575355346065
 20
-1595.362387677995
 30
0.0
 11
-75.64422404898255
 21
-1594.599773177353
 31
0.0
  0
LINE
  5
BF
330
2
100
AcDbEntity
  8
1
 62
     2
100
AcDbLine
 10
-76.51086241096641
 20
-1593.429469932204
 30
0.0
 11
-76.72097786622419
 21
-1593.523019360111
 31
0.0
  0
LINE
  5
C0
330
2
100
AcDbEntity
  8
1
 62
     2
100
AcDbLine
 10
-76.72097786622419
 20
-1593.523019360111
 30
0.0
 11
-77.48359236686565
 21
-1593.536330845735
 31
0.0
  0
ARC
  5
C1
330
2
100
AcDbEntity
  8
1
 62
     2
100
AcDbCircle
 10
-76.03076851602077
 20
-1593.90956382715
 30
0.0
 40
1.499999999999821
100
AcDbArc
 50
255.5921855646433
 51
284.4078144353566
  0
ARC
  5
C2
330
2
100
AcDbEntity
  8
1
 62
     2
100
AcDbCircle
 10
-76.03076851602077
 20
-1593.90956382715
 30
0.0
 40
1.499999999999718
100
AcDbArc
 50
165.5921855646394
 51
194.4078144353637
  0
LINE
  5
C3
330
2
100
AcDbEntity
  8
1
 62
     2
100
AcDbLine
 10
-75.64422404898255
 20
-1593.219354476946
 30
0.0
 11
-75.6575355346065
 21
-1592.456739976305
 31
0.0
  0
LINE
  5
C4
330
2
100
AcDbEntity
  8
1
 62
     2
100
AcDbLine
 10
-76.40400149743505
 20
-1592.456739976305
 30
0.0
 11
-76.41731298305899
 21
-1593.219354476946
 31
0.0
  0
ARC
  5
C5
330
2
100
AcDbEntity
  8
1
 62
     2
100
AcDbCircle
 10
-76.03076851602077
 20
-1593.90956382715
 30
0.0
 40
1.499999999999718
100
AcDbArc
 50
75.59218556463703
 51
104.4078144353565
  0
LINE
  5
C6
330
2
100
AcDbEntity
  8
Center
100
AcDbLine
 10
-83.90076851602078
 20
-1595.43956382715
 30
0.0
 11
-81.90076851602078
 21
-1595.43956382715
 31
0.0
  0
LINE
  5
C7
330
2
100
AcDbEntity
  8
Center
100
AcDbLine
 10
-82.90076851602078
 20
-1596.43956382715
 30
0.0
 11
-82.90076851602078
 21
-1594.43956382715
 31
0.0
  0
ARC
  5
C8
330
2
100
AcDbEntity
  8
1
 62
     2
100
AcDbCircle
 10
-76.03076851602077
 20
-1593.90956382715
 30
0.0
 40
3.699999999999988
100
AcDbArc
 50
180.0
 51
0.0
  0
ARC
  5
C9
330
2
100
AcDbEntity
  8
1
 62
     7
100
AcDbCircle
 10
-76.03076851602077
 20
-1593.90956382715
 30
0.0
 40
3.0
100
AcDbArc
 50
180.0
 51
0.0
  0
CIRCLE
  5
CA
330
2
100
AcDbEntity
  8
1
 62
     7
100
AcDbCircle
 10
-76.03076851602077
 20
-1593.90956382715
 30
0.0
 40
2.800000000000011
  0
LINE
  5
CB
330
2
100
AcDbEntity
  8
1
 62
     2
100
AcDbLine
 10
-75.55067462107513
 20
-1594.389657722095
 30
0.0
 11
-75.34055916581735
 21
-1594.296108294188
 31
0.0
  0
LINE
  5
CC
330
2
100
AcDbEntity
  8
1
 62
     2
100
AcDbLine
 10
-75.34055916581735
 20
-1593.523019360111
 30
0.0
 11
-75.55067462107513
 21
-1593.429469932204
 31
0.0
  0
ARC
  5
CD
330
2
100
AcDbEntity
  8
1
 62
     7
100
AcDbCircle
 10
-82.53076851602077
 20
-1595.80956382715
 30
0.0
 40
5.000000000000198
100
AcDbArc
 50
90.0
 51
180.0
  0
ARC
  5
CE
330
2
100
AcDbEntity
  8
1
 62
     2
100
AcDbCircle
 10
-82.53076851602077
 20
-1595.80956382715
 30
0.0
 40
4.300000000000125
100
AcDbArc
 50
90.0
 51
180.0
  0
LINE
  5
CF
330
2
100
AcDbEntity
  8
HIDDEN-1
  6
ByBlock
100
AcDbLine
 10
-80.33076851602027
 20
-1590.20956382715
 30
0.0
 11
-86.66075866315816
 21
-1590.20956382715
 31
0.0
  0
CIRCLE
  5
D2
330
2
100
AcDbEntity
  8
1
 62
     7
100
AcDbCircle
 10
-82.90076851602078
 20
-1595.43956382715
 30
0.0
 40
2.25
  0
LINE
  5
D3
330
2
100
AcDbEntity
  8
Object
100
AcDbLine
 10
-82.33076851602073
 20
-1589.538920978018
 30
0.0
 11
-85.04549878404873
 21
-1589.538920978018
 31
0.0
  0
CIRCLE
  5
D4
330
2
100
AcDbEntity
  8
1
 62
     2
100
AcDbCircle
 10
-82.90076851602078
 20
-1595.43956382715
 30
0.0
 40
2.75
  0
CIRCLE
  5
D7
330
2
100
AcDbEntity
  8
1
 62
     3
100
AcDbCircle
 10
-59.33076851602084
 20
-1619.00956382715
 30
0.0
 40
5.25
  0
CIRCLE
  5
D9
330
2
100
AcDbEntity
  8
1
 62
     7
100
AcDbCircle
 10
-59.33076851602084
 20
-1619.00956382715
 30
0.0
 40
4.75
  0
LINE
  5
DC
330
2
100
AcDbEntity
  8
Object
100
AcDbLine
 10
-74.62366175133502
 20
-1565.502457047569
 30
0.0
 11
-71.6236617364334
 21
-1562.502457046243
 31
0.0
  0
LINE
  5
DD
330
2
100
AcDbEntity
  8
Object
100
AcDbLine
 10
-72.50234139127588
 20
-1559.109563827155
 30
0.0
 11
-68.53076851602054
 21
-1559.109563827156
 31
0.0
  0
ARC
  5
DE
330
2
100
AcDbEntity
  8
Object
100
AcDbCircle
 10
-75.33076851602164
 20
-1562.109563827156
 30
0.0
 40
6.0
100
AcDbArc
 50
32.57897039281318
 51
147.4210296071867
  0
ARC
  5
DF
330
2
100
AcDbEntity
  8
Object
100
AcDbCircle
 10
-75.33076851602073
 20
-1562.209563827156
 30
0.0
 40
4.0
100
AcDbArc
 50
180.0
 51
0.0
  0
ARC
  5
E0
330
2
100
AcDbEntity
  8
Object
100
AcDbCircle
 10
-75.33076851602073
 20
-1562.209563827156
 30
0.0
 40
6.0
100
AcDbArc
 50
150.0000000000006
 51
29.99999999999932
  0
ARC
  5
E1
330
2
100
AcDbEntity
  8
Object
100
AcDbCircle
 10
-73.13076851602
 20
-1540.409563827149
 30
0.0
 40
0.2
100
AcDbArc
 50
90.0
 51
180.0
  0
LINE
  5
E2
330
2
100
AcDbEntity
  8
Object
100
AcDbLine
 10
-73.33076851601936
 20
-1540.409563827149
 30
0.0
 11
-73.3307685160189
 21
-1541.084450462407
 31
0.0
  0
ARC
  5
E3
330
2
100
AcDbEntity
  8
Object
100
AcDbCircle
 10
-76.53076851601872
 20
-1540.409563827149
 30
0.0
 40
0.2
100
AcDbArc
 50
0.0
 51
90.0
  0
LINE
  5
E4
330
2
100
AcDbEntity
  8
Object
100
AcDbLine
 10
-76.33076851601845
 20
-1540.409563827149
 30
0.0
 11
-76.33076851601845
 21
-1541.084450462407
 31
0.0
  0
ARC
  5
E5
330
2
100
AcDbEntity
  8
Object
100
AcDbCircle
 10
-78.53076851602145
 20
-1540.409563827149
 30
0.0
 40
0.2
100
AcDbArc
 50
90.0
 51
180.0
  0
ARC
  5
E6
330
2
100
AcDbEntity
  8
Object
100
AcDbCircle
 10
-78.93076851602109
 20
-1540.509563827149
 30
0.0
 40
0.2
100
AcDbArc
 50
270.0
 51
0.0
  0
ARC
  5
E7
330
2
100
AcDbEntity
  8
Object
100
AcDbCircle
 10
-81.23076851602126
 20
-1541.70956382715
 30
0.0
 40
1.0
100
AcDbArc
 50
90.0
 51
180.0
  0
LINE
  5
E8
330
2
100
AcDbEntity
  8
Object
100
AcDbLine
 10
-78.93076851602109
 20
-1540.709563827149
 30
0.0
 11
-81.23076851602082
 21
-1540.709563827149
 31
0.0
  0
ARC
  5
E9
330
2
100
AcDbEntity
  8
Object
100
AcDbCircle
 10
-74.8307685160189
 20
-1532.57752773298
 30
0.0
 40
8.63815572471549
100
AcDbArc
 50
259.999999999993
 51
280.0000000000068
  0
LINE
  5
EA
330
2
100
AcDbEntity
  8
Center
100
AcDbLine
 10
-75.33076851602164
 20
-1563.109563827156
 30
0.0
 11
-75.33076851602164
 21
-1561.109563827156
 31
0.0
  0
LINE
  5
EB
330
2
100
AcDbEntity
  8
Center
  6
Continuous
100
AcDbLine
 10
-75.33076851602073
 20
-1563.209563827156
 30
0.0
 11
-75.33076851602073
 21
-1561.209563827156
 31
0.0
  0
ARC
  5
EC
330
2
100
AcDbEntity
  8
Object
100
AcDbCircle
 10
-72.50234139127588
 20
-1558.609563827156
 30
0.0
 40
0.5
100
AcDbArc
 50
231.0575587310224
 51
270.0
  0
ARC
  5
ED
330
2
100
AcDbEntity
  8
Object
100
AcDbCircle
 10
-80.23076851602082
 20
-1548.209563827151
 30
0.0
 40
1.5
100
AcDbArc
 50
270.0
 51
0.0
  0
ARC
  5
EE
330
2
100
AcDbEntity
  8
Object
100
AcDbCircle
 10
-80.23076851602082
 20
-1548.209563827151
 30
0.0
 40
1.7
100
AcDbArc
 50
270.0
 51
0.0
  0
LINE
  5
EF
330
2
100
AcDbEntity
  8
Object
100
AcDbLine
 10
-82.33076851602073
 20
-1548.00956382715
 30
0.0
 11
-82.33076851602073
 21
-1562.209563827156
 31
0.0
  0
ARC
  5
F0
330
2
100
AcDbEntity
  8
Object
100
AcDbCircle
 10
-78.1591956407683
 20
-1558.609563827156
 30
0.0
 40
0.5
100
AcDbArc
 50
270.0
 51
308.9424412689776
  0
ARC
  5
F1
330
2
100
AcDbEntity
  8
Object
100
AcDbCircle
 10
-80.80799409107385
 20
-1558.609563827156
 30
0.0
 40
0.5
100
AcDbArc
 50
270.0
 51
327.421029607203
  0
ARC
  5
F2
330
2
100
AcDbEntity
  8
Object
100
AcDbCircle
 10
-82.03076851602145
 20
-1558.909563827156
 30
0.0
 40
0.2
100
AcDbArc
 50
180.0
 51
270.0
  0
LINE
  5
F3
330
2
100
AcDbEntity
  8
Object
100
AcDbLine
 10
-82.030768516021
 20
-1559.109563827155
 30
0.0
 11
-78.15919564076785
 21
-1559.109563827155
 31
0.0
  0
LINE
  5
F4
330
2
100
AcDbEntity
  8
Object
100
AcDbLine
 10
-82.23076851602082
 20
-1549.709563827151
 30
0.0
 11
-80.23076851602036
 21
-1549.709563827151
 31
0.0
  0
LINE
  5
F5
330
2
100
AcDbEntity
  8
Object
100
AcDbLine
 10
-82.23076851602082
 20
-1549.909563827151
 30
0.0
 11
-80.23076851602036
 21
-1549.909563827151
 31
0.0
  0
LINE
  5
F6
330
2
100
AcDbEntity
  8
Object
100
AcDbLine
 10
-80.33076851601982
 20
-1559.209563827156
 30
0.0
 11
-81.83076851601982
 21
-1559.209563827156
 31
0.0
  0
ARC
  5
F7
330
2
100
AcDbEntity
  8
Object
100
AcDbCircle
 10
-80.33076851601982
 20
-1560.209563827156
 30
0.0
 40
1.0
100
AcDbArc
 50
0.0
 51
90.0
  0
ARC
  5
F8
330
2
100
AcDbEntity
  8
Object
100
AcDbCircle
 10
-81.83076851601982
 20
-1558.709563827156
 30
0.0
 40
0.5
100
AcDbArc
 50
180.0
 51
270.0
  0
LINE
  5
F9
330
2
100
AcDbEntity
  8
Object
100
AcDbLine
 10
-79.33076851601982
 20
-1562.209563827156
 30
0.0
 11
-79.33076851601982
 21
-1560.209563827156
 31
0.0
  0
LINE
  5
FA
330
2
100
AcDbEntity
  8
Object
100
AcDbLine
 10
-79.03787529880628
 20
-1562.502457045696
 30
0.0
 11
-76.03787531370835
 21
-1565.502457044369
 31
0.0
  0
ARC
  5
FB
330
2
100
AcDbEntity
  8
Object
  6
Continuous
100
AcDbCircle
 10
-78.33076851601982
 20
-1561.795350266109
 30
0.0
 40
1.0
100
AcDbArc
 50
180.0
 51
224.9999998703613
  0
ARC
  5
FC
330
2
100
AcDbEntity
  8
Object
100
AcDbCircle
 10
-75.33076851602164
 20
-1562.109563827156
 30
0.0
 40
4.0
100
AcDbArc
 50
51.05755873102246
 51
128.9424412689775
  0
ARC
  5
FD
330
2
100
AcDbEntity
  8
Object
100
AcDbCircle
 10
-75.33076853092189
 20
-1564.795350264783
 30
0.0
 40
1.0
100
AcDbArc
 50
224.9999999999908
 51
315.0000000000092
  0
LINE
  5
FE
330
2
100
AcDbEntity
  8
Center
  6
Continuous
100
AcDbLine
 10
-76.33076851602073
 20
-1562.209563827156
 30
0.0
 11
-74.33076851602073
 21
-1562.209563827156
 31
0.0
  0
LINE
  5
FF
330
2
100
AcDbEntity
  8
Object
100
AcDbLine
 10
-82.23076851602082
 20
-1540.209563827149
 30
0.0
 11
-82.23076851602082
 21
-1558.909563827156
 31
0.0
  0
LINE
  5
100
330
2
100
AcDbEntity
  8
Object
100
AcDbLine
 10
-78.530768516021
 20
-1540.409563827149
 30
0.0
 11
-78.530768516021
 21
-1548.209563827151
 31
0.0
  0
LINE
  5
101
330
2
100
AcDbEntity
  8
Object
100
AcDbLine
 10
-78.73076851602082
 20
-1540.409563827149
 30
0.0
 11
-78.73076851602082
 21
-1548.209563827151
 31
0.0
  0
LINE
  5
102
330
2
100
AcDbEntity
  8
Object
100
AcDbLine
 10
-82.33076851602164
 20
-1548.00956382715
 30
0.0
 11
-82.33076851602073
 21
-1540.209563827149
 31
0.0
  0
LINE
  5
103
330
2
100
AcDbEntity
  8
Object
100
AcDbLine
 10
-82.3307685160212
 20
-1542.755242986898
 30
0.0
 11
-85.04549878404919
 21
-1542.755242986898
 31
0.0
  0
LINE
  5
104
330
2
100
AcDbEntity
  8
Object
100
AcDbLine
 10
-82.23076851602082
 20
-1540.20956382715
 30
0.0
 11
-85.83076851602118
 21
-1540.20956382715
 31
0.0
  0
POINT
  5
105
330
2
100
AcDbEntity
  8
Text
100
AcDbPoint
 10
-59.33076851602073
 20
-1540.209563827149
 30
0.0
  0
ARC
  5
107
330
2
100
AcDbEntity
  8
Object
100
AcDbCircle
 10
-54.18911290153983
 20
-1568.909563827156
 30
0.0
 40
0.3
100
AcDbArc
 50
115.122060186622
 51
270.0
  0
ARC
  5
108
330
2
100
AcDbEntity
  8
Object
 48
0.5
100
AcDbCircle
 10
-59.33076851602118
 20
-1570.580355907129
 30
0.0
 40
1.75
100
AcDbArc
 50
73.39845040097033
 51
106.6015495990296
  0
ARC
  5
109
330
2
100
AcDbEntity
  8
Object
 48
0.5
100
AcDbCircle
 10
-59.33076851602073
 20
-1562.838771747183
 30
0.0
 40
1.75
100
AcDbArc
 50
253.3984504009703
 51
286.6015495990296
  0
LINE
  5
10A
330
2
100
AcDbEntity
  8
Object
100
AcDbLine
 10
-61.33076851602073
 20
-1569.209563827156
 30
0.0
 11
-57.33076851602072
 21
-1569.209563827156
 31
0.0
  0
ARC
  5
10B
330
2
100
AcDbEntity
  8
Object
100
AcDbCircle
 10
-64.47242413050162
 20
-1568.909563827156
 30
0.0
 40
0.3
100
AcDbArc
 50
270.0
 51
64.8779398133779
  0
ARC
  5
10C
330
2
100
AcDbEntity
  8
Object
 48
0.5
100
AcDbCircle
 10
-59.33076851602073
 20
-1566.709563827156
 30
0.0
 40
2.25
100
AcDbArc
 50
102.8395884069012
 51
137.1604115930992
  0
ARC
  5
10D
330
2
100
AcDbEntity
  8
Object
 48
0.5
100
AcDbCircle
 10
-59.33076851602073
 20
-1566.709563827156
 30
0.0
 40
2.25
100
AcDbArc
 50
162.8395884068886
 51
197.1604115930707
  0
ARC
  5
10E
330
2
100
AcDbEntity
  8
Object
 48
0.5
100
AcDbCircle
 10
-59.33076851602073
 20
-1566.709563827156
 30
0.0
 40
2.25
100
AcDbArc
 50
222.8395884069052
 51
257.1604115930868
  0
ARC
  5
10F
330
2
100
AcDbEntity
  8
Object
 48
0.5
100
AcDbCircle
 10
-62.68297279004491
 20
-1568.644959867142
 30
0.0
 40
1.75
100
AcDbArc
 50
13.3984504009811
 51
46.60154959903004
  0
ARC
  5
110
330
2
100
AcDbEntity
  8
Object
 48
0.5
100
AcDbCircle
 10
-62.68297279004491
 20
-1564.77416778717
 30
0.0
 40
1.75
100
AcDbArc
 50
313.39845040097
 51
346.6015495990188
  0
ARC
  5
111
330
2
100
AcDbEntity
  8
Object
 48
0.5
100
AcDbCircle
 10
-59.33076851602073
 20
-1566.709563827156
 30
0.0
 40
2.25
100
AcDbArc
 50
342.8395884069159
 51
17.16041159307066
  0
ARC
  5
112
330
2
100
AcDbEntity
  8
Object
 48
0.5
100
AcDbCircle
 10
-55.97856424199699
 20
-1564.77416778717
 30
0.0
 40
1.75
100
AcDbArc
 50
193.3984504009811
 51
226.60154959903
  0
ARC
  5
113
330
2
100
AcDbEntity
  8
Object
 48
0.5
100
AcDbCircle
 10
-55.97856424199722
 20
-1568.644959867143
 30
0.0
 40
1.75
100
AcDbArc
 50
133.3984504009699
 51
166.6015495990188
  0
ARC
  5
114
330
2
100
AcDbEntity
  8
Object
 48
0.5
100
AcDbCircle
 10
-59.33076851602073
 20
-1566.709563827156
 30
0.0
 40
2.25
100
AcDbArc
 50
282.8395884069012
 51
317.1604115930769
  0
ARC
  5
115
330
2
100
AcDbEntity
  8
Object
 48
0.5
100
AcDbCircle
 10
-59.33076851602073
 20
-1566.709563827156
 30
0.0
 40
2.25
100
AcDbArc
 50
42.83958840691916
 51
77.16041159309874
  0
CIRCLE
  5
116
330
2
100
AcDbEntity
  8
Object
 48
0.5
100
AcDbCircle
 10
-59.33076851602073
 20
-1566.709563827156
 30
0.0
 40
2.649999999999999
  0
ARC
  5
117
330
2
100
AcDbEntity
  8
Object
100
AcDbCircle
 10
-67.13076851601909
 20
-1540.409563827149
 30
0.0
 40
0.2
100
AcDbArc
 50
90.0
 51
180.0
  0
LINE
  5
118
330
2
100
AcDbEntity
  8
Object
100
AcDbLine
 10
-70.330768516018
 20
-1540.409563827149
 30
0.0
 11
-70.330768516018
 21
-1541.084450462407
 31
0.0
  0
LINE
  5
119
330
2
100
AcDbEntity
  8
Object
100
AcDbLine
 10
-67.3307685160189
 20
-1540.409563827149
 30
0.0
 11
-67.33076851601845
 21
-1541.084450462407
 31
0.0
  0
ARC
  5
11A
330
2
100
AcDbEntity
  8
Object
100
AcDbCircle
 10
-70.53076851601872
 20
-1540.409563827149
 30
0.0
 40
0.2
100
AcDbArc
 50
0.0
 51
90.0
  0
ARC
  5
11B
330
2
100
AcDbEntity
  8
Object
100
AcDbCircle
 10
-68.8307685160189
 20
-1532.57752773298
 30
0.0
 40
8.63815572471549
100
AcDbArc
 50
259.999999999993
 51
280.0000000000068
  0
LINE
  5
11C
330
2
100
AcDbEntity
  8
Object
100
AcDbLine
 10
-68.33076851602073
 20
-1559.309563827156
 30
0.0
 11
-68.33076851602073
 21
-1562.209563827156
 31
0.0
  0
ARC
  5
11D
330
2
100
AcDbEntity
  8
Object
100
AcDbCircle
 10
-69.85354294097033
 20
-1558.609563827156
 30
0.0
 40
0.5
100
AcDbArc
 50
212.5789703927969
 51
270.0
  0
ARC
  5
11E
330
2
100
AcDbEntity
  8
Object
100
AcDbCircle
 10
-68.53076851602054
 20
-1559.309563827157
 30
0.0
 40
0.2
100
AcDbArc
 50
0.0
 51
90.0
  0
ARC
  5
11F
330
2
100
AcDbEntity
  8
Object
100
AcDbCircle
 10
-70.33076851602027
 20
-1560.209563827156
 30
0.0
 40
1.0
100
AcDbArc
 50
90.0
 51
180.0
  0
LINE
  5
120
330
2
100
AcDbEntity
  8
Object
100
AcDbLine
 10
-71.33076851601982
 20
-1562.209563827156
 30
0.0
 11
-71.33076851602027
 21
-1560.209563827156
 31
0.0
  0
LINE
  5
121
330
2
100
AcDbEntity
  8
Object
100
AcDbLine
 10
-68.43076851602063
 20
-1559.209563827156
 30
0.0
 11
-68.43076851602063
 21
-1562.209563827156
 31
0.0
  0
ARC
  5
122
330
2
100
AcDbEntity
  8
Object
  6
Continuous
100
AcDbCircle
 10
-72.33076851602027
 20
-1561.795350263457
 30
0.0
 40
1.0
100
AcDbArc
 50
314.9999998703429
 51
0.0000000000130276
  0
LINE
  5
123
330
2
100
AcDbEntity
  8
Object
100
AcDbLine
 10
-70.33076851602027
 20
-1559.209563827156
 30
0.0
 11
-68.35756343526396
 21
-1559.209563827156
 31
0.0
  0
ARC
  5
124
330
2
100
AcDbEntity
  8
Object
100
AcDbCircle
 10
-61.33076851602073
 20
-1562.209563827156
 30
0.0
 40
7.099999999999999
100
AcDbArc
 50
180.0
 51
244.8779398133779
  0
TEXT
  5
125
330
2
100
AcDbEntity
  8
text3
100
AcDbText
 10
-117.8175579538343
 20
-1512.03539421769
 30
0.0
 40
4.0
  1
56B20C
  7
Roman
100
AcDbText
  0
DIMENSION
  5
135
330
2
100
AcDbEntity
  8
text3
100
AcDbDimension
  2
*D9
 10
148.6260915295791
 20
-1672.740570216943
 30
0.0
 11
89.0260915295794
 21
-1669.240570216943
 31
0.0
 70
     1
  1
<>±1
 71
     5
 42
119.1999999999995
  3
DMST_1
100
AcDbAlignedDimension
 13
29.42609152957965
 23
-1647.20956382715
 33
0.0
 14
148.6260915295791
 24
-1647.209563827151
 34
0.0
1001
ACAD
1000
DSTYLE
1002
{
1070
    41
1040
5.0
1070
    42
1040
2.0
1070
    43
1040
0.38
1070
    44
1040
0.18
1070
    47
1040
0.0
1070
    48
1040
0.0
1070
    71
1070
     0
1070
    78
1070
     8
1070
    79
1070
     2
1070
   140
1040
4.0
1070
   141
1040
1.0
1070
   146
1040
1.0
1070
   147
1040
1.5
1070
   176
1070
     0
1070
   177
1070
     0
1070
   178
1070
     0
1070
   179
1070
     2
1070
   279
1070
     0
1002
}
  0
DIMENSION
  5
142
330
2
100
AcDbEntity
  8
text3
100
AcDbDimension
  2
*D5
 10
148.6260915295671
 20
-1527.222972708187
 30
0.0
 11
115.5260915295667
 21
-1527.222972708187
 31
0.0
 70
   129
  1
<>±1
 71
     5
 42
66.20000000000078
  3
DMST_1
100
AcDbAlignedDimension
 13
82.42609152956635
 23
-1540.20956382715
 33
0.0
 14
148.6260915295671
 24
-1540.20956382715
 34
0.0
1001
ACAD
1000
DSTYLE
1002
{
1070
    41
1040
5.0
1070
    42
1040
2.0
1070
    43
1040
0.38
1070
    44
1040
5.0
1070
    47
1040
0.0
1070
    48
1040
0.0
1070
    71
1070
     0
1070
    78
1070
     8
1070
    79
1070
     2
1070
   140
1040
4.0
1070
   141
1040
1.0
1070
   146
1040
1.0
1070
   147
1040
1.5
1070
   176
1070
     0
1070
   177
1070
     0
1070
   178
1070
     0
1070
   179
1070
     2
1070
   279
1070
     0
1002
}
  0
ARC
  5
14F
330
2
100
AcDbEntity
  8
Object
100
AcDbCircle
 10
90.42609152956634
 20
-1551.012471665926
 30
0.0
 40
7.5
100
AcDbArc
 50
94.49999999999719
 51
169.1398297200626
  0
ARC
  5
150
330
2
100
AcDbEntity
  8
Object
100
AcDbCircle
 10
93.42609152957971
 20
-1550.724800571632
 30
0.0
 40
8.0
100
AcDbArc
 50
94.99999999999983
 51
179.9999999999985
  0
LINE
  5
151
330
2
100
AcDbEntity
  8
Object
100
AcDbLine
 10
85.72085580763546
 20
-1554.603781684274
 30
0.0
 11
119.4435439360041
 21
-1555.192413395109
 31
0.0
  0
LINE
  5
152
330
2
100
AcDbEntity
  8
Object
100
AcDbLine
 10
85.72085580763502
 20
-1572.815345970026
 30
0.0
 11
119.4435439360041
 21
-1572.226714259191
 31
0.0
  0
ARC
  5
153
330
2
100
AcDbEntity
  8
Object
100
AcDbCircle
 10
90.42609152958028
 20
-1550.98726656221
 30
0.0
 40
8.0
100
AcDbArc
 50
94.99999999999969
 51
179.9999999999983
  0
LINE
  5
154
330
2
100
AcDbEntity
  8
1
 62
     7
100
AcDbLine
 10
95.1260915295797
 20
-1590.80956382715
 30
0.0
 11
38.32609152957962
 21
-1590.80956382715
 31
0.0
  0
LINE
  5
155
330
2
100
AcDbEntity
  8
1
 62
     7
100
AcDbLine
 10
34.42609152957965
 20
-1602.30956382715
 30
0.0
 11
107.0260915295795
 21
-1602.30956382715
 31
0.0
  0
LINE
  5
156
330
2
100
AcDbEntity
  8
1
 62
     2
100
AcDbLine
 10
34.42609152957965
 20
-1592.993253878991
 30
0.0
 11
107.0260915295795
 21
-1592.993253878991
 31
0.0
  0
LINE
  5
157
330
2
100
AcDbEntity
  8
1
 62
     2
100
AcDbLine
 10
107.0260915295795
 20
-1598.887531696416
 30
0.0
 11
34.42609152957965
 21
-1598.887531696416
 31
0.0
  0
LINE
  5
158
330
2
100
AcDbEntity
  8
1
 62
     7
100
AcDbLine
 10
38.32609152957962
 20
-1647.20956382715
 30
0.0
 11
95.1260915295797
 21
-1647.20956382715
 31
0.0
  0
LINE
  5
159
330
2
100
AcDbEntity
  8
1
 62
     2
100
AcDbLine
 10
107.0260915295795
 20
-1645.025873775309
 30
0.0
 11
34.42609152957965
 21
-1645.025873775308
 31
0.0
  0
LINE
  5
15A
330
2
100
AcDbEntity
  8
1
 62
     2
100
AcDbLine
 10
34.42609152957965
 20
-1639.131595957883
 30
0.0
 11
107.0260915295795
 21
-1639.131595957883
 31
0.0
  0
LINE
  5
15B
330
2
100
AcDbEntity
  8
1
 62
     7
100
AcDbLine
 10
34.42609152957965
 20
-1635.70956382715
 30
0.0
 11
106.4292950195771
 21
-1635.70956382715
 31
0.0
  0
ARC
  5
15C
330
2
100
AcDbEntity
  8
Object
100
AcDbCircle
 10
90.42609152957885
 20
-1584.609370947347
 30
0.0
 40
5.0
100
AcDbArc
 50
179.9999999999985
 51
267.9999999999986
  0
MTEXT
  5
15D
330
2
100
AcDbEntity
  8
text3
100
AcDbMText
 10
17.89719699953887
 20
-1650.305343408469
 30
0.0
 40
4.0
 41
0.0
 71
     5
 72
     1
  1
\A1;1.6
 73
     1
 44
1.0
  0
LINE
  5
15E
330
2
100
AcDbEntity
  8
text3
100
AcDbLine
 10
22.82609152957962
 20
-1653.805343408469
 30
0.0
 11
12.96121414187564
 21
-1653.805343408469
 31
0.0
  0
DIMENSION
  5
15F
330
2
100
AcDbEntity
  8
text3
100
AcDbDimension
  2
*D8
 10
9.426091529578098
 20
-1672.740570216941
 30
0.0
 11
19.42609152957856
 21
-1669.240570216942
 31
0.0
 70
     1
  1
<>±1
 71
     5
 42
20.00000000000068
  3
DMST_1
100
AcDbAlignedDimension
 13
29.42609152957965
 23
-1647.20956382715
 33
0.0
 14
9.426091529578962
 24
-1647.209563827149
 34
0.0
1001
ACAD
1000
DSTYLE
1002
{
1070
    41
1040
5.0
1070
    42
1040
2.0
1070
    43
1040
0.38
1070
    44
1040
0.18
1070
    47
1040
0.0
1070
    48
1040
0.0
1070
    71
1070
     0
1070
    78
1070
     8
1070
    79
1070
     2
1070
   140
1040
4.0
1070
   141
1040
1.0
1070
   146
1040
1.0
1070
   147
1040
1.5
1070
   176
1070
     0
1070
   177
1070
     0
1070
   178
1070
     0
1070
   179
1070
     2
1070
   279
1070
     0
1002
}
  0
DIMENSION
  5
16C
330
2
100
AcDbEntity
  8
text3
100
AcDbDimension
  2
*D6
 10
-11.3400105592439
 20
-1638.05956382715
 30
0.0
 11
-11.34001055924363
 21
-1625.024532013833
 31
0.0
 70
   129
  1
Φ<>h7
 71
     5
 42
38.10000000000036
  3
DMST_1
100
AcDbAlignedDimension
 13
28.12609152957969
 23
-1599.959563827149
 33
0.0
 14
28.12609152957969
 24
-1638.05956382715
 34
0.0
1001
ACAD
1000
DSTYLE
1002
{
1070
    41
1040
5.0
1070
    42
1040
3.0
1070
    43
1040
0.38
1070
    44
1040
5.0
1070
    47
1040
0.0
1070
    48
1040
0.0
1070
    71
1070
     0
1070
    78
1070
     8
1070
    79
1070
     2
1070
   140
1040
4.0
1070
   141
1040
0.09
1070
   146
1040
1.0
1070
   147
1040
1.5
1070
   176
1070
     0
1070
   177
1070
     0
1070
   178
1070
     0
1070
   179
1070
     2
1070
   279
1070
     0
1002
}
  0
LINE
  5
19F
330
2
100
AcDbEntity
  8
Object
100
AcDbLine
 10
9.926091529579764
 20
-1623.00956382715
 30
0.0
 11
27.82609152957963
 21
-1623.00956382715
 31
0.0
  0
LINE
  5
1A0
330
2
100
AcDbEntity
  8
Center
  6
CENTER
100
AcDbLine
 10
29.92609152957965
 20
-1619.00956382715
 30
0.0
 11
6.866421463716903
 21
-1619.00956382715
 31
0.0
  0
DIMENSION
  5
1A2
330
2
100
AcDbEntity
  8
text3
100
AcDbDimension
  2
*D11
 10
0.4865642301344602
 20
-1615.00956382715
 30
0.0
 11
0.486564230134718
 21
-1646.674499966669
 31
0.0
 70
   161
  1
Φ<>h6
 71
     5
 42
8.0
  3
DMST_1
100
AcDbAlignedDimension
 13
9.926091529579764
 23
-1623.00956382715
 33
0.0
 14
9.926091529579764
 24
-1615.00956382715
 34
0.0
1001
ACAD
1000
DSTYLE
1002
{
1070
    41
1040
5.0
1070
    42
1040
3.0
1070
    43
1040
0.38
1070
    44
1040
5.0
1070
    47
1040
0.0
1070
    48
1040
0.0
1070
    71
1070
     0
1070
    78
1070
     8
1070
    79
1070
     2
1070
   140
1040
4.0
1070
   141
1040
1.0
1070
   146
1040
1.0
1070
   147
1040
1.5
1070
   176
1070
     0
1070
   177
1070
     0
1070
   178
1070
     0
1070
   179
1070
     2
1070
   279
1070
     0
1002
}
  0
LINE
  5
1B0
330
2
100
AcDbEntity
  8
Object
100
AcDbLine
 10
-26.26821183364836
 20
-1624.957005809961
 30
0.0
 11
-26.26821183364836
 21
-1621.839609649592
 31
0.0
  0
LINE
  5
1B1
330
2
100
AcDbEntity
  8
1
 62
     2
100
AcDbLine
 10
-31.83076851602072
 20
-1595.80956382715
 30
0.0
 11
-31.83076851602072
 21
-1642.20956382715
 31
0.0
  0
LINE
  5
1B2
330
2
100
AcDbEntity
  8
1
 62
     7
100
AcDbLine
 10
-31.13076851602068
 20
-1642.20956382715
 30
0.0
 11
-31.13076851602068
 21
-1595.80956382715
 31
0.0
  0
CIRCLE
  5
1B3
330
2
100
AcDbEntity
  8
1
 62
     2
100
AcDbCircle
 10
-35.76076851602067
 20
-1642.57956382715
 30
0.0
 40
2.75
  0
CIRCLE
  5
1B4
330
2
100
AcDbEntity
  8
1
 62
     7
100
AcDbCircle
 10
-35.76076851602067
 20
-1642.57956382715
 30
0.0
 40
2.25
  0
LINE
  5
1B5
330
2
100
AcDbEntity
  8
Center
100
AcDbLine
 10
-36.76076851602067
 20
-1642.57956382715
 30
0.0
 11
-34.76076851602067
 21
-1642.57956382715
 31
0.0
  0
LINE
  5
1B6
330
2
100
AcDbEntity
  8
1
 62
     2
100
AcDbLine
 10
-38.93076851602074
 20
-1646.50956382715
 30
0.0
 11
-36.13076851602068
 21
-1646.50956382715
 31
0.0
  0
ARC
  5
1B7
330
2
100
AcDbEntity
  8
1
 62
     2
100
AcDbCircle
 10
-42.63076851602067
 20
-1644.10956382715
 30
0.0
 40
3.699999999999973
100
AcDbArc
 50
0.0
 51
180.0
  0
ARC
  5
1B8
330
2
100
AcDbEntity
  8
1
 62
     7
100
AcDbCircle
 10
-42.63076851602067
 20
-1644.10956382715
 30
0.0
 40
2.999999999999986
100
AcDbArc
 50
0.0
 51
180.0
  0
CIRCLE
  5
1B9
330
2
100
AcDbEntity
  8
1
 62
     7
100
AcDbCircle
 10
-42.63076851602067
 20
-1644.10956382715
 30
0.0
 40
2.800000000000039
  0
LINE
  5
1BA
330
2
100
AcDbEntity
  8
1
 62
     2
100
AcDbLine
 10
-42.24422404898257
 20
-1643.419354476946
 30
0.0
 11
-42.25753553460651
 21
-1642.656739976305
 31
0.0
  0
LINE
  5
1BB
330
2
100
AcDbEntity
  8
1
 62
     2
100
AcDbLine
 10
-43.00400149743507
 20
-1642.656739976305
 30
0.0
 11
-43.01731298305901
 21
-1643.419354476946
 31
0.0
  0
LINE
  5
1BC
330
2
100
AcDbEntity
  8
1
 62
     2
100
AcDbLine
 10
-42.15067462107504
 20
-1643.629469932204
 30
0.0
 11
-42.24422404898257
 21
-1643.419354476946
 31
0.0
  0
LINE
  5
1BD
330
2
100
AcDbEntity
  8
1
 62
     2
100
AcDbLine
 10
-42.24422404898257
 20
-1644.799773177353
 30
0.0
 11
-42.15067462107515
 21
-1644.589657722095
 31
0.0
  0
LINE
  5
1BE
330
2
100
AcDbEntity
  8
1
 62
     2
100
AcDbLine
 10
-45.63076851602068
 20
-1647.20956382715
 30
0.0
 11
-46.33076851602072
 21
-1646.50956382715
 31
0.0
  0
LINE
  5
1BF
330
2
100
AcDbEntity
  8
1
 62
     2
100
AcDbLine
 10
-46.33076851602072
 20
-1644.10956382715
 30
0.0
 11
-46.33076851602072
 21
-1646.50956382715
 31
0.0
  0
LINE
  5
1C0
330
2
100
AcDbEntity
  8
1
 62
     2
100
AcDbLine
 10
-43.11086241096631
 20
-1643.629469932204
 30
0.0
 11
-43.32097786622409
 21
-1643.723019360112
 31
0.0
  0
LINE
  5
1C1
330
2
100
AcDbEntity
  8
1
 62
     2
100
AcDbLine
 10
-43.32097786622409
 20
-1644.496108294188
 30
0.0
 11
-43.11086241096631
 21
-1644.589657722095
 31
0.0
  0
LINE
  5
1C2
330
2
100
AcDbEntity
  8
1
 62
     7
100
AcDbLine
 10
-45.63076851602068
 20
-1644.10956382715
 30
0.0
 11
-45.63076851602068
 21
-1647.20956382715
 31
0.0
  0
LINE
  5
1C3
330
2
100
AcDbEntity
  8
1
 62
     2
100
AcDbLine
 10
-43.32097786622409
 20
-1643.723019360112
 30
0.0
 11
-44.08359236686567
 21
-1643.736330845735
 31
0.0
  0
LINE
  5
1C4
330
2
100
AcDbEntity
  8
1
 62
     2
100
AcDbLine
 10
-44.08359236686567
 20
-1644.482796808564
 30
0.0
 11
-43.32097786622409
 21
-1644.496108294188
 31
0.0
  0
ARC
  5
1C5
330
2
100
AcDbEntity
  8
1
 62
     2
100
AcDbCircle
 10
-42.63076851602067
 20
-1644.10956382715
 30
0.0
 40
1.4999999999998
100
AcDbArc
 50
165.5921855646394
 51
194.4078144353606
  0
LINE
  5
1C6
330
2
100
AcDbEntity
  8
1
 62
     2
100
AcDbLine
 10
-43.01731298305901
 20
-1643.419354476946
 30
0.0
 11
-43.11086241096631
 21
-1643.629469932204
 31
0.0
  0
LINE
  5
1C7
330
2
100
AcDbEntity
  8
1
 62
     2
100
AcDbLine
 10
-43.11086241096631
 20
-1644.589657722095
 30
0.0
 11
-43.01731298305901
 21
-1644.799773177353
 31
0.0
  0
LINE
  5
1C8
330
2
100
AcDbEntity
  8
1
 62
     2
100
AcDbLine
 10
-43.01731298305901
 20
-1644.799773177353
 30
0.0
 11
-43.00400149743507
 21
-1645.562387677995
 31
0.0
  0
LINE
  5
1C9
330
2
100
AcDbEntity
  8
1
 62
     2
100
AcDbLine
 10
-42.25753553460651
 20
-1645.562387677995
 30
0.0
 11
-42.24422404898257
 21
-1644.799773177353
 31
0.0
  0
ARC
  5
1CA
330
2
100
AcDbEntity
  8
1
 62
     2
100
AcDbCircle
 10
-42.63076851602067
 20
-1644.10956382715
 30
0.0
 40
1.499999999999731
100
AcDbArc
 50
255.5921855646362
 51
284.4078144353566
  0
LINE
  5
1CB
330
2
100
AcDbEntity
  8
1
 62
     2
100
AcDbLine
 10
-39.63076851602068
 20
-1647.20956382715
 30
0.0
 11
-38.93076851602074
 21
-1646.50956382715
 31
0.0
  0
LINE
  5
1CC
330
2
100
AcDbEntity
  8
1
 62
     7
100
AcDbLine
 10
-39.63076851602068
 20
-1644.10956382715
 30
0.0
 11
-39.63076851602068
 21
-1647.20956382715
 31
0.0
  0
LINE
  5
1CD
330
2
100
AcDbEntity
  8
1
 62
     2
100
AcDbLine
 10
-41.94055916581738
 20
-1643.723019360112
 30
0.0
 11
-42.15067462107504
 21
-1643.629469932204
 31
0.0
  0
LINE
  5
1CE
330
2
100
AcDbEntity
  8
1
 62
     2
100
AcDbLine
 10
-41.17794466517591
 20
-1643.736330845735
 30
0.0
 11
-41.94055916581738
 21
-1643.723019360112
 31
0.0
  0
LINE
  5
1CF
330
2
100
AcDbEntity
  8
1
 62
     2
100
AcDbLine
 10
-42.15067462107515
 20
-1644.589657722095
 30
0.0
 11
-41.94055916581738
 21
-1644.496108294188
 31
0.0
  0
LINE
  5
1D0
330
2
100
AcDbEntity
  8
1
 62
     2
100
AcDbLine
 10
-41.94055916581738
 20
-1644.496108294188
 30
0.0
 11
-41.17794466517591
 21
-1644.482796808564
 31
0.0
  0
ARC
  5
1D1
330
2
100
AcDbEntity
  8
1
 62
     2
100
AcDbCircle
 10
-42.63076851602067
 20
-1644.10956382715
 30
0.0
 40
1.49999999999958
100
AcDbArc
 50
345.5921855646394
 51
14.40781443536377
  0
LINE
  5
1D2
330
2
100
AcDbEntity
  8
1
 62
     2
100
AcDbLine
 10
-38.93076851602074
 20
-1644.10956382715
 30
0.0
 11
-38.93076851602074
 21
-1646.50956382715
 31
0.0
  0
ARC
  5
1D3
330
2
100
AcDbEntity
  8
1
 62
     2
100
AcDbCircle
 10
-42.63076851602067
 20
-1644.10956382715
 30
0.0
 40
1.499999999999703
100
AcDbArc
 50
75.59218556464334
 51
104.4078144353636
  0
LEADER
  5
1D4
330
2
100
AcDbEntity
  8
text3
100
AcDbLeader
  3
DMST_1
 73
     0
 40
4.0
 41
20.8
 76
     3
 10
-30.51325166438294
 20
-1648.288548630708
 30
0.0
 10
-23.50645265717821
 20
-1673.715853599045
 30
0.0
 10
-18.50645265717821
 20
-1673.715853599045
 30
0.0
340
1D5
213
0.0
223
-1.5
233
0.0
1001
ACAD
1000
DSTYLE
1002
{
1070
    77
1070
     0
1070
    41
1040
5.0
1070
    42
1040
0.0625
1070
    43
1040
0.38
1070
    44
1040
0.18
1070
    47
1040
0.0
1070
    48
1040
0.0
1070
    71
1070
     0
1070
    78
1070
     8
1070
    79
1070
     2
1070
   140
1040
3.0
1070
   141
1040
0.09
1070
   146
1040
1.0
1070
   147
1040
1.0
1070
   176
1070
     0
1070
   177
1070
     0
1070
   178
1070
     0
1070
   179
1070
     2
1070
   279
1070
     0
1002
}
  0
MTEXT
  5
1D5
102
{ACAD_REACTORS
330
1D4
102
}
330
2
100
AcDbEntity
  8
text3
100
AcDbMText
 10
-17.50645265717821
 20
-1672.215853599045
 30
0.0
 40
4.0
 41
0.0
 71
     1
 72
     1
  1
4-Φ4.5
 73
     1
 44
1.0
  0
LINE
  5
1D6
330
2
100
AcDbEntity
  8
Object
100
AcDbLine
 10
-25.83076851601981
 20
-1628.343538423365
 30
0.0
 11
-25.83076851601981
 21
-1625.498238961744
 31
0.0
  0
ARC
  5
1D7
330
2
100
AcDbEntity
  8
Object
100
AcDbCircle
 10
-26.33076851601981
 20
-1632.498238961744
 30
0.0
 40
0.5
100
AcDbArc
 50
0.0
 51
60.00000000000483
  0
ARC
  5
1D8
330
2
100
AcDbEntity
  8
Object
100
AcDbCircle
 10
-26.33076851601981
 20
-1628.343538423365
 30
0.0
 40
0.5
100
AcDbArc
 50
277.1873024970681
 51
0.0
  0
LINE
  5
1D9
330
2
100
AcDbEntity
  8
Object
100
AcDbLine
 10
-26.08076851601981
 20
-1632.065226259852
 30
0.0
 11
-26.26821183364882
 21
-1631.957005809961
 31
0.0
  0
POINT
  5
1DA
330
2
100
AcDbEntity
  8
Object
100
AcDbPoint
 10
-25.83076851601936
 20
-1629.209563827149
 30
0.0
  0
POINT
  5
1DB
330
2
100
AcDbEntity
  8
Object
100
AcDbPoint
 10
-25.83076851601981
 20
-1632.20956382715
 30
0.0
  0
LINE
  5
1DC
330
2
100
AcDbEntity
  8
Object
100
AcDbLine
 10
-26.26821183364836
 20
-1631.957005809961
 30
0.0
 11
-26.26821183364836
 21
-1628.839609649593
 31
0.0
  0
ARC
  5
1DD
330
2
100
AcDbEntity
  8
Object
100
AcDbCircle
 10
-26.33076851601981
 20
-1625.498238961744
 30
0.0
 40
0.5
100
AcDbArc
 50
0.0
 51
60.00000000000483
  0
LINE
  5
1DE
330
2
100
AcDbEntity
  8
Object
100
AcDbLine
 10
-26.08076851601981
 20
-1625.065226259852
 30
0.0
 11
-26.26821183364836
 21
-1624.957005809961
 31
0.0
  0
POINT
  5
1DF
330
2
100
AcDbEntity
  8
Object
100
AcDbPoint
 10
-25.83076851601981
 20
-1625.209563827149
 30
0.0
  0
LINE
  5
1E0
330
2
100
AcDbEntity
  8
Object
100
AcDbLine
 10
-25.83076851602044
 20
-1628.343538423365
 30
0.0
 11
-25.83076851602044
 21
-1625.498238961744
 31
0.0
  0
LINE
  5
1E1
330
2
100
AcDbEntity
  8
Object
100
AcDbLine
 10
-25.83076851602027
 20
-1644.20956382715
 30
0.0
 11
-25.83076851602033
 21
-1639.498238961744
 31
0.0
  0
ARC
  5
1E2
330
2
100
AcDbEntity
  8
Object
100
AcDbCircle
 10
-28.83076851602027
 20
-1644.20956382715
 30
0.0
 40
3.0
100
AcDbArc
 50
270.0
 51
0.0
  0
ARC
  5
1E3
330
2
100
AcDbEntity
  8
Object
100
AcDbCircle
 10
-26.33076851601981
 20
-1635.343538423365
 30
0.0
 40
0.5
100
AcDbArc
 50
277.1873024970681
 51
0.0
  0
LINE
  5
1E4
330
2
100
AcDbEntity
  8
Object
100
AcDbLine
 10
-26.26821183364882
 20
-1638.957005809961
 30
0.0
 11
-26.26821183364836
 21
-1635.839609649592
 31
0.0
  0
ARC
  5
1E5
330
2
100
AcDbEntity
  8
Object
100
AcDbCircle
 10
-26.33076851601981
 20
-1639.498238961744
 30
0.0
 40
0.5
100
AcDbArc
 50
0.0
 51
60.00000000000483
  0
LINE
  5
1E6
330
2
100
AcDbEntity
  8
Object
100
AcDbLine
 10
-26.08076851601981
 20
-1639.065226259852
 30
0.0
 11
-26.26821183364882
 21
-1638.957005809961
 31
0.0
  0
POINT
  5
1E7
330
2
100
AcDbEntity
  8
Object
100
AcDbPoint
 10
-25.83076851601981
 20
-1639.209563827149
 30
0.0
  0
POINT
  5
1E8
330
2
100
AcDbEntity
  8
Object
100
AcDbPoint
 10
-25.83076851601936
 20
-1636.209563827149
 30
0.0
  0
LINE
  5
1E9
330
2
100
AcDbEntity
  8
Object
100
AcDbLine
 10
-25.83076851601981
 20
-1635.343538423365
 30
0.0
 11
-25.83076851601981
 21
-1632.498238961744
 31
0.0
  0
LINE
  5
1EA
330
2
100
AcDbEntity
  8
Object
100
AcDbLine
 10
-25.83076851602033
 20
-1635.343538423365
 30
0.0
 11
-25.83076851602038
 21
-1632.498238961744
 31
0.0
  0
ARC
  5
1EB
330
2
100
AcDbEntity
  8
1
 62
     7
100
AcDbCircle
 10
-36.13076851602068
 20
-1642.20956382715
 30
0.0
 40
5.0
100
AcDbArc
 50
270.0
 51
0.0
  0
ARC
  5
1EC
330
2
100
AcDbEntity
  8
1
 62
     2
100
AcDbCircle
 10
-36.13076851602068
 20
-1642.20956382715
 30
0.0
 40
4.299999999999982
100
AcDbArc
 50
270.0
 51
0.0
  0
LINE
  5
1ED
330
2
100
AcDbEntity
  8
Center
100
AcDbLine
 10
-35.76076851602067
 20
-1643.57956382715
 30
0.0
 11
-35.76076851602067
 21
-1641.57956382715
 31
0.0
  0
LINE
  5
1EE
330
2
100
AcDbEntity
  8
text3
100
AcDbLine
 10
9.426091529578894
 20
-1649.209563827149
 30
0.0
 11
9.426091529578894
 21
-1624.688918691853
 31
0.0
  0
TEXT
  5
1EF
330
2
100
AcDbEntity
  8
text3
100
AcDbText
 10
-16.25944902093323
 20
-1610.352250774197
 30
0.0
 40
2.21184
  1
0
 50
90.0
  7
Roman
100
AcDbText
  0
LINE
  5
1F0
330
2
100
AcDbEntity
  8
Object
100
AcDbLine
 10
-25.87965759330927
 20
-1555.209563827149
 30
0.0
 11
-25.87965759330927
 21
-1572.20956382715
 31
0.0
  0
LINE
  5
1F1
330
2
100
AcDbEntity
  8
Object
100
AcDbLine
 10
-26.94944734305045
 20
-1556.209563827149
 30
0.0
 11
-26.94944734305045
 21
-1571.209563827149
 31
0.0
  0
LINE
  5
1F2
330
2
100
AcDbEntity
  8
Object
100
AcDbLine
 10
-34.59320643654314
 20
-1555.209563827149
 30
0.0
 11
-34.59320643654314
 21
-1572.209563827149
 31
0.0
  0
LINE
  5
1F3
330
2
100
AcDbEntity
  8
Object
100
AcDbLine
 10
-29.61223294608498
 20
-1556.209563827149
 30
0.0
 11
-29.61223294608544
 21
-1571.209563827149
 31
0.0
  0
ARC
  5
1F4
330
2
100
AcDbEntity
  8
Object
100
AcDbCircle
 10
-43.33076851602072
 20
-1562.209563827156
 30
0.0
 40
7.0
100
AcDbArc
 50
270.0
 51
0.0
  0
LINE
  5
1F5
330
2
100
AcDbEntity
  8
Object
100
AcDbLine
 10
-25.83076851602049
 20
-1621.343538423365
 30
0.0
 11
-25.83076851602118
 21
-1547.209563827149
 31
0.0
  0
CIRCLE
  5
1F6
330
2
100
AcDbEntity
  8
1
 62
     7
100
AcDbCircle
 10
-35.76076851602067
 20
-1595.43956382715
 30
0.0
 40
2.25
  0
CIRCLE
  5
1F7
330
2
100
AcDbEntity
  8
1
 62
     2
100
AcDbCircle
 10
-35.76076851602067
 20
-1595.43956382715
 30
0.0
 40
2.75
  0
LINE
  5
1F8
330
2
100
AcDbEntity
  8
HIDDEN-1
  6
ByBlock
100
AcDbLine
 10
-32.00077836888329
 20
-1590.20956382715
 30
0.0
 11
-38.33076851602072
 21
-1590.20956382715
 31
0.0
  0
LINE
  5
1F9
330
2
100
AcDbEntity
  8
Object
100
AcDbLine
 10
-36.33076851601981
 20
-1589.538920978018
 30
0.0
 11
-33.61603824799277
 21
-1589.538920978018
 31
0.0
  0
LINE
  5
1FA
330
2
100
AcDbEntity
  8
Center
100
AcDbLine
 10
-36.76076851602067
 20
-1595.43956382715
 30
0.0
 11
-34.76076851602067
 21
-1595.43956382715
 31
0.0
  0
LINE
  5
1FB
330
2
100
AcDbEntity
  8
1
 62
     2
100
AcDbLine
 10
-36.13076851602068
 20
-1591.50956382715
 30
0.0
 11
-38.93076851602074
 21
-1591.50956382715
 31
0.0
  0
LINE
  5
1FC
330
2
100
AcDbEntity
  8
Object
100
AcDbLine
 10
-38.33076851602072
 20
-1589.682260207824
 30
0.0
 11
-38.33076851602072
 21
-1590.20956382715
 31
0.0
  0
LINE
  5
1FD
330
2
100
AcDbEntity
  8
1
 62
     2
100
AcDbLine
 10
-42.15067462107526
 20
-1593.429469932204
 30
0.0
 11
-42.24422404898257
 21
-1593.219354476946
 31
0.0
  0
CIRCLE
  5
1FE
330
2
100
AcDbEntity
  8
1
 62
     7
100
AcDbCircle
 10
-42.63076851602067
 20
-1593.90956382715
 30
0.0
 40
2.800000000000125
  0
ARC
  5
1FF
330
2
100
AcDbEntity
  8
1
 62
     2
100
AcDbCircle
 10
-42.63076851602067
 20
-1593.90956382715
 30
0.0
 40
3.70000000000003
100
AcDbArc
 50
180.0
 51
0.0
  0
ARC
  5
200
330
2
100
AcDbEntity
  8
1
 62
     7
100
AcDbCircle
 10
-42.63076851602067
 20
-1593.90956382715
 30
0.0
 40
3.0
100
AcDbArc
 50
180.0
 51
0.0
  0
LINE
  5
201
330
2
100
AcDbEntity
  8
1
 62
     2
100
AcDbLine
 10
-42.24422404898257
 20
-1594.599773177353
 30
0.0
 11
-42.15067462107504
 21
-1594.389657722095
 31
0.0
  0
LINE
  5
202
330
2
100
AcDbEntity
  8
1
 62
     2
100
AcDbLine
 10
-46.33076851602072
 20
-1591.50956382715
 30
0.0
 11
-45.63076851602068
 21
-1590.80956382715
 31
0.0
  0
LINE
  5
203
330
2
100
AcDbEntity
  8
1
 62
     2
100
AcDbLine
 10
-46.33076851602072
 20
-1591.50956382715
 30
0.0
 11
-46.33076851602072
 21
-1593.90956382715
 31
0.0
  0
LINE
  5
204
330
2
100
AcDbEntity
  8
1
 62
     7
100
AcDbLine
 10
-45.63076851602068
 20
-1590.80956382715
 30
0.0
 11
-45.63076851602068
 21
-1593.90956382715
 31
0.0
  0
LINE
  5
205
330
2
100
AcDbEntity
  8
1
 62
     2
100
AcDbLine
 10
-43.01731298305901
 20
-1593.219354476946
 30
0.0
 11
-43.11086241096643
 21
-1593.429469932204
 31
0.0
  0
LINE
  5
206
330
2
100
AcDbEntity
  8
1
 62
     2
100
AcDbLine
 10
-43.32097786622421
 20
-1594.296108294188
 30
0.0
 11
-43.11086241096643
 21
-1594.389657722095
 31
0.0
  0
LINE
  5
207
330
2
100
AcDbEntity
  8
1
 62
     2
100
AcDbLine
 10
-43.11086241096643
 20
-1593.429469932204
 30
0.0
 11
-43.32097786622421
 21
-1593.523019360111
 31
0.0
  0
LINE
  5
208
330
2
100
AcDbEntity
  8
1
 62
     2
100
AcDbLine
 10
-44.08359236686567
 20
-1594.282796808564
 30
0.0
 11
-43.32097786622421
 21
-1594.296108294188
 31
0.0
  0
LINE
  5
209
330
2
100
AcDbEntity
  8
1
 62
     2
100
AcDbLine
 10
-43.32097786622421
 20
-1593.523019360111
 30
0.0
 11
-44.08359236686567
 21
-1593.536330845735
 31
0.0
  0
ARC
  5
20A
330
2
100
AcDbEntity
  8
1
 62
     2
100
AcDbCircle
 10
-42.63076851602067
 20
-1593.90956382715
 30
0.0
 40
1.499999999999786
100
AcDbArc
 50
165.5921855646394
 51
194.4078144353637
  0
LINE
  5
20B
330
2
100
AcDbEntity
  8
1
 62
     2
100
AcDbLine
 10
-42.25753553460651
 20
-1595.362387677995
 30
0.0
 11
-42.24422404898257
 21
-1594.599773177353
 31
0.0
  0
LINE
  5
20C
330
2
100
AcDbEntity
  8
1
 62
     2
100
AcDbLine
 10
-43.11086241096643
 20
-1594.389657722095
 30
0.0
 11
-43.01731298305901
 21
-1594.599773177353
 31
0.0
  0
LINE
  5
20D
330
2
100
AcDbEntity
  8
1
 62
     2
100
AcDbLine
 10
-43.01731298305901
 20
-1594.599773177353
 30
0.0
 11
-43.00400149743507
 21
-1595.362387677995
 31
0.0
  0
ARC
  5
20E
330
2
100
AcDbEntity
  8
1
 62
     2
100
AcDbCircle
 10
-42.63076851602067
 20
-1593.90956382715
 30
0.0
 40
1.499999999999839
100
AcDbArc
 50
255.5921855646362
 51
284.4078144353566
  0
LINE
  5
20F
330
2
100
AcDbEntity
  8
1
 62
     2
100
AcDbLine
 10
-43.00400149743507
 20
-1592.456739976305
 30
0.0
 11
-43.01731298305901
 21
-1593.219354476946
 31
0.0
  0
LINE
  5
210
330
2
100
AcDbEntity
  8
1
 62
     2
100
AcDbLine
 10
-42.24422404898257
 20
-1593.219354476946
 30
0.0
 11
-42.25753553460651
 21
-1592.456739976305
 31
0.0
  0
ARC
  5
211
330
2
100
AcDbEntity
  8
1
 62
     2
100
AcDbCircle
 10
-42.63076851602067
 20
-1593.90956382715
 30
0.0
 40
1.49999999999968
100
AcDbArc
 50
75.59218556464334
 51
104.4078144353636
  0
LINE
  5
212
330
2
100
AcDbEntity
  8
1
 62
     7
100
AcDbLine
 10
-39.63076851602068
 20
-1590.80956382715
 30
0.0
 11
-39.63076851602068
 21
-1593.90956382715
 31
0.0
  0
LINE
  5
213
330
2
100
AcDbEntity
  8
1
 62
     2
100
AcDbLine
 10
-38.93076851602074
 20
-1591.50956382715
 30
0.0
 11
-38.93076851602074
 21
-1593.90956382715
 31
0.0
  0
LINE
  5
214
330
2
100
AcDbEntity
  8
1
 62
     2
100
AcDbLine
 10
-42.15067462107504
 20
-1594.389657722095
 30
0.0
 11
-41.94055916581748
 21
-1594.296108294188
 31
0.0
  0
LINE
  5
215
330
2
100
AcDbEntity
  8
1
 62
     2
100
AcDbLine
 10
-41.94055916581748
 20
-1594.296108294188
 30
0.0
 11
-41.17794466517591
 21
-1594.282796808564
 31
0.0
  0
LINE
  5
216
330
2
100
AcDbEntity
  8
1
 62
     2
100
AcDbLine
 10
-41.94055916581748
 20
-1593.523019360111
 30
0.0
 11
-42.15067462107526
 21
-1593.429469932204
 31
0.0
  0
LINE
  5
217
330
2
100
AcDbEntity
  8
1
 62
     2
100
AcDbLine
 10
-41.17794466517591
 20
-1593.536330845735
 30
0.0
 11
-41.94055916581748
 21
-1593.523019360111
 31
0.0
  0
ARC
  5
218
330
2
100
AcDbEntity
  8
1
 62
     2
100
AcDbCircle
 10
-42.63076851602067
 20
-1593.90956382715
 30
0.0
 40
1.499999999999629
100
AcDbArc
 50
345.5921855646331
 51
14.40781443536065
  0
LINE
  5
219
330
2
100
AcDbEntity
  8
1
 62
     2
100
AcDbLine
 10
-38.93076851602074
 20
-1591.50956382715
 30
0.0
 11
-39.63076851602068
 21
-1590.80956382715
 31
0.0
  0
LINE
  5
21A
330
2
100
AcDbEntity
  8
Object
100
AcDbLine
 10
-27.00077836888385
 20
-1572.20956382715
 30
0.0
 11
-27.00077836888329
 21
-1585.209563827149
 31
0.0
  0
LINE
  5
21B
330
2
100
AcDbEntity
  8
Object
100
AcDbLine
 10
-28.61603824799277
 20
-1572.20956382715
 30
0.0
 11
-28.61603824799277
 21
-1584.538920978018
 31
0.0
  0
LINE
  5
21C
330
2
100
AcDbEntity
  8
Object
100
AcDbLine
 10
-25.87965759330927
 20
-1572.20956382715
 30
0.0
 11
-34.59320643654314
 21
-1572.20956382715
 31
0.0
  0
ARC
  5
21D
330
2
100
AcDbEntity
  8
Object
100
AcDbCircle
 10
-26.33076851601981
 20
-1621.343538423365
 30
0.0
 40
0.5
100
AcDbArc
 50
277.1873024970681
 51
0.0
  0
POINT
  5
21E
330
2
100
AcDbEntity
  8
Object
100
AcDbPoint
 10
-25.83076851601936
 20
-1622.209563827149
 30
0.0
  0
ARC
  5
21F
330
2
100
AcDbEntity
  8
1
 62
     7
100
AcDbCircle
 10
-36.13076851602068
 20
-1595.80956382715
 30
0.0
 40
5.0
100
AcDbArc
 50
0.0
 51
90.0
  0
ARC
  5
220
330
2
100
AcDbEntity
  8
1
 62
     2
100
AcDbCircle
 10
-36.13076851602068
 20
-1595.80956382715
 30
0.0
 40
4.299999999999955
100
AcDbArc
 50
0.0
 51
90.0
  0
LINE
  5
221
330
2
100
AcDbEntity
  8
Center
100
AcDbLine
 10
-35.76076851602067
 20
-1596.43956382715
 30
0.0
 11
-35.76076851602067
 21
-1594.43956382715
 31
0.0
  0
ARC
  5
222
330
2
100
AcDbEntity
  8
Object
100
AcDbCircle
 10
-32.00077836888329
 20
-1585.20956382715
 30
0.0
 40
5.0
100
AcDbArc
 50
270.0
 51
0.0000000000026055
  0
ARC
  5
223
330
2
100
AcDbEntity
  8
Object
100
AcDbCircle
 10
-33.61603824799277
 20
-1584.538920978018
 30
0.0
 40
5.0
100
AcDbArc
 50
270.0
 51
0.0
  0
LINE
  5
224
330
2
100
AcDbEntity
  8
Object
100
AcDbLine
 10
-32.83076851602118
 20
-1540.20956382715
 30
0.0
 11
-36.43076851602109
 21
-1540.20956382715
 31
0.0
  0
ARC
  5
225
330
2
100
AcDbEntity
  8
Object
100
AcDbCircle
 10
-37.43076851602109
 20
-1541.70956382715
 30
0.0
 40
1.0
100
AcDbArc
 50
0.0
 51
90.0
  0
LINE
  5
226
330
2
100
AcDbEntity
  8
Object
100
AcDbLine
 10
-33.61603824799277
 20
-1542.755242986898
 30
0.0
 11
-36.33076851602118
 21
-1542.755242986898
 31
0.0
  0
ARC
  5
227
330
2
100
AcDbEntity
  8
Object
100
AcDbCircle
 10
-36.83076851602027
 20
-1558.709563827155
 30
0.0
 40
0.5
100
AcDbArc
 50
270.0
 51
0.0
  0
ARC
  5
228
330
2
100
AcDbEntity
  8
Object
100
AcDbCircle
 10
-43.83076851602072
 20
-1532.57752773298
 30
0.0
 40
8.63815572471549
100
AcDbArc
 50
259.999999999993
 51
280.0000000000068
  0
ARC
  5
229
330
2
100
AcDbEntity
  8
Object
100
AcDbCircle
 10
-45.53076851602054
 20
-1540.409563827149
 30
0.0
 40
0.2
100
AcDbArc
 50
0.0
 51
90.0
  0
LINE
  5
22A
330
2
100
AcDbEntity
  8
Object
100
AcDbLine
 10
-45.33076851602027
 20
-1540.409563827149
 30
0.0
 11
-45.33076851602072
 21
-1541.084450462407
 31
0.0
  0
ARC
  5
22B
330
2
100
AcDbEntity
  8
Object
100
AcDbCircle
 10
-42.13076851602091
 20
-1540.409563827149
 30
0.0
 40
0.2
100
AcDbArc
 50
90.0
 51
180.0
  0
LINE
  5
22C
330
2
100
AcDbEntity
  8
Object
100
AcDbLine
 10
-42.33076851602118
 20
-1540.409563827149
 30
0.0
 11
-42.33076851602118
 21
-1541.084450462407
 31
0.0
  0
ARC
  5
22D
330
2
100
AcDbEntity
  8
Object
100
AcDbCircle
 10
-39.73076851602127
 20
-1540.509563827149
 30
0.0
 40
0.2
100
AcDbArc
 50
180.0
 51
270.0
  0
ARC
  5
22E
330
2
100
AcDbEntity
  8
Object
100
AcDbCircle
 10
-40.1307685160209
 20
-1540.409563827149
 30
0.0
 40
0.2
100
AcDbArc
 50
0.0
 51
90.0
  0
LINE
  5
22F
330
2
100
AcDbEntity
  8
Object
100
AcDbLine
 10
-39.73076851602127
 20
-1540.709563827149
 30
0.0
 11
-37.43076851602063
 21
-1540.709563827149
 31
0.0
  0
LINE
  5
230
330
2
100
AcDbEntity
  8
Object
100
AcDbLine
 10
-36.33076851602118
 20
-1548.00956382715
 30
0.0
 11
-36.33076851602072
 21
-1562.209563827156
 31
0.0
  0
LINE
  5
231
330
2
100
AcDbEntity
  8
Object
100
AcDbLine
 10
-36.43076851602109
 20
-1549.909563827151
 30
0.0
 11
-38.43076851602063
 21
-1549.909563827151
 31
0.0
  0
LINE
  5
232
330
2
100
AcDbEntity
  8
Object
100
AcDbLine
 10
-36.43076851602109
 20
-1549.709563827151
 30
0.0
 11
-38.43076851602063
 21
-1549.709563827151
 31
0.0
  0
ARC
  5
233
330
2
100
AcDbEntity
  8
Object
100
AcDbCircle
 10
-37.85354294096851
 20
-1558.609563827156
 30
0.0
 40
0.5
100
AcDbArc
 50
212.5789703927969
 51
270.0
  0
ARC
  5
234
330
2
100
AcDbEntity
  8
Object
100
AcDbCircle
 10
-36.6307685160209
 20
-1558.909563827156
 30
0.0
 40
0.2
100
AcDbArc
 50
270.0
 51
0.0
  0
LINE
  5
235
330
2
100
AcDbEntity
  8
Object
100
AcDbLine
 10
-38.33076851602072
 20
-1559.209563827156
 30
0.0
 11
-36.83076851602027
 21
-1559.209563827156
 31
0.0
  0
ARC
  5
236
330
2
100
AcDbEntity
  8
Object
100
AcDbCircle
 10
-43.33076851601981
 20
-1562.109563827156
 30
0.0
 40
4.0
100
AcDbArc
 50
51.05755873102246
 51
128.9424412689775
  0
ARC
  5
237
330
2
100
AcDbEntity
  8
Object
100
AcDbCircle
 10
-43.33076851601981
 20
-1562.209563827156
 30
0.0
 40
4.0
100
AcDbArc
 50
180.0
 51
0.0
  0
LINE
  5
238
330
2
100
AcDbEntity
  8
Object
100
AcDbLine
 10
-44.03787528230577
 20
-1565.502457045969
 30
0.0
 11
-47.03787529560758
 21
-1562.502457046244
 31
0.0
  0
LINE
  5
239
330
2
100
AcDbEntity
  8
Center
  6
Continuous
100
AcDbLine
 10
-44.33076851601981
 20
-1562.209563827156
 30
0.0
 11
-42.33076851601981
 21
-1562.209563827156
 31
0.0
  0
ARC
  5
23A
330
2
100
AcDbEntity
  8
Object
100
AcDbCircle
 10
-46.15919564076557
 20
-1558.609563827156
 30
0.0
 40
0.5
100
AcDbArc
 50
270.0
 51
308.9424412689776
  0
LINE
  5
23B
330
2
100
AcDbEntity
  8
Object
100
AcDbLine
 10
-47.33076851602072
 20
-1562.209563827156
 30
0.0
 11
-47.33076851602072
 21
-1560.209563827156
 31
0.0
  0
ARC
  5
23C
330
2
100
AcDbEntity
  8
Object
  6
Continuous
100
AcDbCircle
 10
-46.33076851602072
 20
-1561.795350263457
 30
0.0
 40
1.0
100
AcDbArc
 50
180.0
 51
225.000000129657
  0
LINE
  5
23D
330
2
100
AcDbEntity
  8
Center
100
AcDbLine
 10
-43.33076851601981
 20
-1563.109563827156
 30
0.0
 11
-43.33076851601981
 21
-1561.109563827156
 31
0.0
  0
ARC
  5
23E
330
2
100
AcDbEntity
  8
Object
100
AcDbCircle
 10
-40.50234139127406
 20
-1558.609563827156
 30
0.0
 40
0.5
100
AcDbArc
 50
231.0575587310224
 51
270.0
  0
ARC
  5
23F
330
2
100
AcDbEntity
  8
Object
100
AcDbCircle
 10
-43.3307685011191
 20
-1564.795350264783
 30
0.0
 40
1.0
100
AcDbArc
 50
224.9999999999908
 51
315.0000000000092
  0
LINE
  5
240
330
2
100
AcDbEntity
  8
Object
100
AcDbLine
 10
-39.33076851602072
 20
-1562.209563827156
 30
0.0
 11
-39.33076851602072
 21
-1560.209563827156
 31
0.0
  0
LINE
  5
241
330
2
100
AcDbEntity
  8
Object
100
AcDbLine
 10
-39.62366173323426
 20
-1562.502457045695
 30
0.0
 11
-42.62366171993289
 21
-1565.502457045969
 31
0.0
  0
LINE
  5
242
330
2
100
AcDbEntity
  8
Center
  6
Continuous
100
AcDbLine
 10
-43.33076851601981
 20
-1563.209563827156
 30
0.0
 11
-43.33076851601981
 21
-1561.209563827156
 31
0.0
  0
ARC
  5
243
330
2
100
AcDbEntity
  8
Object
  6
Continuous
100
AcDbCircle
 10
-40.33076851602072
 20
-1561.795350266108
 30
0.0
 40
1.0
100
AcDbArc
 50
315.0000001296385
 51
0.0
  0
ARC
  5
244
330
2
100
AcDbEntity
  8
Object
100
AcDbCircle
 10
-38.43076851602063
 20
-1548.209563827151
 30
0.0
 40
1.5
100
AcDbArc
 50
180.0
 51
270.0
  0
ARC
  5
245
330
2
100
AcDbEntity
  8
Object
100
AcDbCircle
 10
-38.43076851602063
 20
-1548.209563827151
 30
0.0
 40
1.7
100
AcDbArc
 50
180.0
 51
270.0
  0
LINE
  5
246
330
2
100
AcDbEntity
  8
Object
100
AcDbLine
 10
-36.6307685160209
 20
-1559.109563827155
 30
0.0
 11
-40.5023413912736
 21
-1559.109563827155
 31
0.0
  0
ARC
  5
247
330
2
100
AcDbEntity
  8
Object
100
AcDbCircle
 10
-38.33076851602072
 20
-1560.209563827156
 30
0.0
 40
1.0
100
AcDbArc
 50
90.0
 51
180.0
  0
LINE
  5
248
330
2
100
AcDbEntity
  8
Object
100
AcDbLine
 10
-36.43076851602109
 20
-1540.209563827149
 30
0.0
 11
-36.43076851602109
 21
-1558.909563827156
 31
0.0
  0
LINE
  5
249
330
2
100
AcDbEntity
  8
Object
100
AcDbLine
 10
-39.93076851602063
 20
-1540.409563827149
 30
0.0
 11
-39.93076851601972
 21
-1548.209563827151
 31
0.0
  0
LINE
  5
24A
330
2
100
AcDbEntity
  8
Object
100
AcDbLine
 10
-40.13076851602045
 20
-1540.409563827149
 30
0.0
 11
-40.13076851602045
 21
-1548.209563827151
 31
0.0
  0
LINE
  5
24B
330
2
100
AcDbEntity
  8
Object
100
AcDbLine
 10
-36.33076851602163
 20
-1548.00956382715
 30
0.0
 11
-36.33076851602072
 21
-1540.209563827149
 31
0.0
  0
ARC
  5
24C
330
2
100
AcDbEntity
  8
Object
100
AcDbCircle
 10
-49.83076851602163
 20
-1532.57752773298
 30
0.0
 40
8.63815572471549
100
AcDbArc
 50
259.999999999993
 51
280.0000000000068
  0
LINE
  5
24D
330
2
100
AcDbEntity
  8
Object
100
AcDbLine
 10
-51.33076851602073
 20
-1540.409563827149
 30
0.0
 11
-51.33076851602118
 21
-1541.084450462407
 31
0.0
  0
ARC
  5
24E
330
2
100
AcDbEntity
  8
Object
100
AcDbCircle
 10
-51.53076851602055
 20
-1540.409563827149
 30
0.0
 40
0.2
100
AcDbArc
 50
0.0
 51
90.0
  0
ARC
  5
24F
330
2
100
AcDbEntity
  8
Object
100
AcDbCircle
 10
-48.13076851602182
 20
-1540.409563827149
 30
0.0
 40
0.2
100
AcDbArc
 50
90.0
 51
180.0
  0
LINE
  5
250
330
2
100
AcDbEntity
  8
Object
100
AcDbLine
 10
-48.33076851602164
 20
-1540.409563827149
 30
0.0
 11
-48.33076851602164
 21
-1541.084450462407
 31
0.0
  0
LINE
  5
251
330
2
100
AcDbEntity
  8
Object
100
AcDbLine
 10
-50.33076851602072
 20
-1562.209563827156
 30
0.0
 11
-50.33076851602072
 21
-1559.309563827156
 31
0.0
  0
ARC
  5
252
330
2
100
AcDbEntity
  8
Object
100
AcDbCircle
 10
-48.80799409107112
 20
-1558.609563827156
 30
0.0
 40
0.5
100
AcDbArc
 50
270.0
 51
327.421029607203
  0
ARC
  5
253
330
2
100
AcDbEntity
  8
Object
100
AcDbCircle
 10
-50.1307685160209
 20
-1559.309563827157
 30
0.0
 40
0.2
100
AcDbArc
 50
90.0
 51
180.0
  0
LINE
  5
254
330
2
100
AcDbEntity
  8
Object
100
AcDbLine
 10
-50.23076851602081
 20
-1562.209563827156
 30
0.0
 11
-50.23076851602081
 21
-1559.209563827156
 31
0.0
  0
LINE
  5
255
330
2
100
AcDbEntity
  8
Object
100
AcDbLine
 10
-50.30397359677749
 20
-1559.209563827156
 30
0.0
 11
-48.33076851602072
 21
-1559.209563827156
 31
0.0
  0
ARC
  5
256
330
2
100
AcDbEntity
  8
Object
100
AcDbCircle
 10
-43.33076851601981
 20
-1562.109563827156
 30
0.0
 40
6.0
100
AcDbArc
 50
32.57897039281318
 51
147.4210296071867
  0
ARC
  5
257
330
2
100
AcDbEntity
  8
Object
100
AcDbCircle
 10
-43.33076851601981
 20
-1562.209563827156
 30
0.0
 40
6.0
100
AcDbArc
 50
150.0000000000006
 51
29.99999999999932
  0
LINE
  5
258
330
2
100
AcDbEntity
  8
Object
100
AcDbLine
 10
-46.15919564076557
 20
-1559.109563827155
 30
0.0
 11
-50.1307685160209
 21
-1559.109563827156
 31
0.0
  0
ARC
  5
259
330
2
100
AcDbEntity
  8
Object
100
AcDbCircle
 10
-48.33076851602072
 20
-1560.209563827156
 30
0.0
 40
1.0
100
AcDbArc
 50
0.0
 51
90.0
  0
LINE
  5
25A
330
2
100
AcDbEntity
  8
Object
100
AcDbLine
 10
-28.61603824799277
 20
-1547.755242986898
 30
0.0
 11
-28.61603824799277
 21
-1555.20956382715
 31
0.0
  0
ARC
  5
25B
330
2
100
AcDbEntity
  8
Object
100
AcDbCircle
 10
-32.83076851602118
 20
-1547.209563827149
 30
0.0
 40
7.0
100
AcDbArc
 50
0.0
 51
90.0
  0
LINE
  5
25C
330
2
100
AcDbEntity
  8
Object
100
AcDbLine
 10
-25.87965759330927
 20
-1555.209563827149
 30
0.0
 11
-34.59320643654314
 21
-1555.209563827149
 31
0.0
  0
ARC
  5
25D
330
2
100
AcDbEntity
  8
Object
100
AcDbCircle
 10
-33.61603824799277
 20
-1547.755242986898
 30
0.0
 40
5.0
100
AcDbArc
 50
0.0
 51
90.0
  0
TEXT
  5
25E
330
2
100
AcDbEntity
  8
text3
100
AcDbText
 10
-1.536500598303064
 20
-1637.278569860179
 30
0.0
 40
2.21184
  1
-0.009
 50
90.0
  7
Roman
100
AcDbText
  0
TEXT
  5
25F
330
2
100
AcDbEntity
  8
text3
100
AcDbText
 10
-4.157904683582273
 20
-1634.579469415417
 30
0.0
 40
2.21184
  1
0
 50
90.0
  7
Roman
100
AcDbText
  0
TEXT
  5
260
330
2
100
AcDbEntity
  8
text3
100
AcDbText
 10
-13.63804493565408
 20
-1613.05135121896
 30
0.0
 40
2.21184
  1
-0.025
 50
90.0
  7
Roman
100
AcDbText
  0
LINE
  5
262
330
2
100
AcDbEntity
  8
1
 62
     3
100
AcDbLine
 10
9.926091529579764
 20
-1615.00956382715
 30
0.0
 11
9.926091529579764
 21
-1623.00956382715
 31
0.0
  0
LINE
  5
263
330
2
100
AcDbEntity
  8
1
 62
     7
100
AcDbLine
 10
9.926091529579764
 20
-1623.00956382715
 30
0.0
 11
9.426091529579764
 21
-1622.50956382715
 31
0.0
  0
LINE
  5
264
330
2
100
AcDbEntity
  8
1
 62
     7
100
AcDbLine
 10
9.426091529579992
 20
-1615.50956382715
 30
0.0
 11
9.426091529579764
 21
-1622.509563827149
 31
0.0
  0
LINE
  5
269
330
2
100
AcDbEntity
  8
1
 62
     7
100
AcDbLine
 10
29.42609152957965
 20
-1646.70956382715
 30
0.0
 11
29.42609152957965
 21
-1591.30956382715
 31
0.0
  0
LINE
  5
26A
330
2
100
AcDbEntity
  8
1
 62
     7
100
AcDbLine
 10
38.32609152957962
 20
-1647.20956382715
 30
0.0
 11
38.32609152957962
 21
-1590.80956382715
 31
0.0
  0
LINE
  5
26B
330
2
100
AcDbEntity
  8
1
 62
     3
100
AcDbLine
 10
29.92609152957965
 20
-1647.20956382715
 30
0.0
 11
29.92609152957965
 21
-1619.00956382715
 31
0.0
  0
LINE
  5
26C
330
2
100
AcDbEntity
  8
1
 62
     7
100
AcDbLine
 10
27.82609152957963
 20
-1637.75956382715
 30
0.0
 11
27.82609152957963
 21
-1619.00956382715
 31
0.0
  0
LINE
  5
26D
330
2
100
AcDbEntity
  8
text3
100
AcDbLine
 10
34.42609152957965
 20
-1653.805343408469
 30
0.0
 11
39.42609152957965
 21
-1653.805343408469
 31
0.0
  0
DIMENSION
  5
26E
330
2
100
AcDbEntity
  8
text3
100
AcDbDimension
  2
*D7
 10
29.42609152957965
 20
-1661.728643041652
 30
0.0
 11
47.25942486291297
 21
-1661.728643041652
 31
0.0
 70
   129
 71
     5
 42
5.0
  3
DMST_1
100
AcDbAlignedDimension
 13
34.42609152957965
 23
-1647.20956382715
 33
0.0
 14
29.42609152957965
 24
-1647.20956382715
 34
0.0
1001
ACAD
1000
DSTYLE
1002
{
1070
   343
1005
0
1070
   173
1070
     1
1070
   344
1005
0
1070
    41
1040
5.0
1070
    42
1040
2.0
1070
    43
1040
0.38
1070
    44
1040
5.0
1070
    47
1040
0.0
1070
    48
1040
0.0
1070
    71
1070
     0
1070
    78
1070
     8
1070
    79
1070
     2
1070
   140
1040
4.0
1070
   141
1040
0.09
1070
   146
1040
1.0
1070
   147
1040
1.5
1070
   176
1070
     0
1070
   177
1070
     0
1070
   178
1070
     0
1070
   179
1070
     2
1070
   279
1070
     0
1002
}
  0
LINE
  5
27C
330
2
100
AcDbEntity
  8
1
 62
     7
100
AcDbLine
 10
34.42609152957965
 20
-1647.20956382715
 30
0.0
 11
38.32609152957962
 21
-1647.20956382715
 31
0.0
  0
SOLID
  5
27D
330
2
100
AcDbEntity
  8
text3
100
AcDbTrace
 10
22.82609152957962
 20
-1652.972010075135
 30
0.0
 11
22.82609152957962
 21
-1654.638676741802
 31
0.0
 12
27.82609152957962
 22
-1653.805343408469
 32
0.0
 13
27.82609152957962
 23
-1653.805343408469
 33
0.0
  0
SOLID
  5
27E
330
2
100
AcDbEntity
  8
text3
100
AcDbTrace
 10
34.42609152957965
 20
-1652.972010075135
 30
0.0
 11
34.42609152957965
 21
-1654.638676741802
 31
0.0
 12
29.42609152957965
 22
-1653.805343408469
 32
0.0
 13
29.42609152957965
 23
-1653.805343408469
 33
0.0
  0
LINE
  5
27F
330
2
100
AcDbEntity
  8
text3
100
AcDbLine
 10
27.82609152957962
 20
-1649.20956382715
 30
0.0
 11
27.82609152957962
 21
-1658.805343408469
 31
0.0
  0
LINE
  5
280
330
2
100
AcDbEntity
  8
text3
100
AcDbLine
 10
29.42609152957965
 20
-1649.20956382715
 30
0.0
 11
29.42609152957965
 21
-1658.805343408469
 31
0.0
  0
LINE
  5
281
330
2
100
AcDbEntity
  8
text3
100
AcDbLine
 10
27.82609152957962
 20
-1649.20956382715
 30
0.0
 11
27.82609152957962
 21
-1639.580584388202
 31
0.0
  0
LINE
  5
282
330
2
100
AcDbEntity
  8
1
 62
     7
100
AcDbLine
 10
34.42609152957965
 20
-1647.20956382715
 30
0.0
 11
34.42609152957965
 21
-1635.70956382715
 31
0.0
  0
LINE
  5
283
330
2
100
AcDbEntity
  8
1
 62
     7
100
AcDbLine
 10
29.92609152957965
 20
-1647.20956382715
 30
0.0
 11
34.42609152957965
 21
-1647.20956382715
 31
0.0
  0
LINE
  5
284
330
2
100
AcDbEntity
  8
1
 62
     7
100
AcDbLine
 10
29.42609152957965
 20
-1646.70956382715
 30
0.0
 11
29.92609152957965
 21
-1647.20956382715
 31
0.0
  0
LINE
  5
285
330
2
100
AcDbEntity
  8
1
 62
     7
100
AcDbLine
 10
29.42609152957965
 20
-1638.05956382715
 30
0.0
 11
28.12609152957969
 21
-1638.05956382715
 31
0.0
  0
LINE
  5
286
330
2
100
AcDbEntity
  8
1
 62
     7
100
AcDbLine
 10
27.82609152957963
 20
-1637.75956382715
 30
0.0
 11
28.12609152957969
 21
-1638.05956382715
 31
0.0
  0
LINE
  5
287
330
2
100
AcDbEntity
  8
1
 62
     7
100
AcDbLine
 10
38.32609152957962
 20
-1590.80956382715
 30
0.0
 11
34.42609152957965
 21
-1590.80956382715
 31
0.0
  0
LINE
  5
288
330
2
100
AcDbEntity
  8
1
 62
     7
100
AcDbLine
 10
34.42609152957965
 20
-1590.80956382715
 30
0.0
 11
29.92609152957965
 21
-1590.80956382715
 31
0.0
  0
LINE
  5
289
330
2
100
AcDbEntity
  8
1
 62
     3
100
AcDbLine
 10
29.92609152957965
 20
-1619.00956382715
 30
0.0
 11
29.92609152957965
 21
-1590.80956382715
 31
0.0
  0
LINE
  5
28A
330
2
100
AcDbEntity
  8
1
 62
     7
100
AcDbLine
 10
27.82609152957963
 20
-1619.00956382715
 30
0.0
 11
27.82609152957963
 21
-1600.25956382715
 31
0.0
  0
LINE
  5
28B
330
2
100
AcDbEntity
  8
1
 62
     7
100
AcDbLine
 10
28.12609152957969
 20
-1599.959563827149
 30
0.0
 11
29.42609152957965
 21
-1599.959563827149
 31
0.0
  0
LINE
  5
28C
330
2
100
AcDbEntity
  8
1
 62
     7
100
AcDbLine
 10
28.12609152957969
 20
-1599.959563827149
 30
0.0
 11
27.82609152957963
 21
-1600.25956382715
 31
0.0
  0
LINE
  5
28D
330
2
100
AcDbEntity
  8
1
 62
     7
100
AcDbLine
 10
29.92609152957965
 20
-1590.80956382715
 30
0.0
 11
29.42609152957965
 21
-1591.30956382715
 31
0.0
  0
LINE
  5
28E
330
2
100
AcDbEntity
  8
1
 62
     7
100
AcDbLine
 10
34.42609152957965
 20
-1602.30956382715
 30
0.0
 11
34.42609152957965
 21
-1590.80956382715
 31
0.0
  0
LINE
  5
291
330
2
100
AcDbEntity
  8
Object
100
AcDbLine
 10
9.92609152957964
 20
-1615.00956382715
 30
0.0
 11
27.82609152957963
 21
-1615.00956382715
 31
0.0
  0
LINE
  5
293
330
2
100
AcDbEntity
  8
Object
100
AcDbLine
 10
85.42609152957885
 20
-1584.609370947347
 30
0.0
 11
85.4260915295797
 21
-1550.724800571632
 31
0.0
  0
ARC
  5
294
330
2
100
AcDbEntity
  8
Object
100
AcDbCircle
 10
85.72609152956608
 20
-1573.115300278572
 30
0.0
 40
0.3
100
AcDbArc
 50
90.99999999997567
 51
180.0
  0
LINE
  5
295
330
2
100
AcDbEntity
  8
Center
 48
10.0
100
AcDbLine
 10
82.42609152957982
 20
-1562.209563827152
 30
0.0
 11
67.60795941915018
 21
-1562.209563827151
 31
0.0
  0
LINE
  5
296
330
2
100
AcDbEntity
  8
Object
 48
10.0
100
AcDbLine
 10
82.4260915295796
 20
-1566.209563827151
 30
0.0
 11
68.60795941915012
 21
-1566.209563827151
 31
0.0
  0
LINE
  5
297
330
2
100
AcDbEntity
  8
Object
 48
10.0
100
AcDbLine
 10
82.42609152958005
 20
-1558.209563827151
 30
0.0
 11
68.60795941915018
 21
-1558.209563827151
 31
0.0
  0
LINE
  5
29B
330
2
100
AcDbEntity
  8
Object
100
AcDbLine
 10
82.42609152957948
 20
-1568.209563827151
 30
0.0
 11
82.42609152958005
 21
-1559.209563827156
 31
0.0
  0
LINE
  5
29C
330
2
100
AcDbEntity
  8
Object
100
AcDbLine
 10
82.42609152958005
 20
-1559.209563827156
 30
0.0
 11
82.42609152958028
 21
-1550.98726656221
 31
0.0
  0
LINE
  5
29D
330
2
100
AcDbEntity
  8
Object
100
AcDbLine
 10
82.42609152957903
 20
-1569.359563827157
 30
0.0
 11
81.82609152957866
 21
-1569.359563827157
 31
0.0
  0
LINE
  5
29E
330
2
100
AcDbEntity
  8
Object
 48
0.5
100
AcDbLine
 10
81.82609152957866
 20
-1566.209563827151
 30
0.0
 11
81.82609152957866
 21
-1569.359563827157
 31
0.0
  0
POINT
  5
29F
330
2
100
AcDbEntity
  8
Hidden
100
AcDbPoint
 10
82.42609152957903
 20
-1569.209563827152
 30
0.0
  0
LINE
  5
2A1
330
2
100
AcDbEntity
  8
Object
 48
0.5
100
AcDbLine
 10
82.42609152957903
 20
-1569.359563827157
 30
0.0
 11
82.42609152957903
 21
-1564.059563827157
 31
0.0
  0
ARC
  5
2A2
330
2
100
AcDbEntity
  8
Object
  6
Continuous
100
AcDbCircle
 10
82.68507708868862
 20
-1550.055029539152
 30
0.0
 40
0.2
100
AcDbArc
 50
110.404721967104
 51
172.9492186620428
  0
ARC
  5
2A3
330
2
100
AcDbEntity
  8
Object
  6
Continuous
100
AcDbCircle
 10
82.8639990919483
 20
-1549.561693266266
 30
0.0
 40
0.2
100
AcDbArc
 50
290.404721967104
 51
349.1398297200888
  0
POINT
  5
2A4
330
2
100
AcDbEntity
  8
Object
  6
Continuous
100
AcDbPoint
 10
82.50248160105735
 20
-1549.909563827151
 30
0.0
  0
POINT
  5
2A5
330
2
100
AcDbEntity
  8
Object
  6
Continuous
100
AcDbPoint
 10
83.04012976662312
 20
-1549.709563827152
 30
0.0
  0
LINE
  5
2A6
330
2
100
AcDbEntity
  8
Object
  6
Continuous
100
AcDbLine
 10
82.6153472304532
 20
-1549.867578887325
 30
0.0
 11
82.9337289501837
 21
-1549.749143918093
 31
0.0
  0
ARC
  5
2A7
330
2
100
AcDbEntity
  8
Object
100
AcDbCircle
 10
85.72609152956653
 20
-1554.303827375728
 30
0.0
 40
0.3
100
AcDbArc
 50
180.0
 51
269.0000000000242
  0
LINE
  5
2A8
330
2
100
AcDbEntity
  8
Object
100
AcDbLine
 10
84.42609152956634
 20
-1559.109563827157
 30
0.0
 11
85.4260915295668
 21
-1559.074643057665
 31
0.0
  0
ARC
  5
2A9
330
2
100
AcDbEntity
  8
Object
100
AcDbCircle
 10
84.4260915295668
 20
-1570.244626285052
 30
0.0
 40
1.0
100
AcDbArc
 50
0.0
 51
88.99999999999824
  0
ARC
  5
2AA
330
2
100
AcDbEntity
  8
Object
 48
10.0
100
AcDbCircle
 10
83.42609152956635
 20
-1568.174033513361
 30
0.0
 40
1.0
100
AcDbArc
 50
180.0
 51
268.0000000000225
  0
LINE
  5
2AB
330
2
100
AcDbEntity
  8
Object
 48
10.0
100
AcDbLine
 10
84.4260915295659
 20
-1569.209563827151
 30
0.0
 11
83.39119203286424
 21
-1569.17342434038
 31
0.0
  0
ARC
  5
2AC
330
2
100
AcDbEntity
  8
Object
100
AcDbCircle
 10
83.42609152956635
 20
-1568.226866564036
 30
0.0
 40
1.0
100
AcDbArc
 50
180.0
 51
268.9999999999982
  0
LINE
  5
2AD
330
2
100
AcDbEntity
  8
Object
 48
10.0
100
AcDbLine
 10
84.4435439360041
 20
-1569.244778589896
 30
0.0
 11
83.40863912312903
 21
-1569.226714259193
 31
0.0
  0
ARC
  5
2AE
330
2
100
AcDbEntity
  8
Object
100
AcDbCircle
 10
82.62609152956617
 20
-1558.846584533212
 30
0.0
 40
0.2
100
AcDbArc
 50
180.0
 51
268.0000000000225
  0
LINE
  5
2AF
330
2
100
AcDbEntity
  8
Object
100
AcDbLine
 10
84.42609152956634
 20
-1559.109563827157
 30
0.0
 11
82.61911163022575
 21
-1559.046462698616
 31
0.0
  0
POINT
  5
2B0
330
2
100
AcDbEntity
  8
Hidden
100
AcDbPoint
 10
82.42609152956635
 20
-1559.209563827157
 30
0.0
  0
ARC
  5
2B1
330
2
100
AcDbEntity
  8
Object
 48
0.5
370
    30
100
AcDbCircle
 10
81.12609152957884
 20
-1567.959563827153
 30
0.0
 40
1.0
100
AcDbArc
 50
180.0
 51
250.6896266621385
  0
ARC
  5
2B2
330
2
100
AcDbEntity
  8
Object
 48
0.5
100
AcDbCircle
 10
80.85199745028422
 20
-1567.806434375577
 30
0.0
 40
0.4330127018920962
100
AcDbArc
 50
90.0
 51
270.0
  0
LINE
  5
2B3
330
2
100
AcDbEntity
  8
画層1
 62
     0
 48
0.5
370
    30
100
AcDbLine
 10
80.12609152957884
 20
-1566.209563827151
 30
0.0
 11
80.12609152957884
 21
-1567.959563827153
 31
0.0
  0
LINE
  5
2B5
330
2
100
AcDbEntity
  8
Object
 48
0.5
100
AcDbLine
 10
80.85199745028466
 20
-1567.373421673685
 30
0.0
 11
81.82609152957866
 21
-1567.373421673685
 31
0.0
  0
LINE
  5
2B6
330
2
100
AcDbEntity
  8
Object
 48
0.5
100
AcDbLine
 10
80.79540626815925
 20
-1568.903304924001
 30
0.0
 11
81.82609152957866
 21
-1568.903304924001
 31
0.0
  0
LINE
  5
2B7
330
2
100
AcDbEntity
  8
Object
 48
0.5
100
AcDbLine
 10
80.85199745028422
 20
-1568.239447077469
 30
0.0
 11
81.82609152957866
 21
-1568.239447077469
 31
0.0
  0
DIMENSION
  5
2B8
330
2
100
AcDbEntity
  8
text3
100
AcDbDimension
  2
*D4
 10
165.5654766151451
 20
-1647.20956382715
 30
0.0
 11
162.0654766151454
 21
-1593.709563827149
 31
0.0
 70
     1
  1
<>±1
 71
     5
 42
107.0000000000004
  3
DMST_1
100
AcDbAlignedDimension
 13
148.62609152958
 23
-1540.209563827149
 33
0.0
 14
148.6260915295791
 24
-1647.20956382715
 34
0.0
1001
ACAD
1000
DSTYLE
1002
{
1070
    41
1040
3.0
1070
    42
1040
2.0
1070
    43
1040
0.38
1070
    44
1040
5.0
1070
    47
1040
0.0
1070
    48
1040
0.0
1070
    71
1070
     0
1070
    78
1070
     8
1070
    79
1070
     2
1070
   140
1040
4.0
1070
   141
1040
1.0
1070
   146
1040
1.0
1070
   147
1040
1.5
1070
   176
1070
     0
1070
   177
1070
     0
1070
   178
1070
     0
1070
   179
1070
     2
1070
   279
1070
     0
1002
}
  0
LINE
  5
2C5
330
2
100
AcDbEntity
  8
0
100
AcDbLine
 10
107.5260915295792
 20
-1625.20956382715
 30
0.0
 11
107.5260915295792
 21
-1607.118091960609
 31
0.0
  0
LINE
  5
2C6
330
2
100
AcDbEntity
  8
Object
100
AcDbLine
 10
107.5260915295797
 20
-1644.011864609329
 30
0.0
 11
107.5260915295792
 21
-1590.20956382715
 31
0.0
  0
LINE
  5
2C7
330
2
100
AcDbEntity
  8
1
 62
     3
100
AcDbLine
 10
107.0260915295795
 20
-1647.20956382715
 30
0.0
 11
107.0260915295795
 21
-1590.80956382715
 31
0.0
  0
LINE
  5
2C8
330
2
100
AcDbEntity
  8
1
 62
     7
100
AcDbLine
 10
107.5260915295795
 20
-1646.70956382715
 30
0.0
 11
107.5260915295795
 21
-1591.30956382715
 31
0.0
  0
LINE
  5
2C9
330
2
100
AcDbEntity
  8
1
 62
     7
100
AcDbLine
 10
95.1260915295797
 20
-1647.20956382715
 30
0.0
 11
95.1260915295797
 21
-1590.80956382715
 31
0.0
  0
ARC
  5
2CA
330
2
100
AcDbEntity
  8
Object
100
AcDbCircle
 10
118.3260915295814
 20
-1623.70956382715
 30
0.0
 40
1.5
100
AcDbArc
 50
91.68033827256134
 51
268.3196617274385
  0
LINE
  5
2CB
330
2
100
AcDbEntity
  8
Object
100
AcDbLine
 10
125.8260915295799
 20
-1540.20956382715
 30
0.0
 11
125.8260915295803
 21
-1647.209563827149
 31
0.0
  0
LINE
  5
2CC
330
2
100
AcDbEntity
  8
Object
100
AcDbLine
 10
125.8260915295799
 20
-1647.209563827149
 30
0.0
 11
125.8260915295789
 21
-1540.20956382715
 31
0.0
  0
LINE
  5
2CD
330
2
100
AcDbEntity
  8
Object
100
AcDbLine
 10
148.6260915295791
 20
-1645.828891083671
 30
0.0
 11
148.62609152958
 21
-1541.590236570629
 31
0.0
  0
DIMENSION
  5
2CE
330
2
100
AcDbEntity
  8
text3
100
AcDbDimension
  2
*D3
 10
148.6260915295791
 20
-1656.837853911734
 30
0.0
 11
128.0760915295793
 21
-1653.337853911734
 31
0.0
 70
     1
  1
<>±1
 71
     5
 42
41.09999999999963
  3
DMST_1
100
AcDbAlignedDimension
 13
107.5260915295795
 23
-1646.70956382715
 33
0.0
 14
148.6260915295791
 24
-1646.70956382715
 34
0.0
1001
ACAD
1000
DSTYLE
1002
{
1070
    41
1040
5.0
1070
    42
1040
3.0
1070
    43
1040
0.38
1070
    44
1040
5.0
1070
    47
1040
0.0
1070
    48
1040
0.0
1070
    71
1070
     0
1070
    78
1070
     8
1070
    79
1070
     2
1070
   140
1040
4.0
1070
   141
1040
0.09
1070
   146
1040
1.0
1070
   147
1040
1.5
1070
   176
1070
     0
1070
   177
1070
     0
1070
   178
1070
     0
1070
   179
1070
     2
1070
   279
1070
     0
1002
}
  0
LINE
  5
2DB
330
2
100
AcDbEntity
  8
Object
100
AcDbLine
 10
125.8260915295673
 20
-1625.430227980692
 30
0.0
 11
118.2821066823258
 21
-1625.208918799534
 31
0.0
  0
LINE
  5
2DC
330
2
100
AcDbEntity
  8
Object
100
AcDbLine
 10
125.8260915295673
 20
-1632.430227980692
 30
0.0
 11
118.2821066823253
 21
-1632.208918799534
 31
0.0
  0
LINE
  5
2DD
330
2
100
AcDbEntity
  8
Object
100
AcDbLine
 10
125.8260915295673
 20
-1630.448177173124
 30
0.0
 11
118.2821066823253
 21
-1630.226867991965
 31
0.0
  0
LINE
  5
2DE
330
2
100
AcDbEntity
  8
Object
100
AcDbLine
 10
125.8260915295668
 20
-1628.988899673608
 30
0.0
 11
118.2821066823253
 21
-1629.210208854766
 31
0.0
  0
LINE
  5
2DF
330
2
100
AcDbEntity
  8
Object
100
AcDbLine
 10
125.8260915295803
 20
-1647.209563827149
 30
0.0
 11
121.8260915295789
 21
-1647.209563827149
 31
0.0
  0
LINE
  5
2E0
330
2
100
AcDbEntity
  8
Object
100
AcDbLine
 10
125.8260915295673
 20
-1639.430227980692
 30
0.0
 11
118.2821066823258
 21
-1639.208918799534
 31
0.0
  0
LINE
  5
2E1
330
2
100
AcDbEntity
  8
Object
100
AcDbLine
 10
125.8260915295673
 20
-1637.448177173124
 30
0.0
 11
118.2821066823258
 21
-1637.226867991965
 31
0.0
  0
LINE
  5
2E2
330
2
100
AcDbEntity
  8
Object
100
AcDbLine
 10
125.8260915295673
 20
-1635.988899673607
 30
0.0
 11
118.2821066823258
 21
-1636.210208854766
 31
0.0
  0
LINE
  5
2E3
330
2
100
AcDbEntity
  8
Object2
100
AcDbLine
 10
123.8260915295799
 20
-1647.20956382715
 30
0.0
 11
127.8260915295799
 21
-1647.20956382715
 31
0.0
  0
LINE
  5
2E4
330
2
100
AcDbEntity
  8
1
 62
     7
100
AcDbLine
 10
107.0260915295795
 20
-1647.20956382715
 30
0.0
 11
95.1260915295797
 21
-1647.20956382715
 31
0.0
  0
POINT
  5
2E5
330
2
100
AcDbEntity
  8
Text
100
AcDbPoint
 10
107.5260915295797
 20
-1646.959956398676
 30
0.0
  0
LINE
  5
2E6
330
2
100
AcDbEntity
  8
1
 62
     7
100
AcDbLine
 10
107.5260915295795
 20
-1646.70956382715
 30
0.0
 11
107.0260915295795
 21
-1647.20956382715
 31
0.0
  0
ARC
  5
2E7
330
2
100
AcDbEntity
  8
Object
100
AcDbCircle
 10
110.5260915295795
 20
-1644.011864609329
 30
0.0
 40
3.0
100
AcDbArc
 50
180.0
 51
269.0000000000003
  0
LINE
  5
2E8
330
2
100
AcDbEntity
  8
Object
100
AcDbLine
 10
121.8260915295789
 20
-1647.209563827149
 30
0.0
 11
110.4737343102676
 21
-1647.011407694798
 31
0.0
  0
ARC
  5
2E9
330
2
100
AcDbEntity
  8
Object
100
AcDbCircle
 10
118.326091529581
 20
-1630.70956382715
 30
0.0
 40
1.5
100
AcDbArc
 50
91.68033827256134
 51
268.3196617274385
  0
ARC
  5
2EA
330
2
100
AcDbEntity
  8
Object
100
AcDbCircle
 10
118.326091529581
 20
-1628.727513019581
 30
0.0
 40
1.5
100
AcDbArc
 50
221.3520290631664
 51
268.3196617274385
  0
ARC
  5
2EB
330
2
100
AcDbEntity
  8
Object
100
AcDbCircle
 10
118.3260915295814
 20
-1635.727513019581
 30
0.0
 40
1.5
100
AcDbArc
 50
221.3520290631664
 51
268.3196617274385
  0
ARC
  5
2EC
330
2
100
AcDbEntity
  8
Object
100
AcDbCircle
 10
118.3260915295814
 20
-1637.70956382715
 30
0.0
 40
1.5
100
AcDbArc
 50
91.68033827256134
 51
268.3196617274385
  0
LINE
  5
2ED
330
2
100
AcDbEntity
  8
Object
100
AcDbLine
 10
125.8260915295799
 20
-1647.209563827149
 30
0.0
 11
147.6435439360165
 21
-1646.828738778827
 31
0.0
  0
LINE
  5
2EE
330
2
100
AcDbEntity
  8
Object
100
AcDbLine
 10
125.8260915295664
 20
-1628.988899673608
 30
0.0
 11
125.8260915295668
 21
-1625.430227980692
 31
0.0
  0
LINE
  5
2EF
330
2
100
AcDbEntity
  8
Object
100
AcDbLine
 10
125.8260915295673
 20
-1625.430227980692
 30
0.0
 11
125.8260915295682
 21
-1628.988899673608
 31
0.0
  0
ARC
  5
2F0
330
2
100
AcDbEntity
  8
Object
100
AcDbCircle
 10
126.1260915295805
 20
-1646.904281609258
 30
0.0
 40
0.3
100
AcDbArc
 50
180.0
 51
270.9999999999757
  0
LINE
  5
2F1
330
2
100
AcDbEntity
  8
Object
100
AcDbLine
 10
125.8260915295664
 20
-1635.988899673608
 30
0.0
 11
125.8260915295664
 21
-1632.430227980692
 31
0.0
  0
LINE
  5
2F2
330
2
100
AcDbEntity
  8
Object
100
AcDbLine
 10
125.8260915295673
 20
-1632.430227980692
 30
0.0
 11
125.8260915295673
 21
-1635.988899673608
 31
0.0
  0
ARC
  5
2F3
330
2
100
AcDbEntity
  8
Object
100
AcDbCircle
 10
147.6260915295791
 20
-1645.828891083671
 30
0.0
 40
1.0
100
AcDbArc
 50
270.9999999999982
 51
359.9999999999995
  0
LINE
  5
2F4
330
2
100
AcDbEntity
  8
Object
100
AcDbLine
 10
125.8260915295794
 20
-1540.209563827149
 30
0.0
 11
121.8260915295789
 21
-1540.20956382715
 31
0.0
  0
LINE
  5
2F5
330
2
100
AcDbEntity
  8
Object2
100
AcDbLine
 10
123.8260915295799
 20
-1540.20956382715
 30
0.0
 11
127.8260915295799
 21
-1540.20956382715
 31
0.0
  0
LINE
  5
2F6
330
2
100
AcDbEntity
  8
Object
100
AcDbLine
 10
125.8260915295673
 20
-1623.448177173123
 30
0.0
 11
118.2821066823258
 21
-1623.226867991965
 31
0.0
  0
LINE
  5
2F7
330
2
100
AcDbEntity
  8
Object
100
AcDbLine
 10
125.8260915295664
 20
-1621.988899673607
 30
0.0
 11
118.2821066823258
 21
-1622.210208854766
 31
0.0
  0
LINE
  5
2F8
330
2
100
AcDbEntity
  8
Object
100
AcDbLine
 10
120.4260915295668
 20
-1556.192261090266
 30
0.0
 11
120.4260915295668
 21
-1571.226866564034
 31
0.0
  0
LINE
  5
2F9
330
2
100
AcDbEntity
  8
Object
100
AcDbLine
 10
107.5260915295792
 20
-1590.20956382715
 30
0.0
 11
90.2515940460662
 21
-1589.606325082442
 31
0.0
  0
LINE
  5
2FA
330
2
100
AcDbEntity
  8
1
 62
     7
100
AcDbLine
 10
95.1260915295797
 20
-1590.80956382715
 30
0.0
 11
107.0260915295795
 21
-1590.80956382715
 31
0.0
  0
ARC
  5
2FB
330
2
100
AcDbEntity
  8
Object
100
AcDbCircle
 10
119.4260915295668
 20
-1571.226866564034
 30
0.0
 40
1.0
100
AcDbArc
 50
271.0000000000017
 51
0.0
  0
POINT
  5
2FC
330
2
100
AcDbEntity
  8
Text
100
AcDbPoint
 10
120.4260915295668
 20
-1572.20956382715
 30
0.0
  0
LINE
  5
2FD
330
2
100
AcDbEntity
  8
1
 62
     7
100
AcDbLine
 10
107.0260915295795
 20
-1590.80956382715
 30
0.0
 11
107.5260915295795
 21
-1591.30956382715
 31
0.0
  0
ARC
  5
2FE
330
2
100
AcDbEntity
  8
Object
100
AcDbCircle
 10
118.3260915295814
 20
-1621.727513019581
 30
0.0
 40
1.5
100
AcDbArc
 50
221.3520290631664
 51
268.3196617274385
  0
LINE
  5
2FF
330
2
100
AcDbEntity
  8
Object
100
AcDbLine
 10
123.6517800440847
 20
-1540.049836779
 30
0.0
 11
89.72884558759904
 21
-1543.017708977476
 31
0.0
  0
LINE
  5
300
330
2
100
AcDbEntity
  8
Object
100
AcDbLine
 10
121.8260915295789
 20
-1540.20956382715
 30
0.0
 11
92.72884558759846
 21
-1542.755242986898
 31
0.0
  0
ARC
  5
301
330
2
100
AcDbEntity
  8
Object
100
AcDbCircle
 10
119.4260915295668
 20
-1556.192261090266
 30
0.0
 40
1.0
100
AcDbArc
 50
0.0
 51
88.99999999999824
  0
POINT
  5
302
330
2
100
AcDbEntity
  8
Text
100
AcDbPoint
 10
120.4260915295668
 20
-1555.20956382715
 30
0.0
  0
LINE
  5
303
330
2
100
AcDbEntity
  8
Object
100
AcDbLine
 10
125.8260915295799
 20
-1540.20956382715
 30
0.0
 11
147.6435439360173
 21
-1540.590388875472
 31
0.0
  0
ARC
  5
304
330
2
100
AcDbEntity
  8
Object
100
AcDbCircle
 10
126.1260915295796
 20
-1540.514846045042
 30
0.0
 40
0.3
100
AcDbArc
 50
89.00000000002431
 51
180.0
  0
ARC
  5
305
330
2
100
AcDbEntity
  8
Object
100
AcDbCircle
 10
147.62609152958
 20
-1541.590236570629
 30
0.0
 40
1.0
100
AcDbArc
 50
359.9999999999993
 51
89.00000000000114
  0
LINE
  5
BB4
330
2
100
AcDbEntity
  8
1
 62
     7
100
AcDbLine
 10
9.926091529579764
 20
-1615.00956382715
 30
0.0
 11
9.426091529579764
 21
-1615.50956382715
 31
0.0
  0
LINE
  5
D8D
330
2
100
AcDbEntity
  8
Object
100
AcDbLine
 10
7.847354040775087
 20
-1528.474719882911
 30
0.0
 11
-5.552645959224548
 21
-1528.474719882911
 31
0.0
  0
LINE
  5
D8E
330
2
100
AcDbEntity
  8
Object
100
AcDbLine
 10
8.04735404077536
 20
-1521.274719882911
 30
0.0
 11
-5.552645959224548
 21
-1521.274719882911
 31
0.0
  0
LINE
  5
D8F
330
2
100
AcDbEntity
  8
Object
100
AcDbLine
 10
7.847354040775087
 20
-1520.474719882911
 30
0.0
 11
-5.552645959224548
 21
-1520.474719882911
 31
0.0
  0
LINE
  5
D90
330
2
100
AcDbEntity
  8
Object
100
AcDbLine
 10
7.247354040775405
 20
-1533.689831512306
 30
0.0
 11
-1.452645959224639
 21
-1533.689831512306
 31
0.0
  0
LINE
  5
D91
330
2
100
AcDbEntity
  8
Object
100
AcDbLine
 10
8.04735404077536
 20
-1535.589831512306
 30
0.0
 11
-1.452645959224412
 21
-1535.589831512306
 31
0.0
  0
LINE
  5
D92
330
2
100
AcDbEntity
  8
Object
100
AcDbLine
 10
8.04735404077536
 20
-1534.689831512307
 30
0.0
 11
-1.452645959224639
 21
-1534.689831512307
 31
0.0
  0
LINE
  5
D93
330
2
100
AcDbEntity
  8
Object
100
AcDbLine
 10
-3.952645959224639
 20
-1548.659563827151
 30
0.0
 11
5.04735404077536
 21
-1548.659563827151
 31
0.0
  0
LINE
  5
D94
330
2
100
AcDbEntity
  8
Object
100
AcDbLine
 10
-3.752645959224366
 20
-1548.459563827151
 30
0.0
 11
5.04735404077536
 21
-1548.459563827151
 31
0.0
  0
LINE
  5
D95
330
2
100
AcDbEntity
  8
Object
100
AcDbLine
 10
7.247354040775405
 20
-1541.689831512306
 30
0.0
 11
-1.452645959224639
 21
-1541.689831512306
 31
0.0
  0
LINE
  5
D96
330
2
100
AcDbEntity
  8
Object
100
AcDbLine
 10
8.04735404077536
 20
-1539.789831512307
 30
0.0
 11
-1.452645959224639
 21
-1539.789831512306
 31
0.0
  0
LINE
  5
D97
330
2
100
AcDbEntity
  8
Object
100
AcDbLine
 10
8.04735404077536
 20
-1540.689831512306
 30
0.0
 11
-1.452645959224639
 21
-1540.689831512306
 31
0.0
  0
LINE
  5
D98
330
2
100
AcDbEntity
  8
Object
100
AcDbLine
 10
-3.752645959224366
 20
-1575.959563827151
 30
0.0
 11
5.04735404077536
 21
-1575.959563827151
 31
0.0
  0
LINE
  5
D99
330
2
100
AcDbEntity
  8
Object
100
AcDbLine
 10
-3.952645959224639
 20
-1575.759563827151
 30
0.0
 11
5.04735404077536
 21
-1575.759563827151
 31
0.0
  0
LINE
  5
D9A
330
2
100
AcDbEntity
  8
Object
100
AcDbLine
 10
0.5473540407755877
 20
-1564.259563827151
 30
0.0
 11
0.2473540407756332
 21
-1563.959563827151
 31
0.0
  0
LINE
  5
D9B
330
2
100
AcDbEntity
  8
Object
100
AcDbLine
 10
-1.35264595922473
 20
-1564.259563827151
 30
0.0
 11
-1.35264595922473
 21
-1562.659563827151
 31
0.0
  0
LINE
  5
D9C
330
2
100
AcDbEntity
  8
Object
100
AcDbLine
 10
-2.35264595922473
 20
-1564.259563827151
 30
0.0
 11
-2.35264595922473
 21
-1562.659563827151
 31
0.0
  0
LINE
  5
D9D
330
2
100
AcDbEntity
  8
Object
100
AcDbLine
 10
-3.952645959224639
 20
-1548.659563827151
 30
0.0
 11
-3.952645959224639
 21
-1575.759563827151
 31
0.0
  0
LINE
  5
D9E
330
2
100
AcDbEntity
  8
Object
100
AcDbLine
 10
-3.752645959224366
 20
-1555.309563827151
 30
0.0
 11
-3.752645959224366
 21
-1569.109563827151
 31
0.0
  0
LINE
  5
D9F
330
2
100
AcDbEntity
  8
Object
100
AcDbLine
 10
-2.35264595922473
 20
-1569.109563827151
 30
0.0
 11
-3.752645959224366
 21
-1569.109563827151
 31
0.0
  0
LINE
  5
DA0
330
2
100
AcDbEntity
  8
Object
100
AcDbLine
 10
-2.35264595922473
 20
-1570.309563827151
 30
0.0
 11
-3.752645959224366
 21
-1570.309563827151
 31
0.0
  0
ARC
  5
DA1
330
2
100
AcDbEntity
  8
Object
100
AcDbCircle
 10
-2.952645959224639
 20
-1569.709563827151
 30
0.0
 40
0.9999999999999829
100
AcDbArc
 50
143.1301023541644
 51
216.8698976458518
  0
LINE
  5
DA2
330
2
100
AcDbEntity
  8
Object
100
AcDbLine
 10
-3.752645959224366
 20
-1570.309563827151
 30
0.0
 11
-3.752645959224366
 21
-1575.959563827151
 31
0.0
  0
LINE
  5
DA3
330
2
100
AcDbEntity
  8
Object
100
AcDbLine
 10
-3.752645959224366
 20
-1575.959563827151
 30
0.0
 11
-3.952645959224639
 21
-1575.759563827151
 31
0.0
  0
LINE
  5
DA4
330
2
100
AcDbEntity
  8
Object
100
AcDbLine
 10
-2.35264595922473
 20
-1566.759563827151
 30
0.0
 11
-2.35264595922473
 21
-1565.159563827151
 31
0.0
  0
LINE
  5
DA5
330
2
100
AcDbEntity
  8
Object
100
AcDbLine
 10
-1.35264595922473
 20
-1566.759563827151
 30
0.0
 11
-1.35264595922473
 21
-1565.159563827151
 31
0.0
  0
LINE
  5
DA6
330
2
100
AcDbEntity
  8
Object
100
AcDbLine
 10
0.2473540407756332
 20
-1568.959563827151
 30
0.0
 11
-2.352645959224503
 21
-1568.959563827151
 31
0.0
  0
LINE
  5
DA7
330
2
100
AcDbEntity
  8
Object
100
AcDbLine
 10
0.5473540407755877
 20
-1569.259563827151
 30
0.0
 11
0.2473540407756332
 21
-1568.959563827151
 31
0.0
  0
LINE
  5
DA8
330
2
100
AcDbEntity
  8
Object
100
AcDbLine
 10
0.5473540407755877
 20
-1569.259563827151
 30
0.0
 11
-2.352645959224503
 21
-1569.259563827151
 31
0.0
  0
LINE
  5
DA9
330
2
100
AcDbEntity
  8
Object
100
AcDbLine
 10
0.2473540407756332
 20
-1570.459563827151
 30
0.0
 11
-2.352645959224503
 21
-1570.459563827151
 31
0.0
  0
LINE
  5
DAA
330
2
100
AcDbEntity
  8
Object
100
AcDbLine
 10
0.2473540407756332
 20
-1570.459563827151
 30
0.0
 11
0.5473540407753604
 21
-1570.159563827151
 31
0.0
  0
LINE
  5
DAB
330
2
100
AcDbEntity
  8
Object
100
AcDbLine
 10
0.5473540407755877
 20
-1570.159563827151
 30
0.0
 11
-2.352645959224503
 21
-1570.159563827151
 31
0.0
  0
LINE
  5
DAC
330
2
100
AcDbEntity
  8
Object
100
AcDbLine
 10
0.5473540407755877
 20
-1572.659563827151
 30
0.0
 11
-2.352645959224503
 21
-1572.659563827151
 31
0.0
  0
LINE
  5
DAD
330
2
100
AcDbEntity
  8
Object
100
AcDbLine
 10
0.5473540407755877
 20
-1574.259563827151
 30
0.0
 11
-2.352645959224503
 21
-1574.259563827151
 31
0.0
  0
LINE
  5
DAE
330
2
100
AcDbEntity
  8
Object
100
AcDbLine
 10
-2.35264595922473
 20
-1574.259563827151
 30
0.0
 11
-2.35264595922473
 21
-1572.659563827151
 31
0.0
  0
LINE
  5
DAF
330
2
100
AcDbEntity
  8
Object
100
AcDbLine
 10
0.5473540407755877
 20
-1574.259563827151
 30
0.0
 11
0.2473540407756332
 21
-1573.959563827151
 31
0.0
  0
LINE
  5
DB0
330
2
100
AcDbEntity
  8
Object
100
AcDbLine
 10
0.2473540407756332
 20
-1572.959563827151
 30
0.0
 11
0.5473540407753604
 21
-1572.659563827151
 31
0.0
  0
LINE
  5
DB1
330
2
100
AcDbEntity
  8
Object
100
AcDbLine
 10
0.2473540407756332
 20
-1573.959563827151
 30
0.0
 11
-2.352645959224503
 21
-1573.959563827151
 31
0.0
  0
LINE
  5
DB2
330
2
100
AcDbEntity
  8
Object
100
AcDbLine
 10
0.2473540407756332
 20
-1572.959563827151
 30
0.0
 11
-2.352645959224503
 21
-1572.959563827151
 31
0.0
  0
LINE
  5
DB3
330
2
100
AcDbEntity
  8
Object
100
AcDbLine
 10
-1.35264595922473
 20
-1574.259563827151
 30
0.0
 11
-1.35264595922473
 21
-1572.659563827151
 31
0.0
  0
LINE
  5
DB4
330
2
100
AcDbEntity
  8
Object
100
AcDbLine
 10
0.2473540407756332
 20
-1571.459563827151
 30
0.0
 11
-2.352645959224503
 21
-1571.459563827151
 31
0.0
  0
LINE
  5
DB5
330
2
100
AcDbEntity
  8
Object
100
AcDbLine
 10
0.5473540407755877
 20
-1571.759563827151
 30
0.0
 11
0.2473540407756332
 21
-1571.459563827151
 31
0.0
  0
LINE
  5
DB6
330
2
100
AcDbEntity
  8
Object
100
AcDbLine
 10
0.5473540407755877
 20
-1571.759563827151
 30
0.0
 11
-2.352645959224503
 21
-1571.759563827151
 31
0.0
  0
LINE
  5
DB7
330
2
100
AcDbEntity
  8
Object
100
AcDbLine
 10
-1.35264595922473
 20
-1571.759563827151
 30
0.0
 11
-1.35264595922473
 21
-1570.159563827151
 31
0.0
  0
LINE
  5
DB8
330
2
100
AcDbEntity
  8
Object
100
AcDbLine
 10
-2.35264595922473
 20
-1571.759563827151
 30
0.0
 11
-2.35264595922473
 21
-1570.159563827151
 31
0.0
  0
LINE
  5
DB9
330
2
100
AcDbEntity
  8
Object
100
AcDbLine
 10
0.5473540407755877
 20
-1566.759563827151
 30
0.0
 11
-2.352645959224503
 21
-1566.759563827151
 31
0.0
  0
LINE
  5
DBA
330
2
100
AcDbEntity
  8
Object
100
AcDbLine
 10
0.5473540407755877
 20
-1566.759563827151
 30
0.0
 11
0.2473540407756332
 21
-1566.459563827151
 31
0.0
  0
LINE
  5
DBB
330
2
100
AcDbEntity
  8
Object
100
AcDbLine
 10
0.2473540407756332
 20
-1566.459563827151
 30
0.0
 11
-2.352645959224503
 21
-1566.459563827151
 31
0.0
  0
LINE
  5
DBC
330
2
100
AcDbEntity
  8
Object
100
AcDbLine
 10
0.2473540407756332
 20
-1567.959563827151
 30
0.0
 11
-2.352645959224503
 21
-1567.959563827151
 31
0.0
  0
LINE
  5
DBD
330
2
100
AcDbEntity
  8
Object
100
AcDbLine
 10
0.2473540407756332
 20
-1567.959563827151
 30
0.0
 11
0.5473540407753604
 21
-1567.659563827151
 31
0.0
  0
LINE
  5
DBE
330
2
100
AcDbEntity
  8
Object
100
AcDbLine
 10
0.5473540407755877
 20
-1567.659563827151
 30
0.0
 11
-2.352645959224503
 21
-1567.659563827151
 31
0.0
  0
LINE
  5
DBF
330
2
100
AcDbEntity
  8
Object
100
AcDbLine
 10
-1.35264595922473
 20
-1569.259563827151
 30
0.0
 11
-1.35264595922473
 21
-1567.659563827151
 31
0.0
  0
LINE
  5
DC0
330
2
100
AcDbEntity
  8
Object
100
AcDbLine
 10
-2.35264595922473
 20
-1569.259563827151
 30
0.0
 11
-2.35264595922473
 21
-1567.659563827151
 31
0.0
  0
LINE
  5
DC1
330
2
100
AcDbEntity
  8
Object
100
AcDbLine
 10
0.2473540407756332
 20
-1565.459563827151
 30
0.0
 11
0.5473540407753604
 21
-1565.159563827151
 31
0.0
  0
LINE
  5
DC2
330
2
100
AcDbEntity
  8
Object
100
AcDbLine
 10
0.5473540407755877
 20
-1565.159563827151
 30
0.0
 11
-2.352645959224503
 21
-1565.159563827151
 31
0.0
  0
LINE
  5
DC3
330
2
100
AcDbEntity
  8
Object
100
AcDbLine
 10
0.5473540407755877
 20
-1564.259563827151
 30
0.0
 11
-2.352645959224503
 21
-1564.259563827151
 31
0.0
  0
LINE
  5
DC4
330
2
100
AcDbEntity
  8
Object
100
AcDbLine
 10
0.2473540407756332
 20
-1565.459563827151
 30
0.0
 11
-2.352645959224503
 21
-1565.459563827151
 31
0.0
  0
LINE
  5
DC5
330
2
100
AcDbEntity
  8
Object
100
AcDbLine
 10
-7.552645959223639
 20
-1529.474719882911
 30
0.0
 11
-13.35264595922473
 21
-1529.474719882911
 31
0.0
  0
LINE
  5
DC6
330
2
100
AcDbEntity
  8
Object
100
AcDbLine
 10
-8.552645959224549
 20
-1524.974719882911
 30
0.0
 11
-9.552645959224092
 21
-1524.974719882911
 31
0.0
  0
LINE
  5
DC7
330
2
100
AcDbEntity
  8
Object
100
AcDbLine
 10
-8.552645959224549
 20
-1523.974719882911
 30
0.0
 11
-9.552645959224092
 21
-1523.974719882911
 31
0.0
  0
LINE
  5
DC8
330
2
100
AcDbEntity
  8
Object
100
AcDbLine
 10
-6.552645959224548
 20
-1526.974719882911
 30
0.0
 11
-11.05264595922454
 21
-1526.974719882911
 31
0.0
  0
LINE
  5
DC9
330
2
100
AcDbEntity
  8
Object
100
AcDbLine
 10
-6.552645959224548
 20
-1521.974719882911
 30
0.0
 11
-11.05264595922454
 21
-1521.974719882911
 31
0.0
  0
LINE
  5
DCA
330
2
100
AcDbEntity
  8
Object
100
AcDbLine
 10
-7.552645959223639
 20
-1519.474719882911
 30
0.0
 11
-13.35264595922473
 21
-1519.474719882911
 31
0.0
  0
LINE
  5
DCB
330
2
100
AcDbEntity
  8
Object
100
AcDbLine
 10
-11.05264595922454
 20
-1528.674719882911
 30
0.0
 11
-11.05264595922454
 21
-1520.274719882911
 31
0.0
  0
LINE
  5
DCC
330
2
100
AcDbEntity
  8
Object
100
AcDbLine
 10
-13.55264595922409
 20
-1521.774719882911
 30
0.0
 11
-13.55264595922454
 21
-1519.674719882911
 31
0.0
  0
LINE
  5
DCD
330
2
100
AcDbEntity
  8
Object
100
AcDbLine
 10
-11.30264595922454
 20
-1526.974719882911
 30
0.0
 11
-11.30264595922454
 21
-1521.974719882911
 31
0.0
  0
LINE
  5
DCE
330
2
100
AcDbEntity
  8
Object
100
AcDbLine
 10
-11.55264595922455
 20
-1526.974719882911
 30
0.0
 11
-11.55264595922455
 21
-1521.974719882911
 31
0.0
  0
LINE
  5
DCF
330
2
100
AcDbEntity
  8
Object
100
AcDbLine
 10
-13.55264595922454
 20
-1529.274719882911
 30
0.0
 11
-13.35264595922473
 21
-1529.474719882911
 31
0.0
  0
LINE
  5
DD0
330
2
100
AcDbEntity
  8
Object
100
AcDbLine
 10
-11.05264595922454
 20
-1528.674719882911
 30
0.0
 11
-13.55264595922409
 21
-1528.674719882911
 31
0.0
  0
LINE
  5
DD1
330
2
100
AcDbEntity
  8
Object
100
AcDbLine
 10
-13.35264595922427
 20
-1526.974719882911
 30
0.0
 11
-13.55264595922409
 21
-1527.174719882911
 31
0.0
  0
LINE
  5
DD2
330
2
100
AcDbEntity
  8
Object
100
AcDbLine
 10
-11.30264595922454
 20
-1526.974719882911
 30
0.0
 11
-13.35264595922427
 21
-1526.974719882911
 31
0.0
  0
LINE
  5
DD3
330
2
100
AcDbEntity
  8
Object
100
AcDbLine
 10
-9.552645959224092
 20
-1524.974719882911
 30
0.0
 11
-9.552645959224092
 21
-1523.974719882911
 31
0.0
  0
LINE
  5
DD4
330
2
100
AcDbEntity
  8
Object
100
AcDbLine
 10
-9.052645959224092
 20
-1524.974719882911
 30
0.0
 11
-9.052645959224092
 21
-1523.974719882911
 31
0.0
  0
LINE
  5
DD5
330
2
100
AcDbEntity
  8
Object
100
AcDbLine
 10
-13.55264595922409
 20
-1527.174719882911
 30
0.0
 11
-13.55264595922454
 21
-1529.274719882911
 31
0.0
  0
LINE
  5
DD6
330
2
100
AcDbEntity
  8
Object
100
AcDbLine
 10
-13.35264595922427
 20
-1521.974719882911
 30
0.0
 11
-13.55264595922409
 21
-1521.774719882911
 31
0.0
  0
LINE
  5
DD7
330
2
100
AcDbEntity
  8
Object
100
AcDbLine
 10
-11.30264595922454
 20
-1521.974719882911
 30
0.0
 11
-13.35264595922427
 21
-1521.974719882911
 31
0.0
  0
LINE
  5
DD8
330
2
100
AcDbEntity
  8
Object
100
AcDbLine
 10
-13.55264595922454
 20
-1519.674719882911
 30
0.0
 11
-13.35264595922473
 21
-1519.474719882911
 31
0.0
  0
LINE
  5
DD9
330
2
100
AcDbEntity
  8
Object
100
AcDbLine
 10
-11.05264595922454
 20
-1520.274719882911
 30
0.0
 11
-13.55264595922409
 21
-1520.274719882911
 31
0.0
  0
LINE
  5
DDA
330
2
100
AcDbEntity
  8
Object
100
AcDbLine
 10
-5.552645959223639
 20
-1528.474719882911
 30
0.0
 11
-5.552645959224548
 21
-1521.274719882911
 31
0.0
  0
LINE
  5
DDB
330
2
100
AcDbEntity
  8
Object
100
AcDbLine
 10
-7.552645959224548
 20
-1521.974719882911
 30
0.0
 11
-7.552645959224548
 21
-1519.474719882911
 31
0.0
  0
LINE
  5
DDC
330
2
100
AcDbEntity
  8
Object
100
AcDbLine
 10
-2.35264595922473
 20
-1555.309563827151
 30
0.0
 11
-3.752645959224366
 21
-1555.309563827151
 31
0.0
  0
LINE
  5
DDD
330
2
100
AcDbEntity
  8
Object
100
AcDbLine
 10
-2.35264595922473
 20
-1554.109563827151
 30
0.0
 11
-3.752645959224366
 21
-1554.109563827151
 31
0.0
  0
LINE
  5
DDE
330
2
100
AcDbEntity
  8
Object
100
AcDbLine
 10
-6.552645959224093
 20
-1526.974719882911
 30
0.0
 11
-6.552645959224548
 21
-1521.974719882911
 31
0.0
  0
LINE
  5
DDF
330
2
100
AcDbEntity
  8
Object
100
AcDbLine
 10
-5.552645959224548
 20
-1528.474719882911
 30
0.0
 11
-7.552645959224548
 21
-1529.474719882911
 31
0.0
  0
LINE
  5
DE0
330
2
100
AcDbEntity
  8
Object
100
AcDbLine
 10
-8.552645959224092
 20
-1524.974719882911
 30
0.0
 11
-8.552645959224092
 21
-1523.974719882911
 31
0.0
  0
LINE
  5
DE1
330
2
100
AcDbEntity
  8
Object
100
AcDbLine
 10
-7.552645959224548
 20
-1526.974719882911
 30
0.0
 11
-7.552645959224548
 21
-1529.474719882911
 31
0.0
  0
LINE
  5
DE2
330
2
100
AcDbEntity
  8
Object
100
AcDbLine
 10
-3.752645959224366
 20
-1548.459563827151
 30
0.0
 11
-3.752645959224366
 21
-1554.109563827151
 31
0.0
  0
LINE
  5
DE3
330
2
100
AcDbEntity
  8
Object
100
AcDbLine
 10
-3.752645959224366
 20
-1548.459563827151
 30
0.0
 11
-3.952645959224639
 21
-1548.659563827151
 31
0.0
  0
ARC
  5
DE4
330
2
100
AcDbEntity
  8
Object
100
AcDbCircle
 10
-2.952645959224639
 20
-1554.709563827151
 30
0.0
 40
0.9999999999999829
100
AcDbArc
 50
143.1301023541481
 51
216.8698976458355
  0
LINE
  5
DE5
330
2
100
AcDbEntity
  8
Object
100
AcDbLine
 10
0.2473540407756332
 20
-1558.959563827151
 30
0.0
 11
-2.352645959224503
 21
-1558.959563827151
 31
0.0
  0
LINE
  5
DE6
330
2
100
AcDbEntity
  8
Object
100
AcDbLine
 10
0.2473540407756332
 20
-1558.959563827151
 30
0.0
 11
0.5473540407753604
 21
-1559.259563827151
 31
0.0
  0
LINE
  5
DE7
330
2
100
AcDbEntity
  8
Object
100
AcDbLine
 10
0.5473540407755877
 20
-1559.259563827151
 30
0.0
 11
-2.352645959224503
 21
-1559.259563827151
 31
0.0
  0
LINE
  5
DE8
330
2
100
AcDbEntity
  8
Object
100
AcDbLine
 10
0.5473540407755877
 20
-1556.759563827151
 30
0.0
 11
-2.352645959224503
 21
-1556.759563827151
 31
0.0
  0
LINE
  5
DE9
330
2
100
AcDbEntity
  8
Object
100
AcDbLine
 10
0.2473540407756332
 20
-1556.459563827151
 30
0.0
 11
0.5473540407753604
 21
-1556.759563827151
 31
0.0
  0
LINE
  5
DEA
330
2
100
AcDbEntity
  8
Object
100
AcDbLine
 10
0.2473540407756332
 20
-1556.459563827151
 30
0.0
 11
-2.352645959224503
 21
-1556.459563827151
 31
0.0
  0
LINE
  5
DEB
330
2
100
AcDbEntity
  8
Object
100
AcDbLine
 10
0.2473540407756332
 20
-1557.959563827151
 30
0.0
 11
-2.352645959224503
 21
-1557.959563827151
 31
0.0
  0
LINE
  5
DEC
330
2
100
AcDbEntity
  8
Object
100
AcDbLine
 10
0.5473540407755877
 20
-1557.659563827151
 30
0.0
 11
0.2473540407756332
 21
-1557.959563827151
 31
0.0
  0
LINE
  5
DED
330
2
100
AcDbEntity
  8
Object
100
AcDbLine
 10
0.5473540407755877
 20
-1557.659563827151
 30
0.0
 11
-2.352645959224503
 21
-1557.659563827151
 31
0.0
  0
LINE
  5
DEE
330
2
100
AcDbEntity
  8
Object
100
AcDbLine
 10
-1.35264595922473
 20
-1557.659563827151
 30
0.0
 11
-1.35264595922473
 21
-1559.259563827151
 31
0.0
  0
LINE
  5
DEF
330
2
100
AcDbEntity
  8
Object
100
AcDbLine
 10
-2.35264595922473
 20
-1557.659563827151
 30
0.0
 11
-2.35264595922473
 21
-1559.259563827151
 31
0.0
  0
LINE
  5
DF0
330
2
100
AcDbEntity
  8
Object
100
AcDbLine
 10
-1.35264595922473
 20
-1550.159563827151
 30
0.0
 11
-1.35264595922473
 21
-1551.759563827151
 31
0.0
  0
LINE
  5
DF1
330
2
100
AcDbEntity
  8
Object
100
AcDbLine
 10
-2.35264595922473
 20
-1550.159563827151
 30
0.0
 11
-2.35264595922473
 21
-1551.759563827151
 31
0.0
  0
LINE
  5
DF2
330
2
100
AcDbEntity
  8
Object
100
AcDbLine
 10
0.5473540407755877
 20
-1550.159563827151
 30
0.0
 11
0.2473540407756332
 21
-1550.459563827151
 31
0.0
  0
LINE
  5
DF3
330
2
100
AcDbEntity
  8
Object
100
AcDbLine
 10
0.5473540407755877
 20
-1550.159563827151
 30
0.0
 11
-2.352645959224503
 21
-1550.159563827151
 31
0.0
  0
LINE
  5
DF4
330
2
100
AcDbEntity
  8
Object
100
AcDbLine
 10
0.2473540407756332
 20
-1550.459563827151
 30
0.0
 11
-2.352645959224503
 21
-1550.459563827151
 31
0.0
  0
LINE
  5
DF5
330
2
100
AcDbEntity
  8
Object
100
AcDbLine
 10
0.5473540407755877
 20
-1555.159563827151
 30
0.0
 11
-2.352645959224503
 21
-1555.159563827151
 31
0.0
  0
LINE
  5
DF6
330
2
100
AcDbEntity
  8
Object
100
AcDbLine
 10
0.5473540407755877
 20
-1555.159563827151
 30
0.0
 11
0.2473540407756332
 21
-1555.459563827151
 31
0.0
  0
LINE
  5
DF7
330
2
100
AcDbEntity
  8
Object
100
AcDbLine
 10
0.2473540407756332
 20
-1555.459563827151
 30
0.0
 11
-2.35264595922473
 21
-1555.459563827151
 31
0.0
  0
LINE
  5
DF8
330
2
100
AcDbEntity
  8
Object
100
AcDbLine
 10
0.5473540407755877
 20
-1554.259563827151
 30
0.0
 11
-2.352645959224503
 21
-1554.259563827151
 31
0.0
  0
LINE
  5
DF9
330
2
100
AcDbEntity
  8
Object
100
AcDbLine
 10
0.5473540407755877
 20
-1552.659563827151
 30
0.0
 11
-2.352645959224503
 21
-1552.659563827151
 31
0.0
  0
LINE
  5
DFA
330
2
100
AcDbEntity
  8
Object
100
AcDbLine
 10
-2.35264595922473
 20
-1552.659563827151
 30
0.0
 11
-2.35264595922473
 21
-1554.259563827151
 31
0.0
  0
LINE
  5
DFB
330
2
100
AcDbEntity
  8
Object
100
AcDbLine
 10
0.5473540407755877
 20
-1552.659563827151
 30
0.0
 11
0.2473540407756332
 21
-1552.959563827151
 31
0.0
  0
LINE
  5
DFC
330
2
100
AcDbEntity
  8
Object
100
AcDbLine
 10
0.2473540407756332
 20
-1553.959563827151
 30
0.0
 11
0.5473540407755877
 21
-1554.259563827151
 31
0.0
  0
LINE
  5
DFD
330
2
100
AcDbEntity
  8
Object
100
AcDbLine
 10
0.2473540407756332
 20
-1552.959563827151
 30
0.0
 11
-2.352645959224503
 21
-1552.959563827151
 31
0.0
  0
LINE
  5
DFE
330
2
100
AcDbEntity
  8
Object
100
AcDbLine
 10
0.2473540407756332
 20
-1553.959563827151
 30
0.0
 11
-2.35264595922473
 21
-1553.959563827151
 31
0.0
  0
LINE
  5
DFF
330
2
100
AcDbEntity
  8
Object
100
AcDbLine
 10
-1.35264595922473
 20
-1552.659563827151
 30
0.0
 11
-1.35264595922473
 21
-1554.259563827151
 31
0.0
  0
LINE
  5
E00
330
2
100
AcDbEntity
  8
Object
100
AcDbLine
 10
0.2473540407756332
 20
-1551.459563827151
 30
0.0
 11
0.5473540407755877
 21
-1551.759563827151
 31
0.0
  0
LINE
  5
E01
330
2
100
AcDbEntity
  8
Object
100
AcDbLine
 10
0.5473540407755877
 20
-1551.759563827151
 30
0.0
 11
-2.352645959224503
 21
-1551.759563827151
 31
0.0
  0
LINE
  5
E02
330
2
100
AcDbEntity
  8
Object
100
AcDbLine
 10
0.2473540407756332
 20
-1551.459563827151
 30
0.0
 11
-2.352645959224503
 21
-1551.459563827151
 31
0.0
  0
LINE
  5
E03
330
2
100
AcDbEntity
  8
Object
100
AcDbLine
 10
-2.35264595922473
 20
-1555.159563827151
 30
0.0
 11
-2.35264595922473
 21
-1556.759563827151
 31
0.0
  0
LINE
  5
E04
330
2
100
AcDbEntity
  8
Object
100
AcDbLine
 10
-1.35264595922473
 20
-1555.159563827151
 30
0.0
 11
-1.35264595922473
 21
-1556.759563827151
 31
0.0
  0
LINE
  5
E05
330
2
100
AcDbEntity
  8
Object
100
AcDbLine
 10
-1.452645959224639
 20
-1533.689831512306
 30
0.0
 11
-1.452645959224639
 21
-1541.689831512306
 31
0.0
  0
LINE
  5
E06
330
2
100
AcDbEntity
  8
Object
100
AcDbLine
 10
-2.35264595922473
 20
-1560.159563827151
 30
0.0
 11
-2.35264595922473
 21
-1561.759563827151
 31
0.0
  0
LINE
  5
E07
330
2
100
AcDbEntity
  8
Object
100
AcDbLine
 10
-1.35264595922473
 20
-1560.159563827151
 30
0.0
 11
-1.35264595922473
 21
-1561.759563827151
 31
0.0
  0
LINE
  5
E08
330
2
100
AcDbEntity
  8
Object
100
AcDbLine
 10
0.5473540407755877
 20
-1560.159563827151
 30
0.0
 11
-2.352645959224503
 21
-1560.159563827151
 31
0.0
  0
LINE
  5
E09
330
2
100
AcDbEntity
  8
Object
100
AcDbLine
 10
0.5473540407755877
 20
-1560.159563827151
 30
0.0
 11
0.2473540407756332
 21
-1560.459563827151
 31
0.0
  0
LINE
  5
E0A
330
2
100
AcDbEntity
  8
Object
100
AcDbLine
 10
0.2473540407756332
 20
-1560.459563827151
 30
0.0
 11
-2.352645959224503
 21
-1560.459563827151
 31
0.0
  0
LINE
  5
E0B
330
2
100
AcDbEntity
  8
Object
100
AcDbLine
 10
0.2473540407756332
 20
-1562.959563827151
 30
0.0
 11
-2.352645959224503
 21
-1562.959563827151
 31
0.0
  0
LINE
  5
E0C
330
2
100
AcDbEntity
  8
Object
100
AcDbLine
 10
0.2473540407756332
 20
-1562.959563827151
 30
0.0
 11
0.5473540407753604
 21
-1562.659563827151
 31
0.0
  0
LINE
  5
E0D
330
2
100
AcDbEntity
  8
Object
100
AcDbLine
 10
0.5473540407755877
 20
-1562.659563827151
 30
0.0
 11
-2.352645959224503
 21
-1562.659563827151
 31
0.0
  0
LINE
  5
E0E
330
2
100
AcDbEntity
  8
Object
100
AcDbLine
 10
0.2473540407756332
 20
-1563.959563827151
 30
0.0
 11
-2.352645959224503
 21
-1563.959563827151
 31
0.0
  0
LINE
  5
E0F
330
2
100
AcDbEntity
  8
Object
100
AcDbLine
 10
0.5473540407755877
 20
-1561.759563827151
 30
0.0
 11
-2.352645959224503
 21
-1561.759563827151
 31
0.0
  0
LINE
  5
E10
330
2
100
AcDbEntity
  8
Object
100
AcDbLine
 10
0.2473540407756332
 20
-1561.459563827151
 30
0.0
 11
0.5473540407753604
 21
-1561.759563827151
 31
0.0
  0
LINE
  5
E11
330
2
100
AcDbEntity
  8
Object
100
AcDbLine
 10
0.2473540407756332
 20
-1561.459563827151
 30
0.0
 11
-2.352645959224503
 21
-1561.459563827151
 31
0.0
  0
LINE
  5
E12
330
2
100
AcDbEntity
  8
Object
100
AcDbLine
 10
-5.552645959224548
 20
-1520.474719882911
 30
0.0
 11
-7.552645959224548
 21
-1519.474719882911
 31
0.0
  0
ARC
  5
E13
330
2
100
AcDbEntity
  8
Object
100
AcDbCircle
 10
-5.552645959224548
 20
-1520.874719882911
 30
0.0
 40
0.4
100
AcDbArc
 50
90.0
 51
270.0
  0
LINE
  5
E14
330
2
100
AcDbEntity
  8
Object
100
AcDbLine
 10
66.60795941914984
 20
-1558.209563827151
 30
0.0
 11
23.75984876084447
 21
-1558.209563827151
 31
0.0
  0
LINE
  5
E15
330
2
100
AcDbEntity
  8
Center
  6
CENTER
100
AcDbLine
 10
66.6079594191505
 20
-1562.209563827151
 30
0.0
 11
23.75984876084447
 21
-1562.209563827151
 31
0.0
  0
LINE
  5
E16
330
2
100
AcDbEntity
  8
Object
100
AcDbLine
 10
23.75984876084447
 20
-1566.209563827151
 30
0.0
 11
66.60795941914984
 21
-1566.209563827151
 31
0.0
  0
ARC
  5
E17
330
2
100
AcDbEntity
  8
Object
100
AcDbCircle
 10
52.96350384308579
 20
-1549.209563827151
 30
0.0
 40
9.0
100
AcDbArc
 50
180.0
 51
270.0
  0
INSERT
  5
E18
330
2
100
AcDbEntity
  8
Dims
100
AcDbBlockReference
  2
1-178128-4-jo1
 10
39.96350384308579
 20
-1536.434052893683
 30
0.0
 50
180.0
  0
TEXT
  5
E19
330
2
100
AcDbEntity
  8
Object
100
AcDbText
 10
5.495527414974901
 20
-1563.005864978557
 30
0.0
 40
1.0
  1
JST 20
 50
270.0
100
AcDbText
  0
LWPOLYLINE
  5
E1A
330
2
100
AcDbEntity
  8
Object
100
AcDbPolyline
 90
        4
 70
     0
 43
0.3
 10
8.04735404077536
 20
-1565.209563827151
 10
9.650213617066754
 20
-1565.209563827151
 42
0.0396516019860022
 10
10.43951490422767
 20
-1565.146871137628
 10
23.75984876084447
 20
-1563.017419597082
  0
LWPOLYLINE
  5
E1B
330
2
100
AcDbEntity
  8
Object
100
AcDbPolyline
 90
        4
 70
     0
 43
0.3
 10
8.04735404077536
 20
-1567.209563827151
 10
9.392670945644056
 20
-1567.209563827151
 42
0.0651900857428688
 10
10.67996721604225
 20
-1567.04100960582
 10
23.75984876084447
 20
-1563.55599011037
  0
LWPOLYLINE
  5
E1C
330
2
100
AcDbEntity
  8
Object
100
AcDbPolyline
 90
        4
 70
     0
 43
0.3
 10
8.04735404077536
 20
-1569.209563827151
 10
9.145170986228948
 20
-1569.209563827151
 42
0.0894957036537148
 10
10.89264396985612
 20
-1568.89425572433
 10
23.75984876084447
 20
-1564.094560623657
  0
LINE
  5
E1D
330
2
100
AcDbEntity
  8
Object
100
AcDbLine
 10
7.04735404077536
 20
-1550.959563827151
 30
0.0
 11
7.04735404077536
 21
-1573.459563827151
 31
0.0
  0
LINE
  5
E1E
330
2
100
AcDbEntity
  8
Object
100
AcDbLine
 10
8.04735404077536
 20
-1547.359563827151
 30
0.0
 11
8.04735404077536
 21
-1577.059563827151
 31
0.0
  0
LINE
  5
E1F
330
2
100
AcDbEntity
  8
Object
100
AcDbLine
 10
23.75984876084447
 20
-1558.209563827151
 30
0.0
 11
23.75984876084447
 21
-1566.209563827151
 31
0.0
  0
LWPOLYLINE
  5
E20
330
2
100
AcDbEntity
  8
Object
100
AcDbPolyline
 90
        4
 70
     0
 43
0.3
 10
8.04735404077536
 20
-1571.209563827151
 10
8.910367560166321
 20
-1571.209563827151
 42
0.112265638776158
 10
11.07253581645721
 20
-1570.71789261191
 10
23.75984876084447
 20
-1564.633131136945
  0
LINE
  5
E21
330
2
100
AcDbEntity
  8
Object
100
AcDbLine
 10
5.04735404077536
 20
-1577.059563827151
 30
0.0
 11
5.04735404077536
 21
-1573.459563827151
 31
0.0
  0
LINE
  5
E22
330
2
100
AcDbEntity
  8
Object
100
AcDbLine
 10
5.04735404077536
 20
-1573.459563827151
 30
0.0
 11
7.04735404077536
 21
-1573.459563827151
 31
0.0
  0
LINE
  5
E23
330
2
100
AcDbEntity
  8
Object
100
AcDbLine
 10
7.046222458145336
 20
-1574.712965763274
 30
0.0
 11
7.046222458145336
 21
-1576.212965763274
 31
0.0
  0
LINE
  5
E24
330
2
100
AcDbEntity
  8
Object
100
AcDbLine
 10
7.046222458145336
 20
-1574.712965763274
 30
0.0
 11
5.546222458145336
 21
-1575.462965763274
 31
0.0
  0
LINE
  5
E25
330
2
100
AcDbEntity
  8
Object
100
AcDbLine
 10
5.546222458145336
 20
-1575.462965763274
 30
0.0
 11
7.046222458145336
 21
-1576.212965763274
 31
0.0
  0
LINE
  5
E26
330
2
100
AcDbEntity
  8
Object
100
AcDbLine
 10
8.04735404077536
 20
-1577.059563827151
 30
0.0
 11
5.04735404077536
 21
-1577.059563827151
 31
0.0
  0
LWPOLYLINE
  5
E27
330
2
100
AcDbEntity
  8
Object
100
AcDbPolyline
 90
        4
 70
     0
 43
0.3
 10
8.04735404077536
 20
-1561.209563827151
 10
9.914227875121185
 20
-1561.209563827151
 42
-0.0133102580627244
 10
10.18029159305109
 20
-1561.216647835669
 10
23.75984876084447
 20
-1561.940278570507
  0
LWPOLYLINE
  5
E28
330
2
100
AcDbEntity
  8
Object
100
AcDbPolyline
 90
        4
 70
     0
 43
0.3
 10
8.04735404077536
 20
-1563.209563827151
 10
9.914227875121412
 20
-1563.209563827151
 42
0.0133102580627244
 10
10.18029159305132
 20
-1563.202479818634
 10
23.75984876084447
 20
-1562.478849083795
  0
LWPOLYLINE
  5
E29
330
2
100
AcDbEntity
  8
Object
100
AcDbPolyline
 90
        4
 70
     0
 43
0.3
 10
8.04735404077536
 20
-1521.474719882911
 10
8.347508215613004
 20
-1521.474719882911
 42
-0.3297534451698269
 10
13.12904727926587
 20
-1525.012911351412
 10
23.75984876084447
 20
-1559.785996517358
  0
LWPOLYLINE
  5
E2A
330
2
100
AcDbEntity
  8
Object
100
AcDbPolyline
 90
        4
 70
     0
 43
0.3
 10
8.04735404077536
 20
-1524.474719882911
 10
8.404099686043025
 20
-1524.474719882911
 42
-0.3256819082115214
 10
13.16362412793108
 20
-1527.942751512784
 10
23.75984876084447
 20
-1560.863137543933
  0
LWPOLYLINE
  5
E2B
330
2
100
AcDbEntity
  8
Object
100
AcDbPolyline
 90
        4
 70
     0
 43
0.3
 10
8.04735404077536
 20
-1527.474719882911
 10
8.456736388340175
 20
-1527.474719882911
 42
-0.3218642003028505
 10
13.19463217770584
 20
-1530.87711433425
 10
23.75984876084447
 20
-1562.209563827151
  0
LWPOLYLINE
  5
E2C
330
2
100
AcDbEntity
  8
Object
100
AcDbPolyline
 90
        4
 70
     0
 43
0.3
 10
8.04735404077536
 20
-1534.689831512307
 10
8.807036939409898
 20
-1534.689831512307
 42
-0.2956990489431058
 10
13.3709082064758
 20
-1537.647509535328
 10
23.75984876084447
 20
-1560.863137543933
  0
LWPOLYLINE
  5
E2D
330
2
100
AcDbEntity
  8
Object
100
AcDbPolyline
 90
        4
 70
     0
 43
0.3
 10
8.04735404077536
 20
-1537.689831512307
 10
8.940398235853934
 20
-1537.689831512307
 42
-0.2853901843838895
 10
13.42332925310046
 20
-1540.475485221726
 10
23.75984876084447
 20
-1561.40170805722
  0
LWPOLYLINE
  5
E2E
330
2
100
AcDbEntity
  8
Object
100
AcDbPolyline
 90
        4
 70
     0
 10
8.04735404077536
 20
-1540.689831512306
 40
0.3
 41
0.3
 10
9.076093493743144
 20
-1540.689831512306
 40
0.3
 41
0.3
 42
-0.2747042088169623
 10
13.46776069092624
 20
-1543.299589008043
 40
0.3
 41
0.3
 10
23.75984876084447
 20
-1562.209563827151
 40
0.5
 41
0.5
  0
LWPOLYLINE
  5
E2F
330
2
100
AcDbEntity
  8
Object
100
AcDbPolyline
 90
        4
 70
     0
 43
0.3
 10
8.04735404077536
 20
-1553.209563827151
 10
8.910367560166321
 20
-1553.209563827151
 42
-0.112265638776158
 10
11.07253581645721
 20
-1553.701235042392
 10
23.75984876084447
 20
-1559.785996517358
  0
LWPOLYLINE
  5
E30
330
2
100
AcDbEntity
  8
Object
100
AcDbPolyline
 90
        4
 70
     0
 43
0.3
 10
8.04735404077536
 20
-1555.209563827151
 10
9.145170986228948
 20
-1555.209563827151
 42
-0.0894957036537151
 10
10.89264396985612
 20
-1555.524871929972
 10
23.75984876084447
 20
-1560.324567030645
  0
LWPOLYLINE
  5
E31
330
2
100
AcDbEntity
  8
Object
100
AcDbPolyline
 90
        4
 70
     0
 43
0.3
 10
8.04735404077536
 20
-1557.209563827151
 10
9.392670945644284
 20
-1557.209563827151
 42
-0.0651900857428688
 10
10.67996721604248
 20
-1557.378118048482
 10
23.75984876084447
 20
-1560.863137543933
  0
LWPOLYLINE
  5
E32
330
2
100
AcDbEntity
  8
Object
100
AcDbPolyline
 90
        4
 70
     0
 43
0.3
 10
8.04735404077536
 20
-1559.209563827151
 10
9.650213617066527
 20
-1559.209563827151
 42
-0.0396516019860023
 10
10.43951490422745
 20
-1559.272256516675
 10
23.75984876084447
 20
-1561.40170805722
  0
LINE
  5
E33
330
2
100
AcDbEntity
  8
Object
100
AcDbLine
 10
8.047354040775588
 20
-1528.274719882911
 30
0.0
 11
8.04735404077536
 21
-1520.674719882911
 31
0.0
  0
LINE
  5
E34
330
2
100
AcDbEntity
  8
Object
100
AcDbLine
 10
7.247354040775405
 20
-1536.939831512307
 30
0.0
 11
3.54735404077536
 21
-1536.939831512307
 31
0.0
  0
LINE
  5
E35
330
2
100
AcDbEntity
  8
Object
100
AcDbLine
 10
8.04735404077536
 20
-1532.789831512307
 30
0.0
 11
7.247354040775405
 21
-1532.789831512307
 31
0.0
  0
LINE
  5
E36
330
2
100
AcDbEntity
  8
Object
100
AcDbLine
 10
7.247354040775405
 20
-1533.289831512307
 30
0.0
 11
4.04735404077536
 21
-1533.289831512307
 31
0.0
  0
LINE
  5
E37
330
2
100
AcDbEntity
  8
Object
100
AcDbLine
 10
4.04735404077536
 20
-1533.289831512307
 30
0.0
 11
4.04735404077536
 21
-1533.689831512306
 31
0.0
  0
LINE
  5
E38
330
2
100
AcDbEntity
  8
Object
100
AcDbLine
 10
7.247354040775405
 20
-1532.789831512307
 30
0.0
 11
7.247354040775405
 21
-1533.689831512306
 31
0.0
  0
LINE
  5
E39
330
2
100
AcDbEntity
  8
Object
100
AcDbLine
 10
7.247354040775405
 20
-1535.589831512307
 30
0.0
 11
7.247354040775405
 21
-1536.939831512307
 31
0.0
  0
LINE
  5
E3A
330
2
100
AcDbEntity
  8
Object
100
AcDbLine
 10
3.54735404077536
 20
-1533.689831512306
 30
0.0
 11
3.54735404077536
 21
-1534.689831512307
 31
0.0
  0
LINE
  5
E3B
330
2
100
AcDbEntity
  8
Object
100
AcDbLine
 10
8.04735404077536
 20
-1528.274719882911
 30
0.0
 11
7.847354040775087
 21
-1528.474719882911
 31
0.0
  0
LINE
  5
E3C
330
2
100
AcDbEntity
  8
Object
100
AcDbLine
 10
7.247354040775405
 20
-1538.439831512307
 30
0.0
 11
3.54735404077536
 21
-1538.439831512307
 31
0.0
  0
LINE
  5
E3D
330
2
100
AcDbEntity
  8
Object
100
AcDbLine
 10
7.247354040775405
 20
-1542.089831512306
 30
0.0
 11
4.04735404077536
 21
-1542.089831512306
 31
0.0
  0
LINE
  5
E3E
330
2
100
AcDbEntity
  8
Object
100
AcDbLine
 10
4.04735404077536
 20
-1541.689831512306
 30
0.0
 11
4.04735404077536
 21
-1542.089831512306
 31
0.0
  0
LINE
  5
E3F
330
2
100
AcDbEntity
  8
Object
100
AcDbLine
 10
7.247354040775405
 20
-1538.439831512307
 30
0.0
 11
7.247354040775405
 21
-1539.789831512307
 31
0.0
  0
LINE
  5
E40
330
2
100
AcDbEntity
  8
Object
100
AcDbLine
 10
7.247354040775405
 20
-1541.689831512306
 30
0.0
 11
7.247354040775405
 21
-1542.589831512306
 31
0.0
  0
LINE
  5
E41
330
2
100
AcDbEntity
  8
Object
100
AcDbLine
 10
8.04735404077536
 20
-1542.589831512306
 30
0.0
 11
7.247354040775405
 21
-1542.589831512307
 31
0.0
  0
LINE
  5
E42
330
2
100
AcDbEntity
  8
Object
100
AcDbLine
 10
3.54735404077536
 20
-1541.689831512306
 30
0.0
 11
3.54735404077536
 21
-1540.689831512306
 31
0.0
  0
LINE
  5
E43
330
2
100
AcDbEntity
  8
Object
100
AcDbLine
 10
5.04735404077536
 20
-1547.359563827151
 30
0.0
 11
5.04735404077536
 21
-1550.959563827151
 31
0.0
  0
LINE
  5
E44
330
2
100
AcDbEntity
  8
Object
100
AcDbLine
 10
5.04735404077536
 20
-1550.959563827151
 30
0.0
 11
7.04735404077536
 21
-1550.959563827151
 31
0.0
  0
LINE
  5
E45
330
2
100
AcDbEntity
  8
Object
100
AcDbLine
 10
8.04735404077536
 20
-1547.359563827151
 30
0.0
 11
5.04735404077536
 21
-1547.359563827151
 31
0.0
  0
LINE
  5
E46
330
2
100
AcDbEntity
  8
Object
100
AcDbLine
 10
8.04735404077536
 20
-1532.789831512307
 30
0.0
 11
8.04735404077536
 21
-1542.589831512306
 31
0.0
  0
LINE
  5
E47
330
2
100
AcDbEntity
  8
Object
100
AcDbLine
 10
3.54735404077536
 20
-1536.939831512307
 30
0.0
 11
3.54735404077536
 21
-1538.439831512307
 31
0.0
  0
TEXT
  5
E48
330
2
100
AcDbEntity
  8
Object
100
AcDbText
 10
5.542662180654758
 20
-1559.744526562294
 30
0.0
 40
1.0
  1
H
 50
270.0
100
AcDbText
  0
LINE
  5
E49
330
2
100
AcDbEntity
  8
Object
100
AcDbLine
 10
8.04735404077536
 20
-1520.674719882911
 30
0.0
 11
7.847354040775087
 21
-1520.474719882911
 31
0.0
  0
LINE
  5
E4A
330
2
100
AcDbEntity
  8
Object
100
AcDbLine
 10
43.96350384308578
 20
-1544.582591579885
 30
0.0
 11
35.96350384308578
 21
-1544.582591579885
 31
0.0
  0
ARC
  5
E4B
330
2
100
AcDbEntity
  8
Object
100
AcDbCircle
 10
52.96350384308579
 20
-1549.209563827151
 30
0.0
 40
17.0
100
AcDbArc
 50
180.0
 51
211.9657187507948
  0
LWPOLYLINE
  5
E4C
330
2
100
AcDbEntity
  8
Object
100
AcDbPolyline
 90
        5
 70
     0
 43
0.3
 10
34.24850384308564
 20
-1536.434052893683
 10
34.24850384308564
 20
-1536.977588745147
 42
0.216102127730352
 10
35.95353971840558
 20
-1540.738334870196
 10
36.3534679677652
 20
-1541.088730560378
 42
-0.2021674280290146
 10
38.05137599650987
 20
-1544.582591579885
 42
-0.2021674280290146
  0
LINE
  5
E4D
330
2
100
AcDbEntity
  8
Object
100
AcDbLine
 10
35.96350384308578
 20
-1544.582591579885
 30
0.0
 11
35.96350384308578
 21
-1549.209563827151
 31
0.0
  0
ARC
  5
E4E
330
2
100
AcDbEntity
  8
Center
  6
CENTER
100
AcDbCircle
 10
52.96350384308579
 20
-1549.209563827151
 30
0.0
 40
13.0
100
AcDbArc
 50
180.0
 51
223.813061460396
  0
LWPOLYLINE
  5
E4F
330
2
100
AcDbEntity
  8
Object
100
AcDbPolyline
 90
        5
 70
     0
 43
0.3
 10
45.67850384308548
 20
-1536.434052893683
 10
45.67850384308548
 20
-1536.931996690352
 42
-0.2200502165146602
 10
43.91640096876921
 20
-1540.741986480822
 10
43.6306067174018
 20
-1540.984867022747
 42
0.2089452191475042
 10
41.87301152793605
 20
-1544.582591579885
 42
0.2089452191475042
  0
LINE
  5
E50
330
2
100
AcDbEntity
  8
Center
  6
CENTER
100
AcDbLine
 10
39.96350384308579
 20
-1549.209563827151
 30
0.0
 11
39.96350384308579
 21
-1544.582591579885
 31
0.0
  0
LWPOLYLINE
  5
E51
330
2
100
AcDbEntity
  8
Object
100
AcDbPolyline
 90
        6
 70
     0
 43
0.3
 10
41.86850384308553
 20
-1536.434052893683
 10
41.86850384308553
 20
-1538.736842011145
 42
-0.0794699954038677
 10
41.61904548465639
 20
-1540.296442636851
 10
41.11796220151467
 20
-1541.822741718311
 42
0.0794699954038734
 10
40.86850384308553
 20
-1543.382342344017
 10
40.86850384308553
 20
-1544.582591579885
  0
LWPOLYLINE
  5
E52
330
2
100
AcDbEntity
  8
Object
100
AcDbPolyline
 90
        6
 70
     0
 43
0.3
 10
38.05850384308559
 20
-1536.434052893683
 10
38.05850384308559
 20
-1538.736842011144
 42
0.0794699954038677
 10
38.30796220151473
 20
-1540.296442636849
 10
38.80904548465645
 20
-1541.82274171831
 42
-0.0794699954038734
 10
39.05850384308559
 20
-1543.382342344015
 10
39.05850384308559
 20
-1544.582591579885
  0
LINE
  5
E53
330
2
100
AcDbEntity
  8
Object
100
AcDbLine
 10
43.96350384308578
 20
-1549.209563827151
 30
0.0
 11
43.96350384308578
 21
-1544.582591579885
 31
0.0
  0
ARC
  5
E54
330
2
100
AcDbEntity
  8
Object
100
AcDbCircle
 10
65.10795941915029
 20
-1564.209563827151
 30
0.0
 40
2.499999999999983
100
AcDbArc
 50
306.8698976458517
 51
53.13010235415858
  0
ARC
  5
E55
330
2
100
AcDbEntity
  8
Object
100
AcDbCircle
 10
67.10795941915029
 20
-1564.209563827151
 30
0.0
 40
2.499999999999983
100
AcDbArc
 50
306.8698976458517
 51
53.13010235415858
  0
LINE
  5
E56
330
2
100
AcDbEntity
  8
Object
100
AcDbLine
 10
68.60795941914984
 20
-1566.209563827151
 30
0.0
 11
70.06752333004253
 21
-1566.209563827151
 31
0.0
  0
LINE
  5
E57
330
2
100
AcDbEntity
  8
Object
100
AcDbLine
 10
70.06752333004253
 20
-1558.209563827151
 30
0.0
 11
68.60795941914984
 21
-1558.209563827151
 31
0.0
  0
ARC
  5
E58
330
2
100
AcDbEntity
  8
Object
100
AcDbCircle
 10
68.10795941914984
 20
-1560.209563827151
 30
0.0
 40
2.499999999999914
100
AcDbArc
 50
126.8698976458414
 51
233.1301023541585
  0
ARC
  5
E59
330
2
100
AcDbEntity
  8
Object
100
AcDbCircle
 10
70.10795941914984
 20
-1560.209563827151
 30
0.0
 40
2.499999999999914
100
AcDbArc
 50
126.8698976458414
 51
233.1301023541585
  0
DIMENSION
  5
E67
330
2
100
AcDbEntity
  8
text3
100
AcDbDimension
  2
*D12
 10
82.42609152957903
 20
-1582.215294001915
 30
0.0
 11
45.23672278517719
 21
-1578.715294001915
 31
0.0
 70
    33
  1
300±50
 71
     5
 42
74.37873748880367
  3
DMST_1
100
AcDbAlignedDimension
 13
8.04735404077536
 23
-1577.059563827151
 33
0.0
 14
82.42609152957903
 24
-1577.059563827151
 34
0.0
1001
ACAD
1000
DSTYLE
1002
{
1070
    41
1040
5.0
1070
    42
1040
2.0
1070
    43
1040
0.38
1070
    44
1040
5.0
1070
    47
1040
0.0
1070
    48
1040
0.0
1070
    71
1070
     0
1070
    78
1070
     8
1070
    79
1070
     2
1070
   140
1040
4.0
1070
   141
1040
1.0
1070
   146
1040
1.0
1070
   147
1040
1.5
1070
   176
1070
     0
1070
   177
1070
     0
1070
   178
1070
     0
1070
   179
1070
     2
1070
   279
1070
     0
1002
}
  0
ARC
  5
E86
330
2
100
AcDbEntity
  8
text3
100
AcDbCircle
 10
52.96350384308579
 20
-1549.209563827151
 30
0.0
 40
3.0
100
AcDbArc
 50
180.0
 51
270.0
  0
LEADER
  5
E87
330
2
100
AcDbEntity
  8
text3
100
AcDbLeader
  3
DMST_1
 73
     0
 76
     2
 10
82.42609152958022
 20
-1552.209563827151
 30
0.0
 10
52.96350384308578
 20
-1552.209563827152
 30
0.0
340
E88
211
-1.0
221
0.0
231
0.0
210
0.0
220
0.0
230
-1.0
213
0.0
223
-2.0
233
0.0
1001
ACAD
1000
DSTYLE
1002
{
1070
    77
1070
     0
1070
    41
1040
5.0
1070
    42
1040
2.0
1070
    43
1040
0.38
1070
    44
1040
0.18
1070
    47
1040
0.0
1070
    48
1040
0.0
1070
    71
1070
     0
1070
    78
1070
     8
1070
    79
1070
     2
1070
   140
1040
4.0
1070
   141
1040
1.0
1070
   146
1040
1.0
1070
   147
1040
1.5
1070
   176
1070
     0
1070
   177
1070
     0
1070
   178
1070
     0
1070
   179
1070
     2
1070
   279
1070
     0
1002
}
  0
MTEXT
  5
E88
102
{ACAD_REACTORS
330
E87
102
}
330
2
100
AcDbEntity
  8
text3
100
AcDbMText
 10
83.92609152958023
 20
-1550.209563827152
 30
0.0
 40
4.0
 41
0.0
 71
     1
 72
     1
  1

 73
     1
 44
1.0
  0
LEADER
  5
E89
330
2
100
AcDbEntity
  8
text3
100
AcDbLeader
  3
DMST_1
 76
     2
 10
49.96350384308609
 20
-1536.434052893683
 30
0.0
 10
49.96350384308579
 20
-1549.209563827151
 30
0.0
211
-2.000000000000000E-16
221
-1.0
231
0.0
213
-2.0
223
4.000000000000000E-16
233
0.0
1001
ACAD
1000
DSTYLE
1002
{
1070
    77
1070
     0
1070
    41
1040
5.0
1070
    42
1040
2.0
1070
    43
1040
0.38
1070
    44
1040
0.18
1070
    47
1040
0.0
1070
    48
1040
0.0
1070
    71
1070
     0
1070
    78
1070
     8
1070
    79
1070
     2
1070
   140
1040
4.0
1070
   141
1040
1.0
1070
   146
1040
1.0
1070
   147
1040
1.5
1070
   176
1070
     0
1070
   177
1070
     0
1070
   178
1070
     0
1070
   179
1070
     2
1070
   279
1070
     0
1002
}
  0
LINE
  5
FEF
330
2
100
AcDbEntity
  8
1
 62
     2
100
AcDbLine
 10
-29.99301703440591
 20
-1725.038885876338
 30
0.0
 11
-15.2844675670355
 21
-1725.038885876338
 31
0.0
  0
LINE
  5
FF0
330
2
100
AcDbEntity
  8
1
 62
     2
100
AcDbLine
 10
-16.28908514825906
 20
-1730.933163693763
 30
0.0
 11
-29.99301703440591
 21
-1730.933163693763
 31
0.0
  0
LINE
  5
FF1
330
2
100
AcDbEntity
  8
1
 62
     7
100
AcDbLine
 10
-29.99301703440591
 20
-1734.355195824496
 30
0.0
 11
-16.87233448745445
 21
-1734.355195824496
 31
0.0
  0
LINE
  5
FF2
330
2
100
AcDbEntity
  8
1
 62
     7
100
AcDbLine
 10
-14.91228059418239
 20
-1722.855195824496
 30
0.0
 11
-26.09301703440604
 21
-1722.855195824496
 31
0.0
  0
LINE
  5
FF3
330
2
100
AcDbEntity
  8
Object2
100
AcDbLine
 10
-13.32259196615785
 20
-1713.528197579686
 30
0.0
 11
-26.23484312833687
 21
-1789.286771808058
 31
0.0
  0
LINE
  5
FF4
330
2
100
AcDbEntity
  8
Object2
100
AcDbLine
 10
-11.26637090914272
 20
-1713.528197579686
 30
0.0
 11
-24.17862207132174
 21
-1789.286771808058
 31
0.0
  0
TEXT
  5
FF5
330
2
100
AcDbEntity
  8
Object
100
AcDbText
 10
-108.0635967107675
 20
-1704.223145802888
 30
0.0
 40
3.84
  1
（キー溝）
  7
Roman
100
AcDbText
  0
DIMENSION
  5
FF6
330
2
100
AcDbEntity
  8
text3
100
AcDbDimension
  2
*D13
 10
-92.66982420408448
 20
-1774.404591248674
 30
0.0
 11
-70.96982420408443
 21
-1774.404591248674
 31
0.0
 70
   161
 71
     5
 42
6.200000000000045
  3
DMST_1
100
AcDbAlignedDimension
 13
-86.46982420408443
 23
-1751.055195824497
 33
0.0
 14
-92.66982420408448
 24
-1751.055195824497
 34
0.0
1001
ACAD
1000
DSTYLE
1002
{
1070
    41
1040
5.0
1070
    42
1040
2.0
1070
    43
1040
0.38
1070
    44
1040
5.0
1070
    47
1040
0.0
1070
    48
1040
0.0
1070
    71
1070
     0
1070
    78
1070
     8
1070
    79
1070
     2
1070
   140
1040
4.0
1070
   141
1040
2.0
1070
   146
1040
1.0
1070
   147
1040
1.5
1070
   176
1070
     0
1070
   177
1070
     0
1070
   178
1070
     0
1070
   179
1070
     2
1070
   279
1070
     0
1002
}
  0
TEXT
  5
FF7
330
2
100
AcDbEntity
  8
text3
100
AcDbText
 10
-99.67725259733601
 20
-1786.868697988074
 30
0.0
 40
3.456
  1
付属キー　3*3*16
  7
Roman
100
AcDbText
  0
LINE
  5
FF8
330
2
100
AcDbEntity
  8
1
  6
CENTER
 62
     1
100
AcDbLine
 10
-19.71867361942344
 20
-1751.055195824497
 30
0.0
 11
-57.55268710026865
 21
-1751.055195824497
 31
0.0
  0
DIMENSION
  5
FF9
330
2
100
AcDbEntity
  8
text3
100
AcDbDimension
  2
*D14
 10
-64.11377455072648
 20
-1755.055195824497
 30
0.0
 11
-64.11377455072619
 21
-1727.955195824496
 31
0.0
 70
   161
  1
Φ<>h6
 71
     5
 42
8.0
  3
DMST_1
100
AcDbAlignedDimension
 13
-54.49301703440591
 23
-1747.055195824496
 33
0.0
 14
-54.49301703440659
 24
-1755.055195824497
 34
0.0
1001
ACAD
1000
DSTYLE
1002
{
1070
    41
1040
5.0
1070
    42
1040
2.0
1070
    43
1040
0.38
1070
    44
1040
5.0
1070
    47
1040
0.0
1070
    48
1040
0.0
1070
    71
1070
     0
1070
    78
1070
     8
1070
    79
1070
     2
1070
   140
1040
4.0
1070
   141
1040
2.0
1070
   146
1040
1.0
1070
   147
1040
1.5
1070
   176
1070
     0
1070
   177
1070
     0
1070
   178
1070
     0
1070
   179
1070
     2
1070
   279
1070
     0
1002
}
  0
LINE
  5
FFA
330
2
100
AcDbEntity
  8
text3
100
AcDbLine
 10
-65.46982420408443
 20
-1774.404591248674
 30
0.0
 11
-56.36156096678263
 21
-1774.404591248674
 31
0.0
  0
DIMENSION
  5
FFB
330
2
100
AcDbEntity
  8
text3
100
AcDbDimension
  2
*D15
 10
-80.31318540316077
 20
-1752.555195824496
 30
0.0
 11
-80.3131854031605
 21
-1732.721862491163
 31
0.0
 70
   161
  1
<>P9
 71
     5
 42
3.0
  3
DMST_1
100
AcDbAlignedDimension
 13
-86.46982420408443
 23
-1749.555195824497
 33
0.0
 14
-86.46982420408443
 24
-1752.555195824496
 34
0.0
1001
ACAD
1000
DSTYLE
1002
{
1070
    41
1040
5.0
1070
    42
1040
2.0
1070
    43
1040
0.38
1070
    44
1040
5.0
1070
    47
1040
0.0
1070
    48
1040
0.0
1070
    71
1070
     0
1070
    78
1070
     8
1070
    79
1070
     2
1070
   140
1040
4.0
1070
   141
1040
2.0
1070
   146
1040
1.0
1070
   147
1040
1.5
1070
   176
1070
     0
1070
   177
1070
     0
1070
   178
1070
     0
1070
   179
1070
     2
1070
   279
1070
     0
1002
}
  0
LINE
  5
FFC
330
2
100
AcDbEntity
  8
Object
100
AcDbLine
 10
-84.96172496053663
 20
-1752.555195824496
 30
0.0
 11
-86.46982420408443
 21
-1752.555195824496
 31
0.0
  0
LINE
  5
FFD
330
2
100
AcDbEntity
  8
Object
100
AcDbLine
 10
-84.96172496053663
 20
-1749.555195824497
 30
0.0
 11
-86.46982420408443
 21
-1749.555195824497
 31
0.0
  0
LINE
  5
FFE
330
2
100
AcDbEntity
  8
Center
  6
CENTER
 48
0.5
100
AcDbLine
 10
-81.66982420408448
 20
-1751.055195824497
 30
0.0
 11
-95.66982420408448
 21
-1751.055195824497
 31
0.0
  0
ARC
  5
FFF
330
2
100
AcDbEntity
  8
Object
100
AcDbCircle
 10
-88.66982420408446
 20
-1751.055195824497
 30
0.0
 40
4.0
100
AcDbArc
 50
22.02431283704207
 51
337.9756871629579
  0
LINE
  5
1000
330
2
100
AcDbEntity
  8
Object
100
AcDbLine
 10
-86.46982420408443
 20
-1752.555195824496
 30
0.0
 11
-86.46982420408443
 21
-1749.555195824497
 31
0.0
  0
LINE
  5
1001
330
2
100
AcDbEntity
  8
Center
  6
CENTER
 48
0.5
100
AcDbLine
 10
-88.66982420408446
 20
-1758.055195824496
 30
0.0
 11
-88.66982420408446
 21
-1744.055195824497
 31
0.0
  0
TEXT
  5
1002
330
2
100
AcDbEntity
  8
text3
100
AcDbText
 10
-66.32453889275888
 20
-1772.870409075212
 30
0.0
 40
1.92
  1
-0.2
  7
Roman
100
AcDbText
  0
TEXT
  5
1003
330
2
100
AcDbEntity
  8
text3
100
AcDbText
 10
-63.9706040363971
 20
-1770.21888196865
 30
0.0
 40
1.92
  1
0
  7
Roman
100
AcDbText
  0
TEXT
  5
1004
330
2
100
AcDbEntity
  8
text3
100
AcDbText
 10
-84.35943720010454
 20
-1726.290128631843
 30
0.0
 40
1.92
  1
-0.006
 50
90.0
  7
Roman
100
AcDbText
  0
TEXT
  5
1005
330
2
100
AcDbEntity
  8
text3
100
AcDbText
 10
-81.7079100935427
 20
-1726.459034581445
 30
0.0
 40
1.92
  1
-0.031
 50
90.0
  7
Roman
100
AcDbText
  0
LINE
  5
1006
330
2
100
AcDbEntity
  8
text3
100
AcDbLine
 10
-80.31318540316073
 20
-1725.88852915783
 30
0.0
 11
-80.31318540316073
 21
-1714.901522162529
 31
0.0
  0
TEXT
  5
1007
330
2
100
AcDbEntity
  8
text3
100
AcDbText
 10
-65.69373114992521
 20
-1719.070689342317
 30
0.0
 40
1.92
  1
-0.009
 50
90.0
  7
Roman
100
AcDbText
  0
TEXT
  5
1008
330
2
100
AcDbEntity
  8
text3
100
AcDbText
 10
-68.34525825648706
 20
-1716.716754485956
 30
0.0
 40
1.92
  1
0
 50
90.0
  7
Roman
100
AcDbText
  0
LINE
  5
1009
330
2
100
AcDbEntity
  8
text3
100
AcDbLine
 10
-64.11377455072642
 20
-1721.703935911396
 30
0.0
 11
-64.11377455072642
 21
-1708.021018376968
 31
0.0
  0
LINE
  5
100A
330
2
100
AcDbEntity
  8
1
 62
     7
100
AcDbLine
 10
-34.99301703440591
 20
-1778.755195824496
 30
0.0
 11
-34.99301703440591
 21
-1723.355195824496
 31
0.0
  0
DIMENSION
  5
100B
330
2
100
AcDbEntity
  8
text3
100
AcDbDimension
  2
*D16
 10
-34.99301703440568
 20
-1715.239272295593
 30
0.0
 11
-44.99301703440568
 21
-1711.739272295593
 31
0.0
 70
    33
  1
<>±1
 71
     5
 42
20.0
  3
DMST_1
100
AcDbAlignedDimension
 13
-54.99301703440568
 23
-1747.555195824496
 33
0.0
 14
-34.99301703440568
 24
-1747.555195824496
 34
0.0
1001
ACAD
1000
DSTYLE
1002
{
1070
    41
1040
5.0
1070
    42
1040
2.0
1070
    43
1040
0.38
1070
    44
1040
5.0
1070
    47
1040
0.0
1070
    48
1040
0.0
1070
    71
1070
     0
1070
    78
1070
     8
1070
    79
1070
     2
1070
   140
1040
4.0
1070
   141
1040
2.0
1070
   146
1040
1.0
1070
   147
1040
1.5
1070
   176
1070
     0
1070
   177
1070
     0
1070
   178
1070
     0
1070
   179
1070
     2
1070
   279
1070
     0
1002
}
  0
DIMENSION
  5
100C
330
2
100
AcDbEntity
  8
text3
100
AcDbDimension
  2
*D17
 10
-54.99301703440536
 20
-1735.909486400262
 30
0.0
 11
-46.99301703440522
 21
-1735.909486400263
 31
0.0
 70
   161
 71
     5
 42
15.99999999999954
  3
DMST_1
100
AcDbAlignedDimension
 13
-38.99301703440613
 23
-1747.555195824497
 33
0.0
 14
-54.99301703440568
 24
-1747.555195824496
 34
0.0
1001
ACAD
1000
DSTYLE
1002
{
1070
    41
1040
5.0
1070
    42
1040
2.0
1070
    43
1040
0.38
1070
    44
1040
5.0
1070
    47
1040
0.0
1070
    48
1040
0.0
1070
    71
1070
     0
1070
    78
1070
     8
1070
    79
1070
     2
1070
   140
1040
4.0
1070
   141
1040
2.0
1070
   146
1040
1.0
1070
   147
1040
1.5
1070
   176
1070
     0
1070
   177
1070
     0
1070
   178
1070
     0
1070
   179
1070
     2
1070
   279
1070
     0
1002
}
  0
LINE
  5
100D
330
2
100
AcDbEntity
  8
1
 62
     3
100
AcDbLine
 10
-34.49301703440591
 20
-1751.055195824497
 30
0.0
 11
-34.49301703440591
 21
-1722.855195824496
 31
0.0
  0
LINE
  5
100E
330
2
100
AcDbEntity
  8
1
 62
     7
100
AcDbLine
 10
-36.59301703440604
 20
-1751.055195824497
 30
0.0
 11
-36.59301703440604
 21
-1732.305195824497
 31
0.0
  0
LINE
  5
100F
330
2
100
AcDbEntity
  8
1
 62
     7
100
AcDbLine
 10
-26.09301703440604
 20
-1779.255195824497
 30
0.0
 11
-26.09301703440604
 21
-1722.855195824496
 31
0.0
  0
LINE
  5
1010
330
2
100
AcDbEntity
  8
Object
100
AcDbLine
 10
-54.49301703440591
 20
-1755.055195824497
 30
0.0
 11
-36.59301703440604
 21
-1755.055195824497
 31
0.0
  0
LINE
  5
1011
330
2
100
AcDbEntity
  8
Object
100
AcDbLine
 10
-54.49301703440591
 20
-1747.055195824496
 30
0.0
 11
-36.59301703440604
 21
-1747.055195824496
 31
0.0
  0
LINE
  5
1012
330
2
100
AcDbEntity
  8
Object
100
AcDbLine
 10
-54.99301703440591
 20
-1752.555195824496
 30
0.0
 11
-40.49301703440614
 21
-1752.555195824496
 31
0.0
  0
LINE
  5
1013
330
2
100
AcDbEntity
  8
Object
100
AcDbLine
 10
-54.99301703440591
 20
-1749.555195824497
 30
0.0
 11
-40.49301703440614
 21
-1749.555195824497
 31
0.0
  0
LINE
  5
1014
330
2
100
AcDbEntity
  8
1
 62
     3
100
AcDbLine
 10
-54.49301703440568
 20
-1752.555195824496
 30
0.0
 11
-54.49301703440591
 21
-1755.055195824497
 31
0.0
  0
LINE
  5
1015
330
2
100
AcDbEntity
  8
1
 62
     7
100
AcDbLine
 10
-54.99301703440568
 20
-1747.555195824497
 30
0.0
 11
-54.99301703440591
 21
-1754.555195824496
 31
0.0
  0
LINE
  5
1016
330
2
100
AcDbEntity
  8
1
 62
     7
100
AcDbLine
 10
-54.49301703440591
 20
-1755.055195824497
 30
0.0
 11
-54.99301703440591
 21
-1754.555195824496
 31
0.0
  0
LINE
  5
1017
330
2
100
AcDbEntity
  8
1
 62
     7
100
AcDbLine
 10
-54.49301703440591
 20
-1747.055195824496
 30
0.0
 11
-54.99301703440591
 21
-1747.555195824497
 31
0.0
  0
LINE
  5
1018
330
2
100
AcDbEntity
  8
1
 62
     3
100
AcDbLine
 10
-54.49301703440591
 20
-1747.055195824496
 30
0.0
 11
-54.49301703440568
 21
-1749.555195824497
 31
0.0
  0
ARC
  5
1019
330
2
100
AcDbEntity
  8
Object
100
AcDbCircle
 10
-40.49301703440614
 20
-1751.055195824497
 30
0.0
 40
1.5
100
AcDbArc
 50
270.0
 51
90.0
  0
LINE
  5
101A
330
2
100
AcDbEntity
  8
text3
100
AcDbLine
 10
-38.99301703440613
 20
-1744.758060123725
 30
0.0
 11
-38.99301703440613
 21
-1750.106435330374
 31
0.0
  0
LINE
  5
101B
330
2
100
AcDbEntity
  8
1
 62
     3
100
AcDbLine
 10
-34.49301703440591
 20
-1779.255195824497
 30
0.0
 11
-34.49301703440591
 21
-1751.055195824497
 31
0.0
  0
LINE
  5
101C
330
2
100
AcDbEntity
  8
1
 62
     7
100
AcDbLine
 10
-29.99301703440591
 20
-1779.255195824497
 30
0.0
 11
-29.99301703440591
 21
-1767.755195824497
 31
0.0
  0
LINE
  5
101D
330
2
100
AcDbEntity
  8
1
 62
     7
100
AcDbLine
 10
-29.99301703440591
 20
-1779.255195824497
 30
0.0
 11
-26.09301703440604
 21
-1779.255195824497
 31
0.0
  0
LINE
  5
101E
330
2
100
AcDbEntity
  8
1
 62
     2
100
AcDbLine
 10
-24.15287967181114
 20
-1777.071505772656
 30
0.0
 11
-29.99301703440591
 21
-1777.071505772656
 31
0.0
  0
LINE
  5
101F
330
2
100
AcDbEntity
  8
1
 62
     7
100
AcDbLine
 10
-34.99301703440591
 20
-1778.755195824496
 30
0.0
 11
-34.49301703440591
 21
-1779.255195824497
 31
0.0
  0
LINE
  5
1020
330
2
100
AcDbEntity
  8
1
 62
     7
100
AcDbLine
 10
-34.49301703440591
 20
-1779.255195824497
 30
0.0
 11
-29.99301703440591
 21
-1779.255195824497
 31
0.0
  0
LINE
  5
1021
330
2
100
AcDbEntity
  8
1
 62
     7
100
AcDbLine
 10
-26.09301703440604
 20
-1779.255195824497
 30
0.0
 11
-24.52506664466449
 21
-1779.255195824497
 31
0.0
  0
LINE
  5
1022
330
2
100
AcDbEntity
  8
1
 62
     7
100
AcDbLine
 10
-29.99301703440591
 20
-1767.755195824497
 30
0.0
 11
-22.56501275139243
 21
-1767.755195824497
 31
0.0
  0
LINE
  5
1023
330
2
100
AcDbEntity
  8
1
 62
     2
100
AcDbLine
 10
-29.99301703440591
 20
-1771.17722795523
 30
0.0
 11
-23.14826209058759
 21
-1771.17722795523
 31
0.0
  0
LINE
  5
1024
330
2
100
AcDbEntity
  8
1
 62
     7
100
AcDbLine
 10
-36.59301703440604
 20
-1769.805195824496
 30
0.0
 11
-36.59301703440604
 21
-1751.055195824497
 31
0.0
  0
LINE
  5
1025
330
2
100
AcDbEntity
  8
1
 62
     7
100
AcDbLine
 10
-36.59301703440604
 20
-1769.805195824496
 30
0.0
 11
-36.29301703440586
 21
-1770.105195824496
 31
0.0
  0
LINE
  5
1026
330
2
100
AcDbEntity
  8
1
 62
     7
100
AcDbLine
 10
-34.99301703440591
 20
-1770.105195824496
 30
0.0
 11
-36.29301703440586
 21
-1770.105195824496
 31
0.0
  0
LINE
  5
1027
330
2
100
AcDbEntity
  8
1
 62
     7
100
AcDbLine
 10
-26.09301703440604
 20
-1722.855195824496
 30
0.0
 11
-29.99301703440591
 21
-1722.855195824496
 31
0.0
  0
LINE
  5
1028
330
2
100
AcDbEntity
  8
1
 62
     7
100
AcDbLine
 10
-29.99301703440591
 20
-1734.355195824496
 30
0.0
 11
-29.99301703440591
 21
-1722.855195824496
 31
0.0
  0
LINE
  5
1029
330
2
100
AcDbEntity
  8
1
 62
     7
100
AcDbLine
 10
-36.29301703440586
 20
-1732.005195824497
 30
0.0
 11
-36.59301703440604
 21
-1732.305195824497
 31
0.0
  0
LINE
  5
102A
330
2
100
AcDbEntity
  8
1
 62
     7
100
AcDbLine
 10
-36.29301703440586
 20
-1732.005195824497
 30
0.0
 11
-34.99301703440591
 21
-1732.005195824497
 31
0.0
  0
LINE
  5
102B
330
2
100
AcDbEntity
  8
1
 62
     7
100
AcDbLine
 10
-34.49301703440591
 20
-1722.855195824496
 30
0.0
 11
-34.99301703440591
 21
-1723.355195824496
 31
0.0
  0
LINE
  5
102C
330
2
100
AcDbEntity
  8
1
 62
     7
100
AcDbLine
 10
-29.99301703440591
 20
-1722.855195824496
 30
0.0
 11
-34.49301703440591
 21
-1722.855195824496
 31
0.0
  0
LINE
  5
102D
330
2
100
AcDbEntity
  8
Object
100
AcDbLine
 10
146.4672476425979
 20
-1749.118704151392
 30
0.0
 11
130.4672476425985
 21
-1752.9916874976
 31
0.0
  0
LINE
  5
102E
330
2
100
AcDbEntity
  8
Object
100
AcDbLine
 10
130.4672476425983
 20
-1749.118704151392
 30
0.0
 11
146.4672476425981
 21
-1752.991687497601
 31
0.0
  0
LINE
  5
102F
330
2
100
AcDbEntity
  8
Object
100
AcDbLine
 10
130.4672476425985
 20
-1752.9916874976
 30
0.0
 11
146.4672476425981
 21
-1752.991687497601
 31
0.0
  0
LINE
  5
1030
330
2
100
AcDbEntity
  8
Object
100
AcDbLine
 10
130.9672476425981
 20
-1755.055195824497
 30
0.0
 11
148.8672476425979
 21
-1755.055195824497
 31
0.0
  0
LINE
  5
1031
330
2
100
AcDbEntity
  8
Object
100
AcDbLine
 10
130.4672476425983
 20
-1749.118704151392
 30
0.0
 11
146.4672476425979
 21
-1749.118704151392
 31
0.0
  0
LINE
  5
1032
330
2
100
AcDbEntity
  8
Object
100
AcDbLine
 10
130.4672476425983
 20
-1747.555195824497
 30
0.0
 11
146.4672476425976
 21
-1747.555195824497
 31
0.0
  0
LINE
  5
1033
330
2
100
AcDbEntity
  8
Center
  6
CENTER
100
AcDbLine
 10
165.7415910575805
 20
-1751.055195824497
 30
0.0
 11
127.9075775767353
 21
-1751.055195824497
 31
0.0
  0
DIMENSION
  5
1034
330
2
100
AcDbEntity
  8
text3
100
AcDbDimension
  2
*D18
 10
150.4672476425983
 20
-1715.923731606339
 30
0.0
 11
140.4672476425983
 21
-1712.423731606339
 31
0.0
 70
    33
  1
<>±1
 71
     5
 42
20.0
  3
DMST_1
100
AcDbAlignedDimension
 13
130.4672476425983
 23
-1747.555195824497
 33
0.0
 14
150.4672476425983
 24
-1747.555195824497
 34
0.0
1001
ACAD
1000
DSTYLE
1002
{
1070
    41
1040
5.0
1070
    42
1040
2.0
1070
    43
1040
0.38
1070
    44
1040
5.0
1070
    47
1040
0.0
1070
    48
1040
0.0
1070
    71
1070
     0
1070
    78
1070
     8
1070
    79
1070
     2
1070
   140
1040
4.0
1070
   141
1040
2.0
1070
   146
1040
1.0
1070
   147
1040
1.5
1070
   176
1070
     0
1070
   177
1070
     0
1070
   178
1070
     0
1070
   179
1070
     2
1070
   279
1070
     0
1002
}
  0
DIMENSION
  5
1035
330
2
100
AcDbEntity
  8
text3
100
AcDbDimension
  2
*D19
 10
130.4672476425985
 20
-1740.806889725893
 30
0.0
 11
138.4672476425983
 21
-1737.306889725893
 31
0.0
 70
    33
 71
     5
 42
15.99999999999931
  3
DMST_1
100
AcDbAlignedDimension
 13
146.4672476425976
 23
-1747.555195824497
 33
0.0
 14
130.4672476425983
 24
-1747.555195824497
 34
0.0
1001
ACAD
1000
DSTYLE
1002
{
1070
    41
1040
5.0
1070
    42
1040
2.0
1070
    43
1040
0.38
1070
    44
1040
5.0
1070
    47
1040
0.0
1070
    48
1040
0.0
1070
    71
1070
     0
1070
    78
1070
     8
1070
    79
1070
     2
1070
   140
1040
4.0
1070
   141
1040
2.0
1070
   146
1040
1.0
1070
   147
1040
1.5
1070
   176
1070
     0
1070
   177
1070
     0
1070
   178
1070
     0
1070
   179
1070
     2
1070
   279
1070
     0
1002
}
  0
LINE
  5
1036
330
2
100
AcDbEntity
  8
1
 62
     2
100
AcDbLine
 10
61.64374595810119
 20
-1777.071505772656
 30
0.0
 11
55.80360859550643
 21
-1777.071505772656
 31
0.0
  0
LINE
  5
1037
330
2
100
AcDbEntity
  8
1
 62
     7
100
AcDbLine
 10
59.7036085955063
 20
-1779.255195824497
 30
0.0
 11
61.27155898524785
 21
-1779.255195824497
 31
0.0
  0
LINE
  5
1038
330
2
100
AcDbEntity
  8
1
 62
     7
100
AcDbLine
 10
55.80360859550643
 20
-1767.755195824497
 30
0.0
 11
63.23161287851991
 21
-1767.755195824497
 31
0.0
  0
LINE
  5
1039
330
2
100
AcDbEntity
  8
1
 62
     2
100
AcDbLine
 10
55.80360859550643
 20
-1771.17722795523
 30
0.0
 11
62.64836353932475
 21
-1771.17722795523
 31
0.0
  0
LINE
  5
103A
330
2
100
AcDbEntity
  8
1
  6
CENTER
 62
     1
100
AcDbLine
 10
66.0779520104889
 20
-1751.055195824497
 30
0.0
 11
28.24393852964368
 21
-1751.055195824497
 31
0.0
  0
LINE
  5
103B
330
2
100
AcDbEntity
  8
Object2
100
AcDbLine
 10
72.47403366375448
 20
-1713.528197579686
 30
0.0
 11
59.56178250157546
 21
-1789.286771808058
 31
0.0
  0
LINE
  5
103C
330
2
100
AcDbEntity
  8
1
 62
     2
100
AcDbLine
 10
55.80360859550643
 20
-1725.038885876338
 30
0.0
 11
70.51215806287684
 21
-1725.038885876338
 31
0.0
  0
LINE
  5
103D
330
2
100
AcDbEntity
  8
1
 62
     2
100
AcDbLine
 10
69.50754048165328
 20
-1730.933163693763
 30
0.0
 11
55.80360859550643
 21
-1730.933163693763
 31
0.0
  0
LINE
  5
103E
330
2
100
AcDbEntity
  8
1
 62
     7
100
AcDbLine
 10
70.88434503572995
 20
-1722.855195824496
 30
0.0
 11
59.7036085955063
 21
-1722.855195824496
 31
0.0
  0
LINE
  5
103F
330
2
100
AcDbEntity
  8
1
 62
     7
100
AcDbLine
 10
55.80360859550643
 20
-1734.355195824496
 30
0.0
 11
68.92429114245789
 21
-1734.355195824496
 31
0.0
  0
DIMENSION
  5
1040
330
2
100
AcDbEntity
  8
text3
100
AcDbDimension
  2
*D20
 10
5.684418173529875
 20
-1775.334068565263
 30
0.0
 11
27.91775150686322
 21
-1775.334068565263
 31
0.0
 70
   161
  1
<>±0.2
 71
     5
 42
7.5
  3
DMST_1
100
AcDbAlignedDimension
 13
-1.815581826470122
 23
-1751.055195824497
 33
0.0
 14
5.684418173529877
 24
-1751.055195824497
 34
0.0
1001
ACAD
1000
DSTYLE
1002
{
1070
    41
1040
5.0
1070
    42
1040
2.0
1070
    43
1040
0.38
1070
    44
1040
5.0
1070
    47
1040
0.0
1070
    48
1040
0.0
1070
    71
1070
     0
1070
    78
1070
     8
1070
    79
1070
     2
1070
   140
1040
4.0
1070
   141
1040
2.0
1070
   146
1040
1.0
1070
   147
1040
1.5
1070
   176
1070
     0
1070
   177
1070
     0
1070
   178
1070
     0
1070
   179
1070
     2
1070
   279
1070
     0
1002
}
  0
DIMENSION
  5
1041
330
2
100
AcDbEntity
  8
text3
100
AcDbDimension
  2
*D21
 10
21.68285107918586
 20
-1755.055195824496
 30
0.0
 11
21.68285107918614
 21
-1727.955195824496
 31
0.0
 70
   161
  1
Φ<>h6
 71
     5
 42
8.0
  3
DMST_1
100
AcDbAlignedDimension
 13
31.30360859550643
 23
-1747.055195824496
 33
0.0
 14
31.30360859550575
 24
-1755.055195824496
 34
0.0
1001
ACAD
1000
DSTYLE
1002
{
1070
    41
1040
5.0
1070
    42
1040
2.0
1070
    43
1040
0.38
1070
    44
1040
5.0
1070
    47
1040
0.0
1070
    48
1040
0.0
1070
    71
1070
     0
1070
    78
1070
     8
1070
    79
1070
     2
1070
   140
1040
4.0
1070
   141
1040
2.0
1070
   146
1040
1.0
1070
   147
1040
1.5
1070
   176
1070
     0
1070
   177
1070
     0
1070
   178
1070
     0
1070
   179
1070
     2
1070
   279
1070
     0
1002
}
  0
CIRCLE
  5
1042
330
2
100
AcDbEntity
  8
Object2
100
AcDbCircle
 10
2.184418173529877
 20
-1751.055195824497
 30
0.0
 40
3.5
  0
ARC
  5
1043
330
2
100
AcDbEntity
  8
Object
100
AcDbCircle
 10
2.184418173529877
 20
-1751.055195824497
 30
0.0
 40
4.0
100
AcDbArc
 50
28.95502437187601
 51
331.044975628124
  0
LINE
  5
1044
330
2
100
AcDbEntity
  8
Center
  6
CENTER
 48
0.5
100
AcDbLine
 10
9.184418173529878
 20
-1751.055195824497
 30
0.0
 11
-4.815581826470122
 21
-1751.055195824497
 31
0.0
  0
LINE
  5
1045
330
2
100
AcDbEntity
  8
Object
100
AcDbLine
 10
5.68441817352965
 20
-1749.118704151392
 30
0.0
 11
5.684418173529422
 21
-1752.991687497601
 31
0.0
  0
LINE
  5
1046
330
2
100
AcDbEntity
  8
Center
  6
CENTER
 48
0.5
100
AcDbLine
 10
2.184418173529877
 20
-1758.055195824496
 30
0.0
 11
2.184418173529877
 21
-1744.055195824497
 31
0.0
  0
TEXT
  5
1047
330
2
100
AcDbEntity
  8
Object
100
AcDbText
 10
-10.52379497699092
 20
-1702.94763024033
 30
0.0
 40
3.84
  1
（Ｄカット）
  7
Roman
100
AcDbText
  0
TEXT
  5
1048
330
2
100
AcDbEntity
  8
text3
100
AcDbText
 10
17.50685184930267
 20
-1716.744361593089
 30
0.0
 40
1.92
  1
0
 50
90.0
  7
Roman
100
AcDbText
  0
TEXT
  5
1049
330
2
100
AcDbEntity
  8
text3
100
AcDbText
 10
20.15837895586451
 20
-1719.098296449451
 30
0.0
 40
1.92
  1
-0.009
 50
90.0
  7
Roman
100
AcDbText
  0
DIMENSION
  5
104A
330
2
100
AcDbEntity
  8
text3
100
AcDbDimension
  2
*D22
 10
50.80360859550665
 20
-1715.239272295593
 30
0.0
 11
40.80360859550665
 21
-1711.739272295593
 31
0.0
 70
    33
  1
<>±1
 71
     5
 42
20.0
  3
DMST_1
100
AcDbAlignedDimension
 13
30.80360859550665
 23
-1747.555195824496
 33
0.0
 14
50.80360859550665
 24
-1747.555195824496
 34
0.0
1001
ACAD
1000
DSTYLE
1002
{
1070
    41
1040
5.0
1070
    42
1040
2.0
1070
    43
1040
0.38
1070
    44
1040
5.0
1070
    47
1040
0.0
1070
    48
1040
0.0
1070
    71
1070
     0
1070
    78
1070
     8
1070
    79
1070
     2
1070
   140
1040
4.0
1070
   141
1040
2.0
1070
   146
1040
1.0
1070
   147
1040
1.5
1070
   176
1070
     0
1070
   177
1070
     0
1070
   178
1070
     0
1070
   179
1070
     2
1070
   279
1070
     0
1002
}
  0
DIMENSION
  5
104B
330
2
100
AcDbEntity
  8
text3
100
AcDbDimension
  2
*D23
 10
30.80360859550676
 20
-1735.909486400263
 30
0.0
 11
38.80360859550688
 21
-1735.909486400263
 31
0.0
 70
   161
 71
     5
 42
15.99999999999954
  3
DMST_1
100
AcDbAlignedDimension
 13
46.80360859550598
 23
-1747.555195824497
 33
0.0
 14
30.80360859550643
 24
-1747.555195824497
 34
0.0
1001
ACAD
1000
DSTYLE
1002
{
1070
    41
1040
5.0
1070
    42
1040
2.0
1070
    43
1040
0.38
1070
    44
1040
5.0
1070
    47
1040
0.0
1070
    48
1040
0.0
1070
    71
1070
     0
1070
    78
1070
     8
1070
    79
1070
     2
1070
   140
1040
4.0
1070
   141
1040
2.0
1070
   146
1040
1.0
1070
   147
1040
1.5
1070
   176
1070
     0
1070
   177
1070
     0
1070
   178
1070
     0
1070
   179
1070
     2
1070
   279
1070
     0
1002
}
  0
LINE
  5
104C
330
2
100
AcDbEntity
  8
1
 62
     7
100
AcDbLine
 10
50.80360859550643
 20
-1778.755195824496
 30
0.0
 11
50.80360859550643
 21
-1723.355195824496
 31
0.0
  0
LINE
  5
104D
330
2
100
AcDbEntity
  8
1
 62
     7
100
AcDbLine
 10
59.7036085955063
 20
-1779.255195824497
 30
0.0
 11
59.7036085955063
 21
-1722.855195824496
 31
0.0
  0
LINE
  5
104E
330
2
100
AcDbEntity
  8
1
 62
     3
100
AcDbLine
 10
51.30360859550643
 20
-1751.055195824497
 30
0.0
 11
51.30360859550643
 21
-1722.855195824496
 31
0.0
  0
LINE
  5
104F
330
2
100
AcDbEntity
  8
1
 62
     7
100
AcDbLine
 10
49.2036085955063
 20
-1751.055195824497
 30
0.0
 11
49.2036085955063
 21
-1732.305195824497
 31
0.0
  0
LINE
  5
1050
330
2
100
AcDbEntity
  8
Object
100
AcDbLine
 10
31.30360859550666
 20
-1747.055195824496
 30
0.0
 11
49.2036085955063
 21
-1747.055195824496
 31
0.0
  0
LINE
  5
1051
330
2
100
AcDbEntity
  8
Object
100
AcDbLine
 10
30.80360859550665
 20
-1749.118704151392
 30
0.0
 11
46.8036085955062
 21
-1749.118704151392
 31
0.0
  0
LINE
  5
1052
330
2
100
AcDbEntity
  8
Object
100
AcDbLine
 10
31.30360859550643
 20
-1755.055195824497
 30
0.0
 11
49.2036085955063
 21
-1755.055195824497
 31
0.0
  0
LINE
  5
1053
330
2
100
AcDbEntity
  8
Object
100
AcDbLine
 10
30.80360859550689
 20
-1752.9916874976
 30
0.0
 11
46.80360859550643
 21
-1752.991687497601
 31
0.0
  0
LINE
  5
1054
330
2
100
AcDbEntity
  8
Object
100
AcDbLine
 10
30.80360859550665
 20
-1749.118704151392
 30
0.0
 11
46.80360859550643
 21
-1752.991687497601
 31
0.0
  0
LINE
  5
1055
330
2
100
AcDbEntity
  8
Object
100
AcDbLine
 10
46.8036085955062
 20
-1749.118704151392
 30
0.0
 11
30.80360859550689
 21
-1752.9916874976
 31
0.0
  0
LINE
  5
1056
330
2
100
AcDbEntity
  8
1
 62
     7
100
AcDbLine
 10
30.80360859550665
 20
-1747.555195824497
 30
0.0
 11
30.80360859550643
 21
-1754.555195824496
 31
0.0
  0
LINE
  5
1057
330
2
100
AcDbEntity
  8
1
 62
     7
100
AcDbLine
 10
31.30360859550643
 20
-1755.055195824497
 30
0.0
 11
30.80360859550643
 21
-1754.555195824496
 31
0.0
  0
LINE
  5
1058
330
2
100
AcDbEntity
  8
1
 62
     3
100
AcDbLine
 10
31.30360859550643
 20
-1752.9916874976
 30
0.0
 11
31.30360859550643
 21
-1755.055195824497
 31
0.0
  0
LINE
  5
1059
330
2
100
AcDbEntity
  8
1
 62
     7
100
AcDbLine
 10
31.30360859550643
 20
-1747.055195824496
 30
0.0
 11
30.80360859550643
 21
-1747.555195824497
 31
0.0
  0
LINE
  5
105A
330
2
100
AcDbEntity
  8
1
 62
     3
100
AcDbLine
 10
31.30360859550643
 20
-1747.055195824497
 30
0.0
 11
31.30360859550643
 21
-1749.118704151392
 31
0.0
  0
LINE
  5
105B
330
2
100
AcDbEntity
  8
1
 62
     7
100
AcDbLine
 10
55.80360859550643
 20
-1779.255195824497
 30
0.0
 11
55.80360859550643
 21
-1767.755195824497
 31
0.0
  0
LINE
  5
105C
330
2
100
AcDbEntity
  8
1
 62
     3
100
AcDbLine
 10
51.30360859550643
 20
-1779.255195824497
 30
0.0
 11
51.30360859550643
 21
-1751.055195824497
 31
0.0
  0
LINE
  5
105D
330
2
100
AcDbEntity
  8
1
 62
     7
100
AcDbLine
 10
55.80360859550643
 20
-1779.255195824497
 30
0.0
 11
59.7036085955063
 21
-1779.255195824497
 31
0.0
  0
LINE
  5
105E
330
2
100
AcDbEntity
  8
1
 62
     7
100
AcDbLine
 10
50.80360859550643
 20
-1778.755195824496
 30
0.0
 11
51.30360859550643
 21
-1779.255195824497
 31
0.0
  0
LINE
  5
105F
330
2
100
AcDbEntity
  8
1
 62
     7
100
AcDbLine
 10
51.30360859550643
 20
-1779.255195824497
 30
0.0
 11
55.80360859550643
 21
-1779.255195824497
 31
0.0
  0
LINE
  5
1060
330
2
100
AcDbEntity
  8
1
 62
     7
100
AcDbLine
 10
50.80360859550643
 20
-1770.105195824496
 30
0.0
 11
49.50360859550648
 21
-1770.105195824496
 31
0.0
  0
LINE
  5
1061
330
2
100
AcDbEntity
  8
1
 62
     7
100
AcDbLine
 10
49.2036085955063
 20
-1769.805195824496
 30
0.0
 11
49.2036085955063
 21
-1751.055195824497
 31
0.0
  0
LINE
  5
1062
330
2
100
AcDbEntity
  8
1
 62
     7
100
AcDbLine
 10
46.8036085955062
 20
-1749.118704151392
 30
0.0
 11
46.80360859550643
 21
-1752.991687497601
 31
0.0
  0
LINE
  5
1063
330
2
100
AcDbEntity
  8
1
 62
     7
100
AcDbLine
 10
49.2036085955063
 20
-1769.805195824496
 30
0.0
 11
49.50360859550648
 21
-1770.105195824496
 31
0.0
  0
LINE
  5
1064
330
2
100
AcDbEntity
  8
text3
100
AcDbLine
 10
46.8036085955062
 20
-1744.758060123725
 30
0.0
 11
46.8036085955062
 21
-1748.352119130321
 31
0.0
  0
LINE
  5
1065
330
2
100
AcDbEntity
  8
text3
100
AcDbLine
 10
21.68285107918614
 20
-1721.793060929767
 30
0.0
 11
21.68285107918614
 21
-1708.11014339534
 31
0.0
  0
LINE
  5
1066
330
2
100
AcDbEntity
  8
1
 62
     7
100
AcDbLine
 10
49.50360859550648
 20
-1732.005195824497
 30
0.0
 11
50.80360859550643
 21
-1732.005195824497
 31
0.0
  0
LINE
  5
1067
330
2
100
AcDbEntity
  8
1
 62
     7
100
AcDbLine
 10
49.50360859550648
 20
-1732.005195824497
 30
0.0
 11
49.2036085955063
 21
-1732.305195824497
 31
0.0
  0
LINE
  5
1068
330
2
100
AcDbEntity
  8
1
 62
     7
100
AcDbLine
 10
55.80360859550643
 20
-1734.355195824496
 30
0.0
 11
55.80360859550643
 21
-1722.855195824496
 31
0.0
  0
LINE
  5
1069
330
2
100
AcDbEntity
  8
1
 62
     7
100
AcDbLine
 10
59.7036085955063
 20
-1722.855195824496
 30
0.0
 11
55.80360859550643
 21
-1722.855195824496
 31
0.0
  0
LINE
  5
106A
330
2
100
AcDbEntity
  8
1
 62
     7
100
AcDbLine
 10
51.30360859550643
 20
-1722.855195824496
 30
0.0
 11
50.80360859550643
 21
-1723.355195824496
 31
0.0
  0
LINE
  5
106B
330
2
100
AcDbEntity
  8
1
 62
     7
100
AcDbLine
 10
55.80360859550643
 20
-1722.855195824496
 30
0.0
 11
51.30360859550643
 21
-1722.855195824496
 31
0.0
  0
ARC
  5
106C
330
2
100
AcDbEntity
  8
Object
100
AcDbCircle
 10
97.64783426827655
 20
-1751.055195824497
 30
0.0
 40
4.0
100
AcDbArc
 50
118.9550243718606
 51
331.044975628124
  0
LINE
  5
106D
330
2
100
AcDbEntity
  8
Center
  6
CENTER
 48
0.5
100
AcDbLine
 10
104.6478342682765
 20
-1751.055195824497
 30
0.0
 11
90.64783426827654
 21
-1751.055195824497
 31
0.0
  0
CIRCLE
  5
106E
330
2
100
AcDbEntity
  8
Object2
100
AcDbCircle
 10
97.64783426827655
 20
-1751.055195824497
 30
0.0
 40
3.5
  0
LINE
  5
106F
330
2
100
AcDbEntity
  8
Object
100
AcDbLine
 10
99.58432594138031
 20
-1747.555195824497
 30
0.0
 11
95.71134259517277
 21
-1747.555195824497
 31
0.0
  0
DIMENSION
  5
1070
330
2
100
AcDbEntity
  8
text3
100
AcDbDimension
  2
*D24
 10
93.64783426827655
 20
-1778.113130227839
 30
0.0
 11
123.3811676016098
 21
-1778.113130227839
 31
0.0
 70
   161
  1
<>±0.2
 71
     5
 42
7.5
  3
DMST_1
100
AcDbAlignedDimension
 13
101.1478342682765
 23
-1751.055195824497
 33
0.0
 14
93.64783426827655
 24
-1751.055195824497
 34
0.0
1001
ACAD
1000
DSTYLE
1002
{
1070
    41
1040
5.0
1070
    42
1040
2.0
1070
    43
1040
0.38
1070
    44
1040
5.0
1070
    47
1040
0.0
1070
    48
1040
0.0
1070
    71
1070
     0
1070
    78
1070
     8
1070
    79
1070
     2
1070
   140
1040
4.0
1070
   141
1040
2.0
1070
   146
1040
1.0
1070
   147
1040
1.5
1070
   176
1070
     0
1070
   177
1070
     0
1070
   178
1070
     0
1070
   179
1070
     2
1070
   279
1070
     0
1002
}
  0
DIMENSION
  5
1071
330
2
100
AcDbEntity
  8
text3
100
AcDbDimension
  2
*D25
 10
108.5703504349071
 20
-1755.055195824497
 30
0.0
 11
108.5703504349074
 21
-1725.321862491163
 31
0.0
 70
   161
  1
<>±0.2
 71
     5
 42
7.5
  3
DMST_1
100
AcDbAlignedDimension
 13
97.64783426827655
 23
-1747.555195824497
 33
0.0
 14
97.64783426827655
 24
-1755.055195824497
 34
0.0
1001
ACAD
1000
DSTYLE
1002
{
1070
    41
1040
5.0
1070
    42
1040
2.0
1070
    43
1040
0.38
1070
    44
1040
5.0
1070
    47
1040
0.0
1070
    48
1040
0.0
1070
    71
1070
     0
1070
    78
1070
     8
1070
    79
1070
     2
1070
   140
1040
4.0
1070
   141
1040
2.0
1070
   146
1040
1.0
1070
   147
1040
1.5
1070
   176
1070
     0
1070
   177
1070
     0
1070
   178
1070
     0
1070
   179
1070
     2
1070
   279
1070
     0
1002
}
  0
TEXT
  5
1072
330
2
100
AcDbEntity
  8
Object
100
AcDbText
 10
78.2901246935924
 20
-1702.596649174546
 30
0.0
 40
3.84
  1
（ダブルＤカット）
  7
Roman
100
AcDbText
  0
LINE
  5
1073
330
2
100
AcDbEntity
  8
Object2
100
AcDbLine
 10
74.53025472076962
 20
-1713.528197579686
 30
0.0
 11
61.6180035585906
 21
-1789.286771808058
 31
0.0
  0
LINE
  5
1074
330
2
100
AcDbEntity
  8
Center
  6
CENTER
 48
0.5
100
AcDbLine
 10
97.64783426827655
 20
-1758.055195824496
 30
0.0
 11
97.64783426827655
 21
-1744.055195824497
 31
0.0
  0
DIMENSION
  5
1075
330
2
100
AcDbEntity
  8
text3
100
AcDbDimension
  2
*D26
 10
121.3464901262782
 20
-1755.055195824497
 30
0.0
 11
121.3464901262785
 21
-1727.955195824496
 31
0.0
 70
   161
  1
Φ<>h6
 71
     5
 42
8.0
  3
DMST_1
100
AcDbAlignedDimension
 13
130.9672476425988
 23
-1747.055195824496
 33
0.0
 14
130.9672476425981
 24
-1755.055195824497
 34
0.0
1001
ACAD
1000
DSTYLE
1002
{
1070
    41
1040
5.0
1070
    42
1040
2.0
1070
    43
1040
0.38
1070
    44
1040
5.0
1070
    47
1040
0.0
1070
    48
1040
0.0
1070
    71
1070
     0
1070
    78
1070
     8
1070
    79
1070
     2
1070
   140
1040
4.0
1070
   141
1040
2.0
1070
   146
1040
1.0
1070
   147
1040
1.5
1070
   176
1070
     0
1070
   177
1070
     0
1070
   178
1070
     0
1070
   179
1070
     2
1070
   279
1070
     0
1002
}
  0
ARC
  5
1076
330
2
100
AcDbEntity
  8
Object
100
AcDbCircle
 10
97.64783426827655
 20
-1751.055195824497
 30
0.0
 40
4.0
100
AcDbArc
 50
28.95502437186067
 51
61.04497562813933
  0
LINE
  5
1077
330
2
100
AcDbEntity
  8
Object
100
AcDbLine
 10
101.1478342682763
 20
-1749.118704151392
 30
0.0
 11
101.147834268276
 21
-1752.991687497601
 31
0.0
  0
LINE
  5
1078
330
2
100
AcDbEntity
  8
1
 62
     7
100
AcDbLine
 10
130.4672476425983
 20
-1747.555195824497
 30
0.0
 11
130.4672476425981
 21
-1754.555195824496
 31
0.0
  0
LINE
  5
1079
330
2
100
AcDbEntity
  8
1
 62
     3
100
AcDbLine
 10
130.9672476425981
 20
-1752.9916874976
 30
0.0
 11
130.9672476425981
 21
-1755.055195824497
 31
0.0
  0
LINE
  5
107A
330
2
100
AcDbEntity
  8
1
 62
     7
100
AcDbLine
 10
130.9672476425981
 20
-1755.055195824497
 30
0.0
 11
130.4672476425981
 21
-1754.555195824496
 31
0.0
  0
LINE
  5
107B
330
2
100
AcDbEntity
  8
1
 62
     3
100
AcDbLine
 10
130.9672476425981
 20
-1747.555195824497
 30
0.0
 11
130.9672476425981
 21
-1749.118704151392
 31
0.0
  0
TEXT
  5
107C
330
2
100
AcDbEntity
  8
text3
100
AcDbText
 10
119.868746224872
 20
-1719.168009490675
 30
0.0
 40
1.92
  1
-0.009
 50
90.0
  7
Roman
100
AcDbText
  0
TEXT
  5
107D
330
2
100
AcDbEntity
  8
text3
100
AcDbText
 10
117.2172191183102
 20
-1716.814074634314
 30
0.0
 40
1.92
  1
0
 50
90.0
  7
Roman
100
AcDbText
  0
LINE
  5
107E
330
2
100
AcDbEntity
  8
text3
100
AcDbLine
 10
121.3464901262785
 20
-1720.943880958096
 30
0.0
 11
121.3464901262785
 21
-1707.260963423669
 31
0.0
  0
LINE
  5
107F
330
2
100
AcDbEntity
  8
Object2
100
AcDbLine
 10
174.1938937678613
 20
-1713.528197579686
 30
0.0
 11
161.2816426056823
 21
-1789.286771808058
 31
0.0
  0
LINE
  5
1080
330
2
100
AcDbEntity
  8
Object2
100
AcDbLine
 10
172.1376727108461
 20
-1713.528197579686
 30
0.0
 11
159.2254215486671
 21
-1789.286771808058
 31
0.0
  0
LINE
  5
1081
330
2
100
AcDbEntity
  8
1
 62
     7
100
AcDbLine
 10
159.367247642598
 20
-1779.255195824497
 30
0.0
 11
159.367247642598
 21
-1722.855195824496
 31
0.0
  0
LINE
  5
1082
330
2
100
AcDbEntity
  8
1
 62
     7
100
AcDbLine
 10
150.4672476425981
 20
-1778.755195824496
 30
0.0
 11
150.4672476425981
 21
-1723.355195824496
 31
0.0
  0
LINE
  5
1083
330
2
100
AcDbEntity
  8
1
 62
     7
100
AcDbLine
 10
148.8672476425979
 20
-1751.055195824497
 30
0.0
 11
148.8672476425979
 21
-1732.305195824497
 31
0.0
  0
LINE
  5
1084
330
2
100
AcDbEntity
  8
1
 62
     3
100
AcDbLine
 10
150.9672476425981
 20
-1751.055195824497
 30
0.0
 11
150.9672476425981
 21
-1722.855195824496
 31
0.0
  0
LINE
  5
1085
330
2
100
AcDbEntity
  8
1
 62
     7
100
AcDbLine
 10
155.4672476425981
 20
-1779.255195824497
 30
0.0
 11
159.367247642598
 21
-1779.255195824497
 31
0.0
  0
LINE
  5
1086
330
2
100
AcDbEntity
  8
1
 62
     2
100
AcDbLine
 10
161.3073850051928
 20
-1777.071505772656
 30
0.0
 11
155.4672476425981
 21
-1777.071505772656
 31
0.0
  0
LINE
  5
1087
330
2
100
AcDbEntity
  8
1
 62
     2
100
AcDbLine
 10
155.4672476425981
 20
-1771.17722795523
 30
0.0
 11
162.3120025864164
 21
-1771.17722795523
 31
0.0
  0
LINE
  5
1088
330
2
100
AcDbEntity
  8
1
 62
     7
100
AcDbLine
 10
155.4672476425981
 20
-1767.755195824497
 30
0.0
 11
162.8952519256116
 21
-1767.755195824497
 31
0.0
  0
LINE
  5
1089
330
2
100
AcDbEntity
  8
1
 62
     7
100
AcDbLine
 10
155.4672476425981
 20
-1779.255195824497
 30
0.0
 11
155.4672476425981
 21
-1767.755195824497
 31
0.0
  0
LINE
  5
108A
330
2
100
AcDbEntity
  8
1
 62
     3
100
AcDbLine
 10
150.9672476425981
 20
-1779.255195824497
 30
0.0
 11
150.9672476425981
 21
-1751.055195824497
 31
0.0
  0
LINE
  5
108B
330
2
100
AcDbEntity
  8
1
 62
     7
100
AcDbLine
 10
150.4672476425981
 20
-1778.755195824496
 30
0.0
 11
150.9672476425981
 21
-1779.255195824497
 31
0.0
  0
LINE
  5
108C
330
2
100
AcDbEntity
  8
1
 62
     7
100
AcDbLine
 10
150.9672476425981
 20
-1779.255195824497
 30
0.0
 11
155.4672476425981
 21
-1779.255195824497
 31
0.0
  0
LINE
  5
108D
330
2
100
AcDbEntity
  8
Object
100
AcDbLine
 10
146.4672476425976
 20
-1747.055195824496
 30
0.0
 11
148.8672476425979
 21
-1747.055195824496
 31
0.0
  0
LINE
  5
108E
330
2
100
AcDbEntity
  8
1
 62
     7
100
AcDbLine
 10
146.4672476425979
 20
-1749.118704151392
 30
0.0
 11
146.4672476425981
 21
-1752.991687497601
 31
0.0
  0
LINE
  5
108F
330
2
100
AcDbEntity
  8
1
 62
     7
100
AcDbLine
 10
146.4672476425979
 20
-1747.055195824496
 30
0.0
 11
146.4672476425979
 21
-1747.555195824497
 31
0.0
  0
LINE
  5
1090
330
2
100
AcDbEntity
  8
1
 62
     7
100
AcDbLine
 10
148.8672476425979
 20
-1769.805195824496
 30
0.0
 11
148.8672476425979
 21
-1751.055195824497
 31
0.0
  0
LINE
  5
1091
330
2
100
AcDbEntity
  8
1
 62
     7
100
AcDbLine
 10
148.8672476425979
 20
-1769.805195824496
 30
0.0
 11
149.1672476425981
 21
-1770.105195824496
 31
0.0
  0
LINE
  5
1092
330
2
100
AcDbEntity
  8
1
 62
     7
100
AcDbLine
 10
150.4672476425981
 20
-1770.105195824496
 30
0.0
 11
149.1672476425981
 21
-1770.105195824496
 31
0.0
  0
LINE
  5
1093
330
2
100
AcDbEntity
  8
1
 62
     7
100
AcDbLine
 10
159.367247642598
 20
-1779.255195824497
 30
0.0
 11
160.9351980323395
 21
-1779.255195824497
 31
0.0
  0
LINE
  5
1094
330
2
100
AcDbEntity
  8
1
 62
     7
100
AcDbLine
 10
159.367247642598
 20
-1722.855195824496
 30
0.0
 11
155.4672476425981
 21
-1722.855195824496
 31
0.0
  0
LINE
  5
1095
330
2
100
AcDbEntity
  8
1
 62
     2
100
AcDbLine
 10
155.4672476425981
 20
-1725.038885876338
 30
0.0
 11
170.1757971099685
 21
-1725.038885876338
 31
0.0
  0
LINE
  5
1096
330
2
100
AcDbEntity
  8
1
 62
     7
100
AcDbLine
 10
155.4672476425981
 20
-1734.355195824496
 30
0.0
 11
168.5879301895495
 21
-1734.355195824496
 31
0.0
  0
LINE
  5
1097
330
2
100
AcDbEntity
  8
1
 62
     2
100
AcDbLine
 10
169.1711795287449
 20
-1730.933163693763
 30
0.0
 11
155.4672476425981
 21
-1730.933163693763
 31
0.0
  0
LINE
  5
1098
330
2
100
AcDbEntity
  8
1
 62
     7
100
AcDbLine
 10
149.1672476425981
 20
-1732.005195824497
 30
0.0
 11
148.8672476425979
 21
-1732.305195824497
 31
0.0
  0
LINE
  5
1099
330
2
100
AcDbEntity
  8
1
 62
     7
100
AcDbLine
 10
155.4672476425981
 20
-1734.355195824496
 30
0.0
 11
155.4672476425981
 21
-1722.855195824496
 31
0.0
  0
LINE
  5
109A
330
2
100
AcDbEntity
  8
1
 62
     7
100
AcDbLine
 10
149.1672476425981
 20
-1732.005195824497
 30
0.0
 11
150.4672476425981
 21
-1732.005195824497
 31
0.0
  0
LINE
  5
109B
330
2
100
AcDbEntity
  8
1
 62
     7
100
AcDbLine
 10
150.9672476425981
 20
-1722.855195824496
 30
0.0
 11
150.4672476425981
 21
-1723.355195824496
 31
0.0
  0
LINE
  5
109C
330
2
100
AcDbEntity
  8
1
 62
     7
100
AcDbLine
 10
155.4672476425981
 20
-1722.855195824496
 30
0.0
 11
150.9672476425981
 21
-1722.855195824496
 31
0.0
  0
LINE
  5
109D
330
2
100
AcDbEntity
  8
1
 62
     7
100
AcDbLine
 10
170.5479840828216
 20
-1722.855195824496
 30
0.0
 11
159.367247642598
 21
-1722.855195824496
 31
0.0
  0
CIRCLE
  5
125A
330
2
100
AcDbEntity
  8
Object
100
AcDbCircle
 10
-59.33076851602084
 20
-1619.00956382715
 30
0.0
 40
4.0
  0
CIRCLE
  5
125B
330
2
100
AcDbEntity
  8
Object2
100
AcDbCircle
 10
-59.33076851602084
 20
-1619.00956382715
 30
0.0
 40
3.5
  0
TEXT
  5
125C
330
2
100
AcDbEntity
  8
Object
100
AcDbText
 10
-21.80055034635205
 20
-1590.826474614744
 30
0.0
 40
3.84
  1
（丸軸）
  7
Roman
100
AcDbText
  0
TEXT
  5
1264
330
2
100
AcDbEntity
  8
text3
100
AcDbText
 10
181.3468343819546
 20
-1783.678243310719
 30
0.0
 40
4.0
  1
単位   [ｍｍ]
  7
Roman
100
AcDbText
  0
TEXT
  5
1265
330
2
100
AcDbEntity
  8
text3
100
AcDbText
 10
181.0955721515962
 20
-1776.637348845929
 30
0.0
 40
4.0
  1
Scale
  7
Roman
100
AcDbText
  0
TEXT
  5
126C
330
2
100
AcDbEntity
  8
text3
100
AcDbText
 10
54.53639542378573
 20
-1550.372605095703
 30
0.0
 40
3.456
  1
300±50
  7
Roman
100
AcDbText
  0
TEXT
  5
127E
330
2
100
AcDbEntity
  8
Object
100
AcDbText
 10
-18.63882462258857
 20
-1596.343080450814
 30
0.0
 40
3.84
  1
Round Shaft
  7
Roman
100
AcDbText
  0
TEXT
  5
127F
330
2
100
AcDbEntity
  8
Object
100
AcDbText
 10
83.40356184925463
 20
-1708.360860101634
 30
0.0
 40
3.84
  1
Double D-cut
  7
Roman
100
AcDbText
  0
TEXT
  5
1280
330
2
100
AcDbEntity
  8
Object
100
AcDbText
 10
-5.410357821328716
 20
-1708.711841167417
 30
0.0
 40
3.84
  1
D-cut
  7
Roman
100
AcDbText
  0
TEXT
  5
1281
330
2
100
AcDbEntity
  8
Object
100
AcDbText
 10
-102.9501595551053
 20
-1709.835334956868
 30
0.0
 40
3.84
  1
Keyway
  7
Roman
100
AcDbText
  0
TEXT
  5
1282
330
2
100
AcDbEntity
  8
text3
100
AcDbText
 10
-98.1507407839735
 20
-1791.25634908001
 30
0.0
 40
3.456
  1
Key
  7
Roman
100
AcDbText
  0
TEXT
  5
1283
330
2
100
AcDbEntity
  8
text3
100
AcDbText
 10
181.0955721515962
 20
-1770.940251799315
 30
0.0
 40
4.0
  1
尺度 　１：２　（A4）
  7
Roman
100
AcDbText
  0
TEXT
  5
1284
330
2
100
AcDbEntity
  8
text3
100
AcDbText
 10
181.3468343819546
 20
-1791.474271101876
 30
0.0
 40
4.0
  1
Unit
  7
Roman
100
AcDbText
  0
ENDSEC
  0
SECTION
  2
OBJECTS
  0
DICTIONARY
  5
7
330
0
100
AcDbDictionary
281
     1
  3
ACAD_GROUP
350
20
  3
ACAD_IMAGE_VARS
350
12C0
  3
ACAD_LAYOUT
350
B
  3
ACAD_MLINESTYLE
350
21
  3
ACAD_PLOTSETTINGS
350
22
  3
ACAD_PLOTSTYLENAME
350
6
  3
ACAD_SCALELIST
350
1286
  3
AcDbVariableDictionary
350
309
  3
APPDATA
350
12BF
  3
DWGPROPS
350
12DE
  0
DICTIONARY
  5
372
330
10
100
AcDbDictionary
280
     1
281
     1
  3
ACAD_LAYERSTATES
360
373
  0
DICTIONARY
  5
20
102
{ACAD_REACTORS
330
7
102
}
330
7
100
AcDbDictionary
281
     1
  0
RASTERVARIABLES
  5
12C0
102
{ACAD_REACTORS
330
7
102
}
330
7
100
AcDbRasterVariables
 90
        0
 70
     1
 71
     1
 72
     0
  0
DICTIONARY
  5
B
102
{ACAD_REACTORS
330
7
102
}
330
7
100
AcDbDictionary
281
     1
  3
Model
350
A
  3
ﾚｲｱｳﾄ1
350
F
  0
DICTIONARY
  5
21
102
{ACAD_REACTORS
330
7
102
}
330
7
100
AcDbDictionary
281
     1
  3
Standard
350
24
  0
DICTIONARY
  5
22
102
{ACAD_REACTORS
330
7
102
}
330
7
100
AcDbDictionary
281
     1
  0
ACDBDICTIONARYWDFLT
  5
6
102
{ACAD_REACTORS
330
7
102
}
330
7
100
AcDbDictionary
281
     1
  3
Normal
350
5
100
AcDbDictionaryWithDefault
340
5
  0
DICTIONARY
  5
1286
102
{ACAD_REACTORS
330
7
102
}
330
7
100
AcDbDictionary
281
     1
  3
A0
350
1287
  3
A1
350
1288
  3
A2
350
1289
  3
A3
350
128A
  3
A4
350
128B
  3
A5
350
128C
  3
A6
350
128D
  3
A7
350
128E
  3
A8
350
128F
  3
A9
350
1290
  3
B0
350
1291
  3
B1
350
1292
  3
B2
350
1293
  3
B3
350
1294
  3
B4
350
1295
  3
B5
350
1296
  3
B6
350
1297
  3
B7
350
1298
  3
B8
350
1299
  3
B9
350
129A
  3
C0
350
129B
  3
C1
350
129C
  3
C2
350
129D
  3
C3
350
129E
  3
C4
350
129F
  3
C5
350
12A0
  3
C6
350
12A1
  3
C7
350
12A2
  3
C8
350
12A3
  3
C9
350
12A4
  3
D0
350
12A5
  3
D1
350
12A6
  3
D2
350
12A7
  0
DICTIONARY
  5
309
102
{ACAD_REACTORS
330
7
102
}
330
7
100
AcDbDictionary
281
     1
  3
CANNOSCALE
350
12DF
  3
DIMASSOC
350
30B
  3
HIDETEXT
350
30A
  0
DICTIONARY
  5
12BF
102
{ACAD_REACTORS
330
7
102
}
330
7
100
AcDbDictionary
281
     1
  0
XRECORD
  5
12DE
102
{ACAD_REACTORS
330
7
102
}
330
7
100
AcDbXrecord
280
     1
  1
DWGPROPS COOKIE
  2

  3

  4

  6

  7

  8
okabeOFFICE
  9

300
=
301
=
302
=
303
=
304
=
305
=
306
=
307
=
308
=
309
=
 40
0.0
 41
2453781.019197072
 42
2456724.109189803
  1

 90
        0
  0
DICTIONARY
  5
373
102
{ACAD_REACTORS
330
372
102
}
330
372
100
AcDbDictionary
281
     1
  0
LAYOUT
  5
A
102
{ACAD_REACTORS
330
B
102
}
330
B
100
AcDbPlotSettings
  1

  2
クセロPDF
  4
A4
  6

 40
3.174999952316284
 41
3.174999952316284
 42
3.175003051757812
 43
3.17498779296875
 44
209.9733276367187
 45
296.9259948730469
 46
8.41
 47
69.96
 48
-131.7862233405171
 49
-1800.846964824738
140
241.8056099935649
141
-1499.545806081435
142
1.0
143
2.0
 70
 11956
 72
     1
 73
     0
 74
     4
  7
monochrome.ctb
 75
    17
147
0.5
148
131.7862233405171
149
1800.846964824738
100
AcDbLayout
  1
Model
 70
     1
 71
     0
 10
0.0
 20
0.0
 11
12.0
 21
9.0
 12
0.0
 22
0.0
 32
0.0
 14
-117.234224620501
 24
-1792.40834908001
 34
0.0
 15
230.4670007230248
 25
-1508.03539421769
 35
0.0
146
0.0
 13
0.0
 23
0.0
 33
0.0
 16
1.0
 26
0.0
 36
0.0
 17
0.0
 27
1.0
 37
0.0
 76
     0
330
2
331
1285
  0
LAYOUT
  5
F
102
{ACAD_REACTORS
330
B
102
}
330
B
100
AcDbPlotSettings
  1

  2
\\Epson_lpr\192.168.1.20(LP-8100)
  4

  6

 40
0.0
 41
0.0
 42
0.0
 43
0.0
 44
0.0
 45
0.0
 46
0.0
 47
0.0
 48
0.0
 49
0.0
140
0.0
141
0.0
142
1.0
143
1.0
 70
   688
 72
     0
 73
     0
 74
     5
  7
monochrome.ctb
 75
    16
147
1.0
148
0.0
149
0.0
100
AcDbLayout
  1
ﾚｲｱｳﾄ1
 70
     1
 71
     1
 10
0.0
 20
0.0
 11
12.0
 21
9.0
 12
0.0
 22
0.0
 32
0.0
 14
1.000000000000000E+20
 24
1.000000000000000E+20
 34
1.000000000000000E+20
 15
-1.000000000000000E+20
 25
-1.000000000000000E+20
 35
-1.000000000000000E+20
146
0.0
 13
0.0
 23
0.0
 33
0.0
 16
1.0
 26
0.0
 36
0.0
 17
0.0
 27
1.0
 37
0.0
 76
     0
330
C
  0
MLINESTYLE
  5
24
102
{ACAD_REACTORS
330
21
102
}
330
21
100
AcDbMlineStyle
  2
STANDARD
 70
     0
  3

 62
   256
 51
90.0
 52
90.0
 71
     2
 49
0.5
 62
   256
  6
BYLAYER
 49
-0.5
 62
   256
  6
BYLAYER
  0
ACDBPLACEHOLDER
  5
5
102
{ACAD_REACTORS
330
6
102
}
330
6
  0
SCALE
  5
1287
102
{ACAD_REACTORS
330
1286
102
}
330
1286
100
AcDbScale
 70
     0
300
1:1
140
1.0
141
1.0
290
     1
  0
SCALE
  5
1288
102
{ACAD_REACTORS
330
1286
102
}
330
1286
100
AcDbScale
 70
     0
300
1:2
140
1.0
141
2.0
290
     0
  0
SCALE
  5
1289
102
{ACAD_REACTORS
330
1286
102
}
330
1286
100
AcDbScale
 70
     0
300
1:4
140
1.0
141
4.0
290
     0
  0
SCALE
  5
128A
102
{ACAD_REACTORS
330
1286
102
}
330
1286
100
AcDbScale
 70
     0
300
1:5
140
1.0
141
5.0
290
     0
  0
SCALE
  5
128B
102
{ACAD_REACTORS
330
1286
102
}
330
1286
100
AcDbScale
 70
     0
300
1:8
140
1.0
141
8.0
290
     0
  0
SCALE
  5
128C
102
{ACAD_REACTORS
330
1286
102
}
330
1286
100
AcDbScale
 70
     0
300
1:10
140
1.0
141
10.0
290
     0
  0
SCALE
  5
128D
102
{ACAD_REACTORS
330
1286
102
}
330
1286
100
AcDbScale
 70
     0
300
1:16
140
1.0
141
16.0
290
     0
  0
SCALE
  5
128E
102
{ACAD_REACTORS
330
1286
102
}
330
1286
100
AcDbScale
 70
     0
300
1:20
140
1.0
141
20.0
290
     0
  0
SCALE
  5
128F
102
{ACAD_REACTORS
330
1286
102
}
330
1286
100
AcDbScale
 70
     0
300
1:30
140
1.0
141
30.0
290
     0
  0
SCALE
  5
1290
102
{ACAD_REACTORS
330
1286
102
}
330
1286
100
AcDbScale
 70
     0
300
1:40
140
1.0
141
40.0
290
     0
  0
SCALE
  5
1291
102
{ACAD_REACTORS
330
1286
102
}
330
1286
100
AcDbScale
 70
     0
300
1:50
140
1.0
141
50.0
290
     0
  0
SCALE
  5
1292
102
{ACAD_REACTORS
330
1286
102
}
330
1286
100
AcDbScale
 70
     0
300
1:100
140
1.0
141
100.0
290
     0
  0
SCALE
  5
1293
102
{ACAD_REACTORS
330
1286
102
}
330
1286
100
AcDbScale
 70
     0
300
2:1
140
2.0
141
1.0
290
     0
  0
SCALE
  5
1294
102
{ACAD_REACTORS
330
1286
102
}
330
1286
100
AcDbScale
 70
     0
300
4:1
140
4.0
141
1.0
290
     0
  0
SCALE
  5
1295
102
{ACAD_REACTORS
330
1286
102
}
330
1286
100
AcDbScale
 70
     0
300
8:1
140
8.0
141
1.0
290
     0
  0
SCALE
  5
1296
102
{ACAD_REACTORS
330
1286
102
}
330
1286
100
AcDbScale
 70
     0
300
10:1
140
10.0
141
1.0
290
     0
  0
SCALE
  5
1297
102
{ACAD_REACTORS
330
1286
102
}
330
1286
100
AcDbScale
 70
     0
300
100:1
140
100.0
141
1.0
290
     0
  0
SCALE
  5
1298
102
{ACAD_REACTORS
330
1286
102
}
330
1286
100
AcDbScale
 70
     0
300
1/128" = 1'-0"
140
0.0078125
141
12.0
290
     0
  0
SCALE
  5
1299
102
{ACAD_REACTORS
330
1286
102
}
330
1286
100
AcDbScale
 70
     0
300
1/64" = 1'-0"
140
0.015625
141
12.0
290
     0
  0
SCALE
  5
129A
102
{ACAD_REACTORS
330
1286
102
}
330
1286
100
AcDbScale
 70
     0
300
1/32" = 1'-0"
140
0.03125
141
12.0
290
     0
  0
SCALE
  5
129B
102
{ACAD_REACTORS
330
1286
102
}
330
1286
100
AcDbScale
 70
     0
300
1/16" = 1'-0"
140
0.0625
141
12.0
290
     0
  0
SCALE
  5
129C
102
{ACAD_REACTORS
330
1286
102
}
330
1286
100
AcDbScale
 70
     0
300
3/32" = 1'-0"
140
0.09375
141
12.0
290
     0
  0
SCALE
  5
129D
102
{ACAD_REACTORS
330
1286
102
}
330
1286
100
AcDbScale
 70
     0
300
1/8" = 1'-0"
140
0.125
141
12.0
290
     0
  0
SCALE
  5
129E
102
{ACAD_REACTORS
330
1286
102
}
330
1286
100
AcDbScale
 70
     0
300
3/16" = 1'-0"
140
0.1875
141
12.0
290
     0
  0
SCALE
  5
129F
102
{ACAD_REACTORS
330
1286
102
}
330
1286
100
AcDbScale
 70
     0
300
1/4" = 1'-0"
140
0.25
141
12.0
290
     0
  0
SCALE
  5
12A0
102
{ACAD_REACTORS
330
1286
102
}
330
1286
100
AcDbScale
 70
     0
300
3/8" = 1'-0"
140
0.375
141
12.0
290
     0
  0
SCALE
  5
12A1
102
{ACAD_REACTORS
330
1286
102
}
330
1286
100
AcDbScale
 70
     0
300
1/2" = 1'-0"
140
0.5
141
12.0
290
     0
  0
SCALE
  5
12A2
102
{ACAD_REACTORS
330
1286
102
}
330
1286
100
AcDbScale
 70
     0
300
3/4" = 1'-0"
140
0.75
141
12.0
290
     0
  0
SCALE
  5
12A3
102
{ACAD_REACTORS
330
1286
102
}
330
1286
100
AcDbScale
 70
     0
300
1" = 1'-0"
140
1.0
141
12.0
290
     0
  0
SCALE
  5
12A4
102
{ACAD_REACTORS
330
1286
102
}
330
1286
100
AcDbScale
 70
     0
300
1-1/2" = 1'-0"
140
1.5
141
12.0
290
     0
  0
SCALE
  5
12A5
102
{ACAD_REACTORS
330
1286
102
}
330
1286
100
AcDbScale
 70
     0
300
3" = 1'-0"
140
3.0
141
12.0
290
     0
  0
SCALE
  5
12A6
102
{ACAD_REACTORS
330
1286
102
}
330
1286
100
AcDbScale
 70
     0
300
6" = 1'-0"
140
6.0
141
12.0
290
     0
  0
SCALE
  5
12A7
102
{ACAD_REACTORS
330
1286
102
}
330
1286
100
AcDbScale
 70
     0
300
1'-0" = 1'-0"
140
12.0
141
12.0
290
     0
  0
DICTIONARYVAR
  5
12DF
102
{ACAD_REACTORS
330
309
102
}
330
309
100
DictionaryVariables
280
     0
  1
1:1
  0
DICTIONARYVAR
  5
30B
102
{ACAD_REACTORS
330
309
102
}
330
309
100
DictionaryVariables
280
     0
  1
1
  0
DICTIONARYVAR
  5
30A
102
{ACAD_REACTORS
330
309
102
}
330
309
100
DictionaryVariables
280
     0
  1
1
  0
ENDSEC
  0
EOF
