  0
SECTION
  2
HEADER
  9
$ACADVER
  1
AC1015
  9
$ACADMAINTVER
 70
    13
  9
$DWGCODEPAGE
  3
ANSI_932
  9
$INSBASE
 10
150.3363079725116
 20
-797.5783872496008
 30
0.0
  9
$EXTMIN
 10
16.43738319178896
 20
18.96053019740702
 30
-0.0000000000000058
  9
$EXTMAX
 10
276.89836640778
 20
200.1999626233045
 30
0.0000000000000104
  9
$LIMMIN
 10
190.0776992394791
 20
200.0
  9
$LIMMAX
 10
420.0
 20
297.0
  9
$ORTHOMODE
 70
     1
  9
$REGENMODE
 70
     1
  9
$FILLMODE
 70
     1
  9
$QTEXTMODE
 70
     0
  9
$MIRRTEXT
 70
     1
  9
$LTSCALE
 40
1.0
  9
$ATTMODE
 70
     1
  9
$TEXTSIZE
 40
2.0
  9
$TRACEWID
 40
1.0
  9
$TEXTSTYLE
  7
STANDARD
  9
$CLAYER
  8
Dims
  9
$CELTYPE
  6
BYLAYER
  9
$CECOLOR
 62
   256
  9
$CELTSCALE
 40
0.5
  9
$DISPSILH
 70
     0
  9
$DIMSCALE
 40
1.0
  9
$DIMASZ
 40
2.5
  9
$DIMEXO
 40
0.625
  9
$DIMDLI
 40
5.0
  9
$DIMRND
 40
0.0
  9
$DIMDLE
 40
0.0
  9
$DIMEXE
 40
1.25
  9
$DIMTP
 40
0.0
  9
$DIMTM
 40
0.0
  9
$DIMTXT
 40
2.5
  9
$DIMCEN
 40
2.5
  9
$DIMTSZ
 40
0.0
  9
$DIMTOL
 70
     0
  9
$DIMLIM
 70
     0
  9
$DIMTIH
 70
     0
  9
$DIMTOH
 70
     0
  9
$DIMSE1
 70
     0
  9
$DIMSE2
 70
     0
  9
$DIMTAD
 70
     1
  9
$DIMZIN
 70
     8
  9
$DIMBLK
  1

  9
$DIMASO
 70
     1
  9
$DIMSHO
 70
     1
  9
$DIMPOST
  1

  9
$DIMAPOST
  1

  9
$DIMALT
 70
     0
  9
$DIMALTD
 70
     2
  9
$DIMALTF
 40
25.4
  9
$DIMLFAC
 40
1.0
  9
$DIMTOFL
 70
     1
  9
$DIMTVP
 40
0.0
  9
$DIMTIX
 70
     0
  9
$DIMSOXD
 70
     0
  9
$DIMSAH
 70
     0
  9
$DIMBLK1
  1

  9
$DIMBLK2
  1

  9
$DIMSTYLE
  2
STANDARD
  9
$DIMCLRD
 70
     0
  9
$DIMCLRE
 70
     0
  9
$DIMCLRT
 70
   256
  9
$DIMTFAC
 40
1.0
  9
$DIMGAP
 40
0.625
  9
$DIMJUST
 70
     0
  9
$DIMSD1
 70
     0
  9
$DIMSD2
 70
     0
  9
$DIMTOLJ
 70
     1
  9
$DIMTZIN
 70
     0
  9
$DIMALTZ
 70
     0
  9
$DIMALTTZ
 70
     0
  9
$DIMUPT
 70
     0
  9
$DIMDEC
 70
     4
  9
$DIMTDEC
 70
     4
  9
$DIMALTU
 70
     2
  9
$DIMALTTD
 70
     2
  9
$DIMTXSTY
  7
STANDARD
  9
$DIMAUNIT
 70
     0
  9
$DIMADEC
 70
     1
  9
$DIMALTRND
 40
0.0
  9
$DIMAZIN
 70
     2
  9
$DIMDSEP
 70
    46
  9
$DIMATFIT
 70
     3
  9
$DIMFRAC
 70
     0
  9
$DIMLDRBLK
  1

  9
$DIMLUNIT
 70
     2
  9
$DIMLWD
 70
    -2
  9
$DIMLWE
 70
    -2
  9
$DIMTMOVE
 70
     0
  9
$LUNITS
 70
     2
  9
$LUPREC
 70
     4
  9
$SKETCHINC
 40
1.0
  9
$FILLETRAD
 40
3.0
  9
$AUNITS
 70
     0
  9
$AUPREC
 70
     0
  9
$MENU
  1
acad
  9
$ELEVATION
 40
0.0
  9
$PELEVATION
 40
0.0
  9
$THICKNESS
 40
0.0
  9
$LIMCHECK
 70
     0
  9
$CHAMFERA
 40
0.0
  9
$CHAMFERB
 40
0.0
  9
$CHAMFERC
 40
20.0
  9
$CHAMFERD
 40
0.0
  9
$SKPOLY
 70
     0
  9
$TDCREATE
 40
2451019.405949073
  9
$TDUCREATE
 40
2451019.030949074
  9
$TDUPDATE
 40
2455658.465176423
  9
$TDUUPDATE
 40
2455658.090176423
  9
$TDINDWG
 40
13.0096936690
  9
$TDUSRTIMER
 40
13.0096936690
  9
$USRTIMER
 70
     1
  9
$ANGBASE
 50
0.0
  9
$ANGDIR
 70
     0
  9
$PDMODE
 70
     0
  9
$PDSIZE
 40
0.0
  9
$PLINEWID
 40
0.25
  9
$SPLFRAME
 70
     0
  9
$SPLINETYPE
 70
     6
  9
$SPLINESEGS
 70
    10
  9
$HANDSEED
  5
EFE
  9
$SURFTAB1
 70
     6
  9
$SURFTAB2
 70
     6
  9
$SURFTYPE
 70
     6
  9
$SURFU
 70
     6
  9
$SURFV
 70
     6
  9
$UCSBASE
  2

  9
$UCSNAME
  2

  9
$UCSORG
 10
0.0
 20
0.0
 30
0.0
  9
$UCSXDIR
 10
1.0
 20
0.0
 30
0.0
  9
$UCSYDIR
 10
0.0
 20
1.0
 30
0.0
  9
$UCSORTHOREF
  2

  9
$UCSORTHOVIEW
 70
     0
  9
$UCSORGTOP
 10
0.0
 20
0.0
 30
0.0
  9
$UCSORGBOTTOM
 10
0.0
 20
0.0
 30
0.0
  9
$UCSORGLEFT
 10
0.0
 20
0.0
 30
0.0
  9
$UCSORGRIGHT
 10
0.0
 20
0.0
 30
0.0
  9
$UCSORGFRONT
 10
0.0
 20
0.0
 30
0.0
  9
$UCSORGBACK
 10
0.0
 20
0.0
 30
0.0
  9
$PUCSBASE
  2

  9
$PUCSNAME
  2

  9
$PUCSORG
 10
0.0
 20
0.0
 30
0.0
  9
$PUCSXDIR
 10
1.0
 20
0.0
 30
0.0
  9
$PUCSYDIR
 10
0.0
 20
1.0
 30
0.0
  9
$PUCSORTHOREF
  2

  9
$PUCSORTHOVIEW
 70
     0
  9
$PUCSORGTOP
 10
0.0
 20
0.0
 30
0.0
  9
$PUCSORGBOTTOM
 10
0.0
 20
0.0
 30
0.0
  9
$PUCSORGLEFT
 10
0.0
 20
0.0
 30
0.0
  9
$PUCSORGRIGHT
 10
0.0
 20
0.0
 30
0.0
  9
$PUCSORGFRONT
 10
0.0
 20
0.0
 30
0.0
  9
$PUCSORGBACK
 10
0.0
 20
0.0
 30
0.0
  9
$USERI1
 70
     0
  9
$USERI2
 70
     0
  9
$USERI3
 70
     0
  9
$USERI4
 70
     0
  9
$USERI5
 70
     0
  9
$USERR1
 40
0.0
  9
$USERR2
 40
0.0
  9
$USERR3
 40
0.0
  9
$USERR4
 40
0.0
  9
$USERR5
 40
0.0
  9
$WORLDVIEW
 70
     1
  9
$SHADEDGE
 70
     3
  9
$SHADEDIF
 70
    70
  9
$TILEMODE
 70
     1
  9
$MAXACTVP
 70
    48
  9
$PINSBASE
 10
0.0
 20
0.0
 30
0.0
  9
$PLIMCHECK
 70
     0
  9
$PEXTMIN
 10
1.000000000000000E+20
 20
1.000000000000000E+20
 30
1.000000000000000E+20
  9
$PEXTMAX
 10
-1.000000000000000E+20
 20
-1.000000000000000E+20
 30
-1.000000000000000E+20
  9
$PLIMMIN
 10
0.0
 20
0.0
  9
$PLIMMAX
 10
420.0
 20
297.0
  9
$UNITMODE
 70
     0
  9
$VISRETAIN
 70
     1
  9
$PLINEGEN
 70
     0
  9
$PSLTSCALE
 70
     1
  9
$TREEDEPTH
 70
  3020
  9
$CMLSTYLE
  2
STANDARD
  9
$CMLJUST
 70
     0
  9
$CMLSCALE
 40
20.0
  9
$PROXYGRAPHICS
 70
     1
  9
$MEASUREMENT
 70
     0
  9
$CELWEIGHT
370
    -1
  9
$ENDCAPS
280
     0
  9
$JOINSTYLE
280
     0
  9
$LWDISPLAY
290
     0
  9
$INSUNITS
 70
     0
  9
$HYPERLINKBASE
  1

  9
$STYLESHEET
  1
monochrome.ctb
  9
$XEDIT
290
     1
  9
$CEPSNTYPE
380
     0
  9
$PSTYLEMODE
290
     1
  9
$FINGERPRINTGUID
  2
{45F74D6B-FF62-11D4-ACAE-E27B66B9A42E}
  9
$VERSIONGUID
  2
{7E0C0D74-9002-4C67-9F70-EC47A96526B1}
  9
$EXTNAMES
290
     1
  9
$PSVPSCALE
 40
0.0
  9
$OLESTARTUP
290
     0
  0
ENDSEC
  0
SECTION
  2
CLASSES
  0
CLASS
  1
LWPOLYLINE
  2
AcDbPolyline
  3
AutoCAD 2000
 90
    32768
280
     0
281
     1
  0
CLASS
  1
OLE2FRAME
  2
AcDbOle2Frame
  3
AutoCAD 2000
 90
    32768
280
     0
281
     1
  0
CLASS
  1
DICTIONARYVAR
  2
AcDbDictionaryVar
  3
AutoCAD 2000
 90
        0
280
     0
281
     0
  0
CLASS
  1
ACDBDICTIONARYWDFLT
  2
AcDbDictionaryWithDefault
  3
AutoCAD 2000
 90
        0
280
     0
281
     0
  0
CLASS
  1
ACDBPLACEHOLDER
  2
AcDbPlaceHolder
  3
AutoCAD 2000
 90
        0
280
     0
281
     0
  0
CLASS
  1
LAYOUT
  2
AcDbLayout
  3
AutoCAD 2000
 90
        0
280
     0
281
     0
  0
CLASS
  1
DIMASSOC
  2
AcDbDimAssoc
  3
"AcDbDimAssoc|Product Desc:     AcDim ARX App For Dimension|Company:          Autodesk, Inc.|WEB Address:      www.autodesk.com"
 90
    32768
280
     0
281
     0
  0
ENDSEC
  0
SECTION
  2
TABLES
  0
TABLE
  2
VPORT
  5
19
330
0
100
AcDbSymbolTable
 70
    16
  0
VPORT
  5
EFD
330
19
100
AcDbSymbolTableRecord
100
AcDbViewportTableRecord
  2
*Active
 70
     0
 10
0.0
 20
0.0
 11
1.0
 21
1.0
 12
150.7684577337681
 22
100.8606227668719
 13
0.0
 23
0.0
 14
10.0
 24
10.0
 15
10.0
 25
10.0
 16
0.0
 26
0.0
 36
1.0
 17
0.0
 27
0.0
 37
0.0
 40
255.6970730494813
 41
1.518709677419354
 42
50.0
 43
0.0
 44
0.0
 50
0.0
 51
0.0
 71
     0
 72
   100
 73
     1
 74
     1
 75
     0
 76
     0
 77
     0
 78
     0
281
     0
 65
     1
110
0.0
120
0.0
130
0.0
111
1.0
121
0.0
131
0.0
112
0.0
122
1.0
132
0.0
 79
     0
146
0.0
  0
ENDTAB
  0
TABLE
  2
LTYPE
  5
14
330
0
100
AcDbSymbolTable
 70
     4
  0
LTYPE
  5
15
330
14
100
AcDbSymbolTableRecord
100
AcDbLinetypeTableRecord
  2
BYBLOCK
 70
     0
  3

 72
    65
 73
     0
 40
0.0
  0
LTYPE
  5
16
330
14
100
AcDbSymbolTableRecord
100
AcDbLinetypeTableRecord
  2
BYLAYER
 70
     0
  3

 72
    65
 73
     0
 40
0.0
  0
LTYPE
  5
8
330
14
100
AcDbSymbolTableRecord
100
AcDbLinetypeTableRecord
  2
CONTINUOUS
 70
     0
  3
Solid line
 72
    65
 73
     0
 40
0.0
  0
LTYPE
  5
90
330
14
100
AcDbSymbolTableRecord
100
AcDbLinetypeTableRecord
  2
CENTER
 70
     0
  3
Center ____ _ ____ _ ____ _ ____ _ ____ _ ____
 72
    65
 73
     4
 40
50.8
 49
31.75
 74
     0
 49
-6.349999999999998
 74
     0
 49
6.349999999999998
 74
     0
 49
-6.349999999999998
 74
     0
  0
LTYPE
  5
E6
330
14
100
AcDbSymbolTableRecord
100
AcDbLinetypeTableRecord
  2
HIDDEN
 70
     0
  3
Hidden __ __ __ __ __ __ __ __ __ __ __ __ __ _
 72
    65
 73
     2
 40
9.524999999999996
 49
6.349999999999998
 74
     0
 49
-3.174999999999998
 74
     0
  0
ENDTAB
  0
TABLE
  2
LAYER
  5
10
330
0
100
AcDbSymbolTable
 70
     9
  0
LAYER
  5
4
330
10
100
AcDbSymbolTableRecord
100
AcDbLayerTableRecord
  2
0
 70
     0
 62
     7
  6
CONTINUOUS
370
    -3
390
5
  0
LAYER
  5
3B
330
10
100
AcDbSymbolTableRecord
100
AcDbLayerTableRecord
  2
Defpoints
 70
     0
 62
     2
  6
CONTINUOUS
290
     0
370
    -3
390
5
  0
LAYER
  5
8F
330
10
100
AcDbSymbolTableRecord
100
AcDbLayerTableRecord
  2
Center
 70
     0
 62
     1
  6
CENTER
370
    -3
390
5
  0
LAYER
  5
23
330
10
100
AcDbSymbolTableRecord
100
AcDbLayerTableRecord
  2
Dims
 70
     0
 62
     6
  6
CONTINUOUS
370
    -3
390
5
  0
LAYER
  5
26
330
10
100
AcDbSymbolTableRecord
100
AcDbLayerTableRecord
  2
Object
 70
     0
 62
     7
  6
CONTINUOUS
370
    -3
390
5
  0
ENDTAB
  0
TABLE
  2
STYLE
  5
11
330
0
100
AcDbSymbolTable
 70
     4
  0
STYLE
  5
12
330
11
100
AcDbSymbolTableRecord
100
AcDbTextStyleTableRecord
  2
STANDARD
 70
     0
 40
0.0
 41
1.0
 50
0.0
 71
     0
 42
2.0
  3
simplex.shx
  4
bigfont.shx
  0
STYLE
  5
772
330
11
100
AcDbSymbolTableRecord
100
AcDbTextStyleTableRecord
  2
TEXT
 70
     0
 40
0.0
 41
0.7
 50
0.0
 71
     0
 42
0.2
  3
TXT
  4
bigfont
  0
ENDTAB
  0
TABLE
  2
VIEW
  5
17
330
0
100
AcDbSymbolTable
 70
     0
  0
ENDTAB
  0
TABLE
  2
UCS
  5
18
330
0
100
AcDbSymbolTable
 70
     0
  0
ENDTAB
  0
TABLE
  2
APPID
  5
1B
330
0
100
AcDbSymbolTable
 70
     1
  0
APPID
  5
1C
330
1B
100
AcDbSymbolTableRecord
100
AcDbRegAppTableRecord
  2
ACAD
 70
     0
  0
ENDTAB
  0
TABLE
  2
DIMSTYLE
  5
1D
330
0
100
AcDbSymbolTable
 70
     7
100
AcDbDimStyleTable
 71
     1
340
1E
  0
DIMSTYLE
105
1E
102
{ACAD_REACTORS
330
214
330
221
330
1F2
330
1FF
330
32
330
27F
330
5BD
330
55
330
7F
330
72
330
AC
330
CA
330
154
330
3FD
330
65
330
6F5
330
665
330
AAD
330
B0A
330
D15
330
D2B
330
DDD
330
E45
330
EB0
102
}
330
1D
100
AcDbSymbolTableRecord
100
AcDbDimStyleTableRecord
  2
STANDARD
 70
     0
 41
2.5
 42
0.625
 43
5.0
 44
1.25
 73
     0
 74
     0
 77
     1
 78
     8
 79
     2
140
2.5
141
2.5
147
0.625
172
     1
178
   256
179
     1
340
12
  0
ENDTAB
  0
TABLE
  2
BLOCK_RECORD
  5
1
330
0
100
AcDbSymbolTable
 70
    63
  0
BLOCK_RECORD
  5
2
330
1
100
AcDbSymbolTableRecord
100
AcDbBlockTableRecord
  2
*MODEL_SPACE
340
A
  0
BLOCK_RECORD
  5
C
330
1
100
AcDbSymbolTableRecord
100
AcDbBlockTableRecord
  2
*PAPER_SPACE
340
F
  0
BLOCK_RECORD
  5
34B
330
1
100
AcDbSymbolTableRecord
100
AcDbBlockTableRecord
  2
LH6M2.6×4-sei
340
0
310
2800000020000000200000000100080000000000000400000000000000000000000000000000000000000000000080000080000000808000800000008000800080800000C0C0C000C0DCC000F0CAA6000020400000206000002080000020A0000020C0000020E00000400000004020000040400000406000004080000040A0
310
000040C0000040E00000600000006020000060400000606000006080000060A0000060C0000060E00000800000008020000080400000806000008080000080A0000080C0000080E00000A0000000A0200000A0400000A0600000A0800000A0A00000A0C00000A0E00000C0000000C0200000C0400000C0600000C0800000C0
310
A00000C0C00000C0E00000E0000000E0200000E0400000E0600000E0800000E0A00000E0C00000E0E00040000000400020004000400040006000400080004000A0004000C0004000E00040200000402020004020400040206000402080004020A0004020C0004020E000404000004040200040404000404060004040800040
310
40A0004040C0004040E00040600000406020004060400040606000406080004060A0004060C0004060E00040800000408020004080400040806000408080004080A0004080C0004080E00040A0000040A0200040A0400040A0600040A0800040A0A00040A0C00040A0E00040C0000040C0200040C0400040C0600040C08000
310
40C0A00040C0C00040C0E00040E0000040E0200040E0400040E0600040E0800040E0A00040E0C00040E0E00080000000800020008000400080006000800080008000A0008000C0008000E00080200000802020008020400080206000802080008020A0008020C0008020E00080400000804020008040400080406000804080
310
008040A0008040C0008040E00080600000806020008060400080606000806080008060A0008060C0008060E00080800000808020008080400080806000808080008080A0008080C0008080E00080A0000080A0200080A0400080A0600080A0800080A0A00080A0C00080A0E00080C0000080C0200080C0400080C0600080C0
310
800080C0A00080C0C00080C0E00080E0000080E0200080E0400080E0600080E0800080E0A00080E0C00080E0E000C0000000C0002000C0004000C0006000C0008000C000A000C000C000C000E000C0200000C0202000C0204000C0206000C0208000C020A000C020C000C020E000C0400000C0402000C0404000C0406000C0
310
408000C040A000C040C000C040E000C0600000C0602000C0604000C0606000C0608000C060A000C060C000C060E000C0800000C0802000C0804000C0806000C0808000C080A000C080C000C080E000C0A00000C0A02000C0A04000C0A06000C0A08000C0A0A000C0A0C000C0A0E000C0C00000C0C02000C0C04000C0C06000
310
C0C08000C0C0A000F0FBFF00A4A0A000808080000000FF0000FF000000FFFF00FF000000FF00FF00FFFF0000FFFFFF00000000000000000000000000000000000000000000000000000000000000000000000000000000000000000000000000FF0000000000000000000000000000000000000000000000000000000000FF
310
FF00FFFF00000000000000000000000000000000000000000000000000FFFF0000000000FFFF000000000000000000000000000000000000000000FFFF00FFFFFFFFFFFF0000FFFF0000000000000000000000000000000000FFFF00FFFF000000000000FFFF0000FFFF00000000000000000000000000FFFF00FFFF000000
310
00000000000000FFFF0000FF000000000000000000000000FFFFFF0000000000000000000000000000FFFF00FF00000000000000000000FFFF000000000000000000000000000000000000FFFF00000000000000000000FFFF00000000000000000000FFFF000000000000FF00FF0000000000000000FFFF00000000000000
310
00FFFFFF0000FF000000000000FFFF0000000000000000FFFF000000000000FFFF0000000000FF000000000000FF00FF000000000000FFFF0000000000FFFF0000000000000000FF000000000000FFFF000000000000FFFF0000000000FF000000000000000000FF000000000000FF00FF00000000FF00FF0000000000FF00
310
000000000000000000FF0000000000FF00FF00000000FF00FF0000000000FF00000000000000000000FF0000000000FF0000FF0000FF0000FF0000000000FF0000000000000000000000FF00000000FF0000FF000000FF00FF0000000000FF00000000000000000000FF0000000000FF00FF00000000FF00FF0000000000FF
310
00000000000000000000FF0000000000FF00FF0000000000FFFF0000000000FFFF0000000000000000FF000000000000FFFF000000000000FF00FF000000000000FFFFFF00000000FF000000000000FF00FF00000000000000FFFF000000000000000000FFFF0000FF000000000000FFFF0000000000000000FF00FF000000
310
00000000000000FFFF000000000000FF00FF000000000000000000FFFF000000000000000000000000000000000000FFFF00000000000000000000FF00FF00000000000000000000000000000000FF00FF0000000000000000000000FF00FFFF000000000000000000000000FFFF00FF00000000000000000000000000FFFF
310
00FFFF0000000000000000FFFF00FFFF00000000000000000000000000000000FFFF00FFFFFFFFFFFFFFFF00FFFF0000000000000000000000000000000000000000FFFF000000000000FFFF000000000000000000000000000000000000000000000000FFFF0000FFFF000000000000000000000000000000000000000000
310
00000000000000FFFF0000000000000000000000000000000000000000000000000000000000000000000000000000000000000000000000
102
{BLKREFS
331
34A
331
35E
102
}
  0
BLOCK_RECORD
  5
7B0
330
1
100
AcDbSymbolTableRecord
100
AcDbBlockTableRecord
  2
*D30
340
0
  0
BLOCK_RECORD
  5
7C8
330
1
100
AcDbSymbolTableRecord
100
AcDbBlockTableRecord
  2
*D32
340
0
  0
BLOCK_RECORD
  5
7D4
330
1
100
AcDbSymbolTableRecord
100
AcDbBlockTableRecord
  2
*D33
340
0
  0
BLOCK_RECORD
  5
7E0
330
1
100
AcDbSymbolTableRecord
100
AcDbBlockTableRecord
  2
*D34
340
0
  0
BLOCK_RECORD
  5
7EC
330
1
100
AcDbSymbolTableRecord
100
AcDbBlockTableRecord
  2
*D35
340
0
  0
BLOCK_RECORD
  5
7F8
330
1
100
AcDbSymbolTableRecord
100
AcDbBlockTableRecord
  2
*D36
340
0
  0
BLOCK_RECORD
  5
804
330
1
100
AcDbSymbolTableRecord
100
AcDbBlockTableRecord
  2
*D37
340
0
  0
BLOCK_RECORD
  5
853
330
1
100
AcDbSymbolTableRecord
100
AcDbBlockTableRecord
  2
*D40
340
0
  0
BLOCK_RECORD
  5
85F
330
1
100
AcDbSymbolTableRecord
100
AcDbBlockTableRecord
  2
*D41
340
0
  0
BLOCK_RECORD
  5
86B
330
1
100
AcDbSymbolTableRecord
100
AcDbBlockTableRecord
  2
*D42
340
0
  0
BLOCK_RECORD
  5
891
330
1
100
AcDbSymbolTableRecord
100
AcDbBlockTableRecord
  2
*D45
340
0
  0
BLOCK_RECORD
  5
89F
330
1
100
AcDbSymbolTableRecord
100
AcDbBlockTableRecord
  2
*D46
340
0
  0
BLOCK_RECORD
  5
8AB
330
1
100
AcDbSymbolTableRecord
100
AcDbBlockTableRecord
  2
*D47
340
0
  0
BLOCK_RECORD
  5
8C5
330
1
100
AcDbSymbolTableRecord
100
AcDbBlockTableRecord
  2
*D49
340
0
  0
BLOCK_RECORD
  5
937
330
1
100
AcDbSymbolTableRecord
100
AcDbBlockTableRecord
  2
*D51
340
0
  0
BLOCK_RECORD
  5
AAE
330
1
100
AcDbSymbolTableRecord
100
AcDbBlockTableRecord
  2
*D52
340
0
  0
BLOCK_RECORD
  5
B0B
330
1
100
AcDbSymbolTableRecord
100
AcDbBlockTableRecord
  2
*D53
340
0
  0
BLOCK_RECORD
  5
D16
330
1
100
AcDbSymbolTableRecord
100
AcDbBlockTableRecord
  2
*D55
340
0
  0
BLOCK_RECORD
  5
D2C
330
1
100
AcDbSymbolTableRecord
100
AcDbBlockTableRecord
  2
*D56
340
0
  0
BLOCK_RECORD
  5
D73
330
1
100
AcDbSymbolTableRecord
100
AcDbBlockTableRecord
  2
_Dot
340
0
  0
BLOCK_RECORD
  5
DDE
330
1
100
AcDbSymbolTableRecord
100
AcDbBlockTableRecord
  2
*D58
340
0
  0
BLOCK_RECORD
  5
E46
330
1
100
AcDbSymbolTableRecord
100
AcDbBlockTableRecord
  2
*D59
340
0
  0
BLOCK_RECORD
  5
EB1
330
1
100
AcDbSymbolTableRecord
100
AcDbBlockTableRecord
  2
*D60
340
0
  0
BLOCK_RECORD
  5
EDE
330
1
100
AcDbSymbolTableRecord
100
AcDbBlockTableRecord
  2
*D61
340
0
  0
BLOCK_RECORD
  5
EED
330
1
100
AcDbSymbolTableRecord
100
AcDbBlockTableRecord
  2
*D62
340
0
  0
ENDTAB
  0
ENDSEC
  0
SECTION
  2
BLOCKS
  0
BLOCK
  5
3
330
2
100
AcDbEntity
  8
0
100
AcDbBlockBegin
  2
*MODEL_SPACE
 70
     2
 10
0.0
 20
0.0
 30
0.0
  3
*MODEL_SPACE
  1

  0
ENDBLK
  5
9
330
2
100
AcDbEntity
  8
0
100
AcDbBlockEnd
  0
BLOCK
  5
D
330
C
100
AcDbEntity
 67
     1
  8
0
100
AcDbBlockBegin
  2
*PAPER_SPACE
 70
     0
 10
0.0
 20
0.0
 30
0.0
  3
*PAPER_SPACE
  1

  0
ENDBLK
  5
E
330
C
100
AcDbEntity
 67
     1
  8
0
100
AcDbBlockEnd
  0
BLOCK
  5
35A
330
34B
100
AcDbEntity
  8
0
 48
0.5
100
AcDbBlockBegin
  2
LH6M2.6×4-sei
 70
     0
 10
0.0
 20
0.0
 30
0.0
  3
LH6M2.6×4-sei
  1

  0
CIRCLE
  5
34C
330
34B
100
AcDbEntity
  8
Object
 48
0.5
100
AcDbCircle
 10
0.0
 20
0.0
 30
0.0
 40
2.649999999999999
  0
ARC
  5
34D
330
34B
100
AcDbEntity
  8
Object
 48
0.5
100
AcDbCircle
 10
0.0
 20
0.0
 30
0.0
 40
2.25
100
AcDbArc
 50
42.83958840691805
 51
77.16041159309874
  0
ARC
  5
34E
330
34B
100
AcDbEntity
  8
Object
 48
0.5
100
AcDbCircle
 10
0.0
 20
3.870792079972828
 30
0.0
 40
1.75
100
AcDbArc
 50
253.3984504009766
 51
286.6015495990233
  0
ARC
  5
34F
330
34B
100
AcDbEntity
  8
Object
 48
0.5
100
AcDbCircle
 10
-3.352204274024187
 20
1.935396039986585
 30
0.0
 40
1.75
100
AcDbArc
 50
313.3984504009738
 51
346.6015495990184
  0
ARC
  5
350
330
34B
100
AcDbEntity
  8
Object
 48
0.5
100
AcDbCircle
 10
-3.352204274024187
 20
-1.935396039986016
 30
0.0
 40
1.75
100
AcDbArc
 50
13.39845040098148
 51
46.60154959902614
  0
ARC
  5
351
330
34B
100
AcDbEntity
  8
Object
 48
0.5
100
AcDbCircle
 10
-0.0000000000005684
 20
-3.870792079972828
 30
0.0
 40
1.75
100
AcDbArc
 50
73.39845040097656
 51
106.6015495990233
  0
ARC
  5
352
330
34B
100
AcDbEntity
  8
Object
 48
0.5
100
AcDbCircle
 10
3.352204274023506
 20
-1.935396039986699
 30
0.0
 40
1.75
100
AcDbArc
 50
133.3984504009737
 51
166.6015495990185
  0
ARC
  5
353
330
34B
100
AcDbEntity
  8
Object
 48
0.5
100
AcDbCircle
 10
3.352204274023846
 20
1.935396039986244
 30
0.0
 40
1.75
100
AcDbArc
 50
193.3984504009814
 51
226.6015495990261
  0
ARC
  5
354
330
34B
100
AcDbEntity
  8
Object
 48
0.5
100
AcDbCircle
 10
0.0
 20
0.0
 30
0.0
 40
2.25
100
AcDbArc
 50
342.8395884069153
 51
17.16041159307641
  0
ARC
  5
355
330
34B
100
AcDbEntity
  8
Object
 48
0.5
100
AcDbCircle
 10
0.0
 20
0.0
 30
0.0
 40
2.25
100
AcDbArc
 50
282.8395884069011
 51
317.1604115930727
  0
ARC
  5
356
330
34B
100
AcDbEntity
  8
Object
 48
0.5
100
AcDbCircle
 10
0.0
 20
0.0
 30
0.0
 40
2.25
100
AcDbArc
 50
222.8395884069088
 51
257.1604115930859
  0
ARC
  5
357
330
34B
100
AcDbEntity
  8
Object
 48
0.5
100
AcDbCircle
 10
0.0
 20
0.0
 30
0.0
 40
2.25
100
AcDbArc
 50
162.8395884068948
 51
197.1604115930763
  0
ARC
  5
358
330
34B
100
AcDbEntity
  8
Object
 48
0.5
100
AcDbCircle
 10
0.0
 20
0.0
 30
0.0
 40
2.25
100
AcDbArc
 50
102.8395884069012
 51
137.1604115930959
  0
CIRCLE
  5
359
330
34B
100
AcDbEntity
  8
Object
 48
0.5
100
AcDbCircle
 10
0.0
 20
0.0
 30
0.0
 40
1.25
  0
ENDBLK
  5
35B
330
34B
100
AcDbEntity
  8
0
 48
0.5
100
AcDbBlockEnd
  0
BLOCK
  5
7BA
330
7B0
100
AcDbEntity
  8
0
 48
0.5
100
AcDbBlockBegin
  2
*D30
 70
     1
 10
0.0
 20
0.0
 30
0.0
  3
*D30
  1

  0
LINE
  5
DC0
330
7B0
100
AcDbEntity
  8
Dims
 62
     0
 48
0.5
370
    -2
100
AcDbLine
 10
62.20698836015793
 20
135.7288543419012
 30
0.0
 11
80.36157603622317
 21
135.7288543419012
 31
0.0
  0
LINE
  5
DC1
330
7B0
100
AcDbEntity
  8
Dims
 62
     0
 48
0.5
370
    -2
100
AcDbLine
 10
62.20698836015793
 20
97.42885434189952
 30
0.0
 11
80.36157603622317
 21
97.42885434189952
 31
0.0
  0
LINE
  5
DC2
330
7B0
100
AcDbEntity
  8
Dims
 62
     0
 48
0.5
370
    -2
100
AcDbLine
 10
79.11157603622317
 20
133.2288543419012
 30
0.0
 11
79.11157603622317
 21
99.92885434189952
 31
0.0
  0
MTEXT
  5
DC3
330
7B0
100
AcDbEntity
  8
Dims
 48
0.5
100
AcDbMText
 10
77.04095253955756
 20
112.596514345631
 30
0.0
 40
2.5
 41
0.0
 71
     5
 72
     1
  1
\A1;38.3
 11
0.0000000000000001
 21
1.0
 31
0.0
 73
     1
 44
1.0
  0
SOLID
  5
DC4
330
7B0
100
AcDbEntity
  8
Dims
 62
     0
 48
0.5
100
AcDbTrace
 10
78.69490936955649
 20
133.2288543419012
 30
0.0
 11
79.52824270288984
 21
133.2288543419012
 31
0.0
 12
79.11157603622317
 22
135.7288543419012
 32
0.0
 13
79.11157603622317
 23
135.7288543419012
 33
0.0
  0
SOLID
  5
DC5
330
7B0
100
AcDbEntity
  8
Dims
 62
     0
 48
0.5
100
AcDbTrace
 10
78.69490936955649
 20
99.92885434189952
 30
0.0
 11
79.52824270288984
 21
99.92885434189952
 31
0.0
 12
79.11157603622317
 22
97.42885434189952
 32
0.0
 13
79.11157603622317
 23
97.42885434189952
 33
0.0
  0
POINT
  5
DC6
330
7B0
100
AcDbEntity
  8
Defpoints
 62
     0
 48
0.5
100
AcDbPoint
 10
61.58198836015793
 20
135.7288543419012
 30
0.0
  0
POINT
  5
DC7
330
7B0
100
AcDbEntity
  8
Defpoints
 62
     0
 48
0.5
100
AcDbPoint
 10
61.58198836015793
 20
97.42885434189952
 30
0.0
  0
POINT
  5
DC8
330
7B0
100
AcDbEntity
  8
Defpoints
 62
     0
 48
0.5
100
AcDbPoint
 10
79.11157603622317
 20
97.42885434189952
 30
0.0
  0
ENDBLK
  5
7BB
330
7B0
100
AcDbEntity
  8
0
 48
0.5
100
AcDbBlockEnd
  0
BLOCK
  5
7D2
330
7C8
100
AcDbEntity
  8
0
 48
0.5
100
AcDbBlockBegin
  2
*D32
 70
     1
 10
0.0
 20
0.0
 30
0.0
  3
*D32
  1

  0
LINE
  5
E06
330
7C8
100
AcDbEntity
  8
Dims
 62
     0
 48
0.5
370
    -2
100
AcDbLine
 10
34.58198836015802
 20
82.80385434189986
 30
0.0
 11
34.58198836015802
 21
67.52680161604053
 31
0.0
  0
LINE
  5
E07
330
7C8
100
AcDbEntity
  8
Dims
 62
     0
 48
0.5
370
    -2
100
AcDbLine
 10
62.58198836015793
 20
82.80385434189986
 30
0.0
 11
62.58198836015793
 21
67.52680161604053
 31
0.0
  0
LINE
  5
E08
330
7C8
100
AcDbEntity
  8
Dims
 62
     0
 48
0.5
370
    -2
100
AcDbLine
 10
37.08198836015802
 20
68.15180161604053
 30
0.0
 11
60.08198836015793
 21
68.15180161604053
 31
0.0
  0
SOLID
  5
E09
330
7C8
100
AcDbEntity
  8
Dims
 62
     0
 48
0.5
100
AcDbTrace
 10
37.08198836015802
 20
68.5684682827072
 30
0.0
 11
37.08198836015802
 21
67.73513494937386
 31
0.0
 12
34.58198836015802
 22
68.15180161604053
 32
0.0
 13
34.58198836015802
 23
68.15180161604053
 33
0.0
  0
SOLID
  5
E0A
330
7C8
100
AcDbEntity
  8
Dims
 62
     0
 48
0.5
100
AcDbTrace
 10
60.08198836015793
 20
68.5684682827072
 30
0.0
 11
60.08198836015793
 21
67.73513494937386
 31
0.0
 12
62.58198836015793
 22
68.15180161604053
 32
0.0
 13
62.58198836015793
 23
68.15180161604053
 33
0.0
  0
MTEXT
  5
E0B
330
7C8
100
AcDbEntity
  8
Dims
 48
0.5
100
AcDbMText
 10
48.58198836015799
 20
70.02680161604053
 30
0.0
 40
2.5
 41
0.0
 71
     5
 72
     1
  1
\A1;28{\H0.8x;%%p0.3}
 73
     1
 44
1.0
  0
POINT
  5
E0C
330
7C8
100
AcDbEntity
  8
Defpoints
 62
     0
 48
0.5
100
AcDbPoint
 10
34.58198836015802
 20
83.42885434189986
 30
0.0
  0
POINT
  5
E0D
330
7C8
100
AcDbEntity
  8
Defpoints
 62
     0
 48
0.5
100
AcDbPoint
 10
62.58198836015793
 20
83.42885434189986
 30
0.0
  0
POINT
  5
E0E
330
7C8
100
AcDbEntity
  8
Defpoints
 62
     0
 48
0.5
100
AcDbPoint
 10
62.58198836015793
 20
68.15180161604053
 30
0.0
  0
ENDBLK
  5
7D3
330
7C8
100
AcDbEntity
  8
0
 48
0.5
100
AcDbBlockEnd
  0
BLOCK
  5
7DE
330
7D4
100
AcDbEntity
  8
0
 48
0.5
100
AcDbBlockBegin
  2
*D33
 70
     1
 10
0.0
 20
0.0
 30
0.0
  3
*D33
  1

  0
LINE
  5
D81
330
7D4
100
AcDbEntity
  8
Dims
 62
     0
 48
0.5
370
    -2
100
AcDbLine
 10
26.98198836015913
 20
131.4038543418982
 30
0.0
 11
26.98198836015913
 21
148.9722438237049
 31
0.0
  0
LINE
  5
D82
330
7D4
100
AcDbEntity
  8
Dims
 62
     0
 48
0.5
370
    -2
100
AcDbLine
 10
70.18198836015722
 20
131.4038543418982
 30
0.0
 11
70.18198836015722
 21
148.9722438237049
 31
0.0
  0
LINE
  5
D83
330
7D4
100
AcDbEntity
  8
Dims
 62
     0
 48
0.5
370
    -2
100
AcDbLine
 10
29.48198836015913
 20
147.7222438237049
 30
0.0
 11
67.68198836015722
 21
147.7222438237049
 31
0.0
  0
SOLID
  5
D84
330
7D4
100
AcDbEntity
  8
Dims
 62
     0
 48
0.5
100
AcDbTrace
 10
29.48198836015913
 20
148.1389104903716
 30
0.0
 11
29.48198836015913
 21
147.3055771570382
 31
0.0
 12
26.98198836015913
 22
147.7222438237049
 32
0.0
 13
26.98198836015913
 23
147.7222438237049
 33
0.0
  0
SOLID
  5
D85
330
7D4
100
AcDbEntity
  8
Dims
 62
     0
 48
0.5
100
AcDbTrace
 10
67.68198836015722
 20
148.1389104903716
 30
0.0
 11
67.68198836015722
 21
147.3055771570382
 31
0.0
 12
70.18198836015722
 22
147.7222438237049
 32
0.0
 13
70.18198836015722
 23
147.7222438237049
 33
0.0
  0
MTEXT
  5
D86
330
7D4
100
AcDbEntity
  8
Dims
 48
0.5
100
AcDbMText
 10
48.58198836015816
 20
149.5972438237049
 30
0.0
 40
2.5
 41
0.0
 71
     5
 72
     1
  1
\A1;（44）
 73
     1
 44
1.0
  0
POINT
  5
D87
330
7D4
100
AcDbEntity
  8
Defpoints
 62
     0
 48
0.5
100
AcDbPoint
 10
26.98198836015913
 20
130.7788543418982
 30
0.0
  0
POINT
  5
D88
330
7D4
100
AcDbEntity
  8
Defpoints
 62
     0
 48
0.5
100
AcDbPoint
 10
70.18198836015722
 20
130.7788543418982
 30
0.0
  0
POINT
  5
D89
330
7D4
100
AcDbEntity
  8
Defpoints
 62
     0
 48
0.5
100
AcDbPoint
 10
70.18198836015722
 20
147.7222438237049
 30
0.0
  0
ENDBLK
  5
7DF
330
7D4
100
AcDbEntity
  8
0
 48
0.5
100
AcDbBlockEnd
  0
BLOCK
  5
7EA
330
7E0
100
AcDbEntity
  8
0
 48
0.5
100
AcDbBlockBegin
  2
*D34
 70
     1
 10
0.0
 20
0.0
 30
0.0
  3
*D34
  1

  0
LINE
  5
D78
330
7E0
100
AcDbEntity
  8
Dims
 62
     0
 48
0.5
370
    -2
100
AcDbLine
 10
29.28198836015812
 20
134.9788543418997
 30
0.0
 11
29.28198836015812
 21
141.5154708966729
 31
0.0
  0
LINE
  5
D79
330
7E0
100
AcDbEntity
  8
Dims
 62
     0
 48
0.5
370
    -2
100
AcDbLine
 10
67.88198836015843
 20
135.1538543418997
 30
0.0
 11
67.88198836015843
 21
141.5154708966729
 31
0.0
  0
LINE
  5
D7A
330
7E0
100
AcDbEntity
  8
Dims
 62
     0
 48
0.5
370
    -2
100
AcDbLine
 10
31.78198836015812
 20
140.8904708966729
 30
0.0
 11
65.38198836015843
 21
140.8904708966729
 31
0.0
  0
SOLID
  5
D7B
330
7E0
100
AcDbEntity
  8
Dims
 62
     0
 48
0.5
100
AcDbTrace
 10
31.78198836015812
 20
141.3071375633395
 30
0.0
 11
31.78198836015812
 21
140.4738042300062
 31
0.0
 12
29.28198836015812
 22
140.8904708966729
 32
0.0
 13
29.28198836015812
 23
140.8904708966729
 33
0.0
  0
SOLID
  5
D7C
330
7E0
100
AcDbEntity
  8
Dims
 62
     0
 48
0.5
100
AcDbTrace
 10
65.38198836015843
 20
141.3071375633395
 30
0.0
 11
65.38198836015843
 21
140.4738042300062
 31
0.0
 12
67.88198836015843
 22
140.8904708966729
 32
0.0
 13
67.88198836015843
 23
140.8904708966729
 33
0.0
  0
MTEXT
  5
D7D
330
7E0
100
AcDbEntity
  8
Dims
 48
0.5
100
AcDbMText
 10
48.58198836015827
 20
142.7654708966729
 30
0.0
 40
2.5
 41
0.0
 71
     5
 72
     1
  1
\A1;38.6
 73
     1
 44
1.0
  0
POINT
  5
D7E
330
7E0
100
AcDbEntity
  8
Defpoints
 62
     0
 48
0.5
100
AcDbPoint
 10
29.28198836015812
 20
134.3538543418997
 30
0.0
  0
POINT
  5
D7F
330
7E0
100
AcDbEntity
  8
Defpoints
 62
     0
 48
0.5
100
AcDbPoint
 10
67.88198836015843
 20
134.5288543418997
 30
0.0
  0
POINT
  5
D80
330
7E0
100
AcDbEntity
  8
Defpoints
 62
     0
 48
0.5
100
AcDbPoint
 10
67.88198836015843
 20
140.8904708966729
 30
0.0
  0
ENDBLK
  5
7EB
330
7E0
100
AcDbEntity
  8
0
 48
0.5
100
AcDbBlockEnd
  0
BLOCK
  5
7F6
330
7EC
100
AcDbEntity
  8
0
 48
0.5
100
AcDbBlockBegin
  2
*D35
 70
     1
 10
0.0
 20
0.0
 30
0.0
  3
*D35
  1

  0
LINE
  5
E0F
330
7EC
100
AcDbEntity
  8
Dims
 62
     0
 48
0.5
370
    -2
100
AcDbLine
 10
28.65698836015812
 20
83.42885434189986
 30
0.0
 11
18.95460544799114
 21
83.42885434189986
 31
0.0
  0
LINE
  5
E10
330
7EC
100
AcDbEntity
  8
Dims
 62
     0
 48
0.5
370
    -2
100
AcDbLine
 10
35.48451867689175
 20
111.4288543418996
 30
0.0
 11
18.95460544799114
 21
111.4288543418996
 31
0.0
  0
LINE
  5
E11
330
7EC
100
AcDbEntity
  8
Dims
 62
     0
 48
0.5
370
    -2
100
AcDbLine
 10
19.57960544799114
 20
85.92885434189986
 30
0.0
 11
19.57960544799114
 21
108.9288543418996
 31
0.0
  0
SOLID
  5
E12
330
7EC
100
AcDbEntity
  8
Dims
 62
     0
 48
0.5
100
AcDbTrace
 10
19.16293878132447
 20
85.92885434189986
 30
0.0
 11
19.9962721146578
 21
85.92885434189986
 31
0.0
 12
19.57960544799114
 22
83.42885434189986
 32
0.0
 13
19.57960544799114
 23
83.42885434189986
 33
0.0
  0
SOLID
  5
E13
330
7EC
100
AcDbEntity
  8
Dims
 62
     0
 48
0.5
100
AcDbTrace
 10
19.16293878132447
 20
108.9288543418996
 30
0.0
 11
19.99627211465781
 21
108.9288543418996
 31
0.0
 12
19.57960544799114
 22
111.4288543418996
 32
0.0
 13
19.57960544799114
 23
111.4288543418996
 33
0.0
  0
MTEXT
  5
E14
330
7EC
100
AcDbEntity
  8
Dims
 48
0.5
100
AcDbMText
 10
17.70460544799112
 20
97.42885434189975
 30
0.0
 40
2.5
 41
0.0
 71
     5
 72
     1
  1
\A1;28{\H0.8x;%%p0.3}
 11
0.0000000000000001
 21
1.0
 31
0.0
 73
     1
 44
1.0
  0
POINT
  5
E15
330
7EC
100
AcDbEntity
  8
Defpoints
 62
     0
 48
0.5
100
AcDbPoint
 10
29.28198836015812
 20
83.42885434189986
 30
0.0
  0
POINT
  5
E16
330
7EC
100
AcDbEntity
  8
Defpoints
 62
     0
 48
0.5
100
AcDbPoint
 10
36.10951867689175
 20
111.4288543418996
 30
0.0
  0
POINT
  5
E17
330
7EC
100
AcDbEntity
  8
Defpoints
 62
     0
 48
0.5
100
AcDbPoint
 10
19.57960544799114
 20
111.4288543418996
 30
0.0
  0
ENDBLK
  5
7F7
330
7EC
100
AcDbEntity
  8
0
 48
0.5
100
AcDbBlockEnd
  0
BLOCK
  5
802
330
7F8
100
AcDbEntity
  8
0
 48
0.5
100
AcDbBlockBegin
  2
*D36
 70
     1
 10
0.0
 20
0.0
 30
0.0
  3
*D36
  1

  0
LINE
  5
CAB
330
7F8
100
AcDbEntity
  8
Dims
 62
     0
 48
0.5
370
    -2
100
AcDbLine
 10
37.08198836015822
 20
82.80385434190122
 30
0.0
 11
37.08198836015822
 21
74.40141722781277
 31
0.0
  0
LINE
  5
CAC
330
7F8
100
AcDbEntity
  8
Dims
 62
     0
 48
0.5
370
    -2
100
AcDbLine
 10
60.08198836015822
 20
82.80385434190122
 30
0.0
 11
60.08198836015822
 21
74.40141722781277
 31
0.0
  0
LINE
  5
CAD
330
7F8
100
AcDbEntity
  8
Dims
 62
     0
 48
0.5
370
    -2
100
AcDbLine
 10
39.58198836015822
 20
75.02641722781277
 30
0.0
 11
57.58198836015822
 21
75.02641722781277
 31
0.0
  0
SOLID
  5
CAE
330
7F8
100
AcDbEntity
  8
Dims
 62
     0
 48
0.5
100
AcDbTrace
 10
39.58198836015822
 20
75.44308389447945
 30
0.0
 11
39.58198836015822
 21
74.6097505611461
 31
0.0
 12
37.08198836015822
 22
75.02641722781277
 32
0.0
 13
37.08198836015822
 23
75.02641722781277
 33
0.0
  0
SOLID
  5
CAF
330
7F8
100
AcDbEntity
  8
Dims
 62
     0
 48
0.5
100
AcDbTrace
 10
57.58198836015822
 20
75.44308389447945
 30
0.0
 11
57.58198836015822
 21
74.6097505611461
 31
0.0
 12
60.08198836015822
 22
75.02641722781277
 32
0.0
 13
60.08198836015822
 23
75.02641722781277
 33
0.0
  0
MTEXT
  5
CB0
330
7F8
100
AcDbEntity
  8
Dims
 48
0.5
100
AcDbMText
 10
48.58198836015811
 20
76.90141722781277
 30
0.0
 40
2.5
 41
0.0
 71
     5
 72
     1
  1
\A1;23{\H0.8x;%%p0.2}
 73
     1
 44
1.0
  0
POINT
  5
CB1
330
7F8
100
AcDbEntity
  8
Defpoints
 62
     0
 48
0.5
100
AcDbPoint
 10
37.08198836015822
 20
83.42885434190122
 30
0.0
  0
POINT
  5
CB2
330
7F8
100
AcDbEntity
  8
Defpoints
 62
     0
 48
0.5
100
AcDbPoint
 10
60.08198836015822
 20
83.42885434190122
 30
0.0
  0
POINT
  5
CB3
330
7F8
100
AcDbEntity
  8
Defpoints
 62
     0
 48
0.5
100
AcDbPoint
 10
60.08198836015822
 20
75.02641722781277
 30
0.0
  0
ENDBLK
  5
803
330
7F8
100
AcDbEntity
  8
0
 48
0.5
100
AcDbBlockEnd
  0
BLOCK
  5
80E
330
804
100
AcDbEntity
  8
0
 48
0.5
100
AcDbBlockBegin
  2
*D37
 70
     1
 10
0.0
 20
0.0
 30
0.0
  3
*D37
  1

  0
LINE
  5
BFA
330
804
100
AcDbEntity
  8
Dims
 62
     0
 48
0.5
370
    -2
100
AcDbLine
 10
33.95698836015822
 20
85.92885434189975
 30
0.0
 11
24.58998293749034
 21
85.92885434189977
 31
0.0
  0
LINE
  5
BFB
330
804
100
AcDbEntity
  8
Dims
 62
     0
 48
0.5
370
    -2
100
AcDbLine
 10
33.95698836015893
 20
108.9288543418998
 30
0.0
 11
24.58998293749035
 21
108.9288543418998
 31
0.0
  0
LINE
  5
BFC
330
804
100
AcDbEntity
  8
Dims
 62
     0
 48
0.5
370
    -2
100
AcDbLine
 10
25.21498293749035
 20
88.42885434189977
 30
0.0
 11
25.21498293749035
 21
106.4288543418998
 31
0.0
  0
SOLID
  5
BFD
330
804
100
AcDbEntity
  8
Dims
 62
     0
 48
0.5
100
AcDbTrace
 10
24.79831627082368
 20
88.42885434189977
 30
0.0
 11
25.63164960415701
 21
88.42885434189977
 31
0.0
 12
25.21498293749034
 22
85.92885434189977
 32
0.0
 13
25.21498293749034
 23
85.92885434189977
 33
0.0
  0
SOLID
  5
BFE
330
804
100
AcDbEntity
  8
Dims
 62
     0
 48
0.5
100
AcDbTrace
 10
24.79831627082368
 20
106.4288543418998
 30
0.0
 11
25.63164960415702
 21
106.4288543418998
 31
0.0
 12
25.21498293749035
 22
108.9288543418998
 32
0.0
 13
25.21498293749035
 23
108.9288543418998
 33
0.0
  0
MTEXT
  5
BFF
330
804
100
AcDbEntity
  8
Dims
 48
0.5
100
AcDbMText
 10
23.33998293749033
 20
97.42885434189975
 30
0.0
 40
2.5
 41
0.0
 71
     5
 72
     1
  1
\A1;23{\H0.8x;%%p0.2}
 11
0.0000000000000001
 21
1.0
 31
0.0
 73
     1
 44
1.0
  0
POINT
  5
C00
330
804
100
AcDbEntity
  8
Defpoints
 62
     0
 48
0.5
100
AcDbPoint
 10
34.58198836015822
 20
85.92885434189975
 30
0.0
  0
POINT
  5
C01
330
804
100
AcDbEntity
  8
Defpoints
 62
     0
 48
0.5
100
AcDbPoint
 10
34.58198836015893
 20
108.9288543418998
 30
0.0
  0
POINT
  5
C02
330
804
100
AcDbEntity
  8
Defpoints
 62
     0
 48
0.5
100
AcDbPoint
 10
25.21498293749035
 20
108.9288543418998
 30
0.0
  0
ENDBLK
  5
80F
330
804
100
AcDbEntity
  8
0
 48
0.5
100
AcDbBlockEnd
  0
BLOCK
  5
85D
330
853
100
AcDbEntity
  8
0
 48
0.5
100
AcDbBlockBegin
  2
*D40
 70
     1
 10
0.0
 20
0.0
 30
0.0
  3
*D40
  1

  0
LINE
  5
C87
330
853
100
AcDbEntity
  8
Dims
 62
     0
 48
0.5
370
    -2
100
AcDbLine
 10
235.2061123039217
 20
134.5288543418982
 30
0.0
 11
228.1635502436957
 21
134.5288543418982
 31
0.0
  0
LINE
  5
C88
330
853
100
AcDbEntity
  8
Dims
 62
     0
 48
0.5
370
    -2
100
AcDbLine
 10
235.2061123039217
 20
83.42885434189851
 30
0.0
 11
228.1635502436957
 21
83.42885434189851
 31
0.0
  0
LINE
  5
C89
330
853
100
AcDbEntity
  8
Dims
 62
     0
 48
0.5
370
    -2
100
AcDbLine
 10
229.4135502436957
 20
132.0288543418983
 30
0.0
 11
229.4135502436957
 21
85.92885434189851
 31
0.0
  0
SOLID
  5
C8A
330
853
100
AcDbEntity
  8
Dims
 62
     0
 48
0.5
100
AcDbTrace
 10
228.9968835770291
 20
132.0288543418983
 30
0.0
 11
229.8302169103624
 21
132.0288543418983
 31
0.0
 12
229.4135502436957
 22
134.5288543418982
 32
0.0
 13
229.4135502436957
 23
134.5288543418982
 33
0.0
  0
SOLID
  5
C8B
330
853
100
AcDbEntity
  8
Dims
 62
     0
 48
0.5
100
AcDbTrace
 10
228.9968835770291
 20
85.92885434189851
 30
0.0
 11
229.8302169103624
 21
85.92885434189851
 31
0.0
 12
229.4135502436957
 22
83.42885434189851
 32
0.0
 13
229.4135502436957
 23
83.42885434189851
 33
0.0
  0
MTEXT
  5
C8C
330
853
100
AcDbEntity
  8
Dims
 48
0.5
100
AcDbMText
 10
226.8837883389338
 20
108.9788543418985
 30
0.0
 40
2.5
 41
0.0
 71
     5
 72
     1
  1
\A1;(51)
 11
0.0000000000000001
 21
1.0
 31
0.0
 73
     1
 44
1.0
  0
POINT
  5
C8D
330
853
100
AcDbEntity
  8
Defpoints
 62
     0
 48
0.5
100
AcDbPoint
 10
235.8311123039217
 20
134.5288543418982
 30
0.0
  0
POINT
  5
C8E
330
853
100
AcDbEntity
  8
Defpoints
 62
     0
 48
0.5
100
AcDbPoint
 10
235.8311123039217
 20
83.42885434189851
 30
0.0
  0
POINT
  5
C8F
330
853
100
AcDbEntity
  8
Defpoints
 62
     0
 48
0.5
100
AcDbPoint
 10
229.4135502436957
 20
83.42885434189851
 30
0.0
  0
ENDBLK
  5
85E
330
853
100
AcDbEntity
  8
0
 48
0.5
100
AcDbBlockEnd
  0
BLOCK
  5
869
330
85F
100
AcDbEntity
  8
0
 48
0.5
100
AcDbBlockBegin
  2
*D41
 70
     1
 10
0.0
 20
0.0
 30
0.0
  3
*D41
  1

  0
LINE
  5
CD6
330
85F
100
AcDbEntity
  8
Dims
 62
     0
 48
0.5
370
    -2
100
AcDbLine
 10
235.8311123039217
 20
82.80385434189851
 30
0.0
 11
235.8311123039217
 21
73.77641722781277
 31
0.0
  0
LINE
  5
CD7
330
85F
100
AcDbEntity
  8
Dims
 62
     0
 48
0.5
370
    -2
100
AcDbLine
 10
274.431112303922
 20
82.80385434189851
 30
0.0
 11
274.431112303922
 21
73.77641722781277
 31
0.0
  0
LINE
  5
CD8
330
85F
100
AcDbEntity
  8
Dims
 62
     0
 48
0.5
370
    -2
100
AcDbLine
 10
238.3311123039217
 20
75.02641722781277
 30
0.0
 11
271.931112303922
 21
75.02641722781277
 31
0.0
  0
SOLID
  5
CD9
330
85F
100
AcDbEntity
  8
Dims
 62
     0
 48
0.5
100
AcDbTrace
 10
238.3311123039217
 20
75.44308389447945
 30
0.0
 11
238.3311123039217
 21
74.6097505611461
 31
0.0
 12
235.8311123039217
 22
75.02641722781277
 32
0.0
 13
235.8311123039217
 23
75.02641722781277
 33
0.0
  0
SOLID
  5
CDA
330
85F
100
AcDbEntity
  8
Dims
 62
     0
 48
0.5
100
AcDbTrace
 10
271.931112303922
 20
75.44308389447945
 30
0.0
 11
271.931112303922
 21
74.6097505611461
 31
0.0
 12
274.431112303922
 22
75.02641722781277
 32
0.0
 13
274.431112303922
 23
75.02641722781277
 33
0.0
  0
MTEXT
  5
CDB
330
85F
100
AcDbEntity
  8
Dims
 48
0.5
100
AcDbMText
 10
255.1311123039219
 20
77.55617913257466
 30
0.0
 40
2.5
 41
0.0
 71
     5
 72
     1
  1
\A1;(39)
 73
     1
 44
1.0
  0
POINT
  5
CDC
330
85F
100
AcDbEntity
  8
Defpoints
 62
     0
 48
0.5
100
AcDbPoint
 10
235.8311123039217
 20
83.42885434189851
 30
0.0
  0
POINT
  5
CDD
330
85F
100
AcDbEntity
  8
Defpoints
 62
     0
 48
0.5
100
AcDbPoint
 10
274.431112303922
 20
83.42885434189851
 30
0.0
  0
POINT
  5
CDE
330
85F
100
AcDbEntity
  8
Defpoints
 62
     0
 48
0.5
100
AcDbPoint
 10
274.431112303922
 20
75.02641722781277
 30
0.0
  0
ENDBLK
  5
86A
330
85F
100
AcDbEntity
  8
0
 48
0.5
100
AcDbBlockEnd
  0
BLOCK
  5
875
330
86B
100
AcDbEntity
  8
0
 48
0.5
100
AcDbBlockBegin
  2
*D42
 70
     1
 10
0.0
 20
0.0
 30
0.0
  3
*D42
  1

  0
LINE
  5
C46
330
86B
100
AcDbEntity
  8
Dims
 62
     0
 48
0.5
370
    -2
100
AcDbLine
 10
110.2180091348686
 20
100.0538543418971
 30
0.0
 11
110.2180091348686
 21
104.1663035260612
 31
0.0
  0
LINE
  5
C47
330
86B
100
AcDbEntity
  8
Dims
 62
     0
 48
0.5
370
    -2
100
AcDbLine
 10
120.2180091348683
 20
100.5538543418971
 30
0.0
 11
120.2180091348683
 21
104.1663035260612
 31
0.0
  0
LINE
  5
C48
330
86B
100
AcDbEntity
  8
Dims
 62
     0
 48
0.5
370
    -2
100
AcDbLine
 10
112.7180091348686
 20
103.5413035260612
 30
0.0
 11
117.7180091348684
 21
103.5413035260612
 31
0.0
  0
SOLID
  5
C49
330
86B
100
AcDbEntity
  8
Dims
 62
     0
 48
0.5
100
AcDbTrace
 10
112.7180091348686
 20
103.9579701927279
 30
0.0
 11
112.7180091348686
 21
103.1246368593945
 31
0.0
 12
110.2180091348686
 22
103.5413035260612
 32
0.0
 13
110.2180091348686
 23
103.5413035260612
 33
0.0
  0
SOLID
  5
C4A
330
86B
100
AcDbEntity
  8
Dims
 62
     0
 48
0.5
100
AcDbTrace
 10
117.7180091348684
 20
103.9579701927279
 30
0.0
 11
117.7180091348684
 21
103.1246368593945
 31
0.0
 12
120.2180091348683
 22
103.5413035260612
 32
0.0
 13
120.2180091348683
 23
103.5413035260612
 33
0.0
  0
MTEXT
  5
C4B
330
86B
100
AcDbEntity
  8
Dims
 48
0.5
100
AcDbMText
 10
115.2180091348685
 20
105.4163035260612
 30
0.0
 40
2.5
 41
0.0
 71
     5
 72
     1
  1
\A1;10{\H0.72x;%%p0.5}
 73
     1
 44
1.0
  0
POINT
  5
C4C
330
86B
100
AcDbEntity
  8
Defpoints
 62
     0
 48
0.5
100
AcDbPoint
 10
110.2180091348686
 20
99.42885434189713
 30
0.0
  0
POINT
  5
C4D
330
86B
100
AcDbEntity
  8
Defpoints
 62
     0
 48
0.5
100
AcDbPoint
 10
120.2180091348683
 20
99.92885434189714
 30
0.0
  0
POINT
  5
C4E
330
86B
100
AcDbEntity
  8
Defpoints
 62
     0
 48
0.5
100
AcDbPoint
 10
120.2180091348683
 20
103.5413035260612
 30
0.0
  0
ENDBLK
  5
876
330
86B
100
AcDbEntity
  8
0
 48
0.5
100
AcDbBlockEnd
  0
BLOCK
  5
89D
330
891
100
AcDbEntity
  8
0
 48
0.5
100
AcDbBlockBegin
  2
*D45
 70
     1
 10
0.0
 20
0.0
 30
0.0
  3
*D45
  1

  0
LINE
  5
C4F
330
891
100
AcDbEntity
  8
Dims
 62
     0
 48
0.5
370
    -2
100
AcDbLine
 10
109.5930091348686
 20
99.42885434189713
 30
0.0
 11
105.74595504225
 21
99.42885434189713
 31
0.0
  0
LINE
  5
C50
330
891
100
AcDbEntity
  8
Dims
 62
     0
 48
0.5
370
    -2
100
AcDbLine
 10
110.0930091348683
 20
94.92885434189714
 30
0.0
 11
105.74595504225
 21
94.92885434189714
 31
0.0
  0
LINE
  5
C51
330
891
100
AcDbEntity
  8
Dims
 62
     0
 48
0.5
370
    -2
100
AcDbLine
 10
106.37095504225
 20
101.9288543418971
 30
0.0
 11
106.37095504225
 21
104.4288543418971
 31
0.0
  0
LINE
  5
C52
330
891
100
AcDbEntity
  8
Dims
 62
     0
 48
0.5
370
    -2
100
AcDbLine
 10
106.37095504225
 20
92.42885434189714
 30
0.0
 11
106.37095504225
 21
71.35681395465237
 31
0.0
  0
LINE
  5
C53
330
891
100
AcDbEntity
  8
Dims
 62
     0
 48
0.5
370
    -2
100
AcDbLine
 10
106.37095504225
 20
99.42885434189713
 30
0.0
 11
106.37095504225
 21
94.92885434189714
 31
0.0
  0
SOLID
  5
C54
330
891
100
AcDbEntity
  8
Dims
 62
     0
 48
0.5
100
AcDbTrace
 10
105.9542883755834
 20
101.9288543418971
 30
0.0
 11
106.7876217089167
 21
101.9288543418971
 31
0.0
 12
106.37095504225
 22
99.42885434189713
 32
0.0
 13
106.37095504225
 23
99.42885434189713
 33
0.0
  0
SOLID
  5
C55
330
891
100
AcDbEntity
  8
Dims
 62
     0
 48
0.5
100
AcDbTrace
 10
105.9542883755833
 20
92.42885434189714
 30
0.0
 11
106.7876217089167
 21
92.42885434189714
 31
0.0
 12
106.37095504225
 22
94.92885434189714
 32
0.0
 13
106.37095504225
 23
94.92885434189714
 33
0.0
  0
MTEXT
  5
C56
330
891
100
AcDbEntity
  8
Dims
 48
0.5
100
AcDbMText
 10
104.49595504225
 20
78.2913377641762
 30
0.0
 40
2.5
 41
0.0
 71
     5
 72
     1
  1
\A1;4.5{\H0.8x;%%p0.2}
 11
0.0000000000000001
 21
1.0
 31
0.0
 73
     1
 44
1.0
  0
POINT
  5
C57
330
891
100
AcDbEntity
  8
Defpoints
 62
     0
 48
0.5
100
AcDbPoint
 10
110.2180091348686
 20
99.42885434189713
 30
0.0
  0
POINT
  5
C58
330
891
100
AcDbEntity
  8
Defpoints
 62
     0
 48
0.5
100
AcDbPoint
 10
110.7180091348684
 20
94.92885434189714
 30
0.0
  0
POINT
  5
C59
330
891
100
AcDbEntity
  8
Defpoints
 62
     0
 48
0.5
100
AcDbPoint
 10
106.37095504225
 20
94.92885434189714
 30
0.0
  0
ENDBLK
  5
89E
330
891
100
AcDbEntity
  8
0
 48
0.5
100
AcDbBlockEnd
  0
BLOCK
  5
8A9
330
89F
100
AcDbEntity
  8
0
 48
0.5
100
AcDbBlockBegin
  2
*D46
 70
     1
 10
0.0
 20
0.0
 30
0.0
  3
*D46
  1

  0
LINE
  5
E18
330
89F
100
AcDbEntity
  8
Dims
 62
     0
 48
0.5
370
    -2
100
AcDbLine
 10
110.2180091348686
 20
94.80385434189679
 30
0.0
 11
110.2180091348686
 21
67.52680161604053
 31
0.0
  0
LINE
  5
E19
330
89F
100
AcDbEntity
  8
Dims
 62
     0
 48
0.5
370
    -2
100
AcDbLine
 10
125.2180091348684
 20
82.8038543418968
 30
0.0
 11
125.2180091348684
 21
67.52680161604053
 31
0.0
  0
LINE
  5
E1A
330
89F
100
AcDbEntity
  8
Dims
 62
     0
 48
0.5
370
    -2
100
AcDbLine
 10
112.7180091348686
 20
68.15180161604053
 30
0.0
 11
122.7180091348683
 21
68.15180161604053
 31
0.0
  0
SOLID
  5
E1B
330
89F
100
AcDbEntity
  8
Dims
 62
     0
 48
0.5
100
AcDbTrace
 10
112.7180091348686
 20
68.5684682827072
 30
0.0
 11
112.7180091348686
 21
67.73513494937386
 31
0.0
 12
110.2180091348686
 22
68.15180161604053
 32
0.0
 13
110.2180091348686
 23
68.15180161604053
 33
0.0
  0
SOLID
  5
E1C
330
89F
100
AcDbEntity
  8
Dims
 62
     0
 48
0.5
100
AcDbTrace
 10
122.7180091348683
 20
68.5684682827072
 30
0.0
 11
122.7180091348683
 21
67.73513494937386
 31
0.0
 12
125.2180091348684
 22
68.15180161604053
 32
0.0
 13
125.2180091348684
 23
68.15180161604053
 33
0.0
  0
MTEXT
  5
E1D
330
89F
100
AcDbEntity
  8
Dims
 48
0.5
100
AcDbMText
 10
117.7180091348685
 20
70.02680161604053
 30
0.0
 40
2.5
 41
0.0
 71
     5
 72
     1
  1
\A1;15{\H0.8x;%%p0.5}
 73
     1
 44
1.0
  0
POINT
  5
E1E
330
89F
100
AcDbEntity
  8
Defpoints
 62
     0
 48
0.5
100
AcDbPoint
 10
110.2180091348686
 20
95.42885434189679
 30
0.0
  0
POINT
  5
E1F
330
89F
100
AcDbEntity
  8
Defpoints
 62
     0
 48
0.5
100
AcDbPoint
 10
125.2180091348684
 20
83.4288543418968
 30
0.0
  0
POINT
  5
E20
330
89F
100
AcDbEntity
  8
Defpoints
 62
     0
 48
0.5
100
AcDbPoint
 10
125.2180091348684
 20
68.15180161604053
 30
0.0
  0
ENDBLK
  5
8AA
330
89F
100
AcDbEntity
  8
0
 48
0.5
100
AcDbBlockEnd
  0
BLOCK
  5
8B7
330
8AB
100
AcDbEntity
  8
0
 48
0.5
100
AcDbBlockBegin
  2
*D47
 70
     1
 10
0.0
 20
0.0
 30
0.0
  3
*D47
  1

  0
LINE
  5
CCB
330
8AB
100
AcDbEntity
  8
Dims
 62
     0
 48
0.5
370
    -2
100
AcDbLine
 10
123.7180091348685
 20
85.80385434189679
 30
0.0
 11
123.7180091348685
 21
74.40141722781277
 31
0.0
  0
LINE
  5
CCC
330
8AB
100
AcDbEntity
  8
Dims
 62
     0
 48
0.5
370
    -2
100
AcDbLine
 10
125.2180091348684
 20
82.8038543418968
 30
0.0
 11
125.2180091348684
 21
74.40141722781277
 31
0.0
  0
LINE
  5
CCD
330
8AB
100
AcDbEntity
  8
Dims
 62
     0
 48
0.5
370
    -2
100
AcDbLine
 10
121.2180091348685
 20
75.02641722781277
 30
0.0
 11
118.7180091348685
 21
75.02641722781277
 31
0.0
  0
LINE
  5
CCE
330
8AB
100
AcDbEntity
  8
Dims
 62
     0
 48
0.5
370
    -2
100
AcDbLine
 10
127.7180091348683
 20
75.02641722781277
 30
0.0
 11
143.6108662777255
 21
75.02641722781277
 31
0.0
  0
LINE
  5
CCF
330
8AB
100
AcDbEntity
  8
Dims
 62
     0
 48
0.5
370
    -2
100
AcDbLine
 10
123.7180091348685
 20
75.02641722781277
 30
0.0
 11
125.2180091348684
 21
75.02641722781277
 31
0.0
  0
SOLID
  5
CD0
330
8AB
100
AcDbEntity
  8
Dims
 62
     0
 48
0.5
100
AcDbTrace
 10
121.2180091348685
 20
75.44308389447945
 30
0.0
 11
121.2180091348685
 21
74.6097505611461
 31
0.0
 12
123.7180091348685
 22
75.02641722781277
 32
0.0
 13
123.7180091348685
 23
75.02641722781277
 33
0.0
  0
SOLID
  5
CD1
330
8AB
100
AcDbEntity
  8
Dims
 62
     0
 48
0.5
100
AcDbTrace
 10
127.7180091348683
 20
75.44308389447945
 30
0.0
 11
127.7180091348683
 21
74.6097505611461
 31
0.0
 12
125.2180091348684
 22
75.02641722781277
 32
0.0
 13
125.2180091348684
 23
75.02641722781277
 33
0.0
  0
MTEXT
  5
CD2
330
8AB
100
AcDbEntity
  8
Dims
 48
0.5
100
AcDbMText
 10
136.9144377062969
 20
76.90141722781277
 30
0.0
 40
2.5
 41
0.0
 71
     5
 72
     1
  1
\A1;1.5{\H0.8x;%%p0.2}
 73
     1
 44
1.0
  0
POINT
  5
CD3
330
8AB
100
AcDbEntity
  8
Defpoints
 62
     0
 48
0.5
100
AcDbPoint
 10
123.7180091348685
 20
86.42885434189679
 30
0.0
  0
POINT
  5
CD4
330
8AB
100
AcDbEntity
  8
Defpoints
 62
     0
 48
0.5
100
AcDbPoint
 10
125.2180091348684
 20
83.4288543418968
 30
0.0
  0
POINT
  5
CD5
330
8AB
100
AcDbEntity
  8
Defpoints
 62
     0
 48
0.5
100
AcDbPoint
 10
125.2180091348684
 20
75.02641722781277
 30
0.0
  0
ENDBLK
  5
8B8
330
8AB
100
AcDbEntity
  8
0
 48
0.5
100
AcDbBlockEnd
  0
BLOCK
  5
8CF
330
8C5
100
AcDbEntity
  8
0
 48
0.5
100
AcDbBlockBegin
  2
*D49
 70
     1
 10
0.0
 20
0.0
 30
0.0
  3
*D49
  1

  0
LINE
  5
E21
330
8C5
100
AcDbEntity
  8
Dims
 62
     0
 48
0.5
370
    -2
100
AcDbLine
 10
125.2180091348678
 20
82.80385434189851
 30
0.0
 11
125.2180091348678
 21
66.90180161604053
 31
0.0
  0
LINE
  5
E22
330
8C5
100
AcDbEntity
  8
Dims
 62
     0
 48
0.5
370
    -2
100
AcDbLine
 10
172.7180091348678
 20
82.80385434189851
 30
0.0
 11
172.7180091348678
 21
66.90180161604053
 31
0.0
  0
LINE
  5
E23
330
8C5
100
AcDbEntity
  8
Dims
 62
     0
 48
0.5
370
    -2
100
AcDbLine
 10
127.7180091348678
 20
68.15180161604053
 30
0.0
 11
170.2180091348678
 21
68.15180161604053
 31
0.0
  0
SOLID
  5
E24
330
8C5
100
AcDbEntity
  8
Dims
 62
     0
 48
0.5
100
AcDbTrace
 10
127.7180091348678
 20
68.5684682827072
 30
0.0
 11
127.7180091348678
 21
67.73513494937386
 31
0.0
 12
125.2180091348678
 22
68.15180161604053
 32
0.0
 13
125.2180091348678
 23
68.15180161604053
 33
0.0
  0
SOLID
  5
E25
330
8C5
100
AcDbEntity
  8
Dims
 62
     0
 48
0.5
100
AcDbTrace
 10
170.2180091348678
 20
68.5684682827072
 30
0.0
 11
170.2180091348678
 21
67.73513494937386
 31
0.0
 12
172.7180091348678
 22
68.15180161604053
 32
0.0
 13
172.7180091348678
 23
68.15180161604053
 33
0.0
  0
MTEXT
  5
E26
330
8C5
100
AcDbEntity
  8
Dims
 48
0.5
100
AcDbMText
 10
149.1031909932127
 20
70.02680161604053
 30
0.0
 40
2.5
 41
0.0
 71
     5
 72
     1
  1
\A1;L1
 73
     1
 44
1.0
  0
POINT
  5
E27
330
8C5
100
AcDbEntity
  8
Defpoints
 62
     0
 48
0.5
100
AcDbPoint
 10
125.2180091348678
 20
83.42885434189851
 30
0.0
  0
POINT
  5
E28
330
8C5
100
AcDbEntity
  8
Defpoints
 62
     0
 48
0.5
100
AcDbPoint
 10
172.7180091348678
 20
83.42885434189851
 30
0.0
  0
POINT
  5
E29
330
8C5
100
AcDbEntity
  8
Defpoints
 62
     0
 48
0.5
100
AcDbPoint
 10
172.7180091348678
 20
68.15180161604053
 30
0.0
  0
ENDBLK
  5
8D0
330
8C5
100
AcDbEntity
  8
0
 48
0.5
100
AcDbBlockEnd
  0
BLOCK
  5
941
330
937
100
AcDbEntity
  8
0
 48
0.5
100
AcDbBlockBegin
  2
*D51
 70
     1
 10
0.0
 20
0.0
 30
0.0
  3
*D51
  1

  0
LINE
  5
C99
330
937
100
AcDbEntity
  8
Dims
 62
     0
 48
0.5
370
    -2
100
AcDbLine
 10
203.8930091348694
 20
135.7288543418997
 30
0.0
 11
217.333426370775
 21
135.7288543418997
 31
0.0
  0
LINE
  5
C9A
330
937
100
AcDbEntity
  8
Dims
 62
     0
 48
0.5
370
    -2
100
AcDbLine
 10
203.8930091348694
 20
83.42885434189986
 30
0.0
 11
217.333426370775
 21
83.42885434189986
 31
0.0
  0
LINE
  5
C9B
330
937
100
AcDbEntity
  8
Dims
 62
     0
 48
0.5
370
    -2
100
AcDbLine
 10
216.0834263707751
 20
133.2288543418997
 30
0.0
 11
216.0834263707751
 21
85.92885434189986
 31
0.0
  0
SOLID
  5
C9C
330
937
100
AcDbEntity
  8
Dims
 62
     0
 48
0.5
100
AcDbTrace
 10
215.6667597041084
 20
133.2288543418997
 30
0.0
 11
216.5000930374417
 21
133.2288543418997
 31
0.0
 12
216.0834263707751
 22
135.7288543418997
 32
0.0
 13
216.0834263707751
 23
135.7288543418997
 33
0.0
  0
SOLID
  5
C9D
330
937
100
AcDbEntity
  8
Dims
 62
     0
 48
0.5
100
AcDbTrace
 10
215.6667597041084
 20
85.92885434189986
 30
0.0
 11
216.5000930374417
 21
85.92885434189986
 31
0.0
 12
216.0834263707751
 22
83.42885434189986
 32
0.0
 13
216.0834263707751
 23
83.42885434189986
 33
0.0
  0
MTEXT
  5
C9E
330
937
100
AcDbEntity
  8
Dims
 48
0.5
100
AcDbMText
 10
214.208426370775
 20
109.5788543418998
 30
0.0
 40
2.5
 41
0.0
 71
     5
 72
     1
  1
\A1;（53）
 11
0.0000000000000001
 21
1.0
 31
0.0
 73
     1
 44
1.0
  0
POINT
  5
C9F
330
937
100
AcDbEntity
  8
Defpoints
 62
     0
 48
0.5
100
AcDbPoint
 10
203.2680091348694
 20
135.7288543418997
 30
0.0
  0
POINT
  5
CA0
330
937
100
AcDbEntity
  8
Defpoints
 62
     0
 48
0.5
100
AcDbPoint
 10
203.2680091348694
 20
83.42885434189986
 30
0.0
  0
POINT
  5
CA1
330
937
100
AcDbEntity
  8
Defpoints
 62
     0
 48
0.5
100
AcDbPoint
 10
216.0834263707751
 20
83.42885434189986
 30
0.0
  0
ENDBLK
  5
942
330
937
100
AcDbEntity
  8
0
 48
0.5
100
AcDbBlockEnd
  0
BLOCK
  5
AB8
330
AAE
100
AcDbEntity
  8
0
 48
0.5
100
AcDbBlockBegin
  2
*D52
 70
     1
 10
0.0
 20
0.0
 30
0.0
  3
*D52
  1

  0
LINE
  5
D65
330
AAE
100
AcDbEntity
  8
Dims
 62
     0
 48
0.5
370
    -2
100
AcDbLine
 10
125.2180091348678
 20
82.80385434189851
 30
0.0
 11
125.2180091348678
 21
59.78739915087044
 31
0.0
  0
LINE
  5
D66
330
AAE
100
AcDbEntity
  8
Dims
 62
     0
 48
0.5
370
    -2
100
AcDbLine
 10
210.1680091348691
 20
92.15385434189988
 30
0.0
 11
210.1680091348691
 21
59.78739915087044
 31
0.0
  0
LINE
  5
D67
330
AAE
100
AcDbEntity
  8
Dims
 62
     0
 48
0.5
370
    -2
100
AcDbLine
 10
127.7180091348678
 20
61.03739915087044
 30
0.0
 11
207.6680091348691
 21
61.03739915087044
 31
0.0
  0
SOLID
  5
D68
330
AAE
100
AcDbEntity
  8
Dims
 62
     0
 48
0.5
100
AcDbTrace
 10
127.7180091348678
 20
61.45406581753711
 30
0.0
 11
127.7180091348678
 21
60.62073248420378
 31
0.0
 12
125.2180091348678
 22
61.03739915087044
 32
0.0
 13
125.2180091348678
 23
61.03739915087044
 33
0.0
  0
SOLID
  5
D69
330
AAE
100
AcDbEntity
  8
Dims
 62
     0
 48
0.5
100
AcDbTrace
 10
207.6680091348691
 20
61.45406581753711
 30
0.0
 11
207.6680091348691
 21
60.62073248420378
 31
0.0
 12
210.1680091348691
 22
61.03739915087044
 32
0.0
 13
210.1680091348691
 23
61.03739915087044
 33
0.0
  0
MTEXT
  5
D6A
330
AAE
100
AcDbEntity
  8
Dims
 48
0.5
100
AcDbMText
 10
167.6930091348685
 20
62.91239915087044
 30
0.0
 40
2.5
 41
0.0
 71
     5
 72
     1
  1
\A1;L{\H0.8x;%%p1}
 73
     1
 44
1.0
  0
POINT
  5
D6B
330
AAE
100
AcDbEntity
  8
Defpoints
 62
     0
 48
0.5
100
AcDbPoint
 10
125.2180091348678
 20
83.42885434189851
 30
0.0
  0
POINT
  5
D6C
330
AAE
100
AcDbEntity
  8
Defpoints
 62
     0
 48
0.5
100
AcDbPoint
 10
210.1680091348691
 20
92.77885434189988
 30
0.0
  0
POINT
  5
D6D
330
AAE
100
AcDbEntity
  8
Defpoints
 62
     0
 48
0.5
100
AcDbPoint
 10
210.1680091348691
 20
61.03739915087044
 30
0.0
  0
ENDBLK
  5
AB9
330
AAE
100
AcDbEntity
  8
0
 48
0.5
100
AcDbBlockEnd
  0
BLOCK
  5
B17
330
B0B
100
AcDbEntity
  8
0
 48
0.5
100
AcDbBlockBegin
  2
*D53
 70
     1
 10
0.0
 20
0.0
 30
0.0
  3
*D53
  1

  0
LINE
  5
C03
330
B0B
100
AcDbEntity
  8
Dims
 62
     0
 48
0.5
370
    -2
100
AcDbLine
 10
119.5930091348683
 20
99.9288543418968
 30
0.0
 11
100.1685228819378
 21
99.9288543418968
 31
0.0
  0
LINE
  5
C04
330
B0B
100
AcDbEntity
  8
Dims
 62
     0
 48
0.5
370
    -2
100
AcDbLine
 10
110.0930091348683
 20
94.92885434189714
 30
0.0
 11
100.1685228819378
 21
94.92885434189714
 31
0.0
  0
LINE
  5
C05
330
B0B
100
AcDbEntity
  8
Dims
 62
     0
 48
0.5
370
    -2
100
AcDbLine
 10
101.4185228819378
 20
102.4288543418967
 30
0.0
 11
101.4185228819378
 21
104.9288543418968
 31
0.0
  0
LINE
  5
C06
330
B0B
100
AcDbEntity
  8
Dims
 62
     0
 48
0.5
370
    -2
100
AcDbLine
 10
101.4185228819378
 20
92.42885434189714
 30
0.0
 11
101.4185228819378
 21
89.92885434189714
 31
0.0
  0
MTEXT
  5
C07
330
B0B
100
AcDbEntity
  8
Dims
 48
0.5
100
AcDbMText
 10
98.28577754169931
 20
97.59930748736406
 30
0.0
 40
2.5
 41
0.0
 71
     5
 72
     1
  1
\A1;\A1;%%c5{\H0.56x;\S  0^ -0.012;}
 11
0.0000000000000001
 21
1.0
 31
0.0
 73
     1
 44
1.0
  0
LINE
  5
C08
330
B0B
100
AcDbEntity
  8
Dims
 62
     0
 48
0.5
370
    -2
100
AcDbLine
 10
101.4185228819378
 20
99.9288543418968
 30
0.0
 11
101.4185228819378
 21
94.92885434189714
 31
0.0
  0
SOLID
  5
C09
330
B0B
100
AcDbEntity
  8
Dims
 62
     0
 48
0.5
100
AcDbTrace
 10
101.0018562152712
 20
102.4288543418967
 30
0.0
 11
101.8351895486045
 21
102.4288543418967
 31
0.0
 12
101.4185228819378
 22
99.9288543418968
 32
0.0
 13
101.4185228819378
 23
99.9288543418968
 33
0.0
  0
SOLID
  5
C0A
330
B0B
100
AcDbEntity
  8
Dims
 62
     0
 48
0.5
100
AcDbTrace
 10
101.0018562152712
 20
92.42885434189714
 30
0.0
 11
101.8351895486045
 21
92.42885434189714
 31
0.0
 12
101.4185228819378
 22
94.92885434189714
 32
0.0
 13
101.4185228819378
 23
94.92885434189714
 33
0.0
  0
POINT
  5
C0B
330
B0B
100
AcDbEntity
  8
Defpoints
 62
     0
 48
0.5
100
AcDbPoint
 10
120.2180091348683
 20
99.9288543418968
 30
0.0
  0
POINT
  5
C0C
330
B0B
100
AcDbEntity
  8
Defpoints
 62
     0
 48
0.5
100
AcDbPoint
 10
110.7180091348684
 20
94.92885434189714
 30
0.0
  0
POINT
  5
C0D
330
B0B
100
AcDbEntity
  8
Defpoints
 62
     0
 48
0.5
100
AcDbPoint
 10
101.4185228819378
 20
94.92885434189714
 30
0.0
  0
ENDBLK
  5
B18
330
B0B
100
AcDbEntity
  8
0
 48
0.5
100
AcDbBlockEnd
  0
BLOCK
  5
D20
330
D16
100
AcDbEntity
  8
0
 48
0.5
100
AcDbBlockBegin
  2
*D55
 70
     1
 10
0.0
 20
0.0
 30
0.0
  3
*D55
  1

  0
LINE
  5
E3C
330
D16
100
AcDbEntity
  8
Dims
 62
     0
 48
0.5
370
    -2
100
AcDbLine
 10
191.2680091348691
 20
83.60385434189982
 30
0.0
 11
191.2680091348691
 21
66.87777402254642
 31
0.0
  0
LINE
  5
E3D
330
D16
100
AcDbEntity
  8
Dims
 62
     0
 48
0.5
370
    -2
100
AcDbLine
 10
210.1680091348691
 20
92.15385434189988
 30
0.0
 11
210.1680091348691
 21
66.87777402254642
 31
0.0
  0
LINE
  5
E3E
330
D16
100
AcDbEntity
  8
Dims
 62
     0
 48
0.5
370
    -2
100
AcDbLine
 10
193.768009134869
 20
68.12777402254642
 30
0.0
 11
207.6680091348691
 21
68.12777402254642
 31
0.0
  0
SOLID
  5
E3F
330
D16
100
AcDbEntity
  8
Dims
 62
     0
 48
0.5
100
AcDbTrace
 10
193.768009134869
 20
68.54444068921309
 30
0.0
 11
193.768009134869
 21
67.71110735587974
 31
0.0
 12
191.2680091348691
 22
68.12777402254642
 32
0.0
 13
191.2680091348691
 23
68.12777402254642
 33
0.0
  0
SOLID
  5
E40
330
D16
100
AcDbEntity
  8
Dims
 62
     0
 48
0.5
100
AcDbTrace
 10
207.6680091348691
 20
68.54444068921309
 30
0.0
 11
207.6680091348691
 21
67.71110735587974
 31
0.0
 12
210.1680091348691
 22
68.12777402254642
 32
0.0
 13
210.1680091348691
 23
68.12777402254642
 33
0.0
  0
MTEXT
  5
E41
330
D16
100
AcDbEntity
  8
Dims
 48
0.5
100
AcDbMText
 10
200.7180091348689
 20
70.00277402254642
 30
0.0
 40
2.5
 41
0.0
 71
     5
 72
     1
  1
\A1;（19）
 73
     1
 44
1.0
  0
POINT
  5
E42
330
D16
100
AcDbEntity
  8
Defpoints
 62
     0
 48
0.5
100
AcDbPoint
 10
191.2680091348691
 20
84.22885434189982
 30
0.0
  0
POINT
  5
E43
330
D16
100
AcDbEntity
  8
Defpoints
 62
     0
 48
0.5
100
AcDbPoint
 10
210.1680091348691
 20
92.77885434189988
 30
0.0
  0
POINT
  5
E44
330
D16
100
AcDbEntity
  8
Defpoints
 62
     0
 48
0.5
100
AcDbPoint
 10
210.1680091348691
 20
68.12777402254642
 30
0.0
  0
ENDBLK
  5
D21
330
D16
100
AcDbEntity
  8
0
 48
0.5
100
AcDbBlockEnd
  0
BLOCK
  5
D36
330
D2C
100
AcDbEntity
  8
0
 48
0.5
100
AcDbBlockBegin
  2
*D56
 70
     1
 10
0.0
 20
0.0
 30
0.0
  3
*D56
  1

  0
LINE
  5
E2A
330
D2C
100
AcDbEntity
  8
Dims
 62
     0
 48
0.5
370
    -2
100
AcDbLine
 10
172.7180091348682
 20
82.80385434189851
 30
0.0
 11
172.7180091348682
 21
66.87777402254642
 31
0.0
  0
LINE
  5
E2B
330
D2C
100
AcDbEntity
  8
Dims
 62
     0
 48
0.5
370
    -2
100
AcDbLine
 10
191.2680091348689
 20
83.60385434189982
 30
0.0
 11
191.2680091348689
 21
66.87777402254642
 31
0.0
  0
LINE
  5
E2C
330
D2C
100
AcDbEntity
  8
Dims
 62
     0
 48
0.5
370
    -2
100
AcDbLine
 10
175.2180091348682
 20
68.12777402254642
 30
0.0
 11
188.7680091348689
 21
68.12777402254642
 31
0.0
  0
SOLID
  5
E2D
330
D2C
100
AcDbEntity
  8
Dims
 62
     0
 48
0.5
100
AcDbTrace
 10
175.2180091348682
 20
68.54444068921309
 30
0.0
 11
175.2180091348682
 21
67.71110735587974
 31
0.0
 12
172.7180091348682
 22
68.12777402254642
 32
0.0
 13
172.7180091348682
 23
68.12777402254642
 33
0.0
  0
SOLID
  5
E2E
330
D2C
100
AcDbEntity
  8
Dims
 62
     0
 48
0.5
100
AcDbTrace
 10
188.7680091348689
 20
68.54444068921309
 30
0.0
 11
188.7680091348689
 21
67.71110735587974
 31
0.0
 12
191.2680091348689
 22
68.12777402254642
 32
0.0
 13
191.2680091348689
 23
68.12777402254642
 33
0.0
  0
MTEXT
  5
E2F
330
D2C
100
AcDbEntity
  8
Dims
 48
0.5
100
AcDbMText
 10
181.9930091348686
 20
70.00277402254642
 30
0.0
 40
2.5
 41
0.0
 71
     5
 72
     1
  1
\A1;（18.6）
 73
     1
 44
1.0
  0
POINT
  5
E30
330
D2C
100
AcDbEntity
  8
Defpoints
 62
     0
 48
0.5
100
AcDbPoint
 10
172.7180091348682
 20
83.42885434189851
 30
0.0
  0
POINT
  5
E31
330
D2C
100
AcDbEntity
  8
Defpoints
 62
     0
 48
0.5
100
AcDbPoint
 10
191.2680091348689
 20
84.22885434189982
 30
0.0
  0
POINT
  5
E32
330
D2C
100
AcDbEntity
  8
Defpoints
 62
     0
 48
0.5
100
AcDbPoint
 10
191.2680091348689
 20
68.12777402254642
 30
0.0
  0
ENDBLK
  5
D37
330
D2C
100
AcDbEntity
  8
0
 48
0.5
100
AcDbBlockEnd
  0
BLOCK
  5
D76
330
D73
100
AcDbEntity
  8
0
 48
0.5
100
AcDbBlockBegin
  2
_Dot
 70
     0
 10
0.0
 20
0.0
 30
0.0
  3
_Dot
  1

  0
LWPOLYLINE
  5
D74
330
D73
100
AcDbEntity
  8
0
  6
ByBlock
 62
     0
100
AcDbPolyline
 90
        2
 70
     1
 43
0.5
 10
-0.25
 20
0.0
 42
1.0
 10
0.25
 20
0.0
 42
1.0
  0
LINE
  5
D75
330
D73
100
AcDbEntity
  8
0
  6
ByBlock
 62
     0
370
    -2
100
AcDbLine
 10
-0.5
 20
0.0
 30
0.0
 11
-1.0
 21
0.0
 31
0.0
  0
ENDBLK
  5
D77
330
D73
100
AcDbEntity
  8
0
 48
0.5
100
AcDbBlockEnd
  0
BLOCK
  5
DE8
330
DDE
100
AcDbEntity
  8
0
 48
0.5
100
AcDbBlockBegin
  2
*D58
 70
     1
 10
0.0
 20
0.0
 30
0.0
  3
*D58
  1

  0
LINE
  5
EA7
330
DDE
100
AcDbEntity
  8
Dims
 62
     0
 48
0.5
370
    -2
100
AcDbLine
 10
60.45698836015455
 20
132.0288543418994
 30
0.0
 11
74.31711412152299
 21
132.0288543418994
 31
0.0
  0
LINE
  5
EA8
330
DDE
100
AcDbEntity
  8
Dims
 62
     0
 48
0.5
370
    -2
100
AcDbLine
 10
63.20698836015836
 20
97.42885434189952
 30
0.0
 11
74.31711412152299
 21
97.42885434189952
 31
0.0
  0
LINE
  5
EA9
330
DDE
100
AcDbEntity
  8
Dims
 62
     0
 48
0.5
370
    -2
100
AcDbLine
 10
73.06711412152299
 20
129.5288543418994
 30
0.0
 11
73.06711412152299
 21
99.92885434189952
 31
0.0
  0
MTEXT
  5
EAA
330
DDE
100
AcDbEntity
  8
Dims
 48
0.5
100
AcDbMText
 10
70.93570738960716
 20
112.3624648907307
 30
0.0
 40
2.5
 41
0.0
 71
     5
 72
     1
  1
\A1;34.6
 11
0.0000000000000001
 21
1.0
 31
0.0
 73
     1
 44
1.0
  0
SOLID
  5
EAB
330
DDE
100
AcDbEntity
  8
Dims
 62
     0
 48
0.5
100
AcDbTrace
 10
72.65044745485631
 20
129.5288543418994
 30
0.0
 11
73.48378078818966
 21
129.5288543418994
 31
0.0
 12
73.06711412152299
 22
132.0288543418994
 32
0.0
 13
73.06711412152299
 23
132.0288543418994
 33
0.0
  0
SOLID
  5
EAC
330
DDE
100
AcDbEntity
  8
Dims
 62
     0
 48
0.5
100
AcDbTrace
 10
72.65044745485631
 20
99.92885434189952
 30
0.0
 11
73.48378078818966
 21
99.92885434189952
 31
0.0
 12
73.06711412152299
 22
97.42885434189952
 32
0.0
 13
73.06711412152299
 23
97.42885434189952
 33
0.0
  0
POINT
  5
EAD
330
DDE
100
AcDbEntity
  8
Defpoints
 62
     0
 48
0.5
100
AcDbPoint
 10
59.83198836015455
 20
132.0288543418994
 30
0.0
  0
POINT
  5
EAE
330
DDE
100
AcDbEntity
  8
Defpoints
 62
     0
 48
0.5
100
AcDbPoint
 10
62.58198836015836
 20
97.42885434189952
 30
0.0
  0
POINT
  5
EAF
330
DDE
100
AcDbEntity
  8
Defpoints
 62
     0
 48
0.5
100
AcDbPoint
 10
73.06711412152299
 20
97.42885434189952
 30
0.0
  0
ENDBLK
  5
DE9
330
DDE
100
AcDbEntity
  8
0
 48
0.5
100
AcDbBlockEnd
  0
BLOCK
  5
E52
330
E46
100
AcDbEntity
  8
0
 48
0.5
100
AcDbBlockBegin
  2
*D59
 70
     1
 10
0.0
 20
0.0
 30
0.0
  3
*D59
  1

  0
LINE
  5
ECC
330
E46
100
AcDbEntity
  8
Dims
 62
     0
 48
0.5
370
    -2
100
AcDbLine
 10
123.0930091348685
 20
108.4288543418967
 30
0.0
 11
92.62502942340463
 21
108.4288543418968
 31
0.0
  0
LINE
  5
ECD
330
E46
100
AcDbEntity
  8
Dims
 62
     0
 48
0.5
370
    -2
100
AcDbLine
 10
123.0930091348677
 20
86.42885434189839
 30
0.0
 11
92.62502942340461
 21
86.42885434189841
 31
0.0
  0
LINE
  5
ECE
330
E46
100
AcDbEntity
  8
Dims
 62
     0
 48
0.5
370
    -2
100
AcDbLine
 10
93.87502942340463
 20
105.9288543418968
 30
0.0
 11
93.87502942340461
 21
88.92885434189841
 31
0.0
  0
SOLID
  5
ECF
330
E46
100
AcDbEntity
  8
Dims
 62
     0
 48
0.5
100
AcDbTrace
 10
93.45836275673795
 20
105.9288543418968
 30
0.0
 11
94.2916960900713
 21
105.9288543418968
 31
0.0
 12
93.87502942340463
 22
108.4288543418968
 32
0.0
 13
93.87502942340463
 23
108.4288543418968
 33
0.0
  0
SOLID
  5
ED0
330
E46
100
AcDbEntity
  8
Dims
 62
     0
 48
0.5
100
AcDbTrace
 10
93.45836275673795
 20
88.92885434189841
 30
0.0
 11
94.29169609007129
 21
88.92885434189841
 31
0.0
 12
93.87502942340461
 22
86.42885434189841
 32
0.0
 13
93.87502942340461
 23
86.42885434189841
 33
0.0
  0
MTEXT
  5
ED1
330
E46
100
AcDbEntity
  8
Dims
 48
0.5
100
AcDbMText
 10
91.20836275673793
 20
97.42885434189762
 30
0.0
 40
2.5
 41
0.0
 71
     5
 72
     1
  1
\A1;\A1;%%c22{\H0.7x;\S  0^ -0.025;}
 11
0.0000000000000001
 21
1.0
 31
0.0
 73
     1
 44
1.0
  0
POINT
  5
ED2
330
E46
100
AcDbEntity
  8
Defpoints
 62
     0
 48
0.5
100
AcDbPoint
 10
123.7180091348685
 20
108.4288543418967
 30
0.0
  0
POINT
  5
ED3
330
E46
100
AcDbEntity
  8
Defpoints
 62
     0
 48
0.5
100
AcDbPoint
 10
123.7180091348677
 20
86.42885434189839
 30
0.0
  0
POINT
  5
ED4
330
E46
100
AcDbEntity
  8
Defpoints
 62
     0
 48
0.5
100
AcDbPoint
 10
93.87502942340461
 20
86.42885434189841
 30
0.0
  0
ENDBLK
  5
E53
330
E46
100
AcDbEntity
  8
0
 48
0.5
100
AcDbBlockEnd
  0
BLOCK
  5
EBB
330
EB1
100
AcDbEntity
  8
0
 48
0.5
100
AcDbBlockBegin
  2
*D60
 70
     1
 10
0.0
 20
0.0
 30
0.0
  3
*D60
  1

  0
LINE
  5
EB2
330
EB1
100
AcDbEntity
  8
Dims
 62
     0
 48
0.5
370
    -2
100
AcDbLine
 10
63.20698836015836
 20
97.42885434189952
 30
0.0
 11
74.29048962130583
 21
97.42885434189952
 31
0.0
  0
LINE
  5
EB3
330
EB1
100
AcDbEntity
  8
Dims
 62
     0
 48
0.5
370
    -2
100
AcDbLine
 10
68.5069883601582
 20
83.42885434189986
 30
0.0
 11
74.29048962130583
 21
83.42885434189986
 31
0.0
  0
LINE
  5
EB4
330
EB1
100
AcDbEntity
  8
Dims
 62
     0
 48
0.5
370
    -2
100
AcDbLine
 10
73.04048962130583
 20
94.92885434189952
 30
0.0
 11
73.04048962130583
 21
85.92885434189986
 31
0.0
  0
SOLID
  5
EB5
330
EB1
100
AcDbEntity
  8
Dims
 62
     0
 48
0.5
100
AcDbTrace
 10
72.62382295463915
 20
94.92885434189952
 30
0.0
 11
73.4571562879725
 21
94.92885434189952
 31
0.0
 12
73.04048962130583
 22
97.42885434189952
 32
0.0
 13
73.04048962130583
 23
97.42885434189952
 33
0.0
  0
SOLID
  5
EB6
330
EB1
100
AcDbEntity
  8
Dims
 62
     0
 48
0.5
100
AcDbTrace
 10
72.62382295463915
 20
85.92885434189986
 30
0.0
 11
73.4571562879725
 21
85.92885434189986
 31
0.0
 12
73.04048962130583
 22
83.42885434189986
 32
0.0
 13
73.04048962130583
 23
83.42885434189986
 33
0.0
  0
MTEXT
  5
EB7
330
EB1
100
AcDbEntity
  8
Dims
 48
0.5
100
AcDbMText
 10
71.16548962130581
 20
90.42885434189971
 30
0.0
 40
2.5
 41
0.0
 71
     5
 72
     1
  1
\A1;14
 11
0.0000000000000001
 21
1.0
 31
0.0
 73
     1
 44
1.0
  0
POINT
  5
EB8
330
EB1
100
AcDbEntity
  8
Defpoints
 62
     0
 48
0.5
100
AcDbPoint
 10
62.58198836015836
 20
97.42885434189952
 30
0.0
  0
POINT
  5
EB9
330
EB1
100
AcDbEntity
  8
Defpoints
 62
     0
 48
0.5
100
AcDbPoint
 10
67.8819883601582
 20
83.42885434189986
 30
0.0
  0
POINT
  5
EBA
330
EB1
100
AcDbEntity
  8
Defpoints
 62
     0
 48
0.5
100
AcDbPoint
 10
73.04048962130583
 20
83.42885434189986
 30
0.0
  0
ENDBLK
  5
EBC
330
EB1
100
AcDbEntity
  8
0
 48
0.5
100
AcDbBlockEnd
  0
BLOCK
  5
EEA
330
EDE
100
AcDbEntity
  8
0
 48
0.5
100
AcDbBlockBegin
  2
*D61
 70
     1
 10
0.0
 20
0.0
 30
0.0
  3
*D61
  1

  0
LINE
  5
EDF
330
EDE
100
AcDbEntity
  8
Dims
 62
     0
 48
0.5
370
    -2
100
AcDbLine
 10
33.95698836015822
 20
84.02885434189967
 30
0.0
 11
31.18654919975551
 21
84.02885434189967
 31
0.0
  0
LINE
  5
EE0
330
EDE
100
AcDbEntity
  8
Dims
 62
     0
 48
0.5
370
    -2
100
AcDbLine
 10
33.95698836015802
 20
83.42885434189986
 30
0.0
 11
31.18654919975551
 21
83.42885434189987
 31
0.0
  0
LINE
  5
EE1
330
EDE
100
AcDbEntity
  8
Dims
 62
     0
 48
0.5
370
    -2
100
AcDbLine
 10
32.43654919975551
 20
86.52885434189967
 30
0.0
 11
32.43654919975551
 21
89.02885434189967
 31
0.0
  0
LINE
  5
EE2
330
EDE
100
AcDbEntity
  8
Dims
 62
     0
 48
0.5
370
    -2
100
AcDbLine
 10
32.43654919975551
 20
80.92885434189986
 30
0.0
 11
32.43654919975551
 21
72.05980672285225
 31
0.0
  0
LINE
  5
EE3
330
EDE
100
AcDbEntity
  8
Dims
 62
     0
 48
0.5
370
    -2
100
AcDbLine
 10
32.43654919975551
 20
84.02885434189967
 30
0.0
 11
32.43654919975551
 21
83.42885434189986
 31
0.0
  0
SOLID
  5
EE4
330
EDE
100
AcDbEntity
  8
Dims
 62
     0
 48
0.5
100
AcDbTrace
 10
32.01988253308885
 20
86.52885434189967
 30
0.0
 11
32.85321586642218
 21
86.52885434189967
 31
0.0
 12
32.43654919975551
 22
84.02885434189967
 32
0.0
 13
32.43654919975551
 23
84.02885434189967
 33
0.0
  0
SOLID
  5
EE5
330
EDE
100
AcDbEntity
  8
Dims
 62
     0
 48
0.5
100
AcDbTrace
 10
32.01988253308885
 20
80.92885434189986
 30
0.0
 11
32.85321586642218
 21
80.92885434189986
 31
0.0
 12
32.43654919975551
 22
83.42885434189986
 32
0.0
 13
32.43654919975551
 23
83.42885434189986
 33
0.0
  0
MTEXT
  5
EE6
330
EDE
100
AcDbEntity
  8
Dims
 48
0.5
100
AcDbMText
 10
30.5615491997555
 20
75.24433053237607
 30
0.0
 40
2.5
 41
0.0
 71
     5
 72
     1
  1
\A1;0.6
 11
0.0000000000000001
 21
1.0
 31
0.0
 73
     1
 44
1.0
  0
POINT
  5
EE7
330
EDE
100
AcDbEntity
  8
Defpoints
 62
     0
 48
0.5
100
AcDbPoint
 10
34.58198836015822
 20
84.02885434189967
 30
0.0
  0
POINT
  5
EE8
330
EDE
100
AcDbEntity
  8
Defpoints
 62
     0
 48
0.5
100
AcDbPoint
 10
34.58198836015802
 20
83.42885434189986
 30
0.0
  0
POINT
  5
EE9
330
EDE
100
AcDbEntity
  8
Defpoints
 62
     0
 48
0.5
100
AcDbPoint
 10
32.43654919975551
 20
83.42885434189986
 30
0.0
  0
ENDBLK
  5
EEB
330
EDE
100
AcDbEntity
  8
0
 48
0.5
100
AcDbBlockEnd
  0
BLOCK
  5
EF9
330
EED
100
AcDbEntity
  8
0
 48
0.5
100
AcDbBlockBegin
  2
*D62
 70
     1
 10
0.0
 20
0.0
 30
0.0
  3
*D62
  1

  0
LINE
  5
EEE
330
EED
100
AcDbEntity
  8
Dims
 62
     0
 48
0.5
370
    -2
100
AcDbLine
 10
35.1819883601582
 20
84.93888198203579
 30
0.0
 11
35.1819883601582
 21
88.90628688097558
 31
0.0
  0
LINE
  5
EEF
330
EED
100
AcDbEntity
  8
Dims
 62
     0
 48
0.5
370
    -2
100
AcDbLine
 10
34.58198836015822
 20
84.93888198203579
 30
0.0
 11
34.58198836015822
 21
88.90628688097558
 31
0.0
  0
LINE
  5
EF0
330
EED
100
AcDbEntity
  8
Dims
 62
     0
 48
0.5
370
    -2
100
AcDbLine
 10
37.6819883601582
 20
87.65628688097558
 30
0.0
 11
40.1819883601582
 21
87.65628688097558
 31
0.0
  0
LINE
  5
EF1
330
EED
100
AcDbEntity
  8
Dims
 62
     0
 48
0.5
370
    -2
100
AcDbLine
 10
32.08198836015822
 20
87.65628688097558
 30
0.0
 11
23.2129407411106
 21
87.65628688097558
 31
0.0
  0
LINE
  5
EF2
330
EED
100
AcDbEntity
  8
Dims
 62
     0
 48
0.5
370
    -2
100
AcDbLine
 10
35.1819883601582
 20
87.65628688097558
 30
0.0
 11
34.58198836015822
 21
87.65628688097558
 31
0.0
  0
SOLID
  5
EF3
330
EED
100
AcDbEntity
  8
Dims
 62
     0
 48
0.5
100
AcDbTrace
 10
37.6819883601582
 20
88.07295354764226
 30
0.0
 11
37.6819883601582
 21
87.23962021430891
 31
0.0
 12
35.1819883601582
 22
87.65628688097558
 32
0.0
 13
35.1819883601582
 23
87.65628688097558
 33
0.0
  0
SOLID
  5
EF4
330
EED
100
AcDbEntity
  8
Dims
 62
     0
 48
0.5
100
AcDbTrace
 10
32.08198836015822
 20
88.07295354764226
 30
0.0
 11
32.08198836015822
 21
87.23962021430891
 31
0.0
 12
34.58198836015822
 22
87.65628688097558
 32
0.0
 13
34.58198836015822
 23
87.65628688097558
 33
0.0
  0
MTEXT
  5
EF5
330
EED
100
AcDbEntity
  8
Dims
 48
0.5
100
AcDbMText
 10
26.39746455063441
 20
89.53128688097558
 30
0.0
 40
2.5
 41
0.0
 71
     5
 72
     1
  1
\A1;0.6
 73
     1
 44
1.0
  0
POINT
  5
EF6
330
EED
100
AcDbEntity
  8
Defpoints
 62
     0
 48
0.5
100
AcDbPoint
 10
35.1819883601582
 20
84.31388198203579
 30
0.0
  0
POINT
  5
EF7
330
EED
100
AcDbEntity
  8
Defpoints
 62
     0
 48
0.5
100
AcDbPoint
 10
34.58198836015822
 20
84.31388198203579
 30
0.0
  0
POINT
  5
EF8
330
EED
100
AcDbEntity
  8
Defpoints
 62
     0
 48
0.5
100
AcDbPoint
 10
34.58198836015822
 20
87.65628688097558
 30
0.0
  0
ENDBLK
  5
EFA
330
EED
100
AcDbEntity
  8
0
 48
0.5
100
AcDbBlockEnd
  0
ENDSEC
  0
SECTION
  2
ENTITIES
  0
LINE
  5
25
330
2
100
AcDbEntity
  8
Object
 48
0.5
100
AcDbLine
 10
133.2180091348677
 20
168.3827123145416
 30
0.0
 11
161.7180091348678
 21
168.3827123145416
 31
0.0
  0
LINE
  5
27
330
2
100
AcDbEntity
  8
Object
 48
0.5
100
AcDbLine
 10
133.2180091348677
 20
165.7827123145415
 30
0.0
 11
161.7180091348678
 21
165.7827123145415
 31
0.0
  0
LINE
  5
28
330
2
100
AcDbEntity
  8
Object
 48
0.5
100
AcDbLine
 10
133.2180091348677
 20
188.7827123145417
 30
0.0
 11
161.7180091348678
 21
188.7827123145417
 31
0.0
  0
LINE
  5
29
330
2
100
AcDbEntity
  8
Object
 48
0.5
100
AcDbLine
 10
133.2180091348677
 20
191.3827123145415
 30
0.0
 11
161.7180091348678
 21
191.3827123145415
 31
0.0
  0
LINE
  5
2A
330
2
100
AcDbEntity
  8
Object
 48
0.5
100
AcDbLine
 10
133.2180091348678
 20
110.2288543418983
 30
0.0
 11
161.7180091348678
 21
110.2288543418983
 31
0.0
  0
LINE
  5
2B
330
2
100
AcDbEntity
  8
Object
 48
0.5
100
AcDbLine
 10
133.2180091348678
 20
107.6288543418984
 30
0.0
 11
161.7180091348678
 21
107.6288543418983
 31
0.0
  0
LINE
  5
2C
330
2
100
AcDbEntity
  8
Object
 48
0.5
100
AcDbLine
 10
133.2180091348677
 20
84.62885434189832
 30
0.0
 11
161.7180091348678
 21
84.62885434189843
 31
0.0
  0
LINE
  5
2D
330
2
100
AcDbEntity
  8
Object
 48
0.5
100
AcDbLine
 10
133.2180091348677
 20
87.22885434189834
 30
0.0
 11
161.7180091348678
 21
87.22885434189834
 31
0.0
  0
DIMENSION
  5
32
330
2
100
AcDbEntity
  8
Dims
 48
0.5
100
AcDbDimension
  2
*D49
 10
172.7180091348678
 20
68.15180161604053
 30
0.0
 11
149.1031909932127
 21
68.15180161604053
 31
0.0
 70
   161
  1
L1
 71
     5
 42
47.5
  3
STANDARD
100
AcDbAlignedDimension
 13
125.2180091348678
 23
83.42885434189851
 33
0.0
 14
172.7180091348678
 24
83.42885434189851
 34
0.0
1001
ACAD
1000
DSTYLE
1002
{
1070
    41
1040
2.5
1070
    42
1040
0.625
1070
    43
1040
3.75
1070
    44
1040
1.25
1070
    73
1070
     0
1070
    74
1070
     0
1070
    77
1070
     1
1070
    78
1070
     8
1070
   140
1040
2.5
1070
   141
1040
2.5
1070
   143
1040
0.0394
1070
   147
1040
0.625
1070
   171
1070
     4
1070
   172
1070
     1
1070
   273
1070
     8
1070
   274
1070
     4
1070
   277
1070
     6
1002
}
  0
LINE
  5
40
330
2
100
AcDbEntity
  8
Center
 48
0.5
100
AcDbLine
 10
110.2180091348678
 20
178.5827123145416
 30
0.0
 11
192.2095206187914
 21
178.5827123145416
 31
0.0
  0
LINE
  5
43
330
2
100
AcDbEntity
  8
Center
 48
0.5
100
AcDbLine
 10
125.2180091348678
 20
167.0827123145417
 30
0.0
 11
170.2180091348678
 21
167.0827123145417
 31
0.0
  0
LINE
  5
44
330
2
100
AcDbEntity
  8
Object
 48
0.5
100
AcDbLine
 10
125.2180091348678
 20
164.5827123145417
 30
0.0
 11
170.2180091348678
 21
164.5827123145414
 31
0.0
  0
LINE
  5
45
330
2
100
AcDbEntity
  8
Object
 48
0.5
100
AcDbLine
 10
125.2180091348678
 20
192.5827123145417
 30
0.0
 11
170.2180091348678
 21
192.5827123145417
 31
0.0
  0
LINE
  5
46
330
2
100
AcDbEntity
  8
Center
 48
0.5
100
AcDbLine
 10
125.2180091348678
 20
190.0827123145417
 30
0.0
 11
170.2180091348678
 21
190.0827123145417
 31
0.0
  0
LINE
  5
47
330
2
100
AcDbEntity
  8
Object
 48
0.5
100
AcDbLine
 10
125.2180091348678
 20
83.42885434189851
 30
0.0
 11
170.2180091348678
 21
83.42885434189851
 31
0.0
  0
LINE
  5
48
330
2
100
AcDbEntity
  8
Object
 48
0.5
100
AcDbLine
 10
125.2180091348678
 20
111.4288543418983
 30
0.0
 11
172.7180091348678
 21
111.4288543418983
 31
0.0
  0
LINE
  5
49
330
2
100
AcDbEntity
  8
Center
 48
0.5
100
AcDbLine
 10
125.2180091348678
 20
108.9288543418984
 30
0.0
 11
170.2180091348678
 21
108.9288543418984
 31
0.0
  0
LINE
  5
4A
330
2
100
AcDbEntity
  8
Center
 48
0.5
100
AcDbLine
 10
125.2180091348678
 20
85.92885434189838
 30
0.0
 11
170.2180091348678
 21
85.92885434189838
 31
0.0
  0
DIMENSION
  5
55
330
2
100
AcDbEntity
  8
Dims
100
AcDbDimension
  2
*D34
 10
67.88198836015843
 20
140.8904708966729
 30
0.0
 11
48.58198836015827
 21
140.8904708966729
 31
0.0
 70
   160
 71
     5
 42
38.60000000000031
  3
STANDARD
100
AcDbAlignedDimension
 13
29.28198836015812
 23
134.3538543418997
 33
0.0
 14
67.88198836015843
 24
134.5288543418997
 34
0.0
100
AcDbRotatedDimension
1001
ACAD
1000
DSTYLE
1002
{
1070
    41
1040
2.5
1070
    42
1040
0.625
1070
    43
1040
3.75
1070
    44
1040
0.625
1070
    73
1070
     0
1070
    74
1070
     0
1070
    77
1070
     1
1070
    78
1070
     8
1070
   140
1040
2.5
1070
   141
1040
2.5
1070
   143
1040
0.0394
1070
   147
1040
0.625
1070
   171
1070
     4
1070
   172
1070
     1
1070
   273
1070
     8
1070
   274
1070
     4
1002
}
  0
LWPOLYLINE
  5
64
330
2
100
AcDbEntity
  8
Object
100
AcDbPolyline
 90
        4
 70
     1
 43
0.0
 10
29.28198836015812
 20
83.42885434189986
 10
67.8819883601582
 20
83.42885434189986
 10
67.8819883601582
 20
134.5288543418997
 10
29.28198836015812
 20
134.5288543418997
  0
DIMENSION
  5
65
330
2
100
AcDbEntity
  8
Dims
 48
0.5
100
AcDbDimension
  2
*D33
 10
70.18198836015722
 20
147.7222438237049
 30
0.0
 11
48.58198836015816
 21
147.7222438237049
 31
0.0
 70
   161
  1
（44）
 71
     5
 42
43.19999999999808
  3
STANDARD
100
AcDbAlignedDimension
 13
26.98198836015913
 23
130.7788543418982
 33
0.0
 14
70.18198836015722
 24
130.7788543418982
 34
0.0
1001
ACAD
1000
DSTYLE
1002
{
1070
    41
1040
2.5
1070
    42
1040
0.625
1070
    43
1040
3.75
1070
    44
1040
1.25
1070
    73
1070
     0
1070
    74
1070
     0
1070
    77
1070
     1
1070
    78
1070
     8
1070
   140
1040
2.5
1070
   141
1040
2.5
1070
   143
1040
0.0394
1070
   147
1040
0.625
1070
   171
1070
     4
1070
   172
1070
     1
1070
   273
1070
     8
1070
   274
1070
     4
1070
   277
1070
     6
1002
}
  0
DIMENSION
  5
72
330
2
100
AcDbEntity
  8
Dims
100
AcDbDimension
  2
*D36
 10
60.08198836015822
 20
75.02641722781277
 30
0.0
 11
48.58198836015811
 21
75.02641722781277
 31
0.0
 70
   160
  1
<>{\H0.8x;%%p0.2}
 71
     5
 42
23.0
  3
STANDARD
100
AcDbAlignedDimension
 13
37.08198836015822
 23
83.42885434190122
 33
0.0
 14
60.08198836015822
 24
83.42885434190122
 34
0.0
100
AcDbRotatedDimension
1001
ACAD
1000
DSTYLE
1002
{
1070
    41
1040
2.5
1070
    42
1040
0.625
1070
    43
1040
3.75
1070
    44
1040
0.625
1070
    73
1070
     0
1070
    74
1070
     0
1070
    77
1070
     1
1070
    78
1070
     8
1070
   140
1040
2.5
1070
   141
1040
2.5
1070
   143
1040
0.0394
1070
   147
1040
0.625
1070
   171
1070
     4
1070
   172
1070
     1
1070
   273
1070
     8
1070
   274
1070
     4
1002
}
  0
DIMENSION
  5
7F
330
2
100
AcDbEntity
  8
Dims
100
AcDbDimension
  2
*D32
 10
62.58198836015793
 20
68.15180161604053
 30
0.0
 11
48.58198836015799
 21
68.15180161604053
 31
0.0
 70
   160
  1
<>{\H0.8x;%%p0.3}
 71
     5
 42
27.99999999999991
  3
STANDARD
100
AcDbAlignedDimension
 13
34.58198836015802
 23
83.42885434189986
 33
0.0
 14
62.58198836015793
 24
83.42885434189986
 34
0.0
100
AcDbRotatedDimension
1001
ACAD
1000
DSTYLE
1002
{
1070
    41
1040
2.5
1070
    42
1040
0.625
1070
    43
1040
3.75
1070
    44
1040
0.625
1070
    73
1070
     0
1070
    74
1070
     0
1070
    77
1070
     1
1070
    78
1070
     8
1070
   140
1040
2.5
1070
   141
1040
2.5
1070
   143
1040
0.0394
1070
   147
1040
0.625
1070
   171
1070
     4
1070
   172
1070
     1
1070
   273
1070
     8
1070
   274
1070
     4
1002
}
  0
CIRCLE
  5
8C
330
2
100
AcDbEntity
  8
Object
 48
0.5
100
AcDbCircle
 10
48.58198836015836
 20
97.42885434189975
 30
0.0
 40
11.0
  0
LINE
  5
8D
330
2
100
AcDbEntity
  8
Dims
100
AcDbLine
 10
35.58198836015822
 20
135.7288543419002
 30
0.0
 11
61.58198836015793
 21
135.7288543419012
 31
0.0
  0
LINE
  5
91
330
2
100
AcDbEntity
  8
Center
 48
0.5
100
AcDbLine
 10
34.58198836015822
 20
97.42885434189975
 30
0.0
 11
62.58198836015836
 21
97.42885434189975
 31
0.0
  0
LWPOLYLINE
  5
93
330
2
100
AcDbEntity
  8
Object
 48
0.5
100
AcDbPolyline
 90
        2
 70
     0
 43
0.0
 10
61.05445804342474
 20
111.4288543418998
 10
36.10951867689195
 20
111.4288543418998
  0
LINE
  5
96
330
2
100
AcDbEntity
  8
Object
 48
0.5
100
AcDbLine
 10
61.98198836015814
 20
129.5288543418993
 30
0.0
 11
35.18198836015836
 21
129.5288543418993
 31
0.0
  0
LINE
  5
97
330
2
100
AcDbEntity
  8
Object
 48
0.5
100
AcDbLine
 10
61.98198836015814
 20
128.9288543418994
 30
0.0
 11
35.18198836015836
 21
128.9288543418994
 31
0.0
  0
LINE
  5
98
330
2
100
AcDbEntity
  8
Object
100
AcDbLine
 10
34.58198836015822
 20
83.42885434189975
 30
0.0
 11
62.58198836015814
 21
83.42885434189975
 31
0.0
  0
LINE
  5
99
330
2
100
AcDbEntity
  8
Object
 48
0.5
100
AcDbLine
 10
62.58198836015814
 20
84.02885434189967
 30
0.0
 11
61.69696072002238
 21
84.02885434189965
 31
0.0
  0
CIRCLE
  5
9A
330
2
100
AcDbEntity
  8
Object
100
AcDbCircle
 10
48.58198836015836
 20
97.42885434189986
 30
0.0
 40
9.0
  0
DIMENSION
  5
AC
330
2
100
AcDbEntity
  8
Dims
100
AcDbDimension
  2
*D35
 10
19.57960544799114
 20
111.4288543418996
 30
0.0
 11
19.57960544799112
 21
97.42885434189975
 31
0.0
 70
   160
  1
<>{\H0.8x;%%p0.3}
 71
     5
 42
27.99999999999978
  3
STANDARD
100
AcDbAlignedDimension
 13
29.28198836015812
 23
83.42885434189986
 33
0.0
 14
36.10951867689175
 24
111.4288543418996
 34
0.0
 50
270.0
100
AcDbRotatedDimension
1001
ACAD
1000
DSTYLE
1002
{
1070
    41
1040
2.5
1070
    42
1040
0.625
1070
    43
1040
3.75
1070
    44
1040
0.625
1070
    73
1070
     0
1070
    74
1070
     0
1070
    77
1070
     1
1070
    78
1070
     8
1070
   140
1040
2.5
1070
   141
1040
2.5
1070
   143
1040
0.0394
1070
   147
1040
0.625
1070
   171
1070
     4
1070
   172
1070
     1
1070
   273
1070
     8
1070
   274
1070
     4
1002
}
  0
LINE
  5
C5
330
2
100
AcDbEntity
  8
Object
 48
0.5
100
AcDbLine
 10
29.2819883601592
 20
132.1788543419019
 30
0.0
 11
29.2819883601592
 21
126.878854341902
 31
0.0
  0
LINE
  5
C6
330
2
100
AcDbEntity
  8
Object
 48
0.5
100
AcDbLine
 10
28.68198836015904
 20
126.8788543419019
 30
0.0
 11
28.68198836015904
 21
132.1788543419019
 31
0.0
  0
LINE
  5
C7
330
2
100
AcDbEntity
  8
Object
 48
0.5
100
AcDbLine
 10
26.98198836015913
 20
128.2788543418982
 30
0.0
 11
26.98198836015913
 21
130.7788543418982
 31
0.0
  0
LINE
  5
C8
330
2
100
AcDbEntity
  8
Object
100
AcDbLine
 10
35.93198836015835
 20
129.5288543418993
 30
0.0
 11
35.93198836015821
 21
130.1288543418995
 31
0.0
  0
LINE
  5
C9
330
2
100
AcDbEntity
  8
Object
100
AcDbLine
 10
41.23198836015814
 20
129.5288543418993
 30
0.0
 11
41.23198836015814
 21
130.1288543418995
 31
0.0
  0
DIMENSION
  5
CA
330
2
100
AcDbEntity
  8
Dims
100
AcDbDimension
  2
*D37
 10
25.21498293749035
 20
108.9288543418998
 30
0.0
 11
25.21498293749033
 21
97.42885434189975
 31
0.0
 70
   160
  1
<>{\H0.8x;%%p0.2}
 71
     5
 42
23.00000000000011
  3
STANDARD
100
AcDbAlignedDimension
 13
34.58198836015822
 23
85.92885434189975
 33
0.0
 14
34.58198836015893
 24
108.9288543418998
 34
0.0
 50
270.0
100
AcDbRotatedDimension
1001
ACAD
1000
DSTYLE
1002
{
1070
    41
1040
2.5
1070
    42
1040
0.625
1070
    43
1040
3.75
1070
    44
1040
0.625
1070
    73
1070
     0
1070
    74
1070
     0
1070
    77
1070
     1
1070
    78
1070
     8
1070
   140
1040
2.5
1070
   141
1040
2.5
1070
   143
1040
0.0394
1070
   147
1040
0.625
1070
   171
1070
     4
1070
   172
1070
     1
1070
   273
1070
     8
1070
   274
1070
     4
1002
}
  0
LINE
  5
D8
330
2
100
AcDbEntity
  8
Object
 48
0.5
100
AcDbLine
 10
27.6513030987397
 20
127.3351132450576
 30
0.0
 11
28.68198836015904
 21
127.3351132450576
 31
0.0
  0
LINE
  5
D9
330
2
100
AcDbEntity
  8
Object
 48
0.5
100
AcDbLine
 10
27.70789428086473
 20
128.8649964953738
 30
0.0
 11
28.68198836015904
 21
128.8649964953734
 31
0.0
  0
LINE
  5
DA
330
2
100
AcDbEntity
  8
Object
 48
0.5
100
AcDbLine
 10
27.70789428086473
 20
127.9989710915896
 30
0.0
 11
28.68198836015904
 21
127.9989710915896
 31
0.0
  0
ARC
  5
DB
330
2
100
AcDbEntity
  8
Object
 48
0.5
100
AcDbCircle
 10
27.98198836015913
 20
128.2788543418982
 30
0.0
 40
1.0
100
AcDbArc
 50
180.0
 51
250.6896266608871
  0
ARC
  5
DC
330
2
100
AcDbEntity
  8
Object
 48
0.5
100
AcDbCircle
 10
27.70789428086473
 20
128.4319837934816
 30
0.0
 40
0.4330127018920962
100
AcDbArc
 50
90.0
 51
270.0
  0
LINE
  5
DD
330
2
100
AcDbEntity
  8
Object
100
AcDbLine
 10
29.2819883601592
 20
126.878854341902
 30
0.0
 11
28.68198836015904
 21
126.8788543419019
 31
0.0
  0
CIRCLE
  5
DE
330
2
100
AcDbEntity
  8
Object
 48
0.5
100
AcDbCircle
 10
37.08198836015822
 20
85.92885434189975
 30
0.0
 40
1.0
  0
LINE
  5
DF
330
2
100
AcDbEntity
  8
Object
100
AcDbLine
 10
35.18198836015821
 20
84.02885434189988
 30
0.0
 11
35.1819883601582
 21
84.31388198203579
 31
0.0
  0
LINE
  5
E0
330
2
100
AcDbEntity
  8
Object
100
AcDbLine
 10
34.58198836015822
 20
83.42885434189975
 30
0.0
 11
34.58198836015822
 21
128.9288543418994
 31
0.0
  0
LWPOLYLINE
  5
E1
330
2
100
AcDbEntity
  8
Object
 48
0.5
100
AcDbPolyline
 90
        2
 70
     0
 43
0.0
 10
34.58198836015822
 20
109.9013240251661
 10
34.58198836015822
 20
84.95638465863306
  0
LWPOLYLINE
  5
E2
330
2
100
AcDbEntity
  8
Object
 48
0.5
100
AcDbPolyline
 90
        2
 70
     0
 43
0.0
 10
34.58198836015822
 20
109.9013240251659
 10
34.58198836015822
 20
84.95638465863306
  0
LINE
  5
E3
330
2
100
AcDbEntity
  8
Center
100
AcDbLine
 10
37.08198836015822
 20
83.42885434189975
 30
0.0
 11
37.08198836015822
 21
88.42885434189975
 31
0.0
  0
CIRCLE
  5
E4
330
2
100
AcDbEntity
  8
Object
  6
HIDDEN
 48
0.5
100
AcDbCircle
 10
37.08198836015904
 20
85.92885434189986
 30
0.0
 40
1.3
  0
LINE
  5
E7
330
2
100
AcDbEntity
  8
Center
100
AcDbLine
 10
34.58198836015822
 20
85.92885434189975
 30
0.0
 11
39.58198836015836
 21
85.92885434189975
 31
0.0
  0
ARC
  5
E8
330
2
100
AcDbEntity
  8
Object
 48
0.5
100
AcDbCircle
 10
48.58198836015836
 20
97.42885434189975
 30
0.0
 40
18.75
100
AcDbArc
 50
221.6975466031598
 51
228.3024533968366
  0
CIRCLE
  5
EA
330
2
100
AcDbEntity
  8
Object
 48
0.5
100
AcDbCircle
 10
39.58198836015782
 20
116.7379969689665
 30
0.0
 40
2.5
  0
CIRCLE
  5
EB
330
2
100
AcDbEntity
  8
Object
 48
0.5
100
AcDbCircle
 10
39.58198836015822
 20
116.7379969689654
 30
0.0
 40
2.649999999999999
  0
CIRCLE
  5
EC
330
2
100
AcDbEntity
  8
Object
 48
0.5
100
AcDbCircle
 10
39.58198836015822
 20
116.7379969689654
 30
0.0
 40
2.799999999999998
  0
LINE
  5
ED
330
2
100
AcDbEntity
  8
Center
100
AcDbLine
 10
37.08198836015822
 20
116.7379969689654
 30
0.0
 11
42.08198836015822
 21
116.7379969689654
 31
0.0
  0
LINE
  5
EF
330
2
100
AcDbEntity
  8
Center
100
AcDbLine
 10
34.58198836015893
 20
108.9288543418998
 30
0.0
 11
39.58198836015893
 21
108.9288543418998
 31
0.0
  0
CIRCLE
  5
F0
330
2
100
AcDbEntity
  8
Object
 48
0.5
100
AcDbCircle
 10
37.08198836015822
 20
108.9288543418997
 30
0.0
 40
1.0
  0
CIRCLE
  5
F1
330
2
100
AcDbEntity
  8
Object
  6
HIDDEN
 48
0.5
100
AcDbCircle
 10
37.08198836015904
 20
108.9288543418998
 30
0.0
 40
1.3
  0
LINE
  5
F2
330
2
100
AcDbEntity
  8
Object
 48
0.5
100
AcDbLine
 10
41.23198836015814
 20
129.5288543418993
 30
0.0
 11
35.93198836015835
 21
129.5288543418993
 31
0.0
  0
LINE
  5
F3
330
2
100
AcDbEntity
  8
Center
100
AcDbLine
 10
37.08198836015904
 20
106.4288543418998
 30
0.0
 11
37.08198836015904
 21
111.4288543418998
 31
0.0
  0
LINE
  5
F5
330
2
100
AcDbEntity
  8
Object
 48
0.5
100
AcDbLine
 10
35.58198836015836
 20
110.9404234587713
 30
0.0
 11
35.58198836015836
 21
128.9288543418995
 31
0.0
  0
ARC
  5
F6
330
2
100
AcDbEntity
  8
Object
 48
0.5
100
AcDbCircle
 10
48.58198836015836
 20
97.42885434189975
 30
0.0
 40
18.75
100
AcDbArc
 50
131.6975466031632
 51
138.30245339684
  0
LINE
  5
F7
330
2
100
AcDbEntity
  8
Object
 48
0.5
100
AcDbLine
 10
35.18198836015821
 20
128.9288543418994
 30
0.0
 11
34.58198836015822
 21
128.9288543418994
 31
0.0
  0
LINE
  5
F8
330
2
100
AcDbEntity
  8
Object
 48
0.5
100
AcDbLine
 10
35.18198836015836
 20
128.7288543418997
 30
0.0
 11
35.18198836015836
 21
129.5288543418993
 31
0.0
  0
LINE
  5
FB
330
2
100
AcDbEntity
  8
Object
 48
0.5
100
AcDbLine
 10
40.08198836015822
 20
115.7379969689656
 30
0.0
 11
40.58198836015821
 21
116.2379969689655
 31
0.0
  0
LINE
  5
FC
330
2
100
AcDbEntity
  8
Object
 48
0.5
100
AcDbLine
 10
40.58198836015821
 20
117.2379969689654
 30
0.0
 11
40.08198836015822
 21
117.7379969689654
 31
0.0
  0
ARC
  5
FD
330
2
100
AcDbEntity
  8
Object
 48
0.5
100
AcDbCircle
 10
39.58198836015822
 20
116.7379969689654
 30
0.0
 40
1.75
100
AcDbArc
 50
253.3984504009766
 51
286.6015495990233
  0
ARC
  5
FE
330
2
100
AcDbEntity
  8
Object
 48
0.5
100
AcDbCircle
 10
39.58198836015822
 20
116.7379969689654
 30
0.0
 40
1.75
100
AcDbArc
 50
73.39845040097656
 51
106.6015495990234
  0
LINE
  5
FF
330
2
100
AcDbEntity
  8
Object
 48
0.5
100
AcDbLine
 10
38.58198836015822
 20
116.2379969689652
 30
0.0
 11
39.08198836015822
 21
115.7379969689652
 31
0.0
  0
LINE
  5
100
330
2
100
AcDbEntity
  8
Center
100
AcDbLine
 10
39.58198836015822
 20
114.2379969689652
 30
0.0
 11
39.58198836015822
 21
119.2379969689652
 31
0.0
  0
LINE
  5
101
330
2
100
AcDbEntity
  8
Object
 48
0.5
100
AcDbLine
 10
39.08198836015822
 20
115.0609459858404
 30
0.0
 11
39.08198836015822
 21
115.7379969689652
 31
0.0
  0
ARC
  5
103
330
2
100
AcDbEntity
  8
Object
 48
0.5
100
AcDbCircle
 10
39.58198836015822
 20
116.7379969689654
 30
0.0
 40
1.75
100
AcDbArc
 50
163.398450400997
 51
196.6015495990095
  0
LINE
  5
104
330
2
100
AcDbEntity
  8
Object
 48
0.5
100
AcDbLine
 10
38.58198836015822
 20
117.2379969689652
 30
0.0
 11
39.08198836015822
 21
117.7379969689652
 31
0.0
  0
LINE
  5
105
330
2
100
AcDbEntity
  8
Object
 48
0.5
100
AcDbLine
 10
39.08198836015822
 20
117.7379969689652
 30
0.0
 11
39.08198836015822
 21
118.4150479520901
 31
0.0
  0
LINE
  5
106
330
2
100
AcDbEntity
  8
Object
 48
0.5
100
AcDbLine
 10
37.90493737703334
 20
116.2379969689657
 30
0.0
 11
38.58198836015822
 21
116.2379969689652
 31
0.0
  0
LINE
  5
107
330
2
100
AcDbEntity
  8
Object
 48
0.5
100
AcDbLine
 10
37.90493737703334
 20
117.2379969689652
 30
0.0
 11
38.58198836015822
 21
117.2379969689652
 31
0.0
  0
LINE
  5
10A
330
2
100
AcDbEntity
  8
Object
 48
0.5
100
AcDbLine
 10
40.08198836015822
 20
115.0609459858406
 30
0.0
 11
40.08198836015822
 21
115.7379969689656
 31
0.0
  0
LINE
  5
10B
330
2
100
AcDbEntity
  8
Object
 48
0.5
100
AcDbLine
 10
40.08198836015822
 20
117.7379969689654
 30
0.0
 11
40.08198836015822
 21
118.4150479520901
 31
0.0
  0
LINE
  5
10C
330
2
100
AcDbEntity
  8
Object
 48
0.5
100
AcDbLine
 10
40.58198836015821
 20
117.2379969689654
 30
0.0
 11
41.25903934328312
 21
117.2379969689652
 31
0.0
  0
LINE
  5
10D
330
2
100
AcDbEntity
  8
Object
 48
0.5
100
AcDbLine
 10
40.58198836015821
 20
116.2379969689655
 30
0.0
 11
41.25903934328312
 21
116.2379969689654
 31
0.0
  0
ARC
  5
10E
330
2
100
AcDbEntity
  8
Object
 48
0.5
100
AcDbCircle
 10
39.58198836015822
 20
116.7379969689654
 30
0.0
 40
1.75
100
AcDbArc
 50
343.3984504009766
 51
16.60154959900954
  0
LINE
  5
10F
330
2
100
AcDbEntity
  8
Object
 48
0.5
100
AcDbLine
 10
27.70789428086473
 20
130.1927121884301
 30
0.0
 11
28.68198836015904
 21
130.1927121884302
 31
0.0
  0
LINE
  5
110
330
2
100
AcDbEntity
  8
Object
 48
0.5
100
AcDbLine
 10
27.70789428086473
 20
131.0587375922144
 30
0.0
 11
28.68198836015904
 21
131.0587375922143
 31
0.0
  0
LINE
  5
111
330
2
100
AcDbEntity
  8
Object
 48
0.5
100
AcDbLine
 10
27.6513030987397
 20
131.7225954387463
 30
0.0
 11
28.68198836015904
 21
131.7225954387463
 31
0.0
  0
ARC
  5
112
330
2
100
AcDbEntity
  8
Object
 48
0.5
100
AcDbCircle
 10
27.98198836015913
 20
130.7788543418982
 30
0.0
 40
1.0
100
AcDbArc
 50
109.3103733378499
 51
180.0
  0
ARC
  5
113
330
2
100
AcDbEntity
  8
Object
 48
0.5
100
AcDbCircle
 10
27.70789428086473
 20
130.6257248903223
 30
0.0
 40
0.4330127018920962
100
AcDbArc
 50
90.0
 51
270.0
  0
LINE
  5
114
330
2
100
AcDbEntity
  8
Object
100
AcDbLine
 10
29.2819883601592
 20
132.1788543419019
 30
0.0
 11
28.68198836015904
 21
132.1788543419019
 31
0.0
  0
LINE
  5
115
330
2
100
AcDbEntity
  8
Object
 48
0.5
100
AcDbLine
 10
37.33198836015455
 20
131.8288543418995
 30
0.0
 11
39.83198836015455
 21
131.8288543418995
 31
0.0
  0
LINE
  5
116
330
2
100
AcDbEntity
  8
Object
 48
0.5
100
AcDbLine
 10
35.93198836015821
 20
130.1288543418995
 30
0.0
 11
41.23198836015814
 21
130.1288543418995
 31
0.0
  0
LINE
  5
117
330
2
100
AcDbEntity
  8
Dims
100
AcDbLine
 10
35.58198836015813
 20
135.7288543419001
 30
0.0
 11
35.58198836015822
 21
134.5288543418996
 31
0.0
  0
LINE
  5
118
330
2
100
AcDbEntity
  8
Object
 48
0.5
100
AcDbLine
 10
36.33198836015455
 20
130.8288543418995
 30
0.0
 11
36.33198836015455
 21
130.1288543418998
 31
0.0
  0
ARC
  5
119
330
2
100
AcDbEntity
  8
Object
 48
0.5
100
AcDbCircle
 10
36.68215284096544
 20
131.2859611230859
 30
0.0
 40
0.25
100
AcDbArc
 50
0.0
 51
105.3174980661895
  0
LINE
  5
11A
330
2
100
AcDbEntity
  8
Object
 48
0.5
100
AcDbLine
 10
36.9321528409657
 20
131.2859611230859
 30
0.0
 11
36.9321528409657
 21
130.1288543418994
 31
0.0
  0
LINE
  5
11B
330
2
100
AcDbEntity
  8
Object
 48
0.5
100
AcDbLine
 10
36.43215284096521
 20
131.2650836834071
 30
0.0
 11
36.43215284096521
 21
130.1288543418993
 31
0.0
  0
ARC
  5
11C
330
2
100
AcDbEntity
  8
Object
 48
0.5
100
AcDbCircle
 10
37.33198836015455
 20
130.8288543418995
 30
0.0
 40
1.0
100
AcDbArc
 50
90.0
 51
180.0
  0
ARC
  5
11D
330
2
100
AcDbEntity
  8
Object
 48
0.5
100
AcDbCircle
 10
40.48182387935082
 20
131.2859611230859
 30
0.0
 40
0.25
100
AcDbArc
 50
74.68250193381033
 51
180.0
  0
ARC
  5
11E
330
2
100
AcDbEntity
  8
Object
 48
0.5
100
AcDbCircle
 10
39.83198836015455
 20
130.8288543418995
 30
0.0
 40
1.0
100
AcDbArc
 50
0.0
 51
90.0
  0
LINE
  5
11F
330
2
100
AcDbEntity
  8
Object
 48
0.5
100
AcDbLine
 10
38.08198836015455
 20
131.0359611230859
 30
0.0
 11
38.08198836015455
 21
130.1288543418994
 31
0.0
  0
LINE
  5
120
330
2
100
AcDbEntity
  8
Object
 48
0.5
100
AcDbLine
 10
39.08198836015461
 20
131.0359611230859
 30
0.0
 11
39.08198836015461
 21
130.1288543418994
 31
0.0
  0
ARC
  5
121
330
2
100
AcDbEntity
  8
Object
 48
0.5
100
AcDbCircle
 10
38.58198836014654
 20
131.0359611230859
 30
0.0
 40
0.5
100
AcDbArc
 50
0.0
 51
180.0
  0
LINE
  5
122
330
2
100
AcDbEntity
  8
Object
 48
0.5
100
AcDbLine
 10
40.23182387935051
 20
131.2859611230859
 30
0.0
 11
40.23182387935051
 21
130.1288543418994
 31
0.0
  0
LINE
  5
123
330
2
100
AcDbEntity
  8
Object
 48
0.5
100
AcDbLine
 10
40.83198836015455
 20
130.8288543418995
 30
0.0
 11
40.83198836015455
 21
130.1288543418998
 31
0.0
  0
LINE
  5
124
330
2
100
AcDbEntity
  8
Object
 48
0.5
100
AcDbLine
 10
40.73182387935114
 20
131.2650836834071
 30
0.0
 11
40.73182387935114
 21
130.1288543418993
 31
0.0
  0
DIMENSION
  5
154
330
2
100
AcDbEntity
  8
Dims
 48
0.5
100
AcDbDimension
  2
*D30
 10
79.11157603622317
 20
97.42885434189952
 30
0.0
 11
77.04095253955756
 21
112.596514345631
 31
0.0
 70
   161
 71
     5
 42
38.30000000000175
  3
STANDARD
100
AcDbAlignedDimension
 13
61.58198836015793
 23
135.7288543419012
 33
0.0
 14
61.58198836015793
 24
97.42885434189952
 34
0.0
1001
ACAD
1000
DSTYLE
1002
{
1070
    43
1040
3.75
1070
   143
1040
0.0394
1070
   171
1070
     4
1070
   273
1070
     8
1070
   274
1070
     4
1070
   277
1070
     6
1070
   279
1070
     2
1002
}
  0
LINE
  5
16E
330
2
100
AcDbEntity
  8
Object
100
AcDbLine
 10
67.88198836015704
 20
126.878854341902
 30
0.0
 11
68.4819883601572
 21
126.8788543419019
 31
0.0
  0
LINE
  5
16F
330
2
100
AcDbEntity
  8
Object
100
AcDbLine
 10
67.88198836015704
 20
132.1788543419019
 30
0.0
 11
68.4819883601572
 21
132.1788543419019
 31
0.0
  0
LINE
  5
170
330
2
100
AcDbEntity
  8
Object
100
AcDbLine
 10
55.93198836015836
 20
129.5288543418993
 30
0.0
 11
55.93198836015822
 21
130.1288543418995
 31
0.0
  0
LINE
  5
171
330
2
100
AcDbEntity
  8
Object
 48
0.5
100
AcDbLine
 10
67.88198836015704
 20
132.1788543419019
 30
0.0
 11
67.88198836015704
 21
126.878854341902
 31
0.0
  0
LINE
  5
172
330
2
100
AcDbEntity
  8
Object
100
AcDbLine
 10
61.23198836015814
 20
129.5288543418993
 30
0.0
 11
61.23198836015814
 21
130.1288543418995
 31
0.0
  0
CIRCLE
  5
175
330
2
100
AcDbEntity
  8
Object
 48
0.5
100
AcDbCircle
 10
57.58198836015822
 20
116.7379969689654
 30
0.0
 40
2.799999999999998
  0
CIRCLE
  5
176
330
2
100
AcDbEntity
  8
Object
 48
0.5
100
AcDbCircle
 10
57.58198836015822
 20
116.7379969689654
 30
0.0
 40
2.649999999999999
  0
LINE
  5
177
330
2
100
AcDbEntity
  8
Center
100
AcDbLine
 10
55.08198836015836
 20
116.7379969689654
 30
0.0
 11
60.08198836015822
 21
116.7379969689654
 31
0.0
  0
CIRCLE
  5
178
330
2
100
AcDbEntity
  8
Object
 48
0.5
100
AcDbCircle
 10
57.58198836015782
 20
116.7379969689665
 30
0.0
 40
2.5
  0
LINE
  5
17A
330
2
100
AcDbEntity
  8
Center
 48
0.5
100
AcDbLine
 10
48.58198836015836
 20
83.42885434189975
 30
0.0
 11
48.58198836015836
 21
131.2881151298443
 31
0.0
  0
LWPOLYLINE
  5
17D
330
2
100
AcDbEntity
  8
Object
 48
0.5
100
AcDbPolyline
 90
        2
 70
     0
 43
0.0
 10
52.08198836015836
 20
112.4288543418997
 10
45.08198836015822
 20
112.4288543418997
  0
CIRCLE
  5
17E
330
2
100
AcDbEntity
  8
Object
 48
0.5
100
AcDbCircle
 10
48.58198836015836
 20
97.42885434189975
 30
0.0
 40
2.5
  0
ARC
  5
17F
330
2
100
AcDbEntity
  8
Object
 48
0.5
100
AcDbCircle
 10
48.58198836015862
 20
119.8988543418996
 30
0.0
 40
2.5
100
AcDbArc
 50
0.0
 51
180.0
  0
LINE
  5
180
330
2
100
AcDbEntity
  8
Object
 48
0.5
100
AcDbLine
 10
52.0819883601585
 20
122.3988543418995
 30
0.0
 11
45.08198836015862
 21
122.3988543418995
 31
0.0
  0
LINE
  5
181
330
2
100
AcDbEntity
  8
Object
 48
0.5
100
AcDbLine
 10
50.08198836015845
 20
99.42885434189953
 30
0.0
 11
47.08198836015822
 21
99.42885434189953
 31
0.0
  0
CIRCLE
  5
182
330
2
100
AcDbEntity
  8
Object
 48
0.5
100
AcDbCircle
 10
48.58198836015836
 20
97.42885434189975
 30
0.0
 40
2.0
  0
LINE
  5
184
330
2
100
AcDbEntity
  8
Object
100
AcDbLine
 10
46.08198836015813
 20
112.4288543418997
 30
0.0
 11
46.08198836015813
 21
119.8988543418996
 31
0.0
  0
LINE
  5
185
330
2
100
AcDbEntity
  8
Object
100
AcDbLine
 10
45.08198836015862
 20
122.3988543418995
 30
0.0
 11
45.08198836015862
 21
111.4288543418998
 31
0.0
  0
LINE
  5
186
330
2
100
AcDbEntity
  8
Object
100
AcDbLine
 10
45.33198836015905
 20
119.7388543418987
 30
0.0
 11
45.33198836015905
 21
112.4288543418997
 31
0.0
  0
LINE
  5
187
330
2
100
AcDbEntity
  8
Object
100
AcDbLine
 10
45.08198836015822
 20
111.4288543418998
 30
0.0
 11
45.08198836015822
 21
112.4288543418997
 31
0.0
  0
LINE
  5
188
330
2
100
AcDbEntity
  8
Object
100
AcDbLine
 10
46.08198836015836
 20
111.4288543418998
 30
0.0
 11
46.08198836015836
 21
112.4288543418997
 31
0.0
  0
LINE
  5
189
330
2
100
AcDbEntity
  8
Object
 48
0.5
100
AcDbLine
 10
46.08198836015813
 20
119.7388543418984
 30
0.0
 11
45.08198836015862
 21
119.7388543418983
 31
0.0
  0
LINE
  5
18D
330
2
100
AcDbEntity
  8
Object
100
AcDbLine
 10
51.08198836015822
 20
112.4288543418997
 30
0.0
 11
51.08198836015822
 21
119.8988543418996
 31
0.0
  0
LINE
  5
18E
330
2
100
AcDbEntity
  8
Object
100
AcDbLine
 10
52.0819883601585
 20
122.3988543418995
 30
0.0
 11
52.0819883601585
 21
111.4288543418998
 31
0.0
  0
LINE
  5
18F
330
2
100
AcDbEntity
  8
Object
100
AcDbLine
 10
51.83198836015893
 20
119.7388543418987
 30
0.0
 11
51.83198836015893
 21
112.4288543418997
 31
0.0
  0
LINE
  5
190
330
2
100
AcDbEntity
  8
Object
100
AcDbLine
 10
51.08198836015836
 20
111.4288543418998
 30
0.0
 11
51.08198836015836
 21
112.4288543418997
 31
0.0
  0
LINE
  5
191
330
2
100
AcDbEntity
  8
Object
100
AcDbLine
 10
52.08198836015836
 20
111.4288543418998
 30
0.0
 11
52.08198836015836
 21
112.4288543418997
 31
0.0
  0
LINE
  5
192
330
2
100
AcDbEntity
  8
Object
 48
0.5
100
AcDbLine
 10
52.0819883601585
 20
119.7388543418983
 30
0.0
 11
51.08198836015822
 21
119.7388543418984
 31
0.0
  0
CIRCLE
  5
193
330
2
100
AcDbEntity
  8
Object
 48
0.5
100
AcDbCircle
 10
60.08198836015822
 20
85.92885434189975
 30
0.0
 40
1.0
  0
CIRCLE
  5
194
330
2
100
AcDbEntity
  8
Object
  6
HIDDEN
 48
0.5
100
AcDbCircle
 10
60.08198836015893
 20
85.92885434189986
 30
0.0
 40
1.3
  0
LINE
  5
195
330
2
100
AcDbEntity
  8
Object
100
AcDbLine
 10
61.98198836015801
 20
110.5438267017642
 30
0.0
 11
61.98198836015814
 21
128.9288543418997
 31
0.0
  0
LINE
  5
196
330
2
100
AcDbEntity
  8
Object
100
AcDbLine
 10
62.58198836015814
 20
83.42885434189975
 30
0.0
 11
62.58198836015836
 21
128.9288543418994
 31
0.0
  0
LWPOLYLINE
  5
197
330
2
100
AcDbEntity
  8
Object
 48
0.5
100
AcDbPolyline
 90
        2
 70
     0
 43
0.0
 10
62.58198836015836
 20
84.95638465863306
 10
62.58198836015836
 20
109.9013240251661
  0
LWPOLYLINE
  5
198
330
2
100
AcDbEntity
  8
Object
 48
0.5
100
AcDbPolyline
 90
        2
 70
     0
 43
0.0
 10
62.58198836015836
 20
84.95638465863306
 10
62.58198836015836
 20
109.9013240251659
  0
LINE
  5
199
330
2
100
AcDbEntity
  8
Object
 48
0.5
100
AcDbLine
 10
62.58198836015836
 20
92.17885434189781
 30
0.0
 11
62.58198836015836
 21
86.87885434189798
 31
0.0
  0
LINE
  5
19A
330
2
100
AcDbEntity
  8
Object
 48
0.5
100
AcDbLine
 10
63.18198836015852
 20
86.87885434189785
 30
0.0
 11
63.18198836015852
 21
92.17885434189781
 31
0.0
  0
LINE
  5
19B
330
2
100
AcDbEntity
  8
Center
100
AcDbLine
 10
60.08198836015822
 20
83.42885434189975
 30
0.0
 11
60.08198836015822
 21
88.42885434189975
 31
0.0
  0
LINE
  5
19C
330
2
100
AcDbEntity
  8
Center
100
AcDbLine
 10
57.58198836015822
 20
85.92885434189975
 30
0.0
 11
62.58198836015836
 21
85.92885434189975
 31
0.0
  0
ARC
  5
19D
330
2
100
AcDbEntity
  8
Object
 48
0.5
100
AcDbCircle
 10
48.58198836015836
 20
97.42885434189975
 30
0.0
 40
18.75
100
AcDbArc
 50
311.6975466031632
 51
318.3024533968402
  0
LINE
  5
19F
330
2
100
AcDbEntity
  8
Object
100
AcDbLine
 10
62.58198836015836
 20
86.87885434189798
 30
0.0
 11
63.18198836015852
 21
86.87885434189785
 31
0.0
  0
LINE
  5
1A0
330
2
100
AcDbEntity
  8
Center
100
AcDbLine
 10
57.58198836015904
 20
108.9288543418998
 30
0.0
 11
62.58198836015893
 21
108.9288543418998
 31
0.0
  0
ARC
  5
1A1
330
2
100
AcDbEntity
  8
Object
 48
0.5
100
AcDbCircle
 10
48.58198836015836
 20
97.42885434189975
 30
0.0
 40
18.75
100
AcDbArc
 50
41.69754660315986
 51
48.30245339683663
  0
CIRCLE
  5
1A2
330
2
100
AcDbEntity
  8
Object
 48
0.5
100
AcDbCircle
 10
60.08198836015822
 20
108.9288543418997
 30
0.0
 40
1.0
  0
CIRCLE
  5
1A3
330
2
100
AcDbEntity
  8
Object
  6
HIDDEN
 48
0.5
100
AcDbCircle
 10
60.08198836015893
 20
108.9288543418998
 30
0.0
 40
1.3
  0
LINE
  5
1A4
330
2
100
AcDbEntity
  8
Center
100
AcDbLine
 10
60.08198836015893
 20
106.4288543418998
 30
0.0
 11
60.08198836015893
 21
111.4288543418998
 31
0.0
  0
LINE
  5
1A7
330
2
100
AcDbEntity
  8
Object
 48
0.5
100
AcDbLine
 10
61.23198836015814
 20
129.5288543418993
 30
0.0
 11
55.93198836015836
 21
129.5288543418993
 31
0.0
  0
LINE
  5
1A8
330
2
100
AcDbEntity
  8
Object
 48
0.5
100
AcDbLine
 10
58.58198836015836
 20
117.2379969689654
 30
0.0
 11
59.25903934328312
 21
117.2379969689652
 31
0.0
  0
LINE
  5
1A9
330
2
100
AcDbEntity
  8
Object
 48
0.5
100
AcDbLine
 10
58.58198836015836
 20
116.2379969689655
 30
0.0
 11
59.25903934328312
 21
116.2379969689654
 31
0.0
  0
LINE
  5
1AA
330
2
100
AcDbEntity
  8
Object
 48
0.5
100
AcDbLine
 10
58.08198836015822
 20
115.7379969689656
 30
0.0
 11
58.58198836015836
 21
116.2379969689655
 31
0.0
  0
LINE
  5
1AB
330
2
100
AcDbEntity
  8
Center
100
AcDbLine
 10
57.58198836015822
 20
114.2379969689652
 30
0.0
 11
57.58198836015822
 21
119.2379969689652
 31
0.0
  0
LINE
  5
1AC
330
2
100
AcDbEntity
  8
Object
 48
0.5
100
AcDbLine
 10
56.58198836015836
 20
116.2379969689652
 30
0.0
 11
57.08198836015836
 21
115.7379969689652
 31
0.0
  0
ARC
  5
1AD
330
2
100
AcDbEntity
  8
Object
 48
0.5
100
AcDbCircle
 10
57.58198836015822
 20
116.7379969689654
 30
0.0
 40
1.75
100
AcDbArc
 50
253.3984504009766
 51
286.6015495990233
  0
LINE
  5
1AE
330
2
100
AcDbEntity
  8
Object
 48
0.5
100
AcDbLine
 10
58.08198836015822
 20
115.0609459858406
 30
0.0
 11
58.08198836015822
 21
115.7379969689656
 31
0.0
  0
LINE
  5
1AF
330
2
100
AcDbEntity
  8
Object
 48
0.5
100
AcDbLine
 10
57.08198836015836
 20
115.0609459858404
 30
0.0
 11
57.08198836015836
 21
115.7379969689652
 31
0.0
  0
ARC
  5
1B1
330
2
100
AcDbEntity
  8
Object
 48
0.5
100
AcDbCircle
 10
57.58198836015822
 20
116.7379969689654
 30
0.0
 40
1.75
100
AcDbArc
 50
73.39845040097656
 51
106.6015495990234
  0
LINE
  5
1B2
330
2
100
AcDbEntity
  8
Object
 48
0.5
100
AcDbLine
 10
58.58198836015836
 20
117.2379969689654
 30
0.0
 11
58.08198836015822
 21
117.7379969689654
 31
0.0
  0
LINE
  5
1B3
330
2
100
AcDbEntity
  8
Object
 48
0.5
100
AcDbLine
 10
58.08198836015822
 20
117.7379969689654
 30
0.0
 11
58.08198836015822
 21
118.4150479520901
 31
0.0
  0
LINE
  5
1B4
330
2
100
AcDbEntity
  8
Object
 48
0.5
100
AcDbLine
 10
57.08198836015836
 20
117.7379969689652
 30
0.0
 11
57.08198836015836
 21
118.4150479520901
 31
0.0
  0
ARC
  5
1B6
330
2
100
AcDbEntity
  8
Object
 48
0.5
100
AcDbCircle
 10
57.58198836015822
 20
116.7379969689654
 30
0.0
 40
1.75
100
AcDbArc
 50
163.398450400997
 51
196.6015495990095
  0
LINE
  5
1B7
330
2
100
AcDbEntity
  8
Object
 48
0.5
100
AcDbLine
 10
55.90493737703344
 20
116.2379969689657
 30
0.0
 11
56.58198836015836
 21
116.2379969689652
 31
0.0
  0
LINE
  5
1B8
330
2
100
AcDbEntity
  8
Object
 48
0.5
100
AcDbLine
 10
55.90493737703344
 20
117.2379969689652
 30
0.0
 11
56.58198836015836
 21
117.2379969689652
 31
0.0
  0
LINE
  5
1B9
330
2
100
AcDbEntity
  8
Object
 48
0.5
100
AcDbLine
 10
56.58198836015836
 20
117.2379969689652
 30
0.0
 11
57.08198836015836
 21
117.7379969689652
 31
0.0
  0
ARC
  5
1BB
330
2
100
AcDbEntity
  8
Object
 48
0.5
100
AcDbCircle
 10
57.58198836015822
 20
116.7379969689654
 30
0.0
 40
1.75
100
AcDbArc
 50
343.3984504009766
 51
16.60154959900954
  0
LINE
  5
1BC
330
2
100
AcDbEntity
  8
Object
 48
0.5
100
AcDbLine
 10
61.58198836015836
 20
110.9404234587713
 30
0.0
 11
61.58198836015836
 21
128.9288543418995
 31
0.0
  0
ARC
  5
1BD
330
2
100
AcDbEntity
  8
Object
 48
0.5
100
AcDbCircle
 10
63.88198836015843
 20
90.7788543418942
 30
0.0
 40
1.0
100
AcDbArc
 50
0.0
 51
70.68962666215006
  0
ARC
  5
1BE
330
2
100
AcDbEntity
  8
Object
 48
0.5
100
AcDbCircle
 10
63.88198836015843
 20
88.27885434189431
 30
0.0
 40
1.0
100
AcDbArc
 50
289.3103733391127
 51
0.0
  0
LINE
  5
1C0
330
2
100
AcDbEntity
  8
Object
100
AcDbLine
 10
62.58198836015836
 20
92.17885434189781
 30
0.0
 11
63.18198836015852
 21
92.17885434189781
 31
0.0
  0
LINE
  5
1C1
330
2
100
AcDbEntity
  8
Object
 48
0.5
100
AcDbLine
 10
64.15608243945294
 20
90.19271218842607
 30
0.0
 11
63.18198836015852
 21
90.1927121884263
 31
0.0
  0
LINE
  5
1C2
330
2
100
AcDbEntity
  8
Object
 48
0.5
100
AcDbLine
 10
64.15608243945294
 20
91.05873759221038
 30
0.0
 11
63.18198836015852
 21
91.05873759221026
 31
0.0
  0
LINE
  5
1C3
330
2
100
AcDbEntity
  8
Object
 48
0.5
100
AcDbLine
 10
64.21267362157784
 20
91.72259543874236
 30
0.0
 11
63.18198836015852
 21
91.72259543874224
 31
0.0
  0
ARC
  5
1C4
330
2
100
AcDbEntity
  8
Object
 48
0.5
100
AcDbCircle
 10
64.15608243945294
 20
90.62572489031811
 30
0.0
 40
0.4330127018920962
100
AcDbArc
 50
270.0
 51
90.0
  0
LINE
  5
1C5
330
2
100
AcDbEntity
  8
Object
 48
0.5
100
AcDbLine
 10
64.15608243945294
 20
88.86499649536972
 30
0.0
 11
63.18198836015852
 21
88.86499649536961
 31
0.0
  0
LINE
  5
1C6
330
2
100
AcDbEntity
  8
Object
 48
0.5
100
AcDbLine
 10
64.15608243945294
 20
87.99897109158541
 30
0.0
 11
63.18198836015852
 21
87.99897109158553
 31
0.0
  0
ARC
  5
1C7
330
2
100
AcDbEntity
  8
Object
 48
0.5
100
AcDbCircle
 10
64.15608243945294
 20
88.43198379347757
 30
0.0
 40
0.4330127018920962
100
AcDbArc
 50
270.0
 51
90.0
  0
LINE
  5
1C8
330
2
100
AcDbEntity
  8
Object
 48
0.5
100
AcDbLine
 10
64.21267362157784
 20
87.33511324505343
 30
0.0
 11
63.18198836015852
 21
87.33511324505355
 31
0.0
  0
LINE
  5
1C9
330
2
100
AcDbEntity
  8
Object
 48
0.5
100
AcDbLine
 10
64.88198836015843
 20
88.27885434189431
 30
0.0
 11
64.88198836015843
 21
90.7788543418942
 31
0.0
  0
LINE
  5
1CA
330
2
100
AcDbEntity
  8
Object
 48
0.5
100
AcDbLine
 10
61.98198836015814
 20
128.7288543418997
 30
0.0
 11
61.98198836015814
 21
129.5288543418993
 31
0.0
  0
LINE
  5
1CB
330
2
100
AcDbEntity
  8
Object
 48
0.5
100
AcDbLine
 10
62.58198836015836
 20
128.9288543418992
 30
0.0
 11
61.98198836015814
 21
128.9288543418992
 31
0.0
  0
LINE
  5
1CC
330
2
100
AcDbEntity
  8
Object
 48
0.5
100
AcDbLine
 10
57.33198836015455
 20
131.8288543418995
 30
0.0
 11
59.83198836015455
 21
131.8288543418995
 31
0.0
  0
LINE
  5
1CD
330
2
100
AcDbEntity
  8
Object
 48
0.5
100
AcDbLine
 10
55.93198836015822
 20
130.1288543418995
 30
0.0
 11
61.23198836015814
 21
130.1288543418995
 31
0.0
  0
ARC
  5
1CE
330
2
100
AcDbEntity
  8
Object
 48
0.5
100
AcDbCircle
 10
58.58198836014654
 20
131.0359611230859
 30
0.0
 40
0.5
100
AcDbArc
 50
0.0
 51
180.0
  0
LINE
  5
1CF
330
2
100
AcDbEntity
  8
Object
 48
0.5
100
AcDbLine
 10
56.33198836015456
 20
130.8288543418995
 30
0.0
 11
56.33198836015456
 21
130.1288543418998
 31
0.0
  0
LINE
  5
1D0
330
2
100
AcDbEntity
  8
Object
 48
0.5
100
AcDbLine
 10
58.08198836015455
 20
131.0359611230859
 30
0.0
 11
58.08198836015455
 21
130.1288543418994
 31
0.0
  0
ARC
  5
1D1
330
2
100
AcDbEntity
  8
Object
 48
0.5
100
AcDbCircle
 10
56.68215284096544
 20
131.2859611230859
 30
0.0
 40
0.25
100
AcDbArc
 50
0.0
 51
105.3174980661895
  0
LINE
  5
1D2
330
2
100
AcDbEntity
  8
Object
 48
0.5
100
AcDbLine
 10
56.93215284096587
 20
131.2859611230859
 30
0.0
 11
56.93215284096587
 21
130.1288543418994
 31
0.0
  0
LINE
  5
1D3
330
2
100
AcDbEntity
  8
Object
 48
0.5
100
AcDbLine
 10
56.43215284096521
 20
131.2650836834071
 30
0.0
 11
56.43215284096521
 21
130.1288543418993
 31
0.0
  0
ARC
  5
1D4
330
2
100
AcDbEntity
  8
Object
 48
0.5
100
AcDbCircle
 10
57.33198836015455
 20
130.8288543418995
 30
0.0
 40
1.0
100
AcDbArc
 50
90.0
 51
180.0
  0
LINE
  5
1D5
330
2
100
AcDbEntity
  8
Object
 48
0.5
100
AcDbLine
 10
59.08198836015461
 20
131.0359611230859
 30
0.0
 11
59.08198836015461
 21
130.1288543418994
 31
0.0
  0
LINE
  5
1D6
330
2
100
AcDbEntity
  8
Dims
100
AcDbLine
 10
61.58198836015793
 20
135.7288543419012
 30
0.0
 11
61.58198836015793
 21
134.5288543418993
 31
0.0
  0
LINE
  5
1D7
330
2
100
AcDbEntity
  8
Object
 48
0.5
100
AcDbLine
 10
60.83198836015455
 20
130.8288543418995
 30
0.0
 11
60.83198836015455
 21
130.1288543418998
 31
0.0
  0
LINE
  5
1D8
330
2
100
AcDbEntity
  8
Object
 48
0.5
100
AcDbLine
 10
60.23182387935051
 20
131.2859611230859
 30
0.0
 11
60.23182387935051
 21
130.1288543418994
 31
0.0
  0
LINE
  5
1D9
330
2
100
AcDbEntity
  8
Object
 48
0.5
100
AcDbLine
 10
60.73182387935114
 20
131.2650836834071
 30
0.0
 11
60.73182387935114
 21
130.1288543418993
 31
0.0
  0
ARC
  5
1DA
330
2
100
AcDbEntity
  8
Object
 48
0.5
100
AcDbCircle
 10
60.48182387935094
 20
131.2859611230859
 30
0.0
 40
0.25
100
AcDbArc
 50
74.68250193381033
 51
180.0
  0
ARC
  5
1DB
330
2
100
AcDbEntity
  8
Object
 48
0.5
100
AcDbCircle
 10
59.83198836015455
 20
130.8288543418995
 30
0.0
 40
1.0
100
AcDbArc
 50
0.0
 51
90.0
  0
LINE
  5
1DC
330
2
100
AcDbEntity
  8
Object
 48
0.5
100
AcDbLine
 10
68.4819883601572
 20
126.8788543419019
 30
0.0
 11
68.4819883601572
 21
132.1788543419019
 31
0.0
  0
LINE
  5
1DD
330
2
100
AcDbEntity
  8
Object
 48
0.5
100
AcDbLine
 10
70.18198836015722
 20
128.2788543418982
 30
0.0
 11
70.18198836015722
 21
130.7788543418982
 31
0.0
  0
ARC
  5
1DF
330
2
100
AcDbEntity
  8
Object
 48
0.5
100
AcDbCircle
 10
69.18198836015722
 20
128.2788543418982
 30
0.0
 40
1.0
100
AcDbArc
 50
289.3103733391127
 51
0.0
  0
LINE
  5
1E0
330
2
100
AcDbEntity
  8
Object
 48
0.5
100
AcDbLine
 10
69.51267362157662
 20
127.3351132450576
 30
0.0
 11
68.4819883601572
 21
127.3351132450576
 31
0.0
  0
LINE
  5
1E1
330
2
100
AcDbEntity
  8
Object
 48
0.5
100
AcDbLine
 10
69.45608243945162
 20
128.8649964953738
 30
0.0
 11
68.4819883601572
 21
128.8649964953734
 31
0.0
  0
LINE
  5
1E2
330
2
100
AcDbEntity
  8
Object
 48
0.5
100
AcDbLine
 10
69.45608243945162
 20
127.9989710915896
 30
0.0
 11
68.4819883601572
 21
127.9989710915896
 31
0.0
  0
ARC
  5
1E3
330
2
100
AcDbEntity
  8
Object
 48
0.5
100
AcDbCircle
 10
69.45608243945162
 20
128.4319837934816
 30
0.0
 40
0.4330127018920962
100
AcDbArc
 50
270.0
 51
90.0
  0
ARC
  5
1E7
330
2
100
AcDbEntity
  8
Object
 48
0.5
100
AcDbCircle
 10
69.18198836015722
 20
130.7788543418982
 30
0.0
 40
1.0
100
AcDbArc
 50
0.0
 51
70.68962666215006
  0
LINE
  5
1E8
330
2
100
AcDbEntity
  8
Object
 48
0.5
100
AcDbLine
 10
69.45608243945162
 20
130.1927121884301
 30
0.0
 11
68.4819883601572
 21
130.1927121884302
 31
0.0
  0
LINE
  5
1E9
330
2
100
AcDbEntity
  8
Object
 48
0.5
100
AcDbLine
 10
69.45608243945162
 20
131.0587375922144
 30
0.0
 11
68.4819883601572
 21
131.0587375922143
 31
0.0
  0
LINE
  5
1EA
330
2
100
AcDbEntity
  8
Object
 48
0.5
100
AcDbLine
 10
69.51267362157662
 20
131.7225954387463
 30
0.0
 11
68.4819883601572
 21
131.7225954387463
 31
0.0
  0
ARC
  5
1EB
330
2
100
AcDbEntity
  8
Object
 48
0.5
100
AcDbCircle
 10
69.45608243945162
 20
130.6257248903223
 30
0.0
 40
0.4330127018920962
100
AcDbArc
 50
270.0
 51
90.0
  0
DIMENSION
  5
1F2
330
2
100
AcDbEntity
  8
Dims
100
AcDbDimension
  2
*D46
 10
125.2180091348684
 20
68.15180161604053
 30
0.0
 11
117.7180091348685
 21
68.15180161604053
 31
0.0
 70
   160
  1
<>{\H0.8x;%%p0.5}
 71
     5
 42
14.99999999999971
  3
STANDARD
100
AcDbAlignedDimension
 13
110.2180091348686
 23
95.42885434189679
 33
0.0
 14
125.2180091348684
 24
83.4288543418968
 34
0.0
100
AcDbRotatedDimension
1001
ACAD
1000
DSTYLE
1002
{
1070
    41
1040
2.5
1070
    42
1040
0.625
1070
    43
1040
3.75
1070
    44
1040
0.625
1070
    73
1070
     0
1070
    74
1070
     0
1070
    77
1070
     1
1070
    78
1070
     8
1070
   140
1040
2.5
1070
   141
1040
2.5
1070
   143
1040
0.0394
1070
   147
1040
0.625
1070
   171
1070
     4
1070
   172
1070
     1
1070
   273
1070
     8
1070
   274
1070
     4
1002
}
  0
DIMENSION
  5
1FF
330
2
100
AcDbEntity
  8
Dims
100
AcDbDimension
  2
*D47
 10
125.2180091348684
 20
75.02641722781277
 30
0.0
 11
136.9144377062969
 21
75.02641722781277
 31
0.0
 70
   160
  1
<>{\H0.8x;%%p0.2}
 71
     5
 42
1.499999999999829
  3
STANDARD
100
AcDbAlignedDimension
 13
123.7180091348685
 23
86.42885434189679
 33
0.0
 14
125.2180091348684
 24
83.4288543418968
 34
0.0
100
AcDbRotatedDimension
1001
ACAD
1000
DSTYLE
1002
{
1070
    41
1040
2.5
1070
    42
1040
0.625
1070
    43
1040
3.75
1070
    44
1040
0.625
1070
    73
1070
     0
1070
    74
1070
     0
1070
    77
1070
     1
1070
    78
1070
     8
1070
   140
1040
2.5
1070
   141
1040
2.5
1070
   143
1040
0.0394
1070
   147
1040
0.625
1070
   171
1070
     4
1070
   172
1070
     1
1070
   273
1070
     8
1070
   274
1070
     4
1002
}
  0
LINE
  5
20E
330
2
100
AcDbEntity
  8
Object
 48
2.0
100
AcDbLine
 10
123.7180091348677
 20
86.42885434189839
 30
0.0
 11
125.2180091348678
 21
86.42885434189839
 31
0.0
  0
LINE
  5
20F
330
2
100
AcDbEntity
  8
Object
 48
2.0
100
AcDbLine
 10
123.7180091348677
 20
108.4288543418985
 30
0.0
 11
125.2180091348678
 21
108.4288543418985
 31
0.0
  0
LINE
  5
210
330
2
100
AcDbEntity
  8
Object
 48
2.0
100
AcDbLine
 10
123.7180091348677
 20
167.5827123145417
 30
0.0
 11
125.2180091348678
 21
167.5827123145417
 31
0.0
  0
LINE
  5
211
330
2
100
AcDbEntity
  8
Object
 48
2.0
100
AcDbLine
 10
123.7180091348677
 20
189.5827123145417
 30
0.0
 11
125.2180091348678
 21
189.5827123145417
 31
0.0
  0
LINE
  5
212
330
2
100
AcDbEntity
  8
Object
 48
2.0
100
AcDbLine
 10
110.7180091348678
 20
94.92885434189838
 30
0.0
 11
123.7180091348677
 21
94.92885434189838
 31
0.0
  0
LINE
  5
213
330
2
100
AcDbEntity
  8
Object
 48
2.0
100
AcDbLine
 10
110.2180091348678
 20
99.4288543418985
 30
0.0
 11
120.2180091348678
 21
99.4288543418985
 31
0.0
  0
DIMENSION
  5
214
330
2
100
AcDbEntity
  8
Dims
100
AcDbDimension
  2
*D42
 10
120.2180091348683
 20
103.5413035260612
 30
0.0
 11
115.2180091348685
 21
103.5413035260612
 31
0.0
 70
   160
  1
<>{\H0.72x;%%p0.5}
 71
     5
 42
9.999999999999715
  3
STANDARD
100
AcDbAlignedDimension
 13
110.2180091348686
 23
99.42885434189713
 33
0.0
 14
120.2180091348683
 24
99.92885434189714
 34
0.0
100
AcDbRotatedDimension
1001
ACAD
1000
DSTYLE
1002
{
1070
    41
1040
2.5
1070
    42
1040
0.625
1070
    43
1040
3.75
1070
    44
1040
0.625
1070
    73
1070
     0
1070
    74
1070
     0
1070
    77
1070
     1
1070
    78
1070
     8
1070
   140
1040
2.5
1070
   141
1040
2.5
1070
   143
1040
0.0394
1070
   147
1040
0.625
1070
   171
1070
     4
1070
   172
1070
     1
1070
   273
1070
     8
1070
   274
1070
     4
1002
}
  0
DIMENSION
  5
221
330
2
100
AcDbEntity
  8
Dims
100
AcDbDimension
  2
*D45
 10
106.37095504225
 20
94.92885434189714
 30
0.0
 11
106.37095504225
 21
78.2913377641762
 31
0.0
 70
   160
  1
<>{\H0.8x;%%p0.2}
 71
     5
 42
4.5
  3
STANDARD
100
AcDbAlignedDimension
 13
110.2180091348686
 23
99.42885434189713
 33
0.0
 14
110.7180091348684
 24
94.92885434189714
 34
0.0
 50
90.0
100
AcDbRotatedDimension
1001
ACAD
1000
DSTYLE
1002
{
1070
    41
1040
2.5
1070
    42
1040
0.625
1070
    43
1040
3.75
1070
    44
1040
0.625
1070
    73
1070
     0
1070
    74
1070
     0
1070
    77
1070
     1
1070
    78
1070
     8
1070
   140
1040
2.5
1070
   141
1040
2.5
1070
   143
1040
0.0394
1070
   147
1040
0.625
1070
   171
1070
     4
1070
   172
1070
     1
1070
   273
1070
     8
1070
   274
1070
     4
1002
}
  0
LINE
  5
231
330
2
100
AcDbEntity
  8
Object
 48
0.5
100
AcDbLine
 10
110.7180091348678
 20
99.4288543418985
 30
0.0
 11
110.7180091348678
 21
94.92885434189838
 31
0.0
  0
LINE
  5
232
330
2
100
AcDbEntity
  8
Object
 48
2.0
100
AcDbLine
 10
110.2180091348678
 20
99.4288543418985
 30
0.0
 11
110.2180091348678
 21
95.4288543418985
 31
0.0
  0
LINE
  5
233
330
2
100
AcDbEntity
  8
Object
 48
2.0
100
AcDbLine
 10
110.2180091348678
 20
95.4288543418985
 30
0.0
 11
110.7180091348678
 21
94.92885434189838
 31
0.0
  0
LINE
  5
234
330
2
100
AcDbEntity
  8
Object
 48
2.0
100
AcDbLine
 10
123.7180091348677
 20
108.4288543418985
 30
0.0
 11
123.7180091348677
 21
86.42885434189839
 31
0.0
  0
LINE
  5
237
330
2
100
AcDbEntity
  8
Object
 48
2.0
100
AcDbLine
 10
120.2180091348678
 20
99.92885434189851
 30
0.0
 11
123.7180091348677
 21
99.92885434189851
 31
0.0
  0
LINE
  5
238
330
2
100
AcDbEntity
  8
Object
 48
2.0
100
AcDbLine
 10
120.2180091348678
 20
99.92885434189851
 30
0.0
 11
120.2180091348678
 21
99.4288543418984
 31
0.0
  0
LINE
  5
239
330
2
100
AcDbEntity
  8
Object
 48
0.5
100
AcDbLine
 10
110.2180091348678
 20
180.0827123145435
 30
0.0
 11
120.2180091348678
 21
180.0827123145435
 31
0.0
  0
LINE
  5
23A
330
2
100
AcDbEntity
  8
Object
 48
0.5
100
AcDbLine
 10
110.2180091348678
 20
177.0827123145397
 30
0.0
 11
120.2180091348678
 21
177.0827123145397
 31
0.0
  0
LINE
  5
23B
330
2
100
AcDbEntity
  8
Object
 48
2.0
100
AcDbLine
 10
110.7180091348678
 20
176.0827123145417
 30
0.0
 11
123.7180091348677
 21
176.0827123145417
 31
0.0
  0
LINE
  5
23C
330
2
100
AcDbEntity
  8
Object
 48
2.0
100
AcDbLine
 10
110.7180091348678
 20
181.0827123145417
 30
0.0
 11
123.7180091348677
 21
181.0827123145417
 31
0.0
  0
LINE
  5
23D
330
2
100
AcDbEntity
  8
Object
 48
2.0
100
AcDbLine
 10
110.2180091348678
 20
176.5827123145417
 30
0.0
 11
110.7180091348678
 21
176.0827123145417
 31
0.0
  0
LINE
  5
23E
330
2
100
AcDbEntity
  8
Object
 48
0.5
100
AcDbLine
 10
110.7180091348678
 20
177.0827123145397
 30
0.0
 11
110.7180091348678
 21
176.0827123145417
 31
0.0
  0
LINE
  5
23F
330
2
100
AcDbEntity
  8
Object
 48
2.0
100
AcDbLine
 10
110.2180091348678
 20
180.5827123145417
 30
0.0
 11
110.2180091348678
 21
176.5827123145417
 31
0.0
  0
LINE
  5
240
330
2
100
AcDbEntity
  8
Object
 48
0.5
100
AcDbLine
 10
110.7180091348678
 20
181.0827123145417
 30
0.0
 11
110.7180091348678
 21
180.0827123145435
 31
0.0
  0
LINE
  5
241
330
2
100
AcDbEntity
  8
Object
 48
2.0
100
AcDbLine
 10
110.7180091348678
 20
181.0827123145417
 30
0.0
 11
110.2180091348678
 21
180.5827123145417
 31
0.0
  0
LINE
  5
242
330
2
100
AcDbEntity
  8
Object
 48
2.0
100
AcDbLine
 10
123.7180091348677
 20
189.5827123145417
 30
0.0
 11
123.7180091348677
 21
167.5827123145417
 31
0.0
  0
LINE
  5
243
330
2
100
AcDbEntity
  8
Object
 48
0.5
100
AcDbLine
 10
120.2180091348678
 20
177.0827123145397
 30
0.0
 11
120.2180091348678
 21
180.0827123145435
 31
0.0
  0
LINE
  5
245
330
2
100
AcDbEntity
  8
Object
 48
2.0
100
AcDbLine
 10
125.2180091348678
 20
111.4288543418983
 30
0.0
 11
125.2180091348678
 21
83.42885434189851
 31
0.0
  0
LINE
  5
246
330
2
100
AcDbEntity
  8
Object
 48
2.0
100
AcDbLine
 10
133.2180091348678
 20
88.42885434189851
 30
0.0
 11
133.2180091348678
 21
83.42885434189851
 31
0.0
  0
LINE
  5
247
330
2
100
AcDbEntity
  8
Object
 48
2.0
100
AcDbLine
 10
133.2180091348678
 20
111.4288543418983
 30
0.0
 11
133.2180091348678
 21
106.4288543418983
 31
0.0
  0
ARC
  5
248
330
2
100
AcDbEntity
  8
Object
 48
2.0
100
AcDbCircle
 10
132.2180091348678
 20
88.42885434189851
 30
0.0
 40
1.0
100
AcDbArc
 50
0.0
 51
90.0
  0
ARC
  5
249
330
2
100
AcDbEntity
  8
Object
 48
2.0
100
AcDbCircle
 10
132.2180091348678
 20
106.4288543418983
 30
0.0
 40
1.0
100
AcDbArc
 50
270.0
 51
0.0
  0
LINE
  5
24A
330
2
100
AcDbEntity
  8
Object
 48
2.0
100
AcDbLine
 10
131.2180091348677
 20
105.4288543418985
 30
0.0
 11
131.2180091348677
 21
89.4288543418985
 31
0.0
  0
LINE
  5
24B
330
2
100
AcDbEntity
  8
Object
 48
2.0
100
AcDbLine
 10
131.2180091348677
 20
89.4288543418985
 30
0.0
 11
132.2180091348678
 21
89.4288543418985
 31
0.0
  0
LINE
  5
24C
330
2
100
AcDbEntity
  8
Object
 48
2.0
100
AcDbLine
 10
132.7180091348679
 20
105.5628289381139
 30
0.0
 11
132.7180091348677
 21
103.5369436390998
 31
0.0
  0
LINE
  5
24D
330
2
100
AcDbEntity
  8
Object
 48
2.0
100
AcDbLine
 10
132.2180091348678
 20
105.4288543418985
 30
0.0
 11
132.2180091348677
 21
103.3549585219666
 31
0.0
  0
LINE
  5
24E
330
2
100
AcDbEntity
  8
Object
 48
2.0
100
AcDbLine
 10
131.7180091348678
 20
105.4288543418985
 30
0.0
 11
131.7180091348678
 21
103.1729734048336
 31
0.0
  0
LINE
  5
24F
330
2
100
AcDbEntity
  8
Object
 48
2.0
100
AcDbLine
 10
131.2180091348677
 20
105.4288543418985
 30
0.0
 11
132.2180091348678
 21
105.4288543418985
 31
0.0
  0
LINE
  5
250
330
2
100
AcDbEntity
  8
Object
 48
2.0
100
AcDbLine
 10
133.2180091348678
 20
107.6288543418984
 30
0.0
 11
133.2180091348677
 21
103.7189287562329
 31
0.0
  0
LINE
  5
251
330
2
100
AcDbEntity
  8
Object
 48
2.0
100
AcDbLine
 10
133.7180091348677
 20
107.6288543418984
 30
0.0
 11
133.7180091348677
 21
103.9009138733658
 31
0.0
  0
LINE
  5
252
330
2
100
AcDbEntity
  8
Object
 48
2.0
100
AcDbLine
 10
134.7180091348678
 20
107.6288543418984
 30
0.0
 11
134.7180091348678
 21
104.2648841076322
 31
0.0
  0
LINE
  5
253
330
2
100
AcDbEntity
  8
Object
 48
2.0
100
AcDbLine
 10
135.2180091348678
 20
107.6288543418984
 30
0.0
 11
135.2180091348677
 21
104.4468692247653
 31
0.0
  0
LINE
  5
254
330
2
100
AcDbEntity
  8
Object
 48
2.0
100
AcDbLine
 10
135.7180091348677
 20
107.6288543418983
 30
0.0
 11
135.7180091348677
 21
104.6288543418983
 31
0.0
  0
LINE
  5
255
330
2
100
AcDbEntity
  8
Object
 48
2.0
100
AcDbLine
 10
134.2180091348678
 20
107.6288543418984
 30
0.0
 11
134.2180091348677
 21
104.0828989904992
 31
0.0
  0
LINE
  5
256
330
2
100
AcDbEntity
  8
Object
 48
2.0
100
AcDbLine
 10
133.7180091348677
 20
111.4288543418983
 30
0.0
 11
133.7180091348677
 21
110.2288543418983
 31
0.0
  0
LINE
  5
257
330
2
100
AcDbEntity
  8
Object
 48
2.0
100
AcDbLine
 10
134.2180091348678
 20
111.4288543418983
 30
0.0
 11
134.2180091348678
 21
110.2288543418983
 31
0.0
  0
LINE
  5
258
330
2
100
AcDbEntity
  8
Object
 48
2.0
100
AcDbLine
 10
134.7180091348678
 20
111.4288543418983
 30
0.0
 11
134.7180091348678
 21
110.2288543418983
 31
0.0
  0
LINE
  5
259
330
2
100
AcDbEntity
  8
Object
 48
2.0
100
AcDbLine
 10
135.2180091348678
 20
111.4288543418983
 30
0.0
 11
135.2180091348678
 21
110.2288543418983
 31
0.0
  0
LINE
  5
25A
330
2
100
AcDbEntity
  8
Object
 48
2.0
100
AcDbLine
 10
135.7180091348677
 20
111.4288543418983
 30
0.0
 11
135.7180091348677
 21
110.2288543418983
 31
0.0
  0
LINE
  5
25B
330
2
100
AcDbEntity
  8
Object
 48
2.0
100
AcDbLine
 10
131.2180091348677
 20
186.5827123145417
 30
0.0
 11
131.2180091348677
 21
170.5827123145417
 31
0.0
  0
LINE
  5
25C
330
2
100
AcDbEntity
  8
Object
 48
2.0
100
AcDbLine
 10
125.2180091348678
 20
192.5827123145417
 30
0.0
 11
125.2180091348678
 21
164.5827123145417
 31
0.0
  0
ARC
  5
25D
330
2
100
AcDbEntity
  8
Object
 48
2.0
100
AcDbCircle
 10
132.2180091348678
 20
169.5827123145417
 30
0.0
 40
1.0
100
AcDbArc
 50
0.0
 51
90.0
  0
LINE
  5
25E
330
2
100
AcDbEntity
  8
Object
 48
2.0
100
AcDbLine
 10
131.2180091348677
 20
170.5827123145417
 30
0.0
 11
132.2180091348678
 21
170.5827123145417
 31
0.0
  0
LINE
  5
25F
330
2
100
AcDbEntity
  8
Object
 48
2.0
100
AcDbLine
 10
133.2180091348678
 20
169.5827123145417
 30
0.0
 11
133.2180091348678
 21
164.5827123145417
 31
0.0
  0
ARC
  5
260
330
2
100
AcDbEntity
  8
Object
 48
2.0
100
AcDbCircle
 10
132.2180091348678
 20
187.5827123145417
 30
0.0
 40
1.0
100
AcDbArc
 50
270.0
 51
0.0
  0
LINE
  5
261
330
2
100
AcDbEntity
  8
Object
 48
2.0
100
AcDbLine
 10
131.2180091348677
 20
186.5827123145417
 30
0.0
 11
132.2180091348678
 21
186.5827123145417
 31
0.0
  0
LINE
  5
262
330
2
100
AcDbEntity
  8
Object
 48
2.0
100
AcDbLine
 10
132.7180091348679
 20
186.7166869107572
 30
0.0
 11
132.7180091348677
 21
184.690801611743
 31
0.0
  0
LINE
  5
263
330
2
100
AcDbEntity
  8
Object
 48
2.0
100
AcDbLine
 10
132.2180091348678
 20
186.5827123145417
 30
0.0
 11
132.2180091348677
 21
184.5088164946098
 31
0.0
  0
LINE
  5
264
330
2
100
AcDbEntity
  8
Object
 48
2.0
100
AcDbLine
 10
131.7180091348678
 20
186.5827123145417
 30
0.0
 11
131.7180091348678
 21
184.3268313774767
 31
0.0
  0
LINE
  5
265
330
2
100
AcDbEntity
  8
Object
 48
2.0
100
AcDbLine
 10
133.7180091348677
 20
192.5827123145417
 30
0.0
 11
133.7180091348677
 21
191.3827123145415
 31
0.0
  0
LINE
  5
266
330
2
100
AcDbEntity
  8
Object
 48
2.0
100
AcDbLine
 10
133.7180091348677
 20
188.7827123145417
 30
0.0
 11
133.7180091348677
 21
185.0547718460092
 31
0.0
  0
LINE
  5
267
330
2
100
AcDbEntity
  8
Object
 48
2.0
100
AcDbLine
 10
133.2180091348678
 20
188.7827123145417
 30
0.0
 11
133.2180091348677
 21
184.8727867288761
 31
0.0
  0
LINE
  5
268
330
2
100
AcDbEntity
  8
Object
 48
2.0
100
AcDbLine
 10
133.2180091348678
 20
192.5827123145417
 30
0.0
 11
133.2180091348678
 21
187.5827123145417
 31
0.0
  0
LINE
  5
269
330
2
100
AcDbEntity
  8
Object
 48
2.0
100
AcDbLine
 10
134.2180091348678
 20
192.5827123145417
 30
0.0
 11
134.2180091348678
 21
191.3827123145415
 31
0.0
  0
LINE
  5
26A
330
2
100
AcDbEntity
  8
Object
 48
2.0
100
AcDbLine
 10
134.7180091348678
 20
192.5827123145417
 30
0.0
 11
134.7180091348678
 21
191.3827123145415
 31
0.0
  0
LINE
  5
26B
330
2
100
AcDbEntity
  8
Object
 48
2.0
100
AcDbLine
 10
135.2180091348678
 20
192.5827123145417
 30
0.0
 11
135.2180091348678
 21
191.3827123145415
 31
0.0
  0
LINE
  5
26C
330
2
100
AcDbEntity
  8
Object
 48
2.0
100
AcDbLine
 10
135.7180091348677
 20
192.5827123145417
 30
0.0
 11
135.7180091348677
 21
191.3827123145415
 31
0.0
  0
LINE
  5
26D
330
2
100
AcDbEntity
  8
Object
 48
2.0
100
AcDbLine
 10
135.7180091348677
 20
188.7827123145416
 30
0.0
 11
135.7180091348677
 21
185.7827123145415
 31
0.0
  0
LINE
  5
26E
330
2
100
AcDbEntity
  8
Object
 48
2.0
100
AcDbLine
 10
135.2180091348678
 20
188.7827123145417
 30
0.0
 11
135.2180091348677
 21
185.6007271974084
 31
0.0
  0
LINE
  5
26F
330
2
100
AcDbEntity
  8
Object
 48
2.0
100
AcDbLine
 10
134.7180091348678
 20
188.7827123145417
 30
0.0
 11
134.7180091348678
 21
185.4187420802752
 31
0.0
  0
LINE
  5
270
330
2
100
AcDbEntity
  8
Object
 48
2.0
100
AcDbLine
 10
134.2180091348678
 20
188.7827123145417
 30
0.0
 11
134.2180091348677
 21
185.2367569631422
 31
0.0
  0
LWPOLYLINE
  5
278
330
2
100
AcDbEntity
  8
Object
100
AcDbPolyline
 90
        4
 70
     0
 43
0.0
 10
236.6311123039218
 20
130.8288543418997
 10
236.6311123039218
 20
134.5288543418985
 10
273.631112303922
 20
134.5288543418985
 10
273.631112303922
 20
130.8288543418997
  0
LWPOLYLINE
  5
279
330
2
100
AcDbEntity
  8
Object
100
AcDbPolyline
 90
        4
 70
     0
 43
0.0
 10
273.631112303922
 20
128.2288543418998
 10
273.631112303922
 20
83.42885434189861
 10
236.6311123039218
 20
83.42885434189861
 10
236.6311123039218
 20
128.2288543418999
  0
LINE
  5
27A
330
2
100
AcDbEntity
  8
Object
100
AcDbLine
 10
273.431112303922
 20
134.5288543418996
 30
0.0
 11
236.8311123039225
 21
134.5288543418997
 31
0.0
  0
LINE
  5
27B
330
2
100
AcDbEntity
  8
Object
100
AcDbLine
 10
273.4311123039223
 20
83.42885434189986
 30
0.0
 11
236.8311123039219
 21
83.42885434189986
 31
0.0
  0
LINE
  5
27C
330
2
100
AcDbEntity
  8
Object
 48
0.5
100
AcDbLine
 10
236.6311123039218
 20
133.7288543418986
 30
0.0
 11
273.631112303922
 21
133.7288543418988
 31
0.0
  0
LWPOLYLINE
  5
27D
330
2
100
AcDbEntity
  8
Object
100
AcDbPolyline
 90
        4
 70
     1
 43
0.0
 10
274.431112303922
 20
83.42885434189861
 10
235.831112303922
 20
83.42885434189861
 10
235.831112303922
 20
134.5288543418985
 10
274.431112303922
 20
134.5288543418985
  0
LINE
  5
27E
330
2
100
AcDbEntity
  8
Dims
100
AcDbLine
 10
242.1311123039213
 20
135.728854341898
 30
0.0
 11
268.1311123039214
 21
135.7288543418989
 31
0.0
  0
DIMENSION
  5
27F
330
2
100
AcDbEntity
  8
Dims
 48
0.5
100
AcDbDimension
  2
*D41
 10
274.431112303922
 20
75.02641722781277
 30
0.0
 11
255.1311123039219
 21
75.02641722781277
 31
0.0
 70
   161
  1
(39)
 71
     5
 42
38.60000000000025
  3
STANDARD
100
AcDbAlignedDimension
 13
235.8311123039217
 23
83.42885434189851
 33
0.0
 14
274.431112303922
 24
83.42885434189851
 34
0.0
1001
ACAD
1000
DSTYLE
1002
{
1070
    41
1040
2.5
1070
    42
1040
0.625
1070
    43
1040
3.75
1070
    44
1040
1.25
1070
    73
1070
     0
1070
    74
1070
     0
1070
    77
1070
     1
1070
    78
1070
     8
1070
   140
1040
2.5
1070
   141
1040
2.5
1070
   143
1040
0.0394
1070
   147
1040
0.625
1070
   171
1070
     4
1070
   172
1070
     1
1070
   273
1070
     8
1070
   274
1070
     4
1070
   277
1070
     6
1002
}
  0
LINE
  5
28F
330
2
100
AcDbEntity
  8
Object
100
AcDbLine
 10
199.268009134869
 20
134.5288543419001
 30
0.0
 11
192.0680091348689
 21
134.5288543418997
 31
0.0
  0
LINE
  5
290
330
2
100
AcDbEntity
  8
Object
100
AcDbLine
 10
207.0680091348688
 20
159.2827123145417
 30
0.0
 11
192.0680091348688
 21
159.2827123145417
 31
0.0
  0
LINE
  5
291
330
2
100
AcDbEntity
  8
Object
100
AcDbLine
 10
207.0680091348688
 20
160.0827123145414
 30
0.0
 11
192.0680091348685
 21
160.0827123145414
 31
0.0
  0
LINE
  5
292
330
2
100
AcDbEntity
  8
Object
100
AcDbLine
 10
207.0680091348688
 20
197.0827123145414
 30
0.0
 11
192.0680091348685
 21
197.0827123145419
 31
0.0
  0
LINE
  5
293
330
2
100
AcDbEntity
  8
Object
100
AcDbLine
 10
207.0680091348688
 20
197.8827123145417
 30
0.0
 11
192.0680091348688
 21
197.8827123145417
 31
0.0
  0
LINE
  5
2A1
330
2
100
AcDbEntity
  8
Object
100
AcDbLine
 10
201.5180091348681
 20
83.42885434189986
 30
0.0
 11
192.0680091348689
 21
83.42885434189986
 31
0.0
  0
LINE
  5
2AC
330
2
100
AcDbEntity
  8
Object
 48
0.5
100
AcDbLine
 10
172.9180091348682
 20
88.0288543418983
 30
0.0
 11
176.0334039073728
 21
88.0288543418983
 31
0.0
  0
LINE
  5
2AD
330
2
100
AcDbEntity
  8
Object
 48
0.5
100
AcDbLine
 10
172.9180091348682
 20
91.02885434189829
 30
0.0
 11
176.0334039073735
 21
91.02885434189829
 31
0.0
  0
LINE
  5
2AE
330
2
100
AcDbEntity
  8
Object
 48
0.5
100
AcDbLine
 10
180.6680091348687
 20
84.02885434189988
 30
0.0
 11
172.9180091348682
 21
84.02885434189988
 31
0.0
  0
LINE
  5
2AF
330
2
100
AcDbEntity
  8
Object
 48
0.5
100
AcDbLine
 10
172.9180091348682
 20
83.42885434189851
 30
0.0
 11
175.7180091348679
 21
83.42885434189851
 31
0.0
  0
LINE
  5
2B1
330
2
100
AcDbEntity
  8
Object
 48
0.5
100
AcDbLine
 10
180.6680091348686
 20
84.02885434189988
 30
0.0
 11
172.7180091348682
 21
84.02885434189977
 31
0.0
  0
ARC
  5
2B2
330
2
100
AcDbEntity
  8
Object
 48
0.5
100
AcDbCircle
 10
178.9180091348679
 20
122.9288543418991
 30
0.0
 40
6.0
100
AcDbArc
 50
90.0
 51
180.0
  0
ARC
  5
2B3
330
2
100
AcDbEntity
  8
Object
 48
0.5
100
AcDbCircle
 10
178.7180091348677
 20
122.9288543418997
 30
0.0
 40
6.0
100
AcDbArc
 50
90.0
 51
180.0
  0
LINE
  5
2C2
330
2
100
AcDbEntity
  8
Object
 48
0.5
100
AcDbLine
 10
191.2680091348702
 20
164.5827123145413
 30
0.0
 11
172.9180091348693
 21
164.5827123145417
 31
0.0
  0
LINE
  5
2C3
330
2
100
AcDbEntity
  8
Object
 48
0.5
100
AcDbLine
 10
190.6680091348702
 20
165.1827123145412
 30
0.0
 11
172.9180091348693
 21
165.1827123145415
 31
0.0
  0
LINE
  5
2C4
330
2
100
AcDbEntity
  8
Object
 48
0.5
100
AcDbLine
 10
191.2680091348702
 20
192.5827123145417
 30
0.0
 11
172.9180091348693
 21
192.5827123145417
 31
0.0
  0
LINE
  5
2C5
330
2
100
AcDbEntity
  8
Object
 48
0.5
100
AcDbLine
 10
190.6680091348702
 20
191.9827123145415
 30
0.0
 11
172.9180091348693
 21
191.9827123145415
 31
0.0
  0
LINE
  5
2C6
330
2
100
AcDbEntity
  8
Object
 48
2.0
100
AcDbLine
 10
161.2180091348676
 20
84.62885434189832
 30
0.0
 11
161.2180091348677
 21
83.42885434189851
 31
0.0
  0
LINE
  5
2C7
330
2
100
AcDbEntity
  8
Object
 48
2.0
100
AcDbLine
 10
160.7180091348677
 20
84.62885434189832
 30
0.0
 11
160.7180091348677
 21
83.42885434189851
 31
0.0
  0
LINE
  5
2C8
330
2
100
AcDbEntity
  8
Object
 48
2.0
100
AcDbLine
 10
159.7180091348677
 20
84.62885434189832
 30
0.0
 11
159.7180091348677
 21
83.42885434189851
 31
0.0
  0
LINE
  5
2C9
330
2
100
AcDbEntity
  8
Object
 48
2.0
100
AcDbLine
 10
159.2180091348678
 20
84.62885434189832
 30
0.0
 11
159.2180091348677
 21
83.42885434189851
 31
0.0
  0
LINE
  5
2CA
330
2
100
AcDbEntity
  8
Object
 48
2.0
100
AcDbLine
 10
160.2180091348677
 20
84.62885434189832
 30
0.0
 11
160.2180091348677
 21
83.42885434189851
 31
0.0
  0
LINE
  5
2CB
330
2
100
AcDbEntity
  8
Object
 48
2.0
100
AcDbLine
 10
161.2180091348676
 20
90.95679481043077
 30
0.0
 11
161.2180091348676
 21
87.22885434189834
 31
0.0
  0
LINE
  5
2CC
330
2
100
AcDbEntity
  8
Object
 48
2.0
100
AcDbLine
 10
160.7180091348678
 20
90.77480969329769
 30
0.0
 11
160.7180091348677
 21
87.22885434189834
 31
0.0
  0
LINE
  5
2CD
330
2
100
AcDbEntity
  8
Object
 48
2.0
100
AcDbLine
 10
159.7180091348677
 20
90.4108394590313
 30
0.0
 11
159.7180091348677
 21
87.22885434189834
 31
0.0
  0
LINE
  5
2CE
330
2
100
AcDbEntity
  8
Object
 48
2.0
100
AcDbLine
 10
159.2180091348678
 20
90.22885434189845
 30
0.0
 11
159.2180091348678
 21
87.22885434189834
 31
0.0
  0
LINE
  5
2CF
330
2
100
AcDbEntity
  8
Object
 48
2.0
100
AcDbLine
 10
160.2180091348677
 20
90.59282457616451
 30
0.0
 11
160.2180091348677
 21
87.22885434189834
 31
0.0
  0
LINE
  5
2D0
330
2
100
AcDbEntity
  8
Object
 48
0.5
100
AcDbLine
 10
172.7180091348678
 20
122.9288543418997
 30
0.0
 11
172.7180091348682
 21
83.42885434189851
 31
0.0
  0
LINE
  5
2D2
330
2
100
AcDbEntity
  8
Object
 48
0.5
100
AcDbLine
 10
172.9180091348682
 20
83.42885434189851
 30
0.0
 11
172.9180091348682
 21
88.0288543418983
 31
0.0
  0
LINE
  5
2D3
330
2
100
AcDbEntity
  8
Object
 48
2.0
100
AcDbLine
 10
172.2180091348678
 20
87.12885434189832
 30
0.0
 11
172.2180091348678
 21
84.72885434189834
 31
0.0
  0
LINE
  5
2D4
330
2
100
AcDbEntity
  8
Object
 48
2.0
100
AcDbLine
 10
170.2180091348678
 20
88.42885434189851
 30
0.0
 11
170.2180091348678
 21
83.42885434189851
 31
0.0
  0
LINE
  5
2D5
330
2
100
AcDbEntity
  8
Object
 48
2.0
100
AcDbLine
 10
161.7180091348678
 20
88.42885434189851
 30
0.0
 11
161.7180091348678
 21
83.42885434189851
 31
0.0
  0
LINE
  5
2D6
330
2
100
AcDbEntity
  8
Object
 48
0.5
100
AcDbLine
 10
171.2180091348677
 20
83.72885434189834
 30
0.0
 11
170.2180091348678
 21
83.72885434189834
 31
0.0
  0
LINE
  5
2D7
330
2
100
AcDbEntity
  8
Object
 48
0.5
100
AcDbLine
 10
170.2180091348678
 20
83.42885434189851
 30
0.0
 11
172.7180091348678
 21
83.42885434189851
 31
0.0
  0
ARC
  5
2D9
330
2
100
AcDbEntity
  8
Object
 48
0.5
100
AcDbCircle
 10
171.2180091348677
 20
84.72885434189834
 30
0.0
 40
1.0
100
AcDbArc
 50
270.0
 51
0.0
  0
LINE
  5
2DA
330
2
100
AcDbEntity
  8
Object
 48
0.5
100
AcDbLine
 10
164.2180091348678
 20
112.4288543418985
 30
0.0
 11
172.2180091348678
 21
112.4288543418985
 31
0.0
  0
ARC
  5
2DB
330
2
100
AcDbEntity
  8
0
 62
     3
 48
0.5
100
AcDbCircle
 10
169.5180091348678
 20
117.3988543418978
 30
0.0
 40
5.0
100
AcDbArc
 50
90.0
 51
180.0000000000038
  0
LINE
  5
2DC
330
2
100
AcDbEntity
  8
Object
 48
2.0
100
AcDbLine
 10
161.7180091348678
 20
111.4288543418983
 30
0.0
 11
161.7180091348678
 21
106.4288543418983
 31
0.0
  0
LINE
  5
2DD
330
2
100
AcDbEntity
  8
Object
 48
2.0
100
AcDbLine
 10
163.7180091348678
 20
105.4288543418985
 30
0.0
 11
163.7180091348678
 21
89.4288543418985
 31
0.0
  0
LINE
  5
2DE
330
2
100
AcDbEntity
  8
Object
 48
2.0
100
AcDbLine
 10
162.7180091348678
 20
91.50275016183014
 30
0.0
 11
162.7180091348678
 21
89.4288543418985
 31
0.0
  0
LINE
  5
2DF
330
2
100
AcDbEntity
  8
Object
 48
2.0
100
AcDbLine
 10
161.7180091348678
 20
91.13877992756375
 30
0.0
 11
161.7180091348678
 21
88.42885434189851
 31
0.0
  0
LINE
  5
2E0
330
2
100
AcDbEntity
  8
Object
 48
2.0
100
AcDbLine
 10
162.2180091348678
 20
91.32076504469694
 30
0.0
 11
162.2180091348678
 21
89.2948797456828
 31
0.0
  0
ARC
  5
2E1
330
2
100
AcDbEntity
  8
Object
 48
2.0
100
AcDbCircle
 10
162.7180091348678
 20
88.42885434189851
 30
0.0
 40
1.0
100
AcDbArc
 50
90.0
 51
180.0
  0
LINE
  5
2E2
330
2
100
AcDbEntity
  8
Object
 48
2.0
100
AcDbLine
 10
163.2180091348677
 20
91.6847352789631
 30
0.0
 11
163.2180091348677
 21
89.4288543418985
 31
0.0
  0
ARC
  5
2E3
330
2
100
AcDbEntity
  8
Object
 48
2.0
100
AcDbCircle
 10
162.7180091348678
 20
106.4288543418983
 30
0.0
 40
1.0
100
AcDbArc
 50
180.0
 51
270.0
  0
LINE
  5
2E4
330
2
100
AcDbEntity
  8
Object
 48
2.0
100
AcDbLine
 10
163.7180091348678
 20
89.4288543418985
 30
0.0
 11
162.7180091348678
 21
89.4288543418985
 31
0.0
  0
LINE
  5
2E5
330
2
100
AcDbEntity
  8
Object
 48
2.0
100
AcDbLine
 10
163.7180091348678
 20
105.4288543418985
 30
0.0
 11
162.7180091348678
 21
105.4288543418985
 31
0.0
  0
LINE
  5
2E6
330
2
100
AcDbEntity
  8
0
 62
     3
 48
0.5
100
AcDbLine
 10
164.5180091348684
 20
112.4288543418997
 30
0.0
 11
164.518009134868
 21
117.3988543418976
 31
0.0
  0
ARC
  5
2E7
330
2
100
AcDbEntity
  8
Object
 48
0.5
100
AcDbCircle
 10
164.2180091348678
 20
111.9288543418984
 30
0.0
 40
0.5
100
AcDbArc
 50
90.0
 51
180.0
  0
LINE
  5
2E8
330
2
100
AcDbEntity
  8
Object
 48
0.5
100
AcDbLine
 10
163.7180091348678
 20
111.9288543418984
 30
0.0
 11
163.7180091348678
 21
111.4288543418983
 31
0.0
  0
LINE
  5
2E9
330
2
100
AcDbEntity
  8
Object
 48
0.5
100
AcDbLine
 10
172.9180091348682
 20
91.02885434189829
 30
0.0
 11
172.9180091348679
 21
122.9288543418991
 31
0.0
  0
LINE
  5
2EA
330
2
100
AcDbEntity
  8
Object
 48
2.0
100
AcDbLine
 10
172.2180091348678
 20
110.1288543418983
 30
0.0
 11
172.2180091348678
 21
107.7288543418983
 31
0.0
  0
LINE
  5
2EB
330
2
100
AcDbEntity
  8
Object
 48
2.0
100
AcDbLine
 10
170.2180091348678
 20
111.4288543418983
 30
0.0
 11
170.2180091348678
 21
106.4288543418983
 31
0.0
  0
LINE
  5
2EC
330
2
100
AcDbEntity
  8
Object
 48
0.5
100
AcDbLine
 10
171.2180091348677
 20
88.12885434189832
 30
0.0
 11
170.2180091348678
 21
88.12885434189832
 31
0.0
  0
LINE
  5
2ED
330
2
100
AcDbEntity
  8
Object
 48
0.5
100
AcDbLine
 10
171.2180091348677
 20
106.7288543418984
 30
0.0
 11
170.2180091348678
 21
106.7288543418984
 31
0.0
  0
LINE
  5
2EE
330
2
100
AcDbEntity
  8
Object
 48
0.5
100
AcDbLine
 10
172.7180091348678
 20
88.42885434189851
 30
0.0
 11
170.2180091348678
 21
88.42885434189851
 31
0.0
  0
LINE
  5
2EF
330
2
100
AcDbEntity
  8
Object
 48
0.5
100
AcDbLine
 10
172.7180091348678
 20
106.4288543418983
 30
0.0
 11
170.2180091348678
 21
106.4288543418983
 31
0.0
  0
LINE
  5
2F0
330
2
100
AcDbEntity
  8
Object
 48
0.5
100
AcDbLine
 10
172.7180091348683
 20
88.9288543418985
 30
0.0
 11
172.7180091348683
 21
105.9288543418984
 31
0.0
  0
ARC
  5
2F1
330
2
100
AcDbEntity
  8
Object
 48
2.0
100
AcDbCircle
 10
171.2180091348677
 20
87.12885434189832
 30
0.0
 40
1.0
100
AcDbArc
 50
0.0
 51
90.0
  0
ARC
  5
2F2
330
2
100
AcDbEntity
  8
Object
 48
0.5
100
AcDbCircle
 10
171.2180091348677
 20
107.7288543418983
 30
0.0
 40
1.0
100
AcDbArc
 50
270.0
 51
0.0
  0
LINE
  5
2F3
330
2
100
AcDbEntity
  8
Object
 48
0.5
100
AcDbLine
 10
171.2180091348677
 20
111.1288543418983
 30
0.0
 11
170.2180091348678
 21
111.1288543418983
 31
0.0
  0
LINE
  5
2F4
330
2
100
AcDbEntity
  8
0
 62
     3
 48
0.5
100
AcDbLine
 10
172.7180091348678
 20
119.7388543418984
 30
0.0
 11
170.5180091348679
 21
119.7388543418984
 31
0.0
  0
LINE
  5
2F5
330
2
100
AcDbEntity
  8
0
 62
     3
 48
0.5
100
AcDbLine
 10
172.7180091348678
 20
122.3988543418979
 30
0.0
 11
169.5180091348678
 21
122.3988543418978
 31
0.0
  0
LINE
  5
2F6
330
2
100
AcDbEntity
  8
0
 62
     3
 48
0.5
100
AcDbLine
 10
169.5180091348684
 20
112.4288543418998
 30
0.0
 11
169.5180091348679
 21
118.7388543418983
 31
0.0
  0
LINE
  5
2F7
330
2
100
AcDbEntity
  8
Object
 48
0.5
100
AcDbLine
 10
168.7180091348678
 20
112.4288543418985
 30
0.0
 11
168.7180091348678
 21
112.4288543418985
 31
0.0
  0
ARC
  5
2F8
330
2
100
AcDbEntity
  8
0
 62
     3
 48
0.5
100
AcDbCircle
 10
170.5180091348679
 20
118.7388543418984
 30
0.0
 40
1.0
100
AcDbArc
 50
90.0
 51
180.0000000000036
  0
ARC
  5
2F9
330
2
100
AcDbEntity
  8
Object
 48
2.0
100
AcDbCircle
 10
171.2180091348677
 20
110.1288543418983
 30
0.0
 40
1.0
100
AcDbArc
 50
0.0
 51
90.0
  0
ARC
  5
2FA
330
2
100
AcDbEntity
  8
Object
 48
0.5
100
AcDbCircle
 10
172.2180091348678
 20
111.9288543418984
 30
0.0
 40
0.5
100
AcDbArc
 50
0.0
 51
90.0
  0
LINE
  5
2FB
330
2
100
AcDbEntity
  8
Object
 48
2.0
100
AcDbLine
 10
161.2180091348677
 20
165.7827123145415
 30
0.0
 11
161.2180091348677
 21
164.5827123145417
 31
0.0
  0
LINE
  5
2FC
330
2
100
AcDbEntity
  8
Object
 48
2.0
100
AcDbLine
 10
160.7180091348677
 20
165.7827123145415
 30
0.0
 11
160.7180091348677
 21
164.5827123145417
 31
0.0
  0
LINE
  5
2FD
330
2
100
AcDbEntity
  8
Object
 48
2.0
100
AcDbLine
 10
160.7180091348678
 20
171.9286676659407
 30
0.0
 11
160.7180091348677
 21
168.3827123145416
 31
0.0
  0
LINE
  5
2FE
330
2
100
AcDbEntity
  8
Object
 48
2.0
100
AcDbLine
 10
161.2180091348676
 20
172.1106527830738
 30
0.0
 11
161.2180091348676
 21
168.3827123145416
 31
0.0
  0
LINE
  5
2FF
330
2
100
AcDbEntity
  8
Object
 48
2.0
100
AcDbLine
 10
159.2180091348677
 20
165.7827123145415
 30
0.0
 11
159.2180091348677
 21
164.5827123145417
 31
0.0
  0
LINE
  5
300
330
2
100
AcDbEntity
  8
Object
 48
2.0
100
AcDbLine
 10
159.2180091348678
 20
171.3827123145415
 30
0.0
 11
159.2180091348678
 21
168.3827123145416
 31
0.0
  0
LINE
  5
301
330
2
100
AcDbEntity
  8
Object
 48
2.0
100
AcDbLine
 10
159.7180091348677
 20
165.7827123145415
 30
0.0
 11
159.7180091348677
 21
164.5827123145417
 31
0.0
  0
LINE
  5
302
330
2
100
AcDbEntity
  8
Object
 48
2.0
100
AcDbLine
 10
159.7180091348677
 20
171.5646974316746
 30
0.0
 11
159.7180091348677
 21
168.3827123145416
 31
0.0
  0
LINE
  5
303
330
2
100
AcDbEntity
  8
Object
 48
2.0
100
AcDbLine
 10
160.2180091348677
 20
165.7827123145415
 30
0.0
 11
160.2180091348677
 21
164.5827123145417
 31
0.0
  0
LINE
  5
304
330
2
100
AcDbEntity
  8
Object
 48
2.0
100
AcDbLine
 10
160.2180091348677
 20
171.7466825488078
 30
0.0
 11
160.2180091348677
 21
168.3827123145416
 31
0.0
  0
LINE
  5
305
330
2
100
AcDbEntity
  8
Object
 48
2.0
100
AcDbLine
 10
163.7180091348678
 20
186.5827123145417
 30
0.0
 11
163.7180091348678
 21
170.5827123145417
 31
0.0
  0
LINE
  5
306
330
2
100
AcDbEntity
  8
Object
 48
2.0
100
AcDbLine
 10
172.7180091348678
 20
192.5827123145417
 30
0.0
 11
172.7180091348678
 21
164.5827123145417
 31
0.0
  0
LINE
  5
307
330
2
100
AcDbEntity
  8
Object
100
AcDbLine
 10
172.7180091348678
 20
191.5827123145417
 30
0.0
 11
172.7180091348678
 21
165.5827123145417
 31
0.0
  0
ARC
  5
308
330
2
100
AcDbEntity
  8
Object
 48
0.5
100
AcDbCircle
 10
167.0180091348684
 20
178.5827123145416
 30
0.0
 40
2.5
100
AcDbArc
 50
90.0
 51
270.0
  0
LINE
  5
309
330
2
100
AcDbEntity
  8
Object
 48
0.5
100
AcDbLine
 10
172.9180091348687
 20
164.5827123145417
 30
0.0
 11
172.9180091348662
 21
192.5827123145417
 31
0.0
  0
LINE
  5
30A
330
2
100
AcDbEntity
  8
Object
 48
0.5
100
AcDbLine
 10
167.7180091348678
 20
176.0827123145417
 30
0.0
 11
163.7180091348678
 21
176.0827123145417
 31
0.0
  0
LINE
  5
30B
330
2
100
AcDbEntity
  8
Object
 48
0.5
100
AcDbLine
 10
172.7180091348678
 20
175.0827123145417
 30
0.0
 11
163.7180091348678
 21
175.0827123145417
 31
0.0
  0
LINE
  5
30C
330
2
100
AcDbEntity
  8
Object
 48
0.5
100
AcDbLine
 10
167.0180091348684
 20
176.0827123145417
 30
0.0
 11
172.9180091348677
 21
176.0827123145417
 31
0.0
  0
LINE
  5
30D
330
2
100
AcDbEntity
  8
Object
 48
2.0
100
AcDbLine
 10
163.2180091348677
 20
172.8385932516063
 30
0.0
 11
163.2180091348677
 21
170.5827123145417
 31
0.0
  0
ARC
  5
30E
330
2
100
AcDbEntity
  8
Object
 48
2.0
100
AcDbCircle
 10
162.7180091348678
 20
169.5827123145417
 30
0.0
 40
1.0
100
AcDbArc
 50
90.0
 51
180.0
  0
LINE
  5
30F
330
2
100
AcDbEntity
  8
Object
 48
2.0
100
AcDbLine
 10
161.7180091348678
 20
169.5827123145417
 30
0.0
 11
161.7180091348678
 21
164.5827123145417
 31
0.0
  0
LINE
  5
310
330
2
100
AcDbEntity
  8
Object
 48
2.0
100
AcDbLine
 10
161.7180091348678
 20
172.2926379002068
 30
0.0
 11
161.7180091348678
 21
169.5827123145417
 31
0.0
  0
LINE
  5
311
330
2
100
AcDbEntity
  8
Object
 48
2.0
100
AcDbLine
 10
162.2180091348678
 20
172.4746230173402
 30
0.0
 11
162.2180091348678
 21
170.448737718326
 31
0.0
  0
LINE
  5
312
330
2
100
AcDbEntity
  8
Object
 48
2.0
100
AcDbLine
 10
162.7180091348678
 20
172.6566081344732
 30
0.0
 11
162.7180091348678
 21
170.5827123145417
 31
0.0
  0
LINE
  5
313
330
2
100
AcDbEntity
  8
Object
 48
2.0
100
AcDbLine
 10
163.7180091348678
 20
170.5827123145417
 30
0.0
 11
162.7180091348678
 21
170.5827123145417
 31
0.0
  0
LINE
  5
314
330
2
100
AcDbEntity
  8
Object
 48
0.5
100
AcDbLine
 10
171.2180091348677
 20
164.8827123145416
 30
0.0
 11
170.2180091348678
 21
164.8827123145416
 31
0.0
  0
LINE
  5
315
330
2
100
AcDbEntity
  8
Object
 48
0.5
100
AcDbLine
 10
171.2180091348677
 20
169.2827123145415
 30
0.0
 11
170.2180091348678
 21
169.2827123145415
 31
0.0
  0
LINE
  5
316
330
2
100
AcDbEntity
  8
Object
 48
0.5
100
AcDbLine
 10
170.2180091348678
 20
164.5827123145417
 30
0.0
 11
172.7180091348678
 21
164.5827123145417
 31
0.0
  0
LINE
  5
317
330
2
100
AcDbEntity
  8
Object
 48
0.5
100
AcDbLine
 10
172.7180091348678
 20
169.5827123145417
 30
0.0
 11
170.2180091348678
 21
169.5827123145417
 31
0.0
  0
LINE
  5
318
330
2
100
AcDbEntity
  8
Object
 48
2.0
100
AcDbLine
 10
170.2180091348678
 20
169.5827123145417
 30
0.0
 11
170.2180091348678
 21
164.5827123145417
 31
0.0
  0
LINE
  5
319
330
2
100
AcDbEntity
  8
Object
 48
0.5
100
AcDbLine
 10
172.7180091348678
 20
165.5827123145417
 30
0.0
 11
172.9180091348686
 21
165.5827123145417
 31
0.0
  0
ARC
  5
31A
330
2
100
AcDbEntity
  8
Object
 48
0.5
100
AcDbCircle
 10
171.2180091348677
 20
165.8827123145416
 30
0.0
 40
1.0
100
AcDbArc
 50
270.0
 51
0.0
  0
ARC
  5
31B
330
2
100
AcDbEntity
  8
Object
 48
2.0
100
AcDbCircle
 10
171.2180091348677
 20
168.2827123145416
 30
0.0
 40
1.0
100
AcDbArc
 50
0.0
 51
90.0
  0
LINE
  5
31C
330
2
100
AcDbEntity
  8
Object
 48
2.0
100
AcDbLine
 10
172.2180091348678
 20
168.2827123145416
 30
0.0
 11
172.2180091348678
 21
165.8827123145416
 31
0.0
  0
LINE
  5
31D
330
2
100
AcDbEntity
  8
Object
 48
0.5
100
AcDbLine
 10
167.7180091348678
 20
181.0827123145417
 30
0.0
 11
163.7180091348678
 21
181.0827123145417
 31
0.0
  0
LINE
  5
31E
330
2
100
AcDbEntity
  8
Object
 48
0.5
100
AcDbLine
 10
172.7180091348678
 20
182.0827123145417
 30
0.0
 11
163.7180091348678
 21
182.0827123145417
 31
0.0
  0
LINE
  5
31F
330
2
100
AcDbEntity
  8
Object
 48
0.5
100
AcDbLine
 10
167.0180091348684
 20
181.0827123145417
 30
0.0
 11
172.9180091348674
 21
181.0827123145417
 31
0.0
  0
ARC
  5
320
330
2
100
AcDbEntity
  8
Object
 48
2.0
100
AcDbCircle
 10
162.7180091348678
 20
187.5827123145417
 30
0.0
 40
1.0
100
AcDbArc
 50
180.0
 51
270.0
  0
LINE
  5
321
330
2
100
AcDbEntity
  8
Object
 48
2.0
100
AcDbLine
 10
161.7180091348678
 20
192.5827123145417
 30
0.0
 11
161.7180091348678
 21
187.5827123145417
 31
0.0
  0
LINE
  5
322
330
2
100
AcDbEntity
  8
Object
 48
2.0
100
AcDbLine
 10
163.7180091348678
 20
186.5827123145417
 30
0.0
 11
162.7180091348678
 21
186.5827123145417
 31
0.0
  0
LINE
  5
323
330
2
100
AcDbEntity
  8
Object
 48
0.5
100
AcDbLine
 10
171.2180091348677
 20
192.2827123145416
 30
0.0
 11
170.2180091348678
 21
192.2827123145416
 31
0.0
  0
LINE
  5
324
330
2
100
AcDbEntity
  8
Object
 48
0.5
100
AcDbLine
 10
171.2180091348677
 20
187.8827123145415
 30
0.0
 11
170.2180091348678
 21
187.8827123145415
 31
0.0
  0
LINE
  5
325
330
2
100
AcDbEntity
  8
Object
 48
0.5
100
AcDbLine
 10
172.7180091348678
 20
187.5827123145417
 30
0.0
 11
170.2180091348678
 21
187.5827123145417
 31
0.0
  0
LINE
  5
326
330
2
100
AcDbEntity
  8
Object
 48
2.0
100
AcDbLine
 10
170.2180091348678
 20
192.5827123145417
 30
0.0
 11
170.2180091348678
 21
187.5827123145417
 31
0.0
  0
LINE
  5
327
330
2
100
AcDbEntity
  8
Object
 48
0.5
100
AcDbLine
 10
172.7180091348678
 20
191.5827123145417
 30
0.0
 11
172.9180091348663
 21
191.5827123145417
 31
0.0
  0
ARC
  5
328
330
2
100
AcDbEntity
  8
Object
 48
2.0
100
AcDbCircle
 10
171.2180091348677
 20
191.2827123145415
 30
0.0
 40
1.0
100
AcDbArc
 50
0.0
 51
90.0
  0
ARC
  5
329
330
2
100
AcDbEntity
  8
Object
 48
0.5
100
AcDbCircle
 10
171.2180091348677
 20
188.8827123145416
 30
0.0
 40
1.0
100
AcDbArc
 50
270.0
 51
0.0
  0
LINE
  5
32A
330
2
100
AcDbEntity
  8
Object
 48
2.0
100
AcDbLine
 10
172.2180091348678
 20
191.2827123145415
 30
0.0
 11
172.2180091348678
 21
188.8827123145416
 31
0.0
  0
LINE
  5
32B
330
2
100
AcDbEntity
  8
Object
100
AcDbLine
 10
191.2680091348691
 20
133.7288543418998
 30
0.0
 11
191.2680091348691
 21
84.02885434189988
 31
0.0
  0
LINE
  5
32C
330
2
100
AcDbEntity
  8
Object
100
AcDbLine
 10
189.3180091348686
 20
129.5288543418995
 30
0.0
 11
189.3180091348687
 21
130.1288543418998
 31
0.0
  0
LINE
  5
32D
330
2
100
AcDbEntity
  8
Object
100
AcDbLine
 10
184.0180091348687
 20
129.5288543418995
 30
0.0
 11
184.0180091348687
 21
130.1288543418998
 31
0.0
  0
LINE
  5
32E
330
2
100
AcDbEntity
  8
Object
 48
0.5
100
AcDbLine
 10
184.0180091348687
 20
129.5288543418995
 30
0.0
 11
189.3180091348686
 21
129.5288543418995
 31
0.0
  0
LINE
  5
32F
330
2
100
AcDbEntity
  8
Object
 48
0.5
100
AcDbLine
 10
181.6680091348687
 20
129.5288543418994
 30
0.0
 11
191.2680091348691
 21
129.5288543418997
 31
0.0
  0
LINE
  5
330
330
2
100
AcDbEntity
  8
Object
 48
0.5
100
AcDbLine
 10
178.9180091348678
 20
128.928854341899
 30
0.0
 11
191.2680091348691
 21
128.9288543418995
 31
0.0
  0
LINE
  5
331
330
2
100
AcDbEntity
  8
Object
 48
0.5
100
AcDbLine
 10
174.7180091348684
 20
83.42885434189986
 30
0.0
 11
190.6680091348687
 21
83.42885434189986
 31
0.0
  0
CIRCLE
  5
332
330
2
100
AcDbEntity
  8
Object
 48
0.5
100
AcDbCircle
 10
178.2180091348685
 20
89.52885434189784
 30
0.0
 40
2.649999999999999
  0
LINE
  5
334
330
2
100
AcDbEntity
  8
Object
100
AcDbLine
 10
179.6680091348687
 20
83.42885434189986
 30
0.0
 11
179.6680091348687
 21
84.02885434189988
 31
0.0
  0
LINE
  5
335
330
2
100
AcDbEntity
  8
Object
100
AcDbLine
 10
180.6680091348687
 20
83.42885434189986
 30
0.0
 11
180.6680091348687
 21
84.02885434189988
 31
0.0
  0
ARC
  5
336
330
2
100
AcDbEntity
  8
Object
 48
0.5
100
AcDbCircle
 10
178.2180091348685
 20
89.52885434189784
 30
0.0
 40
2.25
100
AcDbArc
 50
42.83958840691805
 51
77.16041159309874
  0
ARC
  5
337
330
2
100
AcDbEntity
  8
Object
 48
0.5
100
AcDbCircle
 10
178.2180091348685
 20
89.52885434189784
 30
0.0
 40
2.25
100
AcDbArc
 50
282.8395884069011
 51
317.1604115930727
  0
ARC
  5
338
330
2
100
AcDbEntity
  8
Object
 48
0.5
100
AcDbCircle
 10
178.2180091348685
 20
89.52885434189784
 30
0.0
 40
2.25
100
AcDbArc
 50
222.839588406911
 51
257.1604115930859
  0
ARC
  5
339
330
2
100
AcDbEntity
  8
Object
 48
0.5
100
AcDbCircle
 10
178.2180091348685
 20
89.52885434189784
 30
0.0
 40
2.25
100
AcDbArc
 50
102.8395884069012
 51
137.1604115930959
  0
ARC
  5
33A
330
2
100
AcDbEntity
  8
Object
 48
0.5
100
AcDbCircle
 10
174.8658048608443
 20
91.46425038188443
 30
0.0
 40
1.75
100
AcDbArc
 50
313.3984504009738
 51
346.6015495990191
  0
ARC
  5
33B
330
2
100
AcDbEntity
  8
Object
 48
0.5
100
AcDbCircle
 10
174.8658048608443
 20
87.5934583019117
 30
0.0
 40
1.75
100
AcDbArc
 50
13.39845040098072
 51
46.60154959902613
  0
ARC
  5
33C
330
2
100
AcDbEntity
  8
Object
 48
0.5
100
AcDbCircle
 10
178.2180091348685
 20
89.52885434189784
 30
0.0
 40
2.25
100
AcDbArc
 50
162.8395884068958
 51
197.1604115930773
  0
ARC
  5
33D
330
2
100
AcDbEntity
  8
Object
 48
0.5
100
AcDbCircle
 10
178.2180091348685
 20
93.39964642187068
 30
0.0
 40
1.75
100
AcDbArc
 50
253.3984504009766
 51
286.6015495990233
  0
ARC
  5
33E
330
2
100
AcDbEntity
  8
Object
 48
0.5
100
AcDbCircle
 10
178.218009134868
 20
85.65806226192501
 30
0.0
 40
1.75
100
AcDbArc
 50
73.39845040097656
 51
106.6015495990234
  0
ARC
  5
33F
330
2
100
AcDbEntity
  8
Object
 48
0.5
100
AcDbCircle
 10
181.570213408892
 20
87.59345830191126
 30
0.0
 40
1.75
100
AcDbArc
 50
133.3984504009737
 51
166.6015495990192
  0
ARC
  5
340
330
2
100
AcDbEntity
  8
Object
 48
0.5
100
AcDbCircle
 10
181.5702134088924
 20
91.46425038188409
 30
0.0
 40
1.75
100
AcDbArc
 50
193.3984504009806
 51
226.6015495990261
  0
ARC
  5
341
330
2
100
AcDbEntity
  8
Object
 48
0.5
100
AcDbCircle
 10
178.2180091348685
 20
89.52885434189784
 30
0.0
 40
2.25
100
AcDbArc
 50
342.8395884069153
 51
17.16041159307737
  0
LINE
  5
342
330
2
100
AcDbEntity
  8
Object
100
AcDbLine
 10
181.6680091348688
 20
128.9288543418995
 30
0.0
 11
181.6680091348687
 21
129.5288543418997
 31
0.0
  0
LINE
  5
343
330
2
100
AcDbEntity
  8
Object
100
AcDbLine
 10
191.2680091348691
 20
129.5288543418997
 30
0.0
 11
191.2680091348691
 21
84.02885434189988
 31
0.0
  0
ARC
  5
344
330
2
100
AcDbEntity
  8
Object
100
AcDbCircle
 10
192.0680091348689
 20
84.22885434189982
 30
0.0
 40
0.8
100
AcDbArc
 50
180.0
 51
270.0
  0
ARC
  5
345
330
2
100
AcDbEntity
  8
Object
 48
0.5
100
AcDbCircle
 10
190.6680091348687
 20
84.02885434189988
 30
0.0
 40
0.6
100
AcDbArc
 50
270.0
 51
0.0
  0
ARC
  5
349
330
2
100
AcDbEntity
  8
Object
 48
0.5
100
AcDbCircle
 10
185.5711385864484
 20
131.1029484211942
 30
0.0
 40
0.4330127018920962
100
AcDbArc
 50
0.0
 51
180.0
  0
INSERT
  5
34A
330
2
100
AcDbEntity
  8
Object
 48
0.5
100
AcDbBlockReference
  2
LH6M2.6×4-sei
 10
186.6680091348661
 20
168.5827123145417
 30
0.0
 50
90.0
  0
LINE
  5
35C
330
2
100
AcDbEntity
  8
Object
 48
0.5
100
AcDbLine
 10
189.3180091348687
 20
130.1288543418998
 30
0.0
 11
184.0180091348687
 21
130.1288543418998
 31
0.0
  0
LINE
  5
35D
330
2
100
AcDbEntity
  8
Object
 48
0.5
100
AcDbLine
 10
187.9180091348723
 20
131.8288543418997
 30
0.0
 11
185.4180091348723
 21
131.8288543418997
 31
0.0
  0
INSERT
  5
35E
330
2
100
AcDbEntity
  8
Object
 48
0.5
100
AcDbBlockReference
  2
LH6M2.6×4-sei
 10
186.6680091348661
 20
188.5827123145417
 30
0.0
 50
90.0
  0
LINE
  5
35F
330
2
100
AcDbEntity
  8
Object
 48
0.5
100
AcDbLine
 10
181.6680091348693
 20
165.1827123145415
 30
0.0
 11
181.6680091348693
 21
191.9827123145415
 31
0.0
  0
ARC
  5
360
330
2
100
AcDbEntity
  8
Object
 48
0.5
100
AcDbCircle
 10
179.4680091348644
 20
163.2827123145412
 30
0.0
 40
1.0
100
AcDbArc
 50
270.0
 51
0.0
  0
LINE
  5
361
330
2
100
AcDbEntity
  8
Object
 48
0.5
100
AcDbLine
 10
175.5680091348681
 20
163.9827123145412
 30
0.0
 11
180.868009134868
 21
163.9827123145412
 31
0.0
  0
LINE
  5
362
330
2
100
AcDbEntity
  8
Object
 48
0.5
100
AcDbLine
 10
180.868009134868
 20
164.5827123145414
 30
0.0
 11
175.5680091348682
 21
164.5827123145414
 31
0.0
  0
ARC
  5
363
330
2
100
AcDbEntity
  8
Object
 48
0.5
100
AcDbCircle
 10
176.9680091348644
 20
163.2827123145412
 30
0.0
 40
1.0
100
AcDbArc
 50
180.0
 51
270.0
  0
LINE
  5
364
330
2
100
AcDbEntity
  8
Object
100
AcDbLine
 10
175.5680091348682
 20
164.5827123145414
 30
0.0
 11
175.5680091348681
 21
163.9827123145412
 31
0.0
  0
LINE
  5
365
330
2
100
AcDbEntity
  8
Object
 48
0.5
100
AcDbLine
 10
175.9680091348644
 20
163.2827123145412
 30
0.0
 11
175.9680091348644
 21
163.9827123145411
 31
0.0
  0
ARC
  5
366
330
2
100
AcDbEntity
  8
Object
 48
0.5
100
AcDbCircle
 10
176.3181736156753
 20
162.8256055333548
 30
0.0
 40
0.25
100
AcDbArc
 50
254.6825019338104
 51
0.0
  0
LINE
  5
367
330
2
100
AcDbEntity
  8
Object
 48
0.5
100
AcDbLine
 10
176.5681736156757
 20
162.8256055333548
 30
0.0
 11
176.5681736156757
 21
163.9827123145413
 31
0.0
  0
LINE
  5
368
330
2
100
AcDbEntity
  8
Object
 48
0.5
100
AcDbLine
 10
176.0681736156751
 20
162.8464829730336
 30
0.0
 11
176.0681736156751
 21
163.9827123145415
 31
0.0
  0
LINE
  5
369
330
2
100
AcDbEntity
  8
Object
 48
0.5
100
AcDbLine
 10
178.7180091348646
 20
163.0756055333548
 30
0.0
 11
178.7180091348646
 21
163.9827123145413
 31
0.0
  0
LINE
  5
36A
330
2
100
AcDbEntity
  8
Object
 48
0.5
100
AcDbLine
 10
177.7180091348644
 20
163.0756055333548
 30
0.0
 11
177.7180091348644
 21
163.9827123145413
 31
0.0
  0
LINE
  5
36B
330
2
100
AcDbEntity
  8
Object
 48
0.5
100
AcDbLine
 10
176.9680091348644
 20
162.2827123145412
 30
0.0
 11
179.4680091348644
 21
162.2827123145412
 31
0.0
  0
ARC
  5
36C
330
2
100
AcDbEntity
  8
Object
 48
0.5
100
AcDbCircle
 10
178.2180091348565
 20
163.0756055333548
 30
0.0
 40
0.5
100
AcDbArc
 50
180.0
 51
0.0
  0
LINE
  5
36D
330
2
100
AcDbEntity
  8
Object
 48
0.5
100
AcDbLine
 10
185.1381258845562
 20
131.1029484211942
 30
0.0
 11
185.1381258845564
 21
130.1288543418998
 31
0.0
  0
LINE
  5
36E
330
2
100
AcDbEntity
  8
Object
 48
0.5
100
AcDbLine
 10
184.4742680380242
 20
131.159539603319
 30
0.0
 11
184.4742680380244
 21
130.1288543418998
 31
0.0
  0
ARC
  5
36F
330
2
100
AcDbEntity
  8
Object
 48
0.5
100
AcDbCircle
 10
185.4180091348723
 20
130.8288543418997
 30
0.0
 40
1.0
100
AcDbArc
 50
90.0
 51
160.68962666215
  0
LINE
  5
370
330
2
100
AcDbEntity
  8
Object
100
AcDbLine
 10
180.868009134868
 20
164.5827123145414
 30
0.0
 11
180.868009134868
 21
163.9827123145412
 31
0.0
  0
LINE
  5
371
330
2
100
AcDbEntity
  8
Object
 48
0.5
100
AcDbLine
 10
180.4680091348644
 20
163.2827123145412
 30
0.0
 11
180.4680091348644
 21
163.9827123145411
 31
0.0
  0
LINE
  5
372
330
2
100
AcDbEntity
  8
Object
 48
0.5
100
AcDbLine
 10
179.8678446540604
 20
162.8256055333548
 30
0.0
 11
179.8678446540604
 21
163.9827123145413
 31
0.0
  0
LINE
  5
373
330
2
100
AcDbEntity
  8
Object
 48
0.5
100
AcDbLine
 10
180.367844654061
 20
162.8464829730336
 30
0.0
 11
180.367844654061
 21
163.9827123145415
 31
0.0
  0
ARC
  5
374
330
2
100
AcDbEntity
  8
Object
 48
0.5
100
AcDbCircle
 10
180.1178446540608
 20
162.8256055333548
 30
0.0
 40
0.25
100
AcDbArc
 50
180.0
 51
285.3174980661896
  0
LINE
  5
376
330
2
100
AcDbEntity
  8
Object
 48
0.5
100
AcDbLine
 10
191.2680091348688
 20
164.5827123145414
 30
0.0
 11
191.2680091348688
 21
192.5827123145417
 31
0.0
  0
LINE
  5
377
330
2
100
AcDbEntity
  8
Object
100
AcDbLine
 10
191.2680091348688
 20
197.0827123145419
 30
0.0
 11
191.2680091348688
 21
160.0827123145414
 31
0.0
  0
LINE
  5
378
330
2
100
AcDbEntity
  8
Object
 48
0.5
100
AcDbLine
 10
191.2680091348688
 20
164.5827123145417
 30
0.0
 11
191.2680091348688
 21
192.5827123145417
 31
0.0
  0
ARC
  5
379
330
2
100
AcDbEntity
  8
Object
100
AcDbCircle
 10
192.0680091348688
 20
160.0827123145414
 30
0.0
 40
0.8
100
AcDbArc
 50
180.0
 51
270.0
  0
ARC
  5
37A
330
2
100
AcDbEntity
  8
Object
100
AcDbCircle
 10
192.0680091348689
 20
133.7288543418998
 30
0.0
 40
0.8
100
AcDbArc
 50
90.0
 51
180.0
  0
ARC
  5
37B
330
2
100
AcDbEntity
  8
Object
 48
0.5
100
AcDbCircle
 10
187.9180091348723
 20
130.8288543418997
 30
0.0
 40
1.0
100
AcDbArc
 50
19.31037333911272
 51
90.0
  0
LINE
  5
37C
330
2
100
AcDbEntity
  8
Object
 48
0.5
100
AcDbLine
 10
188.861750231713
 20
131.159539603319
 30
0.0
 11
188.861750231713
 21
130.1288543418998
 31
0.0
  0
LINE
  5
37D
330
2
100
AcDbEntity
  8
Object
 48
0.5
100
AcDbLine
 10
188.1978923851812
 20
131.1029484211942
 30
0.0
 11
188.1978923851811
 21
130.1288543418998
 31
0.0
  0
LINE
  5
37E
330
2
100
AcDbEntity
  8
Object
 48
0.5
100
AcDbLine
 10
186.0041512883404
 20
131.1029484211942
 30
0.0
 11
186.0041512883403
 21
130.1288543418998
 31
0.0
  0
LINE
  5
37F
330
2
100
AcDbEntity
  8
Object
 48
0.5
100
AcDbLine
 10
187.3318669813969
 20
131.1029484211942
 30
0.0
 11
187.331866981397
 21
130.1288543418998
 31
0.0
  0
ARC
  5
380
330
2
100
AcDbEntity
  8
Object
 48
0.5
100
AcDbCircle
 10
187.764879683289
 20
131.1029484211942
 30
0.0
 40
0.4330127018920962
100
AcDbArc
 50
0.0
 51
180.0
  0
ARC
  5
381
330
2
100
AcDbEntity
  8
Object
100
AcDbCircle
 10
192.0680091348688
 20
197.0827123145419
 30
0.0
 40
0.8
100
AcDbArc
 50
90.0
 51
180.0
  0
CIRCLE
  5
3F9
330
2
100
AcDbEntity
  8
Object
 48
0.5
100
AcDbCircle
 10
203.0680091348691
 20
129.5288543419025
 30
0.0
 40
2.649999999999999
  0
LINE
  5
3FA
330
2
100
AcDbEntity
  8
Object
100
AcDbLine
 10
207.8680091348689
 20
133.7288543418975
 30
0.0
 11
207.8680091348689
 21
84.22885434189788
 31
0.0
  0
ARC
  5
3FB
330
2
100
AcDbEntity
  8
Object
 48
0.5
100
AcDbCircle
 10
203.0680091348691
 20
129.5288543419025
 30
0.0
 40
2.25
100
AcDbArc
 50
162.8395884068958
 51
197.1604115930773
  0
ARC
  5
3FC
330
2
100
AcDbEntity
  8
Object
 48
0.5
100
AcDbCircle
 10
203.0680091348691
 20
129.5288543419025
 30
0.0
 40
2.25
100
AcDbArc
 50
342.8395884069153
 51
17.16041159307737
  0
DIMENSION
  5
3FD
330
2
100
AcDbEntity
  8
Dims
 48
0.5
100
AcDbDimension
  2
*D51
 10
216.0834263707751
 20
83.42885434189986
 30
0.0
 11
216.083426370775
 21
109.5788543418998
 31
0.0
 70
   161
  1
（53）
 71
     5
 42
52.29999999999986
  3
STANDARD
100
AcDbAlignedDimension
 13
203.2680091348694
 23
135.7288543418997
 33
0.0
 14
203.2680091348694
 24
83.42885434189986
 34
0.0
1001
ACAD
1000
DSTYLE
1002
{
1070
    41
1040
2.5
1070
    42
1040
0.625
1070
    43
1040
3.75
1070
    44
1040
1.25
1070
    73
1070
     0
1070
    74
1070
     0
1070
    77
1070
     1
1070
    78
1070
     8
1070
   140
1040
2.5
1070
   141
1040
2.5
1070
   143
1040
0.0394
1070
   147
1040
0.625
1070
   171
1070
     4
1070
   172
1070
     1
1070
   273
1070
     8
1070
   274
1070
     4
1070
   277
1070
     6
1002
}
  0
ARC
  5
40A
330
2
100
AcDbEntity
  8
Object
 48
0.5
100
AcDbCircle
 10
209.1680091348691
 20
125.2788543418938
 30
0.0
 40
1.0
100
AcDbArc
 50
0.0
 51
70.68962666215006
  0
ARC
  5
40B
330
2
100
AcDbEntity
  8
Object
 48
0.5
100
AcDbCircle
 10
209.1680091348691
 20
122.7788543418938
 30
0.0
 40
1.0
100
AcDbArc
 50
289.3103733391096
 51
0.0
  0
LWPOLYLINE
  5
40E
330
2
100
AcDbEntity
  8
Object
100
AcDbPolyline
 90
        6
 70
     1
 43
0.0
 10
208.4680091348692
 20
91.77885434189988
 10
208.4680091348692
 20
96.27885434189989
 10
209.1680091348691
 20
96.27885434189989
 42
-0.4142135623730951
 10
210.1680091348691
 20
95.27885434189988
 10
210.1680091348691
 20
92.77885434189988
 42
-0.4142135623730951
 10
209.1680091348691
 20
91.77885434189988
  0
LINE
  5
40F
330
2
100
AcDbEntity
  8
Object
100
AcDbLine
 10
207.0680091348692
 20
127.1288543419015
 30
0.0
 11
207.0680091348695
 21
84.42885434190021
 31
0.0
  0
LINE
  5
410
330
2
100
AcDbEntity
  8
Object
100
AcDbLine
 10
204.1180091348691
 20
83.92885434190077
 30
0.0
 11
204.6180091348691
 21
83.42885434190066
 31
0.0
  0
LINE
  5
411
330
2
100
AcDbEntity
  8
Object
100
AcDbLine
 10
207.0680091348692
 20
83.42885434189781
 30
0.0
 11
200.0680091348692
 21
83.42885434189781
 31
0.0
  0
LINE
  5
412
330
2
100
AcDbEntity
  8
Object
100
AcDbLine
 10
204.1180091348691
 20
85.22885434190186
 30
0.0
 11
204.1180091348691
 21
83.92885434190077
 31
0.0
  0
LINE
  5
413
330
2
100
AcDbEntity
  8
Object
100
AcDbLine
 10
202.0180091348692
 20
85.22885434190186
 30
0.0
 11
202.0180091348692
 21
83.92885434190111
 31
0.0
  0
LINE
  5
414
330
2
100
AcDbEntity
  8
Object
100
AcDbLine
 10
201.5180091348692
 20
83.42885434190112
 30
0.0
 11
202.0180091348692
 21
83.92885434190111
 31
0.0
  0
ARC
  5
415
330
2
100
AcDbEntity
  8
Object
100
AcDbCircle
 10
203.0680091348691
 20
85.22885434190186
 30
0.0
 40
1.05
100
AcDbArc
 50
0.0
 51
180.0
  0
CIRCLE
  5
416
330
2
100
AcDbEntity
  8
Object
100
AcDbCircle
 10
203.0680091348691
 20
85.22885434190186
 30
0.0
 40
1.0
  0
ARC
  5
417
330
2
100
AcDbEntity
  8
Object
100
AcDbCircle
 10
207.0680091348692
 20
84.22885434189788
 30
0.0
 40
0.8
100
AcDbArc
 50
270.0
 51
0.0
  0
LINE
  5
418
330
2
100
AcDbEntity
  8
Object
100
AcDbLine
 10
206.0680091348694
 20
83.42885434189986
 30
0.0
 11
207.0680091348695
 21
84.42885434189987
 31
0.0
  0
LINE
  5
419
330
2
100
AcDbEntity
  8
Object
100
AcDbLine
 10
206.0680091348694
 20
83.42885434189986
 30
0.0
 11
204.6180091348697
 21
83.42885434190021
 31
0.0
  0
ARC
  5
41A
330
2
100
AcDbEntity
  8
Object
 48
0.5
100
AcDbCircle
 10
203.0680091348691
 20
129.5288543419025
 30
0.0
 40
2.25
100
AcDbArc
 50
282.8395884069011
 51
317.1604115930727
  0
ARC
  5
41B
330
2
100
AcDbEntity
  8
Object
 48
0.5
100
AcDbCircle
 10
199.7158048608449
 20
127.5934583019163
 30
0.0
 40
1.75
100
AcDbArc
 50
13.39845040098072
 51
46.60154959902613
  0
ARC
  5
41C
330
2
100
AcDbEntity
  8
Object
 48
0.5
100
AcDbCircle
 10
203.0680091348691
 20
129.5288543419025
 30
0.0
 40
2.25
100
AcDbArc
 50
222.839588406911
 51
257.1604115930859
  0
ARC
  5
41D
330
2
100
AcDbEntity
  8
Object
 48
0.5
100
AcDbCircle
 10
203.0680091348687
 20
125.6580622619297
 30
0.0
 40
1.75
100
AcDbArc
 50
73.39845040097656
 51
106.6015495990234
  0
ARC
  5
41E
330
2
100
AcDbEntity
  8
Object
 48
0.5
100
AcDbCircle
 10
209.4421032141637
 20
95.12572489031994
 30
0.0
 40
0.4330127018920962
100
AcDbArc
 50
270.0
 51
90.0
  0
ARC
  5
420
330
2
100
AcDbEntity
  8
Object
 48
0.5
100
AcDbCircle
 10
209.4421032141637
 20
92.9319837934795
 30
0.0
 40
0.4330127018920962
100
AcDbArc
 50
270.0
 51
90.0
  0
LINE
  5
421
330
2
100
AcDbEntity
  8
Object
 48
0.5
100
AcDbLine
 10
208.4680091348694
 20
91.37885434189991
 30
0.0
 11
208.4680091348694
 21
96.67885434189976
 31
0.0
  0
LINE
  5
422
330
2
100
AcDbEntity
  8
Object
100
AcDbLine
 10
207.8680091348692
 20
96.67885434189976
 30
0.0
 11
208.4680091348694
 21
96.67885434189976
 31
0.0
  0
LINE
  5
423
330
2
100
AcDbEntity
  8
Object
 48
0.5
100
AcDbLine
 10
207.8680091348692
 20
96.67885434189976
 30
0.0
 11
207.8680091348692
 21
91.37885434189991
 31
0.0
  0
LINE
  5
424
330
2
100
AcDbEntity
  8
Object
100
AcDbLine
 10
207.8680091348692
 20
91.37885434189991
 30
0.0
 11
208.4680091348694
 21
91.37885434189991
 31
0.0
  0
LINE
  5
426
330
2
100
AcDbEntity
  8
Object
 48
0.2
100
AcDbLine
 10
207.8680091348692
 20
94.02885434189988
 30
0.0
 11
208.4680091348692
 21
94.35157396113879
 31
0.0
  0
LINE
  5
427
330
2
100
AcDbEntity
  8
Object
 48
0.2
100
AcDbLine
 10
207.8680091348692
 20
93.70613472266109
 30
0.0
 11
208.4680091348692
 21
94.02885434189988
 31
0.0
  0
LINE
  5
429
330
2
100
AcDbEntity
  8
Object
 48
0.5
100
AcDbLine
 10
209.4421032141637
 20
95.55873759221219
 30
0.0
 11
208.4680091348694
 21
95.55873759221185
 31
0.0
  0
LINE
  5
42A
330
2
100
AcDbEntity
  8
Object
 48
0.5
100
AcDbLine
 10
209.4421032141637
 20
94.6927121884279
 30
0.0
 11
208.4680091348694
 21
94.692712188428
 31
0.0
  0
LINE
  5
42C
330
2
100
AcDbEntity
  8
Object
 48
0.5
100
AcDbLine
 10
209.4421032141637
 20
92.49897109158736
 30
0.0
 11
208.4680091348694
 21
92.49897109158736
 31
0.0
  0
LINE
  5
42D
330
2
100
AcDbEntity
  8
Object
 48
0.5
100
AcDbLine
 10
209.4421032141637
 20
93.36499649537143
 30
0.0
 11
208.4680091348694
 21
93.3649964953712
 31
0.0
  0
LINE
  5
42E
330
2
100
AcDbEntity
  8
Object
100
AcDbLine
 10
206.0680091348691
 20
128.1288543419018
 30
0.0
 11
207.0680091348692
 21
127.1288543419018
 31
0.0
  0
ARC
  5
42F
330
2
100
AcDbEntity
  8
Object
 48
0.5
100
AcDbCircle
 10
206.4202134088927
 20
127.5934583019157
 30
0.0
 40
1.75
100
AcDbArc
 50
133.3984504009737
 51
166.6015495990192
  0
LINE
  5
430
330
2
100
AcDbEntity
  8
Object
100
AcDbLine
 10
205.3180091348688
 20
128.1288543419018
 30
0.0
 11
206.0680091348691
 21
128.1288543419018
 31
0.0
  0
ARC
  5
431
330
2
100
AcDbEntity
  8
Object
 48
0.5
100
AcDbCircle
 10
209.4421032141634
 20
125.1257248903178
 30
0.0
 40
0.4330127018920962
100
AcDbArc
 50
270.0
 51
90.0
  0
LINE
  5
432
330
2
100
AcDbEntity
  8
Object
 48
0.5
100
AcDbLine
 10
210.1680091348689
 20
122.7788543418938
 30
0.0
 11
210.1680091348689
 21
125.2788543418938
 31
0.0
  0
ARC
  5
433
330
2
100
AcDbEntity
  8
Object
 48
0.5
100
AcDbCircle
 10
209.4421032141634
 20
122.9319837934771
 30
0.0
 40
0.4330127018920962
100
AcDbArc
 50
270.0
 51
90.0
  0
LINE
  5
434
330
2
100
AcDbEntity
  8
Object
 48
0.5
100
AcDbLine
 10
208.4680091348691
 20
121.3788543418974
 30
0.0
 11
208.4680091348691
 21
126.6788543418973
 31
0.0
  0
LINE
  5
435
330
2
100
AcDbEntity
  8
Object
100
AcDbLine
 10
207.8680091348689
 20
126.6788543418973
 30
0.0
 11
208.4680091348691
 21
126.6788543418973
 31
0.0
  0
LINE
  5
436
330
2
100
AcDbEntity
  8
Object
 48
0.5
100
AcDbLine
 10
207.8680091348689
 20
126.6788543418973
 30
0.0
 11
207.8680091348689
 21
121.3788543418975
 31
0.0
  0
LINE
  5
437
330
2
100
AcDbEntity
  8
Object
100
AcDbLine
 10
207.8680091348689
 20
121.3788543418975
 30
0.0
 11
208.4680091348691
 21
121.3788543418974
 31
0.0
  0
LINE
  5
438
330
2
100
AcDbEntity
  8
Object
 48
0.5
100
AcDbLine
 10
209.4986943962883
 20
126.2225954387417
 30
0.0
 11
208.4680091348691
 21
126.2225954387417
 31
0.0
  0
LINE
  5
439
330
2
100
AcDbEntity
  8
Object
 48
0.5
100
AcDbLine
 10
209.4421032141634
 20
125.5587375922098
 30
0.0
 11
208.4680091348691
 21
125.5587375922098
 31
0.0
  0
LINE
  5
43A
330
2
100
AcDbEntity
  8
Object
 48
0.5
100
AcDbLine
 10
209.4421032141634
 20
124.6927121884256
 30
0.0
 11
208.4680091348691
 21
124.6927121884258
 31
0.0
  0
LINE
  5
43B
330
2
100
AcDbEntity
  8
Object
 48
0.5
100
AcDbLine
 10
209.4986943962883
 20
121.8351132450529
 30
0.0
 11
208.4680091348691
 21
121.8351132450532
 31
0.0
  0
LINE
  5
43C
330
2
100
AcDbEntity
  8
Object
 48
0.5
100
AcDbLine
 10
209.4421032141634
 20
122.4989710915849
 30
0.0
 11
208.4680091348691
 21
122.4989710915851
 31
0.0
  0
LINE
  5
43D
330
2
100
AcDbEntity
  8
Object
 48
0.5
100
AcDbLine
 10
209.4421032141634
 20
123.3649964953691
 30
0.0
 11
208.4680091348691
 21
123.364996495369
 31
0.0
  0
ARC
  5
43E
330
2
100
AcDbEntity
  8
Object
 48
0.5
100
AcDbCircle
 10
209.1680091348691
 20
192.3327123145376
 30
0.0
 40
1.0
100
AcDbArc
 50
270.0
 51
0.0
  0
ARC
  5
43F
330
2
100
AcDbEntity
  8
Object
 48
0.5
100
AcDbCircle
 10
209.1680091348691
 20
194.8327123145375
 30
0.0
 40
1.0
100
AcDbArc
 50
0.0
 51
90.0
  0
ARC
  5
440
330
2
100
AcDbEntity
  8
Object
 48
0.5
100
AcDbCircle
 10
209.1680091348709
 20
162.3327123145377
 30
0.0
 40
1.0
100
AcDbArc
 50
270.0
 51
0.0
  0
ARC
  5
441
330
2
100
AcDbEntity
  8
Object
 48
0.5
100
AcDbCircle
 10
209.1680091348709
 20
164.8327123145377
 30
0.0
 40
1.0
100
AcDbArc
 50
0.0
 51
90.0
  0
LINE
  5
442
330
2
100
AcDbEntity
  8
Object
100
AcDbLine
 10
204.0680091348708
 20
165.5827123145417
 30
0.0
 11
204.0680091348708
 21
191.5827123145419
 31
0.0
  0
LINE
  5
443
330
2
100
AcDbEntity
  8
Object
100
AcDbLine
 10
207.8680091348708
 20
196.0827123145419
 30
0.0
 11
207.8680091348708
 21
161.0827123145417
 31
0.0
  0
LINE
  5
444
330
2
100
AcDbEntity
  8
Dims
100
AcDbLine
 10
200.0680091348685
 20
166.0827123145413
 30
0.0
 11
200.0680091348686
 21
178.5827123145413
 31
0.0
  0
LINE
  5
445
330
2
100
AcDbEntity
  8
Dims
100
AcDbLine
 10
203.2680091348685
 20
165.5827123145413
 30
0.0
 11
203.2680091348685
 21
178.5827123145413
 31
0.0
  0
LINE
  5
446
330
2
100
AcDbEntity
  8
Dims
100
AcDbLine
 10
200.1680091348685
 20
166.0827123145413
 30
0.0
 11
200.1680091348687
 21
178.5827123145413
 31
0.0
  0
LINE
  5
447
330
2
100
AcDbEntity
  8
Dims
100
AcDbLine
 10
199.0680091348687
 20
176.0827123145411
 30
0.0
 11
199.0680091348687
 21
177.0827123145414
 31
0.0
  0
LINE
  5
448
330
2
100
AcDbEntity
  8
Object
100
AcDbLine
 10
199.0680091348688
 20
178.582712314541
 30
0.0
 11
199.0680091348688
 21
165.082712314541
 31
0.0
  0
LINE
  5
449
330
2
100
AcDbEntity
  8
Dims
100
AcDbLine
 10
199.5680091348685
 20
166.0827123145413
 30
0.0
 11
199.5680091348687
 21
178.5827123145413
 31
0.0
  0
ARC
  5
44A
330
2
100
AcDbEntity
  8
Object
100
AcDbCircle
 10
203.5680091348708
 20
165.5827123145417
 30
0.0
 40
0.5
100
AcDbArc
 50
270.0
 51
0.0
  0
LINE
  5
44B
330
2
100
AcDbEntity
  8
Object
 48
0.5
100
AcDbLine
 10
200.4180091348689
 20
158.6827123145412
 30
0.0
 11
205.7180091348689
 21
158.6827123145412
 31
0.0
  0
LINE
  5
44C
330
2
100
AcDbEntity
  8
Object
 48
0.5
100
AcDbLine
 10
205.7180091348689
 20
159.2827123145416
 30
0.0
 11
200.4180091348692
 21
159.2827123145416
 31
0.0
  0
LINE
  5
44E
330
2
100
AcDbEntity
  8
Object
 48
0.5
100
AcDbLine
 10
201.8180091348653
 20
156.9827123145412
 30
0.0
 11
204.3180091348653
 21
156.9827123145412
 31
0.0
  0
ARC
  5
44F
330
2
100
AcDbEntity
  8
Object
 48
0.5
100
AcDbCircle
 10
203.0680091348691
 20
129.5288543419025
 30
0.0
 40
2.25
100
AcDbArc
 50
42.83958840691805
 51
77.16041159309874
  0
LINE
  5
450
330
2
100
AcDbEntity
  8
Object
100
AcDbLine
 10
207.0680091348689
 20
134.5288543418976
 30
0.0
 11
200.0680091348689
 21
134.5288543418976
 31
0.0
  0
LINE
  5
451
330
2
100
AcDbEntity
  8
Object
100
AcDbLine
 10
207.0680091348708
 20
160.2827123145418
 30
0.0
 11
200.0680091348708
 21
160.2827123145418
 31
0.0
  0
LINE
  5
452
330
2
100
AcDbEntity
  8
Object
100
AcDbLine
 10
200.0680091348688
 20
160.0827123145414
 30
0.0
 11
206.8680091348691
 21
160.0827123145414
 31
0.0
  0
LINE
  5
453
330
2
100
AcDbEntity
  8
Object
100
AcDbLine
 10
206.0680091348689
 20
134.5288543419012
 30
0.0
 11
199.268009134869
 21
134.5288543419001
 31
0.0
  0
ARC
  5
454
330
2
100
AcDbEntity
  8
Object
 48
0.5
100
AcDbCircle
 10
199.7158048608449
 20
131.4642503818892
 30
0.0
 40
1.75
100
AcDbArc
 50
313.3984504009738
 51
346.6015495990191
  0
LINE
  5
455
330
2
100
AcDbEntity
  8
Object
100
AcDbLine
 10
201.5180091348699
 20
134.5288543418997
 30
0.0
 11
200.0680091348692
 21
134.5288543418997
 31
0.0
  0
LINE
  5
456
330
2
100
AcDbEntity
  8
Dims
100
AcDbLine
 10
203.2680091348694
 20
135.4788543418997
 30
0.0
 11
200.1680091348692
 21
135.4788543418998
 31
0.0
  0
LINE
  5
457
330
2
100
AcDbEntity
  8
Dims
100
AcDbLine
 10
203.2680091348694
 20
135.7288543418997
 30
0.0
 11
199.0680091348692
 21
135.7288543418997
 31
0.0
  0
LINE
  5
458
330
2
100
AcDbEntity
  8
Dims
100
AcDbLine
 10
200.1680091348692
 20
135.4788543418998
 30
0.0
 11
200.1680091348692
 21
134.5288543418978
 31
0.0
  0
LINE
  5
459
330
2
100
AcDbEntity
  8
Dims
100
AcDbLine
 10
200.1680091348692
 20
135.4788543418998
 30
0.0
 11
200.0680091348692
 21
135.7288543418997
 31
0.0
  0
LINE
  5
45A
330
2
100
AcDbEntity
  8
Dims
100
AcDbLine
 10
199.0680091348692
 20
135.7288543418997
 30
0.0
 11
199.0680091348692
 21
134.5288543419001
 31
0.0
  0
LINE
  5
45B
330
2
100
AcDbEntity
  8
Dims
100
AcDbLine
 10
203.2680091348694
 20
135.7288543418997
 30
0.0
 11
203.2680091348694
 21
134.5288543418976
 31
0.0
  0
ARC
  5
45C
330
2
100
AcDbEntity
  8
Object
 48
0.5
100
AcDbCircle
 10
203.0680091348691
 20
129.5288543419025
 30
0.0
 40
2.25
100
AcDbArc
 50
102.8395884069012
 51
137.1604115930959
  0
ARC
  5
45D
330
2
100
AcDbEntity
  8
Object
 48
0.5
100
AcDbCircle
 10
203.0680091348691
 20
133.3996464218753
 30
0.0
 40
1.75
100
AcDbArc
 50
253.3984504009766
 51
286.6015495990233
  0
LINE
  5
45E
330
2
100
AcDbEntity
  8
Dims
100
AcDbLine
 10
200.5680091348685
 20
170.0827123145413
 30
0.0
 11
201.5680091348686
 21
170.082712314541
 31
0.0
  0
LINE
  5
45F
330
2
100
AcDbEntity
  8
Dims
100
AcDbLine
 10
200.5680091348685
 20
169.0827123145411
 30
0.0
 11
201.5680091348686
 21
169.0827123145413
 31
0.0
  0
LINE
  5
460
330
2
100
AcDbEntity
  8
Dims
100
AcDbLine
 10
200.8180091348685
 20
169.8327123145412
 30
0.0
 11
201.3180091348686
 21
169.8327123145411
 31
0.0
  0
LINE
  5
461
330
2
100
AcDbEntity
  8
Dims
100
AcDbLine
 10
200.8180091348685
 20
169.3327123145412
 30
0.0
 11
201.3180091348686
 21
169.3327123145413
 31
0.0
  0
LINE
  5
462
330
2
100
AcDbEntity
  8
Dims
100
AcDbLine
 10
202.2094304911059
 20
166.5827123145412
 30
0.0
 11
200.9265877786312
 21
166.5827123145412
 31
0.0
  0
LINE
  5
463
330
2
100
AcDbEntity
  8
Dims
100
AcDbLine
 10
201.3180091348686
 20
166.0827123145413
 30
0.0
 11
200.0680091348685
 21
166.0827123145413
 31
0.0
  0
LINE
  5
464
330
2
100
AcDbEntity
  8
Dims
100
AcDbLine
 10
201.3180091348686
 20
166.3327123145413
 30
0.0
 11
201.0680091348685
 21
166.5827123145412
 31
0.0
  0
LINE
  5
465
330
2
100
AcDbEntity
  8
Dims
100
AcDbLine
 10
201.3180091348686
 20
166.1912909583043
 30
0.0
 11
200.9265877786312
 21
166.5827123145412
 31
0.0
  0
LINE
  5
466
330
2
100
AcDbEntity
  8
Dims
100
AcDbLine
 10
200.9180091348685
 20
175.7327123145412
 30
0.0
 11
201.2180091348685
 21
175.7327123145412
 31
0.0
  0
LINE
  5
467
330
2
100
AcDbEntity
  8
Dims
100
AcDbLine
 10
200.9180091348685
 20
175.4327123145412
 30
0.0
 11
201.2180091348685
 21
175.4327123145412
 31
0.0
  0
LINE
  5
468
330
2
100
AcDbEntity
  8
Dims
100
AcDbLine
 10
200.9180091348685
 20
173.7327123145412
 30
0.0
 11
201.2180091348685
 21
173.7327123145412
 31
0.0
  0
LINE
  5
469
330
2
100
AcDbEntity
  8
Dims
100
AcDbLine
 10
200.9180091348685
 20
173.4327123145412
 30
0.0
 11
201.2180091348685
 21
173.4327123145412
 31
0.0
  0
LINE
  5
46A
330
2
100
AcDbEntity
  8
Dims
100
AcDbLine
 10
200.9180091348685
 20
171.4327123145412
 30
0.0
 11
201.2180091348685
 21
171.4327123145412
 31
0.0
  0
LINE
  5
46B
330
2
100
AcDbEntity
  8
Dims
100
AcDbLine
 10
200.9180091348685
 20
171.7327123145412
 30
0.0
 11
201.2180091348685
 21
171.7327123145412
 31
0.0
  0
LINE
  5
46C
330
2
100
AcDbEntity
  8
Dims
100
AcDbLine
 10
200.9180091348685
 20
167.7327123145412
 30
0.0
 11
201.2180091348685
 21
167.7327123145412
 31
0.0
  0
LINE
  5
46D
330
2
100
AcDbEntity
  8
Dims
100
AcDbLine
 10
200.9180091348685
 20
167.4327123145412
 30
0.0
 11
201.2180091348685
 21
167.4327123145412
 31
0.0
  0
LINE
  5
46E
330
2
100
AcDbEntity
  8
Dims
100
AcDbLine
 10
200.9180091348685
 20
169.4327123145412
 30
0.0
 11
201.2180091348685
 21
169.4327123145412
 31
0.0
  0
LINE
  5
46F
330
2
100
AcDbEntity
  8
Dims
100
AcDbLine
 10
200.9180091348685
 20
169.7327123145412
 30
0.0
 11
201.2180091348685
 21
169.7327123145412
 31
0.0
  0
LINE
  5
470
330
2
100
AcDbEntity
  8
Dims
100
AcDbLine
 10
201.2180091348685
 20
166.1827123145414
 30
0.0
 11
200.0680091348685
 21
166.1827123145414
 31
0.0
  0
LINE
  5
471
330
2
100
AcDbEntity
  8
Dims
100
AcDbLine
 10
200.8180091348685
 20
173.3327123145412
 30
0.0
 11
201.3180091348686
 21
173.3327123145413
 31
0.0
  0
LINE
  5
472
330
2
100
AcDbEntity
  8
Dims
100
AcDbLine
 10
200.8180091348685
 20
173.8327123145412
 30
0.0
 11
201.3180091348686
 21
173.8327123145411
 31
0.0
  0
LINE
  5
473
330
2
100
AcDbEntity
  8
Dims
100
AcDbLine
 10
200.5680091348685
 20
173.0827123145411
 30
0.0
 11
201.5680091348686
 21
173.0827123145413
 31
0.0
  0
LINE
  5
474
330
2
100
AcDbEntity
  8
Dims
100
AcDbLine
 10
200.5680091348685
 20
174.0827123145413
 30
0.0
 11
201.5680091348686
 21
174.082712314541
 31
0.0
  0
LINE
  5
475
330
2
100
AcDbEntity
  8
Dims
100
AcDbLine
 10
200.5680091348685
 20
172.0827123145413
 30
0.0
 11
201.5680091348686
 21
172.082712314541
 31
0.0
  0
LINE
  5
476
330
2
100
AcDbEntity
  8
Dims
100
AcDbLine
 10
200.5680091348685
 20
171.0827123145412
 30
0.0
 11
201.5680091348686
 21
171.0827123145413
 31
0.0
  0
LINE
  5
477
330
2
100
AcDbEntity
  8
Dims
100
AcDbLine
 10
200.8180091348685
 20
171.8327123145412
 30
0.0
 11
201.3180091348686
 21
171.8327123145412
 31
0.0
  0
LINE
  5
478
330
2
100
AcDbEntity
  8
Dims
100
AcDbLine
 10
200.8180091348685
 20
171.3327123145412
 30
0.0
 11
201.3180091348686
 21
171.3327123145413
 31
0.0
  0
LINE
  5
479
330
2
100
AcDbEntity
  8
Dims
100
AcDbLine
 10
200.8180091348685
 20
175.3327123145412
 30
0.0
 11
201.3180091348686
 21
175.3327123145413
 31
0.0
  0
LINE
  5
47A
330
2
100
AcDbEntity
  8
Dims
100
AcDbLine
 10
200.8180091348685
 20
175.8327123145412
 30
0.0
 11
201.3180091348686
 21
175.8327123145412
 31
0.0
  0
LINE
  5
47B
330
2
100
AcDbEntity
  8
Dims
100
AcDbLine
 10
200.5680091348685
 20
175.0827123145412
 30
0.0
 11
201.5680091348686
 21
175.0827123145412
 31
0.0
  0
LINE
  5
47C
330
2
100
AcDbEntity
  8
Dims
100
AcDbLine
 10
200.5680091348685
 20
176.0827123145413
 30
0.0
 11
201.5680091348686
 21
176.0827123145411
 31
0.0
  0
LINE
  5
47D
330
2
100
AcDbEntity
  8
Dims
100
AcDbLine
 10
200.8180091348685
 20
167.3327123145412
 30
0.0
 11
201.3180091348686
 21
167.3327123145413
 31
0.0
  0
LINE
  5
47E
330
2
100
AcDbEntity
  8
Dims
100
AcDbLine
 10
200.8180091348685
 20
167.8327123145412
 30
0.0
 11
201.3180091348686
 21
167.8327123145412
 31
0.0
  0
LINE
  5
47F
330
2
100
AcDbEntity
  8
Dims
100
AcDbLine
 10
200.5680091348685
 20
167.0827123145412
 30
0.0
 11
201.5680091348686
 21
167.0827123145413
 31
0.0
  0
LINE
  5
480
330
2
100
AcDbEntity
  8
Dims
100
AcDbLine
 10
200.5680091348685
 20
168.0827123145413
 30
0.0
 11
201.5680091348686
 21
168.082712314541
 31
0.0
  0
ARC
  5
481
330
2
100
AcDbEntity
  8
Object
 48
0.5
100
AcDbCircle
 10
201.1681736156763
 20
157.5256055333549
 30
0.0
 40
0.25
100
AcDbArc
 50
254.6825019338104
 51
0.0
  0
ARC
  5
482
330
2
100
AcDbEntity
  8
Object
 48
0.5
100
AcDbCircle
 10
201.8180091348653
 20
157.9827123145413
 30
0.0
 40
1.0
100
AcDbArc
 50
180.0
 51
270.0
  0
LINE
  5
483
330
2
100
AcDbEntity
  8
Object
100
AcDbLine
 10
203.5680091348708
 20
165.0827123145417
 30
0.0
 11
200.5680091348708
 21
165.0827123145417
 31
0.0
  0
LINE
  5
484
330
2
100
AcDbEntity
  8
Dims
100
AcDbLine
 10
203.2680091348685
 20
165.5827123145413
 30
0.0
 11
199.0680091348685
 21
165.5827123145413
 31
0.0
  0
LINE
  5
485
330
2
100
AcDbEntity
  8
Dims
100
AcDbLine
 10
200.9180091348687
 20
169.7327123145412
 30
0.0
 11
200.5680091348685
 21
170.0827123145413
 31
0.0
  0
LINE
  5
486
330
2
100
AcDbEntity
  8
Dims
100
AcDbLine
 10
200.5680091348685
 20
169.0827123145411
 30
0.0
 11
200.5680091348685
 21
170.0827123145413
 31
0.0
  0
LINE
  5
487
330
2
100
AcDbEntity
  8
Dims
100
AcDbLine
 10
200.8180091348685
 20
175.3327123145412
 30
0.0
 11
200.8180091348685
 21
175.8327123145412
 31
0.0
  0
LINE
  5
488
330
2
100
AcDbEntity
  8
Dims
100
AcDbLine
 10
200.9180091348685
 20
175.4327123145413
 30
0.0
 11
200.9180091348685
 21
175.7327123145412
 31
0.0
  0
LINE
  5
489
330
2
100
AcDbEntity
  8
Dims
100
AcDbLine
 10
200.5680091348685
 20
175.0827123145412
 30
0.0
 11
200.5680091348685
 21
176.0827123145413
 31
0.0
  0
LINE
  5
48A
330
2
100
AcDbEntity
  8
Dims
100
AcDbLine
 10
200.9180091348687
 20
175.4327123145412
 30
0.0
 11
200.5680091348685
 21
175.0827123145412
 31
0.0
  0
LINE
  5
48B
330
2
100
AcDbEntity
  8
Dims
100
AcDbLine
 10
200.9180091348687
 20
175.7327123145412
 30
0.0
 11
200.5680091348685
 21
176.0827123145413
 31
0.0
  0
LINE
  5
48C
330
2
100
AcDbEntity
  8
Dims
100
AcDbLine
 10
200.8180091348685
 20
173.3327123145412
 30
0.0
 11
200.8180091348685
 21
173.8327123145412
 31
0.0
  0
LINE
  5
48D
330
2
100
AcDbEntity
  8
Dims
100
AcDbLine
 10
200.9180091348685
 20
173.4327123145414
 30
0.0
 11
200.9180091348685
 21
173.7327123145412
 31
0.0
  0
LINE
  5
48E
330
2
100
AcDbEntity
  8
Dims
100
AcDbLine
 10
200.5680091348685
 20
173.0827123145411
 30
0.0
 11
200.5680091348685
 21
174.0827123145413
 31
0.0
  0
LINE
  5
48F
330
2
100
AcDbEntity
  8
Dims
100
AcDbLine
 10
200.9180091348687
 20
173.4327123145412
 30
0.0
 11
200.5680091348685
 21
173.0827123145411
 31
0.0
  0
LINE
  5
490
330
2
100
AcDbEntity
  8
Dims
100
AcDbLine
 10
200.9180091348687
 20
173.7327123145412
 30
0.0
 11
200.5680091348685
 21
174.0827123145413
 31
0.0
  0
LINE
  5
491
330
2
100
AcDbEntity
  8
Dims
100
AcDbLine
 10
200.9180091348687
 20
171.7327123145412
 30
0.0
 11
200.5680091348685
 21
172.0827123145413
 31
0.0
  0
LINE
  5
492
330
2
100
AcDbEntity
  8
Dims
100
AcDbLine
 10
200.9180091348687
 20
171.4327123145412
 30
0.0
 11
200.5680091348685
 21
171.0827123145412
 31
0.0
  0
LINE
  5
493
330
2
100
AcDbEntity
  8
Dims
100
AcDbLine
 10
200.5680091348685
 20
171.0827123145412
 30
0.0
 11
200.5680091348685
 21
172.0827123145413
 31
0.0
  0
LINE
  5
494
330
2
100
AcDbEntity
  8
Dims
100
AcDbLine
 10
200.9180091348685
 20
171.4327123145413
 30
0.0
 11
200.9180091348685
 21
171.7327123145412
 31
0.0
  0
LINE
  5
495
330
2
100
AcDbEntity
  8
Dims
100
AcDbLine
 10
200.8180091348685
 20
171.3327123145412
 30
0.0
 11
200.8180091348685
 21
171.8327123145412
 31
0.0
  0
LINE
  5
496
330
2
100
AcDbEntity
  8
Dims
100
AcDbLine
 10
200.8180091348685
 20
167.3327123145412
 30
0.0
 11
200.8180091348685
 21
167.8327123145412
 31
0.0
  0
LINE
  5
497
330
2
100
AcDbEntity
  8
Dims
100
AcDbLine
 10
200.9180091348685
 20
167.4327123145413
 30
0.0
 11
200.9180091348685
 21
167.7327123145412
 31
0.0
  0
LINE
  5
498
330
2
100
AcDbEntity
  8
Dims
100
AcDbLine
 10
200.5680091348685
 20
167.0827123145412
 30
0.0
 11
200.5680091348685
 21
168.0827123145413
 31
0.0
  0
LINE
  5
499
330
2
100
AcDbEntity
  8
Dims
100
AcDbLine
 10
200.9180091348687
 20
167.4327123145412
 30
0.0
 11
200.5680091348685
 21
167.0827123145412
 31
0.0
  0
LINE
  5
49A
330
2
100
AcDbEntity
  8
Dims
100
AcDbLine
 10
200.9180091348687
 20
167.7327123145412
 30
0.0
 11
200.5680091348685
 21
168.0827123145413
 31
0.0
  0
LINE
  5
49B
330
2
100
AcDbEntity
  8
Dims
100
AcDbLine
 10
200.9180091348687
 20
169.4327123145412
 30
0.0
 11
200.5680091348685
 21
169.0827123145411
 31
0.0
  0
LINE
  5
49C
330
2
100
AcDbEntity
  8
Dims
100
AcDbLine
 10
200.9180091348685
 20
169.4327123145414
 30
0.0
 11
200.9180091348685
 21
169.7327123145412
 31
0.0
  0
LINE
  5
49D
330
2
100
AcDbEntity
  8
Dims
100
AcDbLine
 10
200.8180091348685
 20
169.3327123145412
 30
0.0
 11
200.8180091348685
 21
169.8327123145412
 31
0.0
  0
ARC
  5
49E
330
2
100
AcDbEntity
  8
Object
100
AcDbCircle
 10
200.5680091348708
 20
164.5827123145417
 30
0.0
 40
0.5
100
AcDbArc
 50
90.0
 51
180.0
  0
LINE
  5
49F
330
2
100
AcDbEntity
  8
Object
100
AcDbLine
 10
200.0680091348688
 20
165.082712314541
 30
0.0
 11
200.0680091348688
 21
160.0827123145414
 31
0.0
  0
LINE
  5
4A0
330
2
100
AcDbEntity
  8
Object
100
AcDbLine
 10
200.4180091348692
 20
159.2827123145416
 30
0.0
 11
200.4180091348689
 21
158.6827123145412
 31
0.0
  0
LINE
  5
4A1
330
2
100
AcDbEntity
  8
Object
 48
0.5
100
AcDbLine
 10
200.8180091348653
 20
157.9827123145413
 30
0.0
 11
200.8180091348653
 21
158.6827123145412
 31
0.0
  0
LINE
  5
4A2
330
2
100
AcDbEntity
  8
Object
 48
0.5
100
AcDbLine
 10
200.9181736156761
 20
157.5464829730336
 30
0.0
 11
200.9181736156761
 21
158.6827123145415
 31
0.0
  0
LINE
  5
4A3
330
2
100
AcDbEntity
  8
Dims
100
AcDbLine
 10
199.0680091348687
 20
176.0827123145411
 30
0.0
 11
199.5680091348687
 21
176.0827123145411
 31
0.0
  0
LINE
  5
4A4
330
2
100
AcDbEntity
  8
Dims
100
AcDbLine
 10
199.0680091348687
 20
175.0827123145414
 30
0.0
 11
199.5680091348687
 21
175.0827123145414
 31
0.0
  0
LINE
  5
4A5
330
2
100
AcDbEntity
  8
Dims
100
AcDbLine
 10
199.0680091348685
 20
171.0827123145414
 30
0.0
 11
199.5680091348685
 21
171.0827123145414
 31
0.0
  0
LINE
  5
4A6
330
2
100
AcDbEntity
  8
Dims
100
AcDbLine
 10
199.0680091348685
 20
172.0827123145411
 30
0.0
 11
199.5680091348685
 21
172.0827123145411
 31
0.0
  0
LINE
  5
4A7
330
2
100
AcDbEntity
  8
Dims
100
AcDbLine
 10
199.0680091348685
 20
173.0827123145414
 30
0.0
 11
199.5680091348685
 21
173.0827123145414
 31
0.0
  0
LINE
  5
4A8
330
2
100
AcDbEntity
  8
Dims
100
AcDbLine
 10
199.0680091348687
 20
174.0827123145412
 30
0.0
 11
199.5680091348685
 21
174.0827123145412
 31
0.0
  0
LINE
  5
4A9
330
2
100
AcDbEntity
  8
Dims
100
AcDbLine
 10
199.0680091348685
 20
170.0827123145412
 30
0.0
 11
199.5680091348685
 21
170.0827123145412
 31
0.0
  0
LINE
  5
4AA
330
2
100
AcDbEntity
  8
Dims
100
AcDbLine
 10
199.5680091348685
 20
167.0827123145413
 30
0.0
 11
199.0680091348685
 21
167.0827123145413
 31
0.0
  0
LINE
  5
4AB
330
2
100
AcDbEntity
  8
Dims
100
AcDbLine
 10
199.5680091348685
 20
166.3327123145413
 30
0.0
 11
199.0680091348685
 21
166.3327123145413
 31
0.0
  0
LINE
  5
4AC
330
2
100
AcDbEntity
  8
Dims
100
AcDbLine
 10
199.5680091348685
 20
166.0827123145413
 30
0.0
 11
199.0680091348685
 21
166.0827123145413
 31
0.0
  0
LINE
  5
4AD
330
2
100
AcDbEntity
  8
Dims
100
AcDbLine
 10
199.0680091348685
 20
174.0827123145412
 30
0.0
 11
199.0680091348687
 21
175.0827123145414
 31
0.0
  0
LINE
  5
4AE
330
2
100
AcDbEntity
  8
Dims
100
AcDbLine
 10
199.0680091348685
 20
172.0827123145411
 30
0.0
 11
199.0680091348685
 21
173.0827123145414
 31
0.0
  0
LINE
  5
4AF
330
2
100
AcDbEntity
  8
Dims
100
AcDbLine
 10
199.0680091348685
 20
170.0827123145412
 30
0.0
 11
199.0680091348685
 21
171.0827123145414
 31
0.0
  0
LINE
  5
4B0
330
2
100
AcDbEntity
  8
Dims
100
AcDbLine
 10
199.0680091348685
 20
165.5827123145413
 30
0.0
 11
199.0680091348685
 21
167.0827123145413
 31
0.0
  0
LINE
  5
4B1
330
2
100
AcDbEntity
  8
Object
100
AcDbLine
 10
200.0680091348688
 20
165.082712314541
 30
0.0
 11
199.0680091348688
 21
165.0827123145412
 31
0.0
  0
LINE
  5
4B2
330
2
100
AcDbEntity
  8
Object
 48
0.5
100
AcDbLine
 10
203.5680091348654
 20
157.775605533355
 30
0.0
 11
203.5680091348654
 21
158.6827123145413
 31
0.0
  0
LINE
  5
4B3
330
2
100
AcDbEntity
  8
Dims
100
AcDbLine
 10
201.9680091348685
 20
166.4827123145415
 30
0.0
 11
201.1680091348687
 21
166.4827123145413
 31
0.0
  0
LINE
  5
4B4
330
2
100
AcDbEntity
  8
Dims
100
AcDbLine
 10
201.2180091348685
 20
175.4327123145412
 30
0.0
 11
201.2180091348685
 21
175.7327123145412
 31
0.0
  0
LINE
  5
4B5
330
2
100
AcDbEntity
  8
Dims
100
AcDbLine
 10
201.2180091348685
 20
173.4327123145412
 30
0.0
 11
201.2180091348685
 21
173.7327123145412
 31
0.0
  0
LINE
  5
4B6
330
2
100
AcDbEntity
  8
Dims
100
AcDbLine
 10
201.2180091348685
 20
171.4327123145412
 30
0.0
 11
201.2180091348685
 21
171.7327123145412
 31
0.0
  0
LINE
  5
4B7
330
2
100
AcDbEntity
  8
Dims
100
AcDbLine
 10
201.2180091348685
 20
167.4327123145412
 30
0.0
 11
201.2180091348685
 21
167.7327123145412
 31
0.0
  0
LINE
  5
4B8
330
2
100
AcDbEntity
  8
Dims
100
AcDbLine
 10
201.2180091348685
 20
169.4327123145412
 30
0.0
 11
201.2180091348685
 21
169.7327123145412
 31
0.0
  0
LINE
  5
4B9
330
2
100
AcDbEntity
  8
Dims
100
AcDbLine
 10
201.2180091348685
 20
166.2912909583042
 30
0.0
 11
201.2180091348685
 21
166.0827123145413
 31
0.0
  0
LINE
  5
4BA
330
2
100
AcDbEntity
  8
Dims
100
AcDbLine
 10
201.5680091348686
 20
169.0827123145413
 30
0.0
 11
201.5680091348686
 21
170.082712314541
 31
0.0
  0
LINE
  5
4BB
330
2
100
AcDbEntity
  8
Dims
100
AcDbLine
 10
201.3180091348686
 20
175.3327123145413
 30
0.0
 11
201.3180091348686
 21
175.8327123145412
 31
0.0
  0
LINE
  5
4BC
330
2
100
AcDbEntity
  8
Dims
100
AcDbLine
 10
201.5680091348686
 20
175.0827123145412
 30
0.0
 11
201.5680091348686
 21
176.0827123145411
 31
0.0
  0
LINE
  5
4BD
330
2
100
AcDbEntity
  8
Dims
100
AcDbLine
 10
201.3180091348686
 20
173.3327123145413
 30
0.0
 11
201.3180091348686
 21
173.8327123145411
 31
0.0
  0
LINE
  5
4BE
330
2
100
AcDbEntity
  8
Dims
100
AcDbLine
 10
201.5680091348686
 20
173.0827123145413
 30
0.0
 11
201.5680091348686
 21
174.082712314541
 31
0.0
  0
LINE
  5
4BF
330
2
100
AcDbEntity
  8
Dims
100
AcDbLine
 10
201.5680091348686
 20
171.0827123145413
 30
0.0
 11
201.5680091348686
 21
172.082712314541
 31
0.0
  0
LINE
  5
4C0
330
2
100
AcDbEntity
  8
Dims
100
AcDbLine
 10
201.3180091348686
 20
171.3327123145413
 30
0.0
 11
201.3180091348686
 21
171.8327123145412
 31
0.0
  0
LINE
  5
4C1
330
2
100
AcDbEntity
  8
Dims
100
AcDbLine
 10
201.3180091348686
 20
167.3327123145413
 30
0.0
 11
201.3180091348686
 21
167.8327123145412
 31
0.0
  0
LINE
  5
4C2
330
2
100
AcDbEntity
  8
Dims
100
AcDbLine
 10
201.5680091348686
 20
167.0827123145413
 30
0.0
 11
201.5680091348686
 21
168.082712314541
 31
0.0
  0
LINE
  5
4C3
330
2
100
AcDbEntity
  8
Dims
100
AcDbLine
 10
201.3180091348686
 20
169.3327123145413
 30
0.0
 11
201.3180091348686
 21
169.8327123145411
 31
0.0
  0
LINE
  5
4C4
330
2
100
AcDbEntity
  8
Dims
100
AcDbLine
 10
201.3180091348686
 20
166.3327123145413
 30
0.0
 11
201.3180091348686
 21
166.0827123145413
 31
0.0
  0
LINE
  5
4C5
330
2
100
AcDbEntity
  8
Dims
100
AcDbLine
 10
201.8180091348686
 20
166.3327123145413
 30
0.0
 11
201.8180091348686
 21
166.0827123145413
 31
0.0
  0
LINE
  5
4C6
330
2
100
AcDbEntity
  8
Dims
100
AcDbLine
 10
201.9180091348685
 20
166.2912909583042
 30
0.0
 11
201.9180091348685
 21
166.0827123145413
 31
0.0
  0
LINE
  5
4C7
330
2
100
AcDbEntity
  8
Dims
100
AcDbLine
 10
202.0680091348685
 20
166.5827123145412
 30
0.0
 11
201.8180091348686
 21
166.3327123145413
 31
0.0
  0
LINE
  5
4C8
330
2
100
AcDbEntity
  8
Dims
100
AcDbLine
 10
202.2094304911059
 20
166.5827123145412
 30
0.0
 11
201.8180091348686
 21
166.1912909583042
 31
0.0
  0
LINE
  5
4C9
330
2
100
AcDbEntity
  8
Dims
100
AcDbLine
 10
201.5680091348686
 20
174.082712314541
 30
0.0
 11
201.2180091348687
 21
173.7327123145412
 31
0.0
  0
LINE
  5
4CA
330
2
100
AcDbEntity
  8
Dims
100
AcDbLine
 10
201.5680091348686
 20
173.0827123145413
 30
0.0
 11
201.2180091348688
 21
173.4327123145412
 31
0.0
  0
LINE
  5
4CB
330
2
100
AcDbEntity
  8
Dims
100
AcDbLine
 10
201.5680091348686
 20
171.0827123145413
 30
0.0
 11
201.2180091348688
 21
171.4327123145412
 31
0.0
  0
LINE
  5
4CC
330
2
100
AcDbEntity
  8
Dims
100
AcDbLine
 10
201.5680091348686
 20
172.082712314541
 30
0.0
 11
201.2180091348687
 21
171.7327123145412
 31
0.0
  0
LINE
  5
4CD
330
2
100
AcDbEntity
  8
Dims
100
AcDbLine
 10
201.5680091348686
 20
176.0827123145411
 30
0.0
 11
201.2180091348687
 21
175.7327123145412
 31
0.0
  0
LINE
  5
4CE
330
2
100
AcDbEntity
  8
Dims
100
AcDbLine
 10
201.5680091348686
 20
175.0827123145412
 30
0.0
 11
201.2180091348688
 21
175.4327123145412
 31
0.0
  0
LINE
  5
4CF
330
2
100
AcDbEntity
  8
Dims
100
AcDbLine
 10
201.5680091348686
 20
168.082712314541
 30
0.0
 11
201.2180091348687
 21
167.7327123145412
 31
0.0
  0
LINE
  5
4D0
330
2
100
AcDbEntity
  8
Dims
100
AcDbLine
 10
201.5680091348686
 20
167.0827123145413
 30
0.0
 11
201.2180091348688
 21
167.4327123145412
 31
0.0
  0
LINE
  5
4D1
330
2
100
AcDbEntity
  8
Dims
100
AcDbLine
 10
201.5680091348686
 20
169.0827123145413
 30
0.0
 11
201.2180091348688
 21
169.4327123145412
 31
0.0
  0
LINE
  5
4D2
330
2
100
AcDbEntity
  8
Dims
100
AcDbLine
 10
201.5680091348686
 20
170.082712314541
 30
0.0
 11
201.2180091348687
 21
169.7327123145412
 31
0.0
  0
LINE
  5
4D3
330
2
100
AcDbEntity
  8
Object
 48
0.5
100
AcDbLine
 10
202.5680091348653
 20
157.775605533355
 30
0.0
 11
202.5680091348653
 21
158.6827123145413
 31
0.0
  0
LINE
  5
4D4
330
2
100
AcDbEntity
  8
Object
 48
0.5
100
AcDbLine
 10
201.4181736156765
 20
157.5256055333549
 30
0.0
 11
201.4181736156765
 21
158.6827123145413
 31
0.0
  0
LINE
  5
4D5
330
2
100
AcDbEntity
  8
Dims
100
AcDbLine
 10
203.2680091348685
 20
166.0827123145413
 30
0.0
 11
201.8180091348686
 21
166.0827123145413
 31
0.0
  0
LINE
  5
4D6
330
2
100
AcDbEntity
  8
Dims
100
AcDbLine
 10
203.2680091348685
 20
166.1827123145414
 30
0.0
 11
201.9180091348685
 21
166.1827123145414
 31
0.0
  0
ARC
  5
4D7
330
2
100
AcDbEntity
  8
Object
 48
0.5
100
AcDbCircle
 10
203.0680091348573
 20
157.775605533355
 30
0.0
 40
0.5
100
AcDbArc
 50
180.0
 51
0.0
  0
ARC
  5
4D8
330
2
100
AcDbEntity
  8
Object
100
AcDbCircle
 10
207.0680091348689
 20
133.7288543418975
 30
0.0
 40
0.8
100
AcDbArc
 50
0.0
 51
90.0
  0
LINE
  5
4D9
330
2
100
AcDbEntity
  8
Object
100
AcDbLine
 10
207.0680091348692
 20
133.5288543419014
 30
0.0
 11
207.0680091348692
 21
131.9288543419016
 31
0.0
  0
LINE
  5
4DA
330
2
100
AcDbEntity
  8
Object
100
AcDbLine
 10
206.0680091348691
 20
134.5288543419012
 30
0.0
 11
207.0680091348692
 21
133.5288543419014
 31
0.0
  0
LINE
  5
4DB
330
2
100
AcDbEntity
  8
Object
100
AcDbLine
 10
206.0680091348691
 20
130.9288543419015
 30
0.0
 11
207.0680091348692
 21
131.9288543419014
 31
0.0
  0
ARC
  5
4DC
330
2
100
AcDbEntity
  8
Object
 48
0.5
100
AcDbCircle
 10
206.420213408893
 20
131.4642503818887
 30
0.0
 40
1.75
100
AcDbArc
 50
193.3984504009806
 51
226.6015495990261
  0
LINE
  5
4DD
330
2
100
AcDbEntity
  8
Object
100
AcDbLine
 10
205.3180091348699
 20
130.9288543419015
 30
0.0
 11
206.0680091348694
 21
130.9288543419015
 31
0.0
  0
ARC
  5
4DE
330
2
100
AcDbEntity
  8
Object
100
AcDbCircle
 10
207.0680091348708
 20
161.0827123145417
 30
0.0
 40
0.8
100
AcDbArc
 50
270.0
 51
0.0
  0
LINE
  5
4DF
330
2
100
AcDbEntity
  8
Object
100
AcDbLine
 10
207.0680091348688
 20
160.0827123145414
 30
0.0
 11
207.0680091348685
 21
159.2827123145417
 31
0.0
  0
LINE
  5
4E0
330
2
100
AcDbEntity
  8
Object
 48
0.5
100
AcDbLine
 10
205.3180091348653
 20
157.9827123145413
 30
0.0
 11
205.3180091348653
 21
158.6827123145412
 31
0.0
  0
LINE
  5
4E1
330
2
100
AcDbEntity
  8
Object
 48
0.5
100
AcDbLine
 10
204.7178446540613
 20
157.5256055333549
 30
0.0
 11
204.7178446540613
 21
158.6827123145413
 31
0.0
  0
LINE
  5
4E2
330
2
100
AcDbEntity
  8
Object
 48
0.5
100
AcDbLine
 10
205.2178446540619
 20
157.5464829730336
 30
0.0
 11
205.2178446540619
 21
158.6827123145415
 31
0.0
  0
ARC
  5
4E3
330
2
100
AcDbEntity
  8
Object
 48
0.5
100
AcDbCircle
 10
204.9678446540617
 20
157.5256055333549
 30
0.0
 40
0.25
100
AcDbArc
 50
180.0
 51
285.3174980661896
  0
ARC
  5
4E4
330
2
100
AcDbEntity
  8
Object
 48
0.5
100
AcDbCircle
 10
204.3180091348653
 20
157.9827123145413
 30
0.0
 40
1.0
100
AcDbArc
 50
270.0
 51
0.0
  0
LINE
  5
4E5
330
2
100
AcDbEntity
  8
Object
100
AcDbLine
 10
205.7180091348689
 20
159.2827123145416
 30
0.0
 11
205.7180091348689
 21
158.6827123145412
 31
0.0
  0
ARC
  5
4E6
330
2
100
AcDbEntity
  8
Object
 48
0.5
100
AcDbCircle
 10
209.6251159160574
 20
161.6828767953488
 30
0.0
 40
0.25
100
AcDbArc
 50
344.6825019338103
 51
90.0
  0
ARC
  5
4E7
330
2
100
AcDbEntity
  8
Object
 48
0.5
100
AcDbCircle
 10
209.6251159160574
 20
165.4825478337341
 30
0.0
 40
0.25
100
AcDbArc
 50
270.0
 51
15.31749806618966
  0
ARC
  5
4E8
330
2
100
AcDbEntity
  8
Object
 48
0.5
100
AcDbCircle
 10
209.3751159160574
 20
163.5827123145299
 30
0.0
 40
0.5
100
AcDbArc
 50
270.0
 51
90.0
  0
LINE
  5
4E9
330
2
100
AcDbEntity
  8
Object
 48
0.5
100
AcDbLine
 10
210.1680091348709
 20
162.3327123145377
 30
0.0
 11
210.1680091348709
 21
164.8327123145379
 31
0.0
  0
LINE
  5
4EA
330
2
100
AcDbEntity
  8
Object
100
AcDbLine
 10
207.8680091348708
 20
160.9327123145416
 30
0.0
 11
208.468009134871
 21
160.9327123145415
 31
0.0
  0
LINE
  5
4EB
330
2
100
AcDbEntity
  8
Object
100
AcDbLine
 10
207.8680091348708
 20
166.2327123145413
 30
0.0
 11
208.468009134871
 21
166.2327123145413
 31
0.0
  0
LINE
  5
4EC
330
2
100
AcDbEntity
  8
Object
 48
0.5
100
AcDbLine
 10
208.468009134871
 20
160.9327123145415
 30
0.0
 11
208.468009134871
 21
166.2327123145413
 31
0.0
  0
LINE
  5
4ED
330
2
100
AcDbEntity
  8
Object
 48
0.5
100
AcDbLine
 10
207.8680091348708
 20
166.2327123145413
 30
0.0
 11
207.8680091348708
 21
160.9327123145416
 31
0.0
  0
LINE
  5
4EE
330
2
100
AcDbEntity
  8
Object
 48
0.5
100
AcDbLine
 10
209.1680091348709
 20
161.3327123145379
 30
0.0
 11
208.4680091348711
 21
161.3327123145379
 31
0.0
  0
LINE
  5
4EF
330
2
100
AcDbEntity
  8
Object
 48
0.5
100
AcDbLine
 10
209.3751159160574
 20
163.0827123145377
 30
0.0
 11
208.4680091348709
 21
163.0827123145377
 31
0.0
  0
LINE
  5
4F0
330
2
100
AcDbEntity
  8
Object
 48
0.5
100
AcDbLine
 10
209.6251159160574
 20
161.9328767953492
 30
0.0
 11
208.4680091348709
 21
161.9328767953492
 31
0.0
  0
LINE
  5
4F1
330
2
100
AcDbEntity
  8
Object
 48
0.5
100
AcDbLine
 10
209.6042384763787
 20
161.4328767953486
 30
0.0
 11
208.4680091348708
 21
161.4328767953486
 31
0.0
  0
LINE
  5
4F2
330
2
100
AcDbEntity
  8
Object
 48
0.5
100
AcDbLine
 10
209.1680091348709
 20
165.8327123145379
 30
0.0
 11
208.4680091348711
 21
165.8327123145379
 31
0.0
  0
LINE
  5
4F3
330
2
100
AcDbEntity
  8
Object
 48
0.5
100
AcDbLine
 10
209.6251159160574
 20
165.2325478337338
 30
0.0
 11
208.4680091348709
 21
165.2325478337338
 31
0.0
  0
LINE
  5
4F4
330
2
100
AcDbEntity
  8
Object
 48
0.5
100
AcDbLine
 10
209.6042384763787
 20
165.7325478337344
 30
0.0
 11
208.4680091348708
 21
165.7325478337344
 31
0.0
  0
LINE
  5
4F5
330
2
100
AcDbEntity
  8
Object
 48
0.5
100
AcDbLine
 10
209.3751159160574
 20
164.0827123145377
 30
0.0
 11
208.4680091348709
 21
164.0827123145377
 31
0.0
  0
LINE
  5
4F6
330
2
100
AcDbEntity
  8
Object
 48
0.5
100
AcDbLine
 10
200.4180091348689
 20
198.482712314542
 30
0.0
 11
205.7180091348689
 21
198.482712314542
 31
0.0
  0
LINE
  5
4F7
330
2
100
AcDbEntity
  8
Object
 48
0.5
100
AcDbLine
 10
205.7180091348689
 20
197.8827123145417
 30
0.0
 11
200.4180091348692
 21
197.8827123145417
 31
0.0
  0
LINE
  5
4F8
330
2
100
AcDbEntity
  8
Object
 48
0.5
100
AcDbLine
 10
201.8180091348653
 20
200.1827123145417
 30
0.0
 11
204.3180091348653
 21
200.1827123145417
 31
0.0
  0
ARC
  5
4F9
330
2
100
AcDbEntity
  8
Object
100
AcDbCircle
 10
203.5680091348708
 20
191.5827123145419
 30
0.0
 40
0.5
100
AcDbArc
 50
0.0
 51
90.0
  0
LINE
  5
4FA
330
2
100
AcDbEntity
  8
Object
100
AcDbLine
 10
207.0680091348708
 20
196.8827123145418
 30
0.0
 11
200.068009134871
 21
196.882712314542
 31
0.0
  0
LINE
  5
4FB
330
2
100
AcDbEntity
  8
Object
100
AcDbLine
 10
206.8680091348688
 20
197.0827123145417
 30
0.0
 11
200.0680091348688
 21
197.0827123145417
 31
0.0
  0
LINE
  5
4FC
330
2
100
AcDbEntity
  8
Dims
100
AcDbLine
 10
200.9180091348685
 20
177.4327123145412
 30
0.0
 11
201.2180091348687
 21
177.4327123145412
 31
0.0
  0
LINE
  5
4FD
330
2
100
AcDbEntity
  8
Dims
100
AcDbLine
 10
200.9180091348685
 20
177.7327123145412
 30
0.0
 11
201.2180091348687
 21
177.7327123145412
 31
0.0
  0
LINE
  5
4FE
330
2
100
AcDbEntity
  8
Dims
100
AcDbLine
 10
200.8180091348685
 20
179.8327123145414
 30
0.0
 11
201.3180091348686
 21
179.8327123145413
 31
0.0
  0
LINE
  5
4FF
330
2
100
AcDbEntity
  8
Dims
100
AcDbLine
 10
200.8180091348685
 20
179.3327123145414
 30
0.0
 11
201.3180091348686
 21
179.3327123145417
 31
0.0
  0
LINE
  5
500
330
2
100
AcDbEntity
  8
Dims
100
AcDbLine
 10
200.5680091348685
 20
180.0827123145414
 30
0.0
 11
201.5680091348686
 21
180.0827123145412
 31
0.0
  0
LINE
  5
501
330
2
100
AcDbEntity
  8
Dims
100
AcDbLine
 10
200.5680091348685
 20
179.0827123145412
 30
0.0
 11
201.5680091348686
 21
179.0827123145417
 31
0.0
  0
LINE
  5
502
330
2
100
AcDbEntity
  8
Dims
100
AcDbLine
 10
200.9180091348687
 20
179.4327123145414
 30
0.0
 11
201.2180091348687
 21
179.4327123145414
 31
0.0
  0
LINE
  5
503
330
2
100
AcDbEntity
  8
Dims
100
AcDbLine
 10
200.9180091348687
 20
179.7327123145412
 30
0.0
 11
201.2180091348687
 21
179.7327123145415
 31
0.0
  0
LINE
  5
504
330
2
100
AcDbEntity
  8
Dims
100
AcDbLine
 10
200.5680091348685
 20
178.0827123145413
 30
0.0
 11
201.5680091348686
 21
178.082712314541
 31
0.0
  0
LINE
  5
505
330
2
100
AcDbEntity
  8
Dims
100
AcDbLine
 10
200.5680091348685
 20
177.0827123145411
 30
0.0
 11
201.5680091348686
 21
177.0827123145413
 31
0.0
  0
LINE
  5
506
330
2
100
AcDbEntity
  8
Dims
100
AcDbLine
 10
200.8180091348685
 20
177.8327123145412
 30
0.0
 11
201.3180091348686
 21
177.8327123145411
 31
0.0
  0
LINE
  5
507
330
2
100
AcDbEntity
  8
Dims
100
AcDbLine
 10
200.8180091348685
 20
177.3327123145412
 30
0.0
 11
201.3180091348686
 21
177.3327123145413
 31
0.0
  0
LINE
  5
508
330
2
100
AcDbEntity
  8
Dims
100
AcDbLine
 10
200.5680091348685
 20
181.0827123145413
 30
0.0
 11
201.5680091348686
 21
181.0827123145417
 31
0.0
  0
LINE
  5
509
330
2
100
AcDbEntity
  8
Dims
100
AcDbLine
 10
200.5680091348685
 20
182.0827123145414
 30
0.0
 11
201.5680091348686
 21
182.0827123145412
 31
0.0
  0
LINE
  5
50A
330
2
100
AcDbEntity
  8
Dims
100
AcDbLine
 10
200.8180091348685
 20
181.3327123145414
 30
0.0
 11
201.3180091348686
 21
181.3327123145417
 31
0.0
  0
LINE
  5
50B
330
2
100
AcDbEntity
  8
Dims
100
AcDbLine
 10
200.8180091348685
 20
181.8327123145414
 30
0.0
 11
201.3180091348686
 21
181.8327123145413
 31
0.0
  0
LINE
  5
50C
330
2
100
AcDbEntity
  8
Dims
100
AcDbLine
 10
200.8180091348685
 20
185.8327123145414
 30
0.0
 11
201.3180091348686
 21
185.8327123145413
 31
0.0
  0
LINE
  5
50D
330
2
100
AcDbEntity
  8
Dims
100
AcDbLine
 10
200.8180091348685
 20
185.3327123145414
 30
0.0
 11
201.3180091348686
 21
185.3327123145417
 31
0.0
  0
LINE
  5
50E
330
2
100
AcDbEntity
  8
Dims
100
AcDbLine
 10
200.5680091348685
 20
186.0827123145417
 30
0.0
 11
201.5680091348686
 21
186.0827123145412
 31
0.0
  0
LINE
  5
50F
330
2
100
AcDbEntity
  8
Dims
100
AcDbLine
 10
200.5680091348685
 20
185.0827123145413
 30
0.0
 11
201.5680091348686
 21
185.0827123145417
 31
0.0
  0
LINE
  5
510
330
2
100
AcDbEntity
  8
Dims
100
AcDbLine
 10
200.5680091348685
 20
183.0827123145412
 30
0.0
 11
201.5680091348686
 21
183.0827123145417
 31
0.0
  0
LINE
  5
511
330
2
100
AcDbEntity
  8
Dims
100
AcDbLine
 10
200.5680091348685
 20
184.0827123145417
 30
0.0
 11
201.5680091348686
 21
184.0827123145412
 31
0.0
  0
LINE
  5
512
330
2
100
AcDbEntity
  8
Dims
100
AcDbLine
 10
200.8180091348685
 20
183.3327123145414
 30
0.0
 11
201.3180091348686
 21
183.3327123145417
 31
0.0
  0
LINE
  5
513
330
2
100
AcDbEntity
  8
Dims
100
AcDbLine
 10
200.8180091348685
 20
183.8327123145414
 30
0.0
 11
201.3180091348686
 21
183.8327123145413
 31
0.0
  0
LINE
  5
514
330
2
100
AcDbEntity
  8
Dims
100
AcDbLine
 10
200.8180091348685
 20
187.8327123145414
 30
0.0
 11
201.3180091348686
 21
187.8327123145413
 31
0.0
  0
LINE
  5
515
330
2
100
AcDbEntity
  8
Dims
100
AcDbLine
 10
200.8180091348685
 20
187.3327123145415
 30
0.0
 11
201.3180091348686
 21
187.3327123145417
 31
0.0
  0
LINE
  5
516
330
2
100
AcDbEntity
  8
Dims
100
AcDbLine
 10
200.5680091348685
 20
188.0827123145417
 30
0.0
 11
201.5680091348686
 21
188.0827123145413
 31
0.0
  0
LINE
  5
517
330
2
100
AcDbEntity
  8
Dims
100
AcDbLine
 10
200.5680091348685
 20
187.0827123145413
 30
0.0
 11
201.5680091348686
 21
187.0827123145417
 31
0.0
  0
LINE
  5
518
330
2
100
AcDbEntity
  8
Dims
100
AcDbLine
 10
200.5680091348685
 20
189.0827123145413
 30
0.0
 11
201.5680091348686
 21
189.0827123145417
 31
0.0
  0
LINE
  5
519
330
2
100
AcDbEntity
  8
Dims
100
AcDbLine
 10
200.5680091348685
 20
190.0827123145417
 30
0.0
 11
201.5680091348686
 21
190.0827123145413
 31
0.0
  0
LINE
  5
51A
330
2
100
AcDbEntity
  8
Dims
100
AcDbLine
 10
201.3180091348686
 20
190.9741336707784
 30
0.0
 11
200.9265877786312
 21
190.5827123145413
 31
0.0
  0
LINE
  5
51B
330
2
100
AcDbEntity
  8
Dims
100
AcDbLine
 10
201.3180091348686
 20
191.0827123145413
 30
0.0
 11
200.0680091348685
 21
191.0827123145413
 31
0.0
  0
LINE
  5
51C
330
2
100
AcDbEntity
  8
Dims
100
AcDbLine
 10
201.3180091348686
 20
190.8327123145413
 30
0.0
 11
201.0680091348685
 21
190.5827123145413
 31
0.0
  0
LINE
  5
51D
330
2
100
AcDbEntity
  8
Dims
100
AcDbLine
 10
202.2094304911059
 20
190.5827123145413
 30
0.0
 11
200.9265877786312
 21
190.5827123145413
 31
0.0
  0
LINE
  5
51E
330
2
100
AcDbEntity
  8
Dims
100
AcDbLine
 10
200.8180091348685
 20
189.3327123145414
 30
0.0
 11
201.3180091348686
 21
189.3327123145417
 31
0.0
  0
LINE
  5
51F
330
2
100
AcDbEntity
  8
Dims
100
AcDbLine
 10
200.8180091348685
 20
189.8327123145414
 30
0.0
 11
201.3180091348686
 21
189.8327123145413
 31
0.0
  0
LINE
  5
520
330
2
100
AcDbEntity
  8
Dims
100
AcDbLine
 10
201.2180091348687
 20
190.9827123145412
 30
0.0
 11
200.0680091348685
 21
190.9827123145412
 31
0.0
  0
LINE
  5
521
330
2
100
AcDbEntity
  8
Dims
100
AcDbLine
 10
200.9180091348687
 20
187.4327123145415
 30
0.0
 11
201.2180091348687
 21
187.4327123145415
 31
0.0
  0
LINE
  5
522
330
2
100
AcDbEntity
  8
Dims
100
AcDbLine
 10
200.9180091348687
 20
187.7327123145413
 30
0.0
 11
201.2180091348687
 21
187.7327123145413
 31
0.0
  0
LINE
  5
523
330
2
100
AcDbEntity
  8
Dims
100
AcDbLine
 10
200.9180091348687
 20
189.4327123145416
 30
0.0
 11
201.2180091348687
 21
189.4327123145416
 31
0.0
  0
LINE
  5
524
330
2
100
AcDbEntity
  8
Dims
100
AcDbLine
 10
200.9180091348687
 20
189.7327123145415
 30
0.0
 11
201.2180091348687
 21
189.7327123145415
 31
0.0
  0
LINE
  5
525
330
2
100
AcDbEntity
  8
Dims
100
AcDbLine
 10
200.9180091348687
 20
185.4327123145416
 30
0.0
 11
201.2180091348687
 21
185.4327123145416
 31
0.0
  0
LINE
  5
526
330
2
100
AcDbEntity
  8
Dims
100
AcDbLine
 10
200.9180091348687
 20
185.7327123145415
 30
0.0
 11
201.2180091348687
 21
185.7327123145415
 31
0.0
  0
LINE
  5
527
330
2
100
AcDbEntity
  8
Dims
100
AcDbLine
 10
200.9180091348687
 20
183.7327123145413
 30
0.0
 11
201.2180091348687
 21
183.7327123145413
 31
0.0
  0
LINE
  5
528
330
2
100
AcDbEntity
  8
Dims
100
AcDbLine
 10
200.9180091348687
 20
183.4327123145414
 30
0.0
 11
201.2180091348687
 21
183.4327123145414
 31
0.0
  0
LINE
  5
529
330
2
100
AcDbEntity
  8
Dims
100
AcDbLine
 10
200.9180091348687
 20
181.7327123145413
 30
0.0
 11
201.2180091348687
 21
181.7327123145415
 31
0.0
  0
LINE
  5
52A
330
2
100
AcDbEntity
  8
Dims
100
AcDbLine
 10
200.9180091348687
 20
181.4327123145416
 30
0.0
 11
201.2180091348687
 21
181.4327123145416
 31
0.0
  0
LINE
  5
52B
330
2
100
AcDbEntity
  8
Object
100
AcDbLine
 10
203.5680091348708
 20
192.0827123145419
 30
0.0
 11
200.5680091348708
 21
192.0827123145419
 31
0.0
  0
LINE
  5
52C
330
2
100
AcDbEntity
  8
Dims
100
AcDbLine
 10
203.2680091348685
 20
191.5827123145412
 30
0.0
 11
199.0680091348685
 21
191.5827123145412
 31
0.0
  0
LINE
  5
52D
330
2
100
AcDbEntity
  8
Dims
100
AcDbLine
 10
200.1680091348685
 20
191.0827123145413
 30
0.0
 11
200.1680091348687
 21
178.5827123145413
 31
0.0
  0
LINE
  5
52E
330
2
100
AcDbEntity
  8
Dims
100
AcDbLine
 10
200.0680091348685
 20
191.0827123145413
 30
0.0
 11
200.0680091348686
 21
178.5827123145413
 31
0.0
  0
LINE
  5
52F
330
2
100
AcDbEntity
  8
Dims
100
AcDbLine
 10
200.9180091348687
 20
177.7327123145412
 30
0.0
 11
200.5680091348685
 21
178.0827123145413
 31
0.0
  0
LINE
  5
530
330
2
100
AcDbEntity
  8
Dims
100
AcDbLine
 10
200.9180091348687
 20
177.4327123145412
 30
0.0
 11
200.5680091348685
 21
177.0827123145411
 31
0.0
  0
LINE
  5
531
330
2
100
AcDbEntity
  8
Dims
100
AcDbLine
 10
200.5680091348685
 20
177.0827123145411
 30
0.0
 11
200.5680091348685
 21
178.0827123145413
 31
0.0
  0
LINE
  5
532
330
2
100
AcDbEntity
  8
Dims
100
AcDbLine
 10
200.9180091348685
 20
177.4327123145413
 30
0.0
 11
200.9180091348685
 21
177.7327123145412
 31
0.0
  0
LINE
  5
533
330
2
100
AcDbEntity
  8
Dims
100
AcDbLine
 10
200.8180091348685
 20
177.3327123145412
 30
0.0
 11
200.8180091348685
 21
177.8327123145412
 31
0.0
  0
LINE
  5
534
330
2
100
AcDbEntity
  8
Dims
100
AcDbLine
 10
200.8180091348685
 20
179.8327123145414
 30
0.0
 11
200.8180091348685
 21
179.3327123145414
 31
0.0
  0
LINE
  5
535
330
2
100
AcDbEntity
  8
Dims
100
AcDbLine
 10
200.9180091348687
 20
179.7327123145412
 30
0.0
 11
200.9180091348687
 21
179.4327123145414
 31
0.0
  0
LINE
  5
536
330
2
100
AcDbEntity
  8
Dims
100
AcDbLine
 10
200.5680091348685
 20
180.0827123145414
 30
0.0
 11
200.5680091348685
 21
179.0827123145412
 31
0.0
  0
LINE
  5
537
330
2
100
AcDbEntity
  8
Dims
100
AcDbLine
 10
200.9180091348687
 20
179.7327123145412
 30
0.0
 11
200.5680091348685
 21
180.0827123145414
 31
0.0
  0
LINE
  5
538
330
2
100
AcDbEntity
  8
Dims
100
AcDbLine
 10
200.9180091348687
 20
179.4327123145414
 30
0.0
 11
200.5680091348685
 21
179.0827123145412
 31
0.0
  0
LINE
  5
539
330
2
100
AcDbEntity
  8
Dims
100
AcDbLine
 10
200.8180091348685
 20
187.8327123145414
 30
0.0
 11
200.8180091348685
 21
187.3327123145415
 31
0.0
  0
LINE
  5
53A
330
2
100
AcDbEntity
  8
Dims
100
AcDbLine
 10
200.9180091348687
 20
187.7327123145412
 30
0.0
 11
200.9180091348687
 21
187.4327123145415
 31
0.0
  0
LINE
  5
53B
330
2
100
AcDbEntity
  8
Dims
100
AcDbLine
 10
200.5680091348685
 20
188.0827123145417
 30
0.0
 11
200.5680091348685
 21
187.0827123145413
 31
0.0
  0
LINE
  5
53C
330
2
100
AcDbEntity
  8
Dims
100
AcDbLine
 10
200.9180091348687
 20
187.7327123145413
 30
0.0
 11
200.5680091348685
 21
188.0827123145417
 31
0.0
  0
LINE
  5
53D
330
2
100
AcDbEntity
  8
Dims
100
AcDbLine
 10
200.9180091348687
 20
187.4327123145415
 30
0.0
 11
200.5680091348685
 21
187.0827123145413
 31
0.0
  0
LINE
  5
53E
330
2
100
AcDbEntity
  8
Dims
100
AcDbLine
 10
200.9180091348687
 20
189.4327123145416
 30
0.0
 11
200.5680091348685
 21
189.0827123145413
 31
0.0
  0
LINE
  5
53F
330
2
100
AcDbEntity
  8
Dims
100
AcDbLine
 10
200.9180091348687
 20
189.7327123145415
 30
0.0
 11
200.5680091348685
 21
190.0827123145417
 31
0.0
  0
LINE
  5
540
330
2
100
AcDbEntity
  8
Dims
100
AcDbLine
 10
200.9180091348687
 20
189.7327123145413
 30
0.0
 11
200.9180091348687
 21
189.4327123145416
 31
0.0
  0
LINE
  5
541
330
2
100
AcDbEntity
  8
Dims
100
AcDbLine
 10
200.8180091348685
 20
189.8327123145414
 30
0.0
 11
200.8180091348685
 21
189.3327123145414
 31
0.0
  0
LINE
  5
542
330
2
100
AcDbEntity
  8
Dims
100
AcDbLine
 10
200.5680091348685
 20
190.0827123145417
 30
0.0
 11
200.5680091348685
 21
189.0827123145413
 31
0.0
  0
LINE
  5
543
330
2
100
AcDbEntity
  8
Dims
100
AcDbLine
 10
200.8180091348685
 20
185.8327123145414
 30
0.0
 11
200.8180091348685
 21
185.3327123145414
 31
0.0
  0
LINE
  5
544
330
2
100
AcDbEntity
  8
Dims
100
AcDbLine
 10
200.9180091348687
 20
185.7327123145413
 30
0.0
 11
200.9180091348687
 21
185.4327123145416
 31
0.0
  0
LINE
  5
545
330
2
100
AcDbEntity
  8
Dims
100
AcDbLine
 10
200.5680091348685
 20
186.0827123145417
 30
0.0
 11
200.5680091348685
 21
185.0827123145413
 31
0.0
  0
LINE
  5
546
330
2
100
AcDbEntity
  8
Dims
100
AcDbLine
 10
200.9180091348687
 20
185.7327123145415
 30
0.0
 11
200.5680091348685
 21
186.0827123145417
 31
0.0
  0
LINE
  5
547
330
2
100
AcDbEntity
  8
Dims
100
AcDbLine
 10
200.9180091348687
 20
185.4327123145416
 30
0.0
 11
200.5680091348685
 21
185.0827123145413
 31
0.0
  0
LINE
  5
548
330
2
100
AcDbEntity
  8
Dims
100
AcDbLine
 10
200.9180091348687
 20
183.4327123145414
 30
0.0
 11
200.5680091348685
 21
183.0827123145412
 31
0.0
  0
LINE
  5
549
330
2
100
AcDbEntity
  8
Dims
100
AcDbLine
 10
200.9180091348687
 20
183.7327123145413
 30
0.0
 11
200.5680091348685
 21
184.0827123145417
 31
0.0
  0
LINE
  5
54A
330
2
100
AcDbEntity
  8
Dims
100
AcDbLine
 10
200.5680091348685
 20
184.0827123145417
 30
0.0
 11
200.5680091348685
 21
183.0827123145412
 31
0.0
  0
LINE
  5
54B
330
2
100
AcDbEntity
  8
Dims
100
AcDbLine
 10
200.9180091348687
 20
183.7327123145412
 30
0.0
 11
200.9180091348687
 21
183.4327123145414
 31
0.0
  0
LINE
  5
54C
330
2
100
AcDbEntity
  8
Dims
100
AcDbLine
 10
200.8180091348685
 20
183.8327123145414
 30
0.0
 11
200.8180091348685
 21
183.3327123145414
 31
0.0
  0
LINE
  5
54D
330
2
100
AcDbEntity
  8
Dims
100
AcDbLine
 10
200.9180091348687
 20
181.4327123145416
 30
0.0
 11
200.5680091348685
 21
181.0827123145413
 31
0.0
  0
LINE
  5
54E
330
2
100
AcDbEntity
  8
Dims
100
AcDbLine
 10
200.9180091348687
 20
181.7327123145413
 30
0.0
 11
200.5680091348685
 21
182.0827123145414
 31
0.0
  0
LINE
  5
54F
330
2
100
AcDbEntity
  8
Dims
100
AcDbLine
 10
200.5680091348685
 20
182.0827123145414
 30
0.0
 11
200.5680091348685
 21
181.0827123145413
 31
0.0
  0
LINE
  5
550
330
2
100
AcDbEntity
  8
Dims
100
AcDbLine
 10
200.9180091348687
 20
181.7327123145413
 30
0.0
 11
200.9180091348687
 21
181.4327123145416
 31
0.0
  0
LINE
  5
551
330
2
100
AcDbEntity
  8
Dims
100
AcDbLine
 10
200.8180091348685
 20
181.8327123145414
 30
0.0
 11
200.8180091348685
 21
181.3327123145414
 31
0.0
  0
ARC
  5
552
330
2
100
AcDbEntity
  8
Object
100
AcDbCircle
 10
200.5680091348708
 20
192.5827123145419
 30
0.0
 40
0.5
100
AcDbArc
 50
180.0
 51
270.0
  0
LINE
  5
553
330
2
100
AcDbEntity
  8
Object
100
AcDbLine
 10
200.0680091348688
 20
197.0827123145414
 30
0.0
 11
200.0680091348688
 21
192.0827123145411
 31
0.0
  0
LINE
  5
554
330
2
100
AcDbEntity
  8
Dims
100
AcDbLine
 10
199.5680091348685
 20
191.0827123145413
 30
0.0
 11
199.5680091348687
 21
178.5827123145413
 31
0.0
  0
LINE
  5
555
330
2
100
AcDbEntity
  8
Dims
100
AcDbLine
 10
199.0680091348687
 20
181.0827123145417
 30
0.0
 11
199.0680091348687
 21
180.0827123145412
 31
0.0
  0
LINE
  5
556
330
2
100
AcDbEntity
  8
Object
100
AcDbLine
 10
199.0680091348688
 20
192.0827123145411
 30
0.0
 11
199.0680091348688
 21
178.582712314541
 31
0.0
  0
LINE
  5
557
330
2
100
AcDbEntity
  8
Dims
100
AcDbLine
 10
199.0680091348687
 20
177.0827123145414
 30
0.0
 11
199.5680091348687
 21
177.0827123145414
 31
0.0
  0
LINE
  5
558
330
2
100
AcDbEntity
  8
Dims
100
AcDbLine
 10
199.0680091348687
 20
178.0827123145412
 30
0.0
 11
199.5680091348687
 21
178.0827123145412
 31
0.0
  0
LINE
  5
559
330
2
100
AcDbEntity
  8
Dims
100
AcDbLine
 10
199.0680091348687
 20
179.0827123145417
 30
0.0
 11
199.5680091348687
 21
179.0827123145414
 31
0.0
  0
LINE
  5
55A
330
2
100
AcDbEntity
  8
Dims
100
AcDbLine
 10
199.0680091348687
 20
180.0827123145412
 30
0.0
 11
199.5680091348687
 21
180.0827123145412
 31
0.0
  0
LINE
  5
55B
330
2
100
AcDbEntity
  8
Dims
100
AcDbLine
 10
199.0680091348687
 20
179.0827123145417
 30
0.0
 11
199.0680091348687
 21
178.0827123145412
 31
0.0
  0
LINE
  5
55C
330
2
100
AcDbEntity
  8
Dims
100
AcDbLine
 10
199.5680091348685
 20
191.0827123145413
 30
0.0
 11
199.0680091348685
 21
191.0827123145413
 31
0.0
  0
LINE
  5
55D
330
2
100
AcDbEntity
  8
Dims
100
AcDbLine
 10
199.5680091348685
 20
190.8327123145413
 30
0.0
 11
199.0680091348685
 21
190.8327123145413
 31
0.0
  0
LINE
  5
55E
330
2
100
AcDbEntity
  8
Dims
100
AcDbLine
 10
199.0680091348687
 20
187.0827123145417
 30
0.0
 11
199.5680091348685
 21
187.0827123145417
 31
0.0
  0
LINE
  5
55F
330
2
100
AcDbEntity
  8
Dims
100
AcDbLine
 10
199.5680091348685
 20
190.0827123145413
 30
0.0
 11
199.0680091348685
 21
190.0827123145413
 31
0.0
  0
LINE
  5
560
330
2
100
AcDbEntity
  8
Dims
100
AcDbLine
 10
199.0680091348687
 20
183.0827123145417
 30
0.0
 11
199.5680091348687
 21
183.0827123145417
 31
0.0
  0
LINE
  5
561
330
2
100
AcDbEntity
  8
Dims
100
AcDbLine
 10
199.0680091348687
 20
184.0827123145412
 30
0.0
 11
199.5680091348687
 21
184.0827123145412
 31
0.0
  0
LINE
  5
562
330
2
100
AcDbEntity
  8
Dims
100
AcDbLine
 10
199.0680091348687
 20
185.0827123145417
 30
0.0
 11
199.5680091348687
 21
185.0827123145417
 31
0.0
  0
LINE
  5
563
330
2
100
AcDbEntity
  8
Dims
100
AcDbLine
 10
199.0680091348687
 20
186.0827123145412
 30
0.0
 11
199.5680091348687
 21
186.0827123145412
 31
0.0
  0
LINE
  5
564
330
2
100
AcDbEntity
  8
Dims
100
AcDbLine
 10
199.0680091348687
 20
182.0827123145412
 30
0.0
 11
199.5680091348687
 21
182.0827123145412
 31
0.0
  0
LINE
  5
565
330
2
100
AcDbEntity
  8
Dims
100
AcDbLine
 10
199.0680091348687
 20
181.0827123145417
 30
0.0
 11
199.5680091348687
 21
181.0827123145417
 31
0.0
  0
LINE
  5
566
330
2
100
AcDbEntity
  8
Dims
100
AcDbLine
 10
199.0680091348687
 20
187.0827123145417
 30
0.0
 11
199.0680091348687
 21
186.0827123145412
 31
0.0
  0
LINE
  5
567
330
2
100
AcDbEntity
  8
Dims
100
AcDbLine
 10
199.0680091348685
 20
191.5827123145412
 30
0.0
 11
199.0680091348685
 21
190.0827123145413
 31
0.0
  0
LINE
  5
568
330
2
100
AcDbEntity
  8
Dims
100
AcDbLine
 10
199.0680091348687
 20
183.0827123145417
 30
0.0
 11
199.0680091348687
 21
182.0827123145412
 31
0.0
  0
LINE
  5
569
330
2
100
AcDbEntity
  8
Dims
100
AcDbLine
 10
199.0680091348687
 20
185.0827123145417
 30
0.0
 11
199.0680091348687
 21
184.0827123145412
 31
0.0
  0
LINE
  5
56A
330
2
100
AcDbEntity
  8
Object
100
AcDbLine
 10
200.0680091348688
 20
192.0827123145411
 30
0.0
 11
199.0680091348688
 21
192.0827123145412
 31
0.0
  0
LINE
  5
56B
330
2
100
AcDbEntity
  8
Dims
100
AcDbLine
 10
203.2680091348685
 20
191.5827123145412
 30
0.0
 11
203.2680091348685
 21
178.5827123145413
 31
0.0
  0
LINE
  5
56C
330
2
100
AcDbEntity
  8
Dims
100
AcDbLine
 10
201.2180091348687
 20
177.4327123145412
 30
0.0
 11
201.2180091348687
 21
177.7327123145412
 31
0.0
  0
LINE
  5
56D
330
2
100
AcDbEntity
  8
Dims
100
AcDbLine
 10
201.5680091348686
 20
177.0827123145413
 30
0.0
 11
201.5680091348686
 21
178.082712314541
 31
0.0
  0
LINE
  5
56E
330
2
100
AcDbEntity
  8
Dims
100
AcDbLine
 10
201.3180091348686
 20
177.3327123145413
 30
0.0
 11
201.3180091348686
 21
177.8327123145411
 31
0.0
  0
LINE
  5
56F
330
2
100
AcDbEntity
  8
Dims
100
AcDbLine
 10
201.5680091348686
 20
179.0827123145417
 30
0.0
 11
201.2180091348687
 21
179.4327123145414
 31
0.0
  0
LINE
  5
570
330
2
100
AcDbEntity
  8
Dims
100
AcDbLine
 10
201.5680091348686
 20
180.0827123145412
 30
0.0
 11
201.2180091348688
 21
179.7327123145415
 31
0.0
  0
LINE
  5
571
330
2
100
AcDbEntity
  8
Dims
100
AcDbLine
 10
201.2180091348687
 20
179.7327123145415
 30
0.0
 11
201.2180091348687
 21
179.4327123145414
 31
0.0
  0
LINE
  5
572
330
2
100
AcDbEntity
  8
Dims
100
AcDbLine
 10
201.3180091348686
 20
179.8327123145413
 30
0.0
 11
201.3180091348686
 21
179.3327123145414
 31
0.0
  0
LINE
  5
573
330
2
100
AcDbEntity
  8
Dims
100
AcDbLine
 10
201.5680091348686
 20
180.0827123145412
 30
0.0
 11
201.5680091348686
 21
179.0827123145417
 31
0.0
  0
LINE
  5
574
330
2
100
AcDbEntity
  8
Dims
100
AcDbLine
 10
201.5680091348686
 20
177.0827123145413
 30
0.0
 11
201.2180091348688
 21
177.4327123145412
 31
0.0
  0
LINE
  5
575
330
2
100
AcDbEntity
  8
Dims
100
AcDbLine
 10
201.5680091348686
 20
178.082712314541
 30
0.0
 11
201.2180091348687
 21
177.7327123145412
 31
0.0
  0
LINE
  5
576
330
2
100
AcDbEntity
  8
Dims
100
AcDbLine
 10
201.5680091348686
 20
182.0827123145412
 30
0.0
 11
201.2180091348688
 21
181.7327123145415
 31
0.0
  0
LINE
  5
577
330
2
100
AcDbEntity
  8
Dims
100
AcDbLine
 10
201.5680091348686
 20
181.0827123145417
 30
0.0
 11
201.2180091348687
 21
181.4327123145416
 31
0.0
  0
LINE
  5
578
330
2
100
AcDbEntity
  8
Dims
100
AcDbLine
 10
201.5680091348686
 20
185.0827123145417
 30
0.0
 11
201.2180091348687
 21
185.4327123145416
 31
0.0
  0
LINE
  5
579
330
2
100
AcDbEntity
  8
Dims
100
AcDbLine
 10
201.5680091348686
 20
186.0827123145412
 30
0.0
 11
201.2180091348688
 21
185.7327123145415
 31
0.0
  0
LINE
  5
57A
330
2
100
AcDbEntity
  8
Dims
100
AcDbLine
 10
201.5680091348686
 20
184.0827123145412
 30
0.0
 11
201.2180091348688
 21
183.7327123145413
 31
0.0
  0
LINE
  5
57B
330
2
100
AcDbEntity
  8
Dims
100
AcDbLine
 10
201.5680091348686
 20
183.0827123145417
 30
0.0
 11
201.2180091348687
 21
183.4327123145414
 31
0.0
  0
LINE
  5
57C
330
2
100
AcDbEntity
  8
Dims
100
AcDbLine
 10
201.5680091348686
 20
187.0827123145417
 30
0.0
 11
201.2180091348687
 21
187.4327123145415
 31
0.0
  0
LINE
  5
57D
330
2
100
AcDbEntity
  8
Dims
100
AcDbLine
 10
201.5680091348686
 20
188.0827123145413
 30
0.0
 11
201.2180091348688
 21
187.7327123145413
 31
0.0
  0
LINE
  5
57E
330
2
100
AcDbEntity
  8
Dims
100
AcDbLine
 10
201.5680091348686
 20
189.0827123145417
 30
0.0
 11
201.2180091348687
 21
189.4327123145416
 31
0.0
  0
LINE
  5
57F
330
2
100
AcDbEntity
  8
Dims
100
AcDbLine
 10
201.5680091348686
 20
190.0827123145413
 30
0.0
 11
201.2180091348688
 21
189.7327123145415
 31
0.0
  0
LINE
  5
580
330
2
100
AcDbEntity
  8
Dims
100
AcDbLine
 10
201.9680091348687
 20
190.6827123145412
 30
0.0
 11
201.1680091348687
 21
190.6827123145413
 31
0.0
  0
LINE
  5
581
330
2
100
AcDbEntity
  8
Dims
100
AcDbLine
 10
201.2180091348687
 20
190.8741336707786
 30
0.0
 11
201.2180091348687
 21
191.0827123145413
 31
0.0
  0
LINE
  5
582
330
2
100
AcDbEntity
  8
Dims
100
AcDbLine
 10
201.2180091348687
 20
187.7327123145413
 30
0.0
 11
201.2180091348687
 21
187.4327123145415
 31
0.0
  0
LINE
  5
583
330
2
100
AcDbEntity
  8
Dims
100
AcDbLine
 10
201.2180091348687
 20
189.7327123145415
 30
0.0
 11
201.2180091348687
 21
189.4327123145416
 31
0.0
  0
LINE
  5
584
330
2
100
AcDbEntity
  8
Dims
100
AcDbLine
 10
201.2180091348687
 20
185.7327123145415
 30
0.0
 11
201.2180091348687
 21
185.4327123145416
 31
0.0
  0
LINE
  5
585
330
2
100
AcDbEntity
  8
Dims
100
AcDbLine
 10
201.2180091348687
 20
183.7327123145413
 30
0.0
 11
201.2180091348687
 21
183.4327123145414
 31
0.0
  0
LINE
  5
586
330
2
100
AcDbEntity
  8
Dims
100
AcDbLine
 10
201.2180091348687
 20
181.7327123145415
 30
0.0
 11
201.2180091348687
 21
181.4327123145416
 31
0.0
  0
LINE
  5
587
330
2
100
AcDbEntity
  8
Dims
100
AcDbLine
 10
201.9180091348685
 20
190.8741336707786
 30
0.0
 11
201.9180091348685
 21
191.0827123145413
 31
0.0
  0
LINE
  5
588
330
2
100
AcDbEntity
  8
Dims
100
AcDbLine
 10
202.2094304911059
 20
190.5827123145413
 30
0.0
 11
201.8180091348686
 21
190.9741336707787
 31
0.0
  0
LINE
  5
589
330
2
100
AcDbEntity
  8
Dims
100
AcDbLine
 10
202.0680091348685
 20
190.5827123145413
 30
0.0
 11
201.8180091348686
 21
190.8327123145413
 31
0.0
  0
LINE
  5
58A
330
2
100
AcDbEntity
  8
Dims
100
AcDbLine
 10
201.3180091348686
 20
190.8327123145413
 30
0.0
 11
201.3180091348686
 21
191.0827123145413
 31
0.0
  0
LINE
  5
58B
330
2
100
AcDbEntity
  8
Dims
100
AcDbLine
 10
201.8180091348686
 20
190.8327123145413
 30
0.0
 11
201.8180091348686
 21
191.0827123145413
 31
0.0
  0
LINE
  5
58C
330
2
100
AcDbEntity
  8
Dims
100
AcDbLine
 10
201.3180091348686
 20
187.8327123145413
 30
0.0
 11
201.3180091348686
 21
187.3327123145417
 31
0.0
  0
LINE
  5
58D
330
2
100
AcDbEntity
  8
Dims
100
AcDbLine
 10
201.5680091348686
 20
188.0827123145413
 30
0.0
 11
201.5680091348686
 21
187.0827123145417
 31
0.0
  0
LINE
  5
58E
330
2
100
AcDbEntity
  8
Dims
100
AcDbLine
 10
201.3180091348686
 20
189.8327123145413
 30
0.0
 11
201.3180091348686
 21
189.3327123145417
 31
0.0
  0
LINE
  5
58F
330
2
100
AcDbEntity
  8
Dims
100
AcDbLine
 10
201.5680091348686
 20
190.0827123145413
 30
0.0
 11
201.5680091348686
 21
189.0827123145417
 31
0.0
  0
LINE
  5
590
330
2
100
AcDbEntity
  8
Dims
100
AcDbLine
 10
201.3180091348686
 20
185.8327123145413
 30
0.0
 11
201.3180091348686
 21
185.3327123145417
 31
0.0
  0
LINE
  5
591
330
2
100
AcDbEntity
  8
Dims
100
AcDbLine
 10
201.5680091348686
 20
186.0827123145412
 30
0.0
 11
201.5680091348686
 21
185.0827123145417
 31
0.0
  0
LINE
  5
592
330
2
100
AcDbEntity
  8
Dims
100
AcDbLine
 10
201.5680091348686
 20
184.0827123145412
 30
0.0
 11
201.5680091348686
 21
183.0827123145417
 31
0.0
  0
LINE
  5
593
330
2
100
AcDbEntity
  8
Dims
100
AcDbLine
 10
201.3180091348686
 20
183.8327123145413
 30
0.0
 11
201.3180091348686
 21
183.3327123145417
 31
0.0
  0
LINE
  5
594
330
2
100
AcDbEntity
  8
Dims
100
AcDbLine
 10
201.5680091348686
 20
182.0827123145412
 30
0.0
 11
201.5680091348686
 21
181.0827123145417
 31
0.0
  0
LINE
  5
595
330
2
100
AcDbEntity
  8
Dims
100
AcDbLine
 10
201.3180091348686
 20
181.8327123145413
 30
0.0
 11
201.3180091348686
 21
181.3327123145414
 31
0.0
  0
LINE
  5
596
330
2
100
AcDbEntity
  8
Dims
100
AcDbLine
 10
203.2680091348685
 20
190.9827123145412
 30
0.0
 11
201.9180091348685
 21
190.9827123145412
 31
0.0
  0
LINE
  5
597
330
2
100
AcDbEntity
  8
Dims
100
AcDbLine
 10
203.2680091348685
 20
191.0827123145413
 30
0.0
 11
201.8180091348686
 21
191.0827123145413
 31
0.0
  0
ARC
  5
598
330
2
100
AcDbEntity
  8
Object
 48
0.5
100
AcDbCircle
 10
201.1681736156763
 20
199.6398190957282
 30
0.0
 40
0.25
100
AcDbArc
 50
0.0
 51
105.3174980661895
  0
ARC
  5
599
330
2
100
AcDbEntity
  8
Object
 48
0.5
100
AcDbCircle
 10
201.8180091348653
 20
199.1827123145417
 30
0.0
 40
1.0
100
AcDbArc
 50
90.0
 51
180.0
  0
LINE
  5
59A
330
2
100
AcDbEntity
  8
Object
100
AcDbLine
 10
200.4180091348692
 20
197.8827123145417
 30
0.0
 11
200.4180091348689
 21
198.482712314542
 31
0.0
  0
LINE
  5
59B
330
2
100
AcDbEntity
  8
Object
 48
0.5
100
AcDbLine
 10
200.8180091348653
 20
199.1827123145417
 30
0.0
 11
200.8180091348653
 21
198.482712314542
 31
0.0
  0
LINE
  5
59C
330
2
100
AcDbEntity
  8
Object
 48
0.5
100
AcDbLine
 10
200.9181736156761
 20
199.6189416560495
 30
0.0
 11
200.9181736156761
 21
198.4827123145418
 31
0.0
  0
LINE
  5
59D
330
2
100
AcDbEntity
  8
Object
 48
0.5
100
AcDbLine
 10
203.5680091348654
 20
199.3898190957282
 30
0.0
 11
203.5680091348654
 21
198.4827123145418
 31
0.0
  0
LINE
  5
59E
330
2
100
AcDbEntity
  8
Object
 48
0.5
100
AcDbLine
 10
202.5680091348653
 20
199.3898190957282
 30
0.0
 11
202.5680091348653
 21
198.4827123145418
 31
0.0
  0
LINE
  5
59F
330
2
100
AcDbEntity
  8
Object
 48
0.5
100
AcDbLine
 10
201.4181736156765
 20
199.6398190957282
 30
0.0
 11
201.4181736156765
 21
198.4827123145418
 31
0.0
  0
ARC
  5
5A0
330
2
100
AcDbEntity
  8
Object
 48
0.5
100
AcDbCircle
 10
203.0680091348573
 20
199.3898190957282
 30
0.0
 40
0.5
100
AcDbArc
 50
0.0
 51
180.0
  0
LINE
  5
5A1
330
2
100
AcDbEntity
  8
Object
100
AcDbLine
 10
207.0680091348688
 20
197.0827123145414
 30
0.0
 11
207.0680091348688
 21
197.8827123145417
 31
0.0
  0
ARC
  5
5A2
330
2
100
AcDbEntity
  8
Object
100
AcDbCircle
 10
207.0680091348708
 20
196.0827123145419
 30
0.0
 40
0.8
100
AcDbArc
 50
0.0
 51
90.0
  0
ARC
  5
5A3
330
2
100
AcDbEntity
  8
Object
 48
0.5
100
AcDbCircle
 10
209.6251159160555
 20
191.6828767953487
 30
0.0
 40
0.25
100
AcDbArc
 50
344.6825019338103
 51
90.0
  0
ARC
  5
5A4
330
2
100
AcDbEntity
  8
Object
 48
0.5
100
AcDbCircle
 10
209.6251159160555
 20
195.4825478337338
 30
0.0
 40
0.25
100
AcDbArc
 50
270.0
 51
15.31749806618966
  0
ARC
  5
5A5
330
2
100
AcDbEntity
  8
Object
 48
0.5
100
AcDbCircle
 10
209.3751159160555
 20
193.5827123145297
 30
0.0
 40
0.5
100
AcDbArc
 50
270.0
 51
90.0
  0
LINE
  5
5A6
330
2
100
AcDbEntity
  8
Object
 48
0.5
100
AcDbLine
 10
210.1680091348691
 20
192.3327123145376
 30
0.0
 11
210.1680091348691
 21
194.8327123145376
 31
0.0
  0
LINE
  5
5A7
330
2
100
AcDbEntity
  8
Object
100
AcDbLine
 10
207.8680091348688
 20
190.9327123145413
 30
0.0
 11
208.4680091348691
 21
190.9327123145412
 31
0.0
  0
LINE
  5
5A8
330
2
100
AcDbEntity
  8
Object
100
AcDbLine
 10
207.8680091348688
 20
196.2327123145412
 30
0.0
 11
208.4680091348691
 21
196.2327123145412
 31
0.0
  0
LINE
  5
5A9
330
2
100
AcDbEntity
  8
Object
 48
0.5
100
AcDbLine
 10
208.4680091348691
 20
190.9327123145412
 30
0.0
 11
208.4680091348691
 21
196.2327123145412
 31
0.0
  0
LINE
  5
5AA
330
2
100
AcDbEntity
  8
Object
 48
0.5
100
AcDbLine
 10
207.8680091348688
 20
196.2327123145412
 30
0.0
 11
207.8680091348688
 21
190.9327123145413
 31
0.0
  0
LINE
  5
5AB
330
2
100
AcDbEntity
  8
Object
 48
0.5
100
AcDbLine
 10
209.1680091348691
 20
191.3327123145377
 30
0.0
 11
208.4680091348692
 21
191.3327123145377
 31
0.0
  0
LINE
  5
5AC
330
2
100
AcDbEntity
  8
Object
 48
0.5
100
AcDbLine
 10
209.3751159160555
 20
193.0827123145375
 30
0.0
 11
208.4680091348691
 21
193.0827123145375
 31
0.0
  0
LINE
  5
5AD
330
2
100
AcDbEntity
  8
Object
 48
0.5
100
AcDbLine
 10
209.6251159160555
 20
191.9328767953488
 30
0.0
 11
208.4680091348691
 21
191.9328767953488
 31
0.0
  0
LINE
  5
5AE
330
2
100
AcDbEntity
  8
Object
 48
0.5
100
AcDbLine
 10
209.6042384763767
 20
191.4328767953484
 30
0.0
 11
208.4680091348689
 21
191.4328767953484
 31
0.0
  0
LINE
  5
5AF
330
2
100
AcDbEntity
  8
Object
 48
0.5
100
AcDbLine
 10
209.1680091348691
 20
195.8327123145377
 30
0.0
 11
208.4680091348692
 21
195.8327123145377
 31
0.0
  0
LINE
  5
5B0
330
2
100
AcDbEntity
  8
Object
 48
0.5
100
AcDbLine
 10
209.6251159160555
 20
195.2325478337336
 30
0.0
 11
208.4680091348691
 21
195.2325478337336
 31
0.0
  0
LINE
  5
5B1
330
2
100
AcDbEntity
  8
Object
 48
0.5
100
AcDbLine
 10
209.6042384763767
 20
195.7325478337342
 30
0.0
 11
208.4680091348689
 21
195.7325478337342
 31
0.0
  0
LINE
  5
5B2
330
2
100
AcDbEntity
  8
Object
 48
0.5
100
AcDbLine
 10
209.3751159160555
 20
194.0827123145376
 30
0.0
 11
208.4680091348691
 21
194.0827123145376
 31
0.0
  0
LINE
  5
5B3
330
2
100
AcDbEntity
  8
Object
 48
0.5
100
AcDbLine
 10
205.3180091348653
 20
199.1827123145417
 30
0.0
 11
205.3180091348653
 21
198.482712314542
 31
0.0
  0
LINE
  5
5B4
330
2
100
AcDbEntity
  8
Object
 48
0.5
100
AcDbLine
 10
204.7178446540613
 20
199.6398190957282
 30
0.0
 11
204.7178446540613
 21
198.4827123145418
 31
0.0
  0
LINE
  5
5B5
330
2
100
AcDbEntity
  8
Object
 48
0.5
100
AcDbLine
 10
205.2178446540619
 20
199.6189416560495
 30
0.0
 11
205.2178446540619
 21
198.4827123145418
 31
0.0
  0
ARC
  5
5B6
330
2
100
AcDbEntity
  8
Object
 48
0.5
100
AcDbCircle
 10
204.9678446540617
 20
199.6398190957282
 30
0.0
 40
0.25
100
AcDbArc
 50
74.68250193381033
 51
180.0
  0
ARC
  5
5B7
330
2
100
AcDbEntity
  8
Object
 48
0.5
100
AcDbCircle
 10
204.3180091348653
 20
199.1827123145417
 30
0.0
 40
1.0
100
AcDbArc
 50
0.0
 51
90.0
  0
LINE
  5
5B8
330
2
100
AcDbEntity
  8
Object
100
AcDbLine
 10
205.7180091348689
 20
197.8827123145417
 30
0.0
 11
205.7180091348689
 21
198.482712314542
 31
0.0
  0
LINE
  5
5B9
330
2
100
AcDbEntity
  8
Object
 48
0.5
100
AcDbLine
 10
233.5311123039223
 20
128.2788543418959
 30
0.0
 11
233.5311123039223
 21
130.7788543418959
 31
0.0
  0
LINE
  5
5BA
330
2
100
AcDbEntity
  8
Object
 48
0.5
100
AcDbLine
 10
235.2311123039223
 20
126.8788543418995
 30
0.0
 11
235.2311123039223
 21
132.1788543418995
 31
0.0
  0
LINE
  5
5BB
330
2
100
AcDbEntity
  8
Object
 48
0.5
100
AcDbLine
 10
235.8311123039225
 20
132.1788543418995
 30
0.0
 11
235.8311123039225
 21
126.8788543418996
 31
0.0
  0
LINE
  5
5BC
330
2
100
AcDbEntity
  8
Object
100
AcDbLine
 10
236.8311123039224
 20
83.42885434189986
 30
0.0
 11
236.8311123039225
 21
134.5288543418997
 31
0.0
  0
DIMENSION
  5
5BD
330
2
100
AcDbEntity
  8
Dims
 48
0.5
100
AcDbDimension
  2
*D40
 10
229.4135502436957
 20
83.42885434189851
 30
0.0
 11
229.4135502436957
 21
108.9788543418985
 31
0.0
 70
   161
  1
(51)
 71
     5
 42
51.09999999999979
  3
STANDARD
100
AcDbAlignedDimension
 13
235.8311123039217
 23
134.5288543418982
 33
0.0
 14
235.8311123039217
 24
83.42885434189851
 34
0.0
1001
ACAD
1000
DSTYLE
1002
{
1070
    41
1040
2.5
1070
    42
1040
0.625
1070
    43
1040
3.75
1070
    44
1040
1.25
1070
    73
1070
     0
1070
    74
1070
     0
1070
    77
1070
     1
1070
    78
1070
     8
1070
   140
1040
2.5
1070
   141
1040
2.5
1070
   143
1040
0.0394
1070
   147
1040
0.625
1070
   171
1070
     4
1070
   172
1070
     1
1070
   273
1070
     8
1070
   274
1070
     4
1070
   277
1070
     6
1002
}
  0
LINE
  5
5CA
330
2
100
AcDbEntity
  8
Object
 48
0.5
100
AcDbLine
 10
234.200427042503
 20
127.3351132450551
 30
0.0
 11
235.2311123039223
 21
127.3351132450552
 31
0.0
  0
LINE
  5
5CB
330
2
100
AcDbEntity
  8
Object
 48
0.5
100
AcDbLine
 10
234.2570182246279
 20
127.9989710915872
 30
0.0
 11
235.2311123039223
 21
127.9989710915872
 31
0.0
  0
LINE
  5
5CC
330
2
100
AcDbEntity
  8
Object
 48
0.5
100
AcDbLine
 10
234.2570182246279
 20
128.8649964953713
 30
0.0
 11
235.2311123039223
 21
128.8649964953713
 31
0.0
  0
LINE
  5
5CD
330
2
100
AcDbEntity
  8
Center
 48
0.5
100
AcDbLine
 10
234.8311123039218
 20
85.22885434190186
 30
0.0
 11
237.6311123039218
 21
85.22885434190186
 31
0.0
  0
ARC
  5
5CE
330
2
100
AcDbEntity
  8
Object
 48
0.5
100
AcDbCircle
 10
234.5311123039224
 20
128.2788543418959
 30
0.0
 40
1.0
100
AcDbArc
 50
180.0
 51
250.6896266608871
  0
ARC
  5
5CF
330
2
100
AcDbEntity
  8
Object
 48
0.5
100
AcDbCircle
 10
234.2570182246279
 20
128.4319837934792
 30
0.0
 40
0.4330127018920962
100
AcDbArc
 50
90.0
 51
270.0
  0
ARC
  5
5D0
330
2
100
AcDbEntity
  8
Object
 48
0.5
100
AcDbCircle
 10
240.1311123039215
 20
124.0288543418984
 30
0.0
 40
2.25
100
AcDbArc
 50
282.8395884069011
 51
317.1604115930727
  0
ARC
  5
5D1
330
2
100
AcDbEntity
  8
Object
 48
0.5
100
AcDbCircle
 10
240.1311123039215
 20
124.0288543418984
 30
0.0
 40
2.25
100
AcDbArc
 50
42.83958840691805
 51
77.16041159309874
  0
CIRCLE
  5
5D2
330
2
100
AcDbEntity
  8
Object
 48
0.5
100
AcDbCircle
 10
240.1311123039215
 20
124.0288543418984
 30
0.0
 40
2.649999999999999
  0
ARC
  5
5D3
330
2
100
AcDbEntity
  8
Object
 48
0.5
100
AcDbCircle
 10
236.7789080298972
 20
122.0934583019124
 30
0.0
 40
1.75
100
AcDbArc
 50
13.39845040098072
 51
46.60154959902613
  0
ARC
  5
5D4
330
2
100
AcDbEntity
  8
Object
 48
0.5
100
AcDbCircle
 10
236.7789080298972
 20
125.9642503818851
 30
0.0
 40
1.75
100
AcDbArc
 50
313.3984504009738
 51
346.6015495990191
  0
ARC
  5
5D5
330
2
100
AcDbEntity
  8
Object
 48
0.5
100
AcDbCircle
 10
240.1311123039215
 20
124.0288543418984
 30
0.0
 40
2.25
100
AcDbArc
 50
162.8395884068958
 51
197.1604115930773
  0
LINE
  5
5D6
330
2
100
AcDbEntity
  8
Object
100
AcDbLine
 10
235.8311123039225
 20
126.8788543418996
 30
0.0
 11
235.2311123039223
 21
126.8788543418995
 31
0.0
  0
LINE
  5
5D7
330
2
100
AcDbEntity
  8
Object
 48
0.5
100
AcDbLine
 10
235.831112303922
 20
127.1288543419017
 30
0.0
 11
236.6311123039218
 21
127.1288543419017
 31
0.0
  0
LINE
  5
5D8
330
2
100
AcDbEntity
  8
Object
100
AcDbLine
 10
236.8311123039225
 20
128.2288543418999
 30
0.0
 11
235.8311123039225
 21
128.2288543418998
 31
0.0
  0
LINE
  5
5D9
330
2
100
AcDbEntity
  8
Object
 48
0.5
100
AcDbLine
 10
236.8311123039226
 20
128.7288543418999
 30
0.0
 11
235.8311123039225
 21
128.7288543418998
 31
0.0
  0
LINE
  5
5DA
330
2
100
AcDbEntity
  8
Object
 48
0.5
100
AcDbLine
 10
235.831112303922
 20
128.1288543419019
 30
0.0
 11
236.6311123039218
 21
128.1288543419019
 31
0.0
  0
ARC
  5
5DB
330
2
100
AcDbEntity
  8
Object
 48
0.5
100
AcDbCircle
 10
240.1311123039209
 20
120.1580622619256
 30
0.0
 40
1.75
100
AcDbArc
 50
73.39845040097656
 51
106.6015495990234
  0
ARC
  5
5DC
330
2
100
AcDbEntity
  8
Object
 48
0.5
100
AcDbCircle
 10
240.1311123039215
 20
127.8996464218713
 30
0.0
 40
1.75
100
AcDbArc
 50
253.3984504009766
 51
286.6015495990233
  0
ARC
  5
5DD
330
2
100
AcDbEntity
  8
Object
 48
0.5
100
AcDbCircle
 10
240.1311123039215
 20
124.0288543418984
 30
0.0
 40
2.25
100
AcDbArc
 50
102.8395884069012
 51
137.1604115930959
  0
ARC
  5
5DE
330
2
100
AcDbEntity
  8
Object
 48
0.5
100
AcDbCircle
 10
240.1311123039215
 20
124.0288543418984
 30
0.0
 40
2.25
100
AcDbArc
 50
222.839588406911
 51
257.1604115930859
  0
ARC
  5
5DF
330
2
100
AcDbEntity
  8
Object
 48
0.5
100
AcDbCircle
 10
240.1311123039215
 20
124.0288543418984
 30
0.0
 40
2.25
100
AcDbArc
 50
342.8395884069153
 51
17.16041159307737
  0
ARC
  5
5E0
330
2
100
AcDbEntity
  8
Object
 48
0.5
100
AcDbCircle
 10
243.4833165779453
 20
125.9642503818846
 30
0.0
 40
1.75
100
AcDbArc
 50
193.3984504009806
 51
226.6015495990261
  0
ARC
  5
5E1
330
2
100
AcDbEntity
  8
Object
 48
0.5
100
AcDbCircle
 10
243.4833165779449
 20
122.0934583019118
 30
0.0
 40
1.75
100
AcDbArc
 50
133.3984504009737
 51
166.6015495990192
  0
LINE
  5
5E2
330
2
100
AcDbEntity
  8
Object
 48
0.5
100
AcDbLine
 10
234.200427042503
 20
131.7225954387439
 30
0.0
 11
235.2311123039223
 21
131.7225954387438
 31
0.0
  0
LINE
  5
5E3
330
2
100
AcDbEntity
  8
Object
 48
0.5
100
AcDbLine
 10
234.2570182246279
 20
131.058737592212
 30
0.0
 11
235.2311123039223
 21
131.0587375922118
 31
0.0
  0
LINE
  5
5E4
330
2
100
AcDbEntity
  8
Object
 48
0.5
100
AcDbLine
 10
234.2570182246279
 20
130.1927121884277
 30
0.0
 11
235.2311123039223
 21
130.192712188428
 31
0.0
  0
ARC
  5
5E5
330
2
100
AcDbEntity
  8
Object
 48
0.5
100
AcDbCircle
 10
234.2570182246279
 20
130.6257248903198
 30
0.0
 40
0.4330127018920962
100
AcDbArc
 50
90.0
 51
270.0
  0
ARC
  5
5E6
330
2
100
AcDbEntity
  8
Object
 48
0.5
100
AcDbCircle
 10
234.5311123039224
 20
130.7788543418959
 30
0.0
 40
1.0
100
AcDbArc
 50
109.3103733378499
 51
180.0
  0
LINE
  5
5E8
330
2
100
AcDbEntity
  8
Object
100
AcDbLine
 10
235.8311123039225
 20
132.1788543418995
 30
0.0
 11
235.2311123039223
 21
132.1788543418995
 31
0.0
  0
LINE
  5
5E9
330
2
100
AcDbEntity
  8
Object
 48
0.5
100
AcDbLine
 10
236.8311123039226
 20
130.3288543418997
 30
0.0
 11
235.8311123039225
 21
130.3288543418995
 31
0.0
  0
LINE
  5
5EA
330
2
100
AcDbEntity
  8
Object
100
AcDbLine
 10
236.8311123039225
 20
130.8288543418997
 30
0.0
 11
235.8311123039225
 21
130.8288543418997
 31
0.0
  0
LINE
  5
5EB
330
2
100
AcDbEntity
  8
Object
 48
0.5
100
AcDbLine
 10
235.831112303922
 20
130.9288543419016
 30
0.0
 11
236.6311123039218
 21
130.9288543419016
 31
0.0
  0
LINE
  5
5EC
330
2
100
AcDbEntity
  8
Object
 48
0.5
100
AcDbLine
 10
235.831112303922
 20
131.9288543419018
 30
0.0
 11
236.6311123039218
 21
131.9288543419018
 31
0.0
  0
LINE
  5
5ED
330
2
100
AcDbEntity
  8
Dims
100
AcDbLine
 10
244.2311123039209
 20
135.0288543418973
 30
0.0
 11
244.0311123039209
 21
135.0288543418973
 31
0.0
  0
LINE
  5
5EE
330
2
100
AcDbEntity
  8
Dims
100
AcDbLine
 10
243.1311123039213
 20
135.728854341898
 30
0.0
 11
243.1311123039213
 21
134.5288543418997
 31
0.0
  0
LINE
  5
5EF
330
2
100
AcDbEntity
  8
Dims
100
AcDbLine
 10
242.7311123039213
 20
135.728854341898
 30
0.0
 11
242.7311123039213
 21
134.5288543418997
 31
0.0
  0
LINE
  5
5F0
330
2
100
AcDbEntity
  8
Dims
100
AcDbLine
 10
242.1311123039213
 20
135.728854341898
 30
0.0
 11
242.1311123039213
 21
134.5288543418997
 31
0.0
  0
LINE
  5
5F1
330
2
100
AcDbEntity
  8
Dims
100
AcDbLine
 10
244.0311123039209
 20
135.0288543418973
 30
0.0
 11
243.8811123039209
 21
134.5288543418973
 31
0.0
  0
LINE
  5
5F2
330
2
100
AcDbEntity
  8
Dims
100
AcDbLine
 10
246.2311123039211
 20
135.0288543418973
 30
0.0
 11
246.031112303921
 21
135.0288543418973
 31
0.0
  0
LINE
  5
5F3
330
2
100
AcDbEntity
  8
Dims
100
AcDbLine
 10
246.031112303921
 20
135.0288543418973
 30
0.0
 11
245.8811123039209
 21
134.5288543418973
 31
0.0
  0
LINE
  5
5F4
330
2
100
AcDbEntity
  8
Dims
100
AcDbLine
 10
246.381112303921
 20
134.5288543418973
 30
0.0
 11
246.2311123039211
 21
135.0288543418973
 31
0.0
  0
LINE
  5
5F5
330
2
100
AcDbEntity
  8
Dims
100
AcDbLine
 10
244.381112303921
 20
134.5288543418973
 30
0.0
 11
244.2311123039209
 21
135.0288543418973
 31
0.0
  0
ARC
  5
608
330
2
100
AcDbEntity
  8
Object
 48
0.5
100
AcDbCircle
 10
270.1311123039222
 20
94.02885434189988
 30
0.0
 40
2.25
100
AcDbArc
 50
282.8395884069011
 51
317.1604115930727
  0
ARC
  5
609
330
2
100
AcDbEntity
  8
Object
 48
0.5
100
AcDbCircle
 10
270.1311123039222
 20
94.02885434189988
 30
0.0
 40
2.25
100
AcDbArc
 50
42.83958840691805
 51
77.16041159309874
  0
CIRCLE
  5
60A
330
2
100
AcDbEntity
  8
Object
 48
0.5
100
AcDbCircle
 10
270.1311123039222
 20
94.02885434189988
 30
0.0
 40
2.649999999999999
  0
CIRCLE
  5
60B
330
2
100
AcDbEntity
  8
Object
100
AcDbCircle
 10
270.3331123039213
 20
121.0708543418983
 30
0.0
 40
1.5
  0
CIRCLE
  5
60C
330
2
100
AcDbEntity
  8
Object
100
AcDbCircle
 10
270.3331123039213
 20
114.4038543418981
 30
0.0
 40
1.5
  0
CIRCLE
  5
60E
330
2
100
AcDbEntity
  8
Object
100
AcDbCircle
 10
248.9431123039221
 20
108.3708543418997
 30
0.0
 40
1.5
  0
ARC
  5
60F
330
2
100
AcDbEntity
  8
Object
 48
0.5
100
AcDbCircle
 10
270.1311123039222
 20
94.02885434189988
 30
0.0
 40
2.25
100
AcDbArc
 50
102.8395884069012
 51
137.1604115930959
  0
ARC
  5
610
330
2
100
AcDbEntity
  8
Object
 48
0.5
100
AcDbCircle
 10
270.1311123039222
 20
94.02885434189988
 30
0.0
 40
2.25
100
AcDbArc
 50
222.839588406911
 51
257.1604115930859
  0
ARC
  5
611
330
2
100
AcDbEntity
  8
Object
 48
0.5
100
AcDbCircle
 10
270.1311123039222
 20
94.02885434189988
 30
0.0
 40
2.25
100
AcDbArc
 50
162.8395884068958
 51
197.1604115930773
  0
ARC
  5
612
330
2
100
AcDbEntity
  8
Object
 48
0.5
100
AcDbCircle
 10
266.7789080298981
 20
92.09345830191375
 30
0.0
 40
1.75
100
AcDbArc
 50
13.39845040098072
 51
46.60154959902613
  0
ARC
  5
613
330
2
100
AcDbEntity
  8
Object
 48
0.5
100
AcDbCircle
 10
266.7789080298981
 20
95.96425038188625
 30
0.0
 40
1.75
100
AcDbArc
 50
313.3984504009738
 51
346.6015495990191
  0
ARC
  5
614
330
2
100
AcDbEntity
  8
Object
 48
0.5
100
AcDbCircle
 10
270.1311123039217
 20
90.15806226192706
 30
0.0
 40
1.75
100
AcDbArc
 50
73.39845040097656
 51
106.6015495990234
  0
ARC
  5
615
330
2
100
AcDbEntity
  8
Object
 48
0.5
100
AcDbCircle
 10
270.1311123039222
 20
97.89964642187271
 30
0.0
 40
1.75
100
AcDbArc
 50
253.3984504009766
 51
286.6015495990233
  0
LINE
  5
616
330
2
100
AcDbEntity
  8
Dims
100
AcDbLine
 10
250.3811123039209
 20
134.5288543418978
 30
0.0
 11
250.2311123039209
 21
135.0288543418976
 31
0.0
  0
LINE
  5
617
330
2
100
AcDbEntity
  8
Dims
100
AcDbLine
 10
250.0311123039208
 20
135.0288543418976
 30
0.0
 11
249.8811123039209
 21
134.5288543418976
 31
0.0
  0
LINE
  5
618
330
2
100
AcDbEntity
  8
Dims
100
AcDbLine
 10
250.2311123039209
 20
135.0288543418976
 30
0.0
 11
250.0311123039208
 21
135.0288543418976
 31
0.0
  0
LINE
  5
619
330
2
100
AcDbEntity
  8
Dims
100
AcDbLine
 10
248.3811123039209
 20
134.5288543418976
 30
0.0
 11
248.2311123039209
 21
135.0288543418976
 31
0.0
  0
LINE
  5
61A
330
2
100
AcDbEntity
  8
Dims
100
AcDbLine
 10
248.0311123039209
 20
135.0288543418976
 30
0.0
 11
247.8811123039209
 21
134.5288543418976
 31
0.0
  0
LINE
  5
61B
330
2
100
AcDbEntity
  8
Dims
100
AcDbLine
 10
248.2311123039209
 20
135.0288543418976
 30
0.0
 11
248.0311123039209
 21
135.0288543418976
 31
0.0
  0
LINE
  5
61C
330
2
100
AcDbEntity
  8
Dims
100
AcDbLine
 10
252.2311123039209
 20
135.0288543418978
 30
0.0
 11
252.0311123039209
 21
135.0288543418978
 31
0.0
  0
LINE
  5
61D
330
2
100
AcDbEntity
  8
Dims
100
AcDbLine
 10
252.0311123039209
 20
135.0288543418978
 30
0.0
 11
251.8811123039209
 21
134.5288543418978
 31
0.0
  0
LINE
  5
61E
330
2
100
AcDbEntity
  8
Dims
100
AcDbLine
 10
252.3811123039209
 20
134.5288543418978
 30
0.0
 11
252.2311123039209
 21
135.0288543418978
 31
0.0
  0
LINE
  5
61F
330
2
100
AcDbEntity
  8
Dims
100
AcDbLine
 10
256.2311123039214
 20
135.028854341898
 30
0.0
 11
256.3811123039213
 21
134.528854341898
 31
0.0
  0
LINE
  5
620
330
2
100
AcDbEntity
  8
Dims
100
AcDbLine
 10
254.3811123039209
 20
134.528854341898
 30
0.0
 11
254.2311123039209
 21
135.028854341898
 31
0.0
  0
LINE
  5
621
330
2
100
AcDbEntity
  8
Dims
100
AcDbLine
 10
256.0311123039213
 20
135.028854341898
 30
0.0
 11
256.2311123039214
 21
135.028854341898
 31
0.0
  0
LINE
  5
622
330
2
100
AcDbEntity
  8
Dims
100
AcDbLine
 10
255.8811123039213
 20
134.528854341898
 30
0.0
 11
256.0311123039213
 21
135.028854341898
 31
0.0
  0
LINE
  5
623
330
2
100
AcDbEntity
  8
Dims
100
AcDbLine
 10
254.0311123039208
 20
135.028854341898
 30
0.0
 11
253.8811123039209
 21
134.528854341898
 31
0.0
  0
LINE
  5
624
330
2
100
AcDbEntity
  8
Dims
100
AcDbLine
 10
254.2311123039209
 20
135.028854341898
 30
0.0
 11
254.0311123039208
 21
135.028854341898
 31
0.0
  0
LINE
  5
625
330
2
100
AcDbEntity
  8
Dims
100
AcDbLine
 10
257.8811123039215
 20
134.528854341898
 30
0.0
 11
258.0311123039213
 21
135.028854341898
 31
0.0
  0
LINE
  5
626
330
2
100
AcDbEntity
  8
Dims
100
AcDbLine
 10
258.2311123039212
 20
135.028854341898
 30
0.0
 11
258.3811123039215
 21
134.528854341898
 31
0.0
  0
LINE
  5
627
330
2
100
AcDbEntity
  8
Dims
100
AcDbLine
 10
258.0311123039213
 20
135.028854341898
 30
0.0
 11
258.2311123039212
 21
135.028854341898
 31
0.0
  0
LINE
  5
628
330
2
100
AcDbEntity
  8
Dims
100
AcDbLine
 10
261.8811123039214
 20
134.528854341898
 30
0.0
 11
262.0311123039213
 21
135.028854341898
 31
0.0
  0
LINE
  5
629
330
2
100
AcDbEntity
  8
Dims
100
AcDbLine
 10
262.2311123039212
 20
135.028854341898
 30
0.0
 11
262.3811123039215
 21
134.528854341898
 31
0.0
  0
LINE
  5
62A
330
2
100
AcDbEntity
  8
Dims
100
AcDbLine
 10
262.0311123039213
 20
135.028854341898
 30
0.0
 11
262.2311123039212
 21
135.028854341898
 31
0.0
  0
LINE
  5
62B
330
2
100
AcDbEntity
  8
Dims
100
AcDbLine
 10
260.0311123039213
 20
135.028854341898
 30
0.0
 11
260.2311123039214
 21
135.028854341898
 31
0.0
  0
LINE
  5
62C
330
2
100
AcDbEntity
  8
Dims
100
AcDbLine
 10
259.8811123039215
 20
134.528854341898
 30
0.0
 11
260.0311123039213
 21
135.028854341898
 31
0.0
  0
LINE
  5
62D
330
2
100
AcDbEntity
  8
Dims
100
AcDbLine
 10
260.2311123039214
 20
135.028854341898
 30
0.0
 11
260.3811123039215
 21
134.528854341898
 31
0.0
  0
LINE
  5
62E
330
2
100
AcDbEntity
  8
Dims
100
AcDbLine
 10
263.8811123039213
 20
134.528854341898
 30
0.0
 11
264.0311123039213
 21
135.028854341898
 31
0.0
  0
LINE
  5
62F
330
2
100
AcDbEntity
  8
Dims
100
AcDbLine
 10
264.2311123039214
 20
135.028854341898
 30
0.0
 11
264.3811123039213
 21
134.528854341898
 31
0.0
  0
LINE
  5
630
330
2
100
AcDbEntity
  8
Dims
100
AcDbLine
 10
264.0311123039213
 20
135.028854341898
 30
0.0
 11
264.2311123039214
 21
135.028854341898
 31
0.0
  0
LINE
  5
631
330
2
100
AcDbEntity
  8
Dims
100
AcDbLine
 10
267.1311123039213
 20
135.7288543418985
 30
0.0
 11
267.1311123039213
 21
134.5288543418997
 31
0.0
  0
LINE
  5
632
330
2
100
AcDbEntity
  8
Dims
100
AcDbLine
 10
267.5311123039213
 20
135.7288543418985
 30
0.0
 11
267.5311123039213
 21
134.5288543418997
 31
0.0
  0
LINE
  5
633
330
2
100
AcDbEntity
  8
Dims
100
AcDbLine
 10
268.1311123039213
 20
135.7288543418985
 30
0.0
 11
268.1311123039213
 21
134.5288543418996
 31
0.0
  0
LINE
  5
634
330
2
100
AcDbEntity
  8
Dims
100
AcDbLine
 10
265.8811123039215
 20
134.528854341898
 30
0.0
 11
266.0311123039215
 21
135.028854341898
 31
0.0
  0
LINE
  5
635
330
2
100
AcDbEntity
  8
Dims
100
AcDbLine
 10
266.0311123039215
 20
135.028854341898
 30
0.0
 11
266.2311123039214
 21
135.028854341898
 31
0.0
  0
LINE
  5
636
330
2
100
AcDbEntity
  8
Dims
100
AcDbLine
 10
266.2311123039214
 20
135.028854341898
 30
0.0
 11
266.3811123039215
 21
134.528854341898
 31
0.0
  0
LINE
  5
637
330
2
100
AcDbEntity
  8
Object
 48
0.5
100
AcDbLine
 10
275.0311123039206
 20
126.8788543418995
 30
0.0
 11
275.0311123039206
 21
132.1788543418995
 31
0.0
  0
LINE
  5
638
330
2
100
AcDbEntity
  8
Object
 48
0.5
100
AcDbLine
 10
274.4311123039202
 20
132.1788543418995
 30
0.0
 11
274.4311123039202
 21
126.8788543418996
 31
0.0
  0
LINE
  5
639
330
2
100
AcDbEntity
  8
Object
100
AcDbLine
 10
273.4311123039223
 20
83.42885434189986
 30
0.0
 11
273.431112303922
 21
134.5288543418996
 31
0.0
  0
LINE
  5
63A
330
2
100
AcDbEntity
  8
Object
 48
0.5
100
AcDbLine
 10
276.7311123039204
 20
128.2788543418959
 30
0.0
 11
276.7311123039204
 21
130.7788543418959
 31
0.0
  0
LINE
  5
63B
330
2
100
AcDbEntity
  8
Center
 48
0.5
100
AcDbLine
 10
272.6311123039221
 20
85.22885434190186
 30
0.0
 11
275.431112303922
 21
85.22885434190186
 31
0.0
  0
ARC
  5
63C
330
2
100
AcDbEntity
  8
Object
 48
0.5
100
AcDbCircle
 10
270.1311123039222
 20
94.02885434189988
 30
0.0
 40
2.25
100
AcDbArc
 50
342.8395884069153
 51
17.16041159307737
  0
ARC
  5
63D
330
2
100
AcDbEntity
  8
Object
 48
0.5
100
AcDbCircle
 10
273.4833165779461
 20
95.96425038188613
 30
0.0
 40
1.75
100
AcDbArc
 50
193.3984504009806
 51
226.6015495990261
  0
ARC
  5
63E
330
2
100
AcDbEntity
  8
Object
 48
0.5
100
AcDbCircle
 10
273.4833165779458
 20
92.09345830191296
 30
0.0
 40
1.75
100
AcDbArc
 50
133.3984504009737
 51
166.6015495990192
  0
LINE
  5
63F
330
2
100
AcDbEntity
  8
Object
100
AcDbLine
 10
274.4311123039202
 20
126.8788543418996
 30
0.0
 11
275.0311123039206
 21
126.8788543418995
 31
0.0
  0
LINE
  5
640
330
2
100
AcDbEntity
  8
Object
 48
0.5
100
AcDbLine
 10
273.631112303922
 20
127.1288543419017
 30
0.0
 11
274.431112303922
 21
127.1288543419017
 31
0.0
  0
LINE
  5
641
330
2
100
AcDbEntity
  8
Object
 48
0.5
100
AcDbLine
 10
273.431112303922
 20
128.7288543418999
 30
0.0
 11
274.4311123039202
 21
128.7288543418998
 31
0.0
  0
LINE
  5
642
330
2
100
AcDbEntity
  8
Object
100
AcDbLine
 10
273.431112303922
 20
128.2288543418998
 30
0.0
 11
274.4311123039202
 21
128.2288543418998
 31
0.0
  0
LINE
  5
643
330
2
100
AcDbEntity
  8
Object
 48
0.5
100
AcDbLine
 10
273.631112303922
 20
128.1288543419019
 30
0.0
 11
274.431112303922
 21
128.1288543419019
 31
0.0
  0
ARC
  5
644
330
2
100
AcDbEntity
  8
Object
 48
0.5
100
AcDbCircle
 10
275.7311123039205
 20
128.2788543418959
 30
0.0
 40
1.0
100
AcDbArc
 50
289.3103733391127
 51
0.0
  0
ARC
  5
645
330
2
100
AcDbEntity
  8
Object
 48
0.5
100
AcDbCircle
 10
276.005206383215
 20
128.4319837934792
 30
0.0
 40
0.4330127018920962
100
AcDbArc
 50
270.0
 51
90.0
  0
LINE
  5
646
330
2
100
AcDbEntity
  8
Object
 48
0.5
100
AcDbLine
 10
276.0617975653398
 20
127.3351132450551
 30
0.0
 11
275.0311123039206
 21
127.3351132450552
 31
0.0
  0
LINE
  5
647
330
2
100
AcDbEntity
  8
Object
 48
0.5
100
AcDbLine
 10
276.005206383215
 20
127.9989710915872
 30
0.0
 11
275.0311123039206
 21
127.9989710915872
 31
0.0
  0
LINE
  5
648
330
2
100
AcDbEntity
  8
Object
 48
0.5
100
AcDbLine
 10
276.005206383215
 20
128.8649964953713
 30
0.0
 11
275.0311123039206
 21
128.8649964953713
 31
0.0
  0
LINE
  5
649
330
2
100
AcDbEntity
  8
Object
100
AcDbLine
 10
274.4311123039202
 20
132.1788543418995
 30
0.0
 11
275.0311123039206
 21
132.1788543418995
 31
0.0
  0
LINE
  5
64A
330
2
100
AcDbEntity
  8
Object
 48
0.5
100
AcDbLine
 10
273.431112303922
 20
130.3288543418995
 30
0.0
 11
274.4311123039202
 21
130.3288543418995
 31
0.0
  0
LINE
  5
64B
330
2
100
AcDbEntity
  8
Object
100
AcDbLine
 10
273.431112303922
 20
130.8288543418997
 30
0.0
 11
274.4311123039202
 21
130.8288543418997
 31
0.0
  0
LINE
  5
64C
330
2
100
AcDbEntity
  8
Object
 48
0.5
100
AcDbLine
 10
273.631112303922
 20
130.9288543419016
 30
0.0
 11
274.431112303922
 21
130.9288543419016
 31
0.0
  0
LINE
  5
64D
330
2
100
AcDbEntity
  8
Object
 48
0.5
100
AcDbLine
 10
273.631112303922
 20
131.9288543419018
 30
0.0
 11
274.431112303922
 21
131.9288543419018
 31
0.0
  0
ARC
  5
64E
330
2
100
AcDbEntity
  8
Object
 48
0.5
100
AcDbCircle
 10
276.005206383215
 20
130.6257248903198
 30
0.0
 40
0.4330127018920962
100
AcDbArc
 50
270.0
 51
90.0
  0
ARC
  5
64F
330
2
100
AcDbEntity
  8
Object
 48
0.5
100
AcDbCircle
 10
275.7311123039205
 20
130.7788543418959
 30
0.0
 40
1.0
100
AcDbArc
 50
0.0
 51
70.68962666215006
  0
LINE
  5
650
330
2
100
AcDbEntity
  8
Object
 48
0.5
100
AcDbLine
 10
276.0617975653398
 20
131.7225954387439
 30
0.0
 11
275.0311123039206
 21
131.7225954387438
 31
0.0
  0
LINE
  5
651
330
2
100
AcDbEntity
  8
Object
 48
0.5
100
AcDbLine
 10
276.005206383215
 20
131.058737592212
 30
0.0
 11
275.0311123039206
 21
131.0587375922118
 31
0.0
  0
LINE
  5
652
330
2
100
AcDbEntity
  8
Object
 48
0.5
100
AcDbLine
 10
276.005206383215
 20
130.1927121884277
 30
0.0
 11
275.0311123039206
 21
130.192712188428
 31
0.0
  0
LEADER
  5
665
330
2
100
AcDbEntity
  8
Dims
 48
0.5
100
AcDbLeader
  3
STANDARD
 73
     0
 40
7.499999999999999
 41
17.85714285714285
 76
     3
 10
60.81657608942084
 20
109.6073680617439
 30
0.0
 10
83.77338498729642
 20
130.8117922313376
 30
0.0
 10
100.6739593402718
 20
130.8117922313376
 30
0.0
340
666
213
16.9633429656443
223
-3.321727580373362
233
0.0
1001
ACAD
1000
DSTYLE
1002
{
1070
    41
1040
2.5
1070
    42
1040
0.625
1070
    43
1040
3.75
1070
    44
1040
1.25
1070
    73
1070
     0
1070
    74
1070
     0
1070
    77
1070
     0
1070
    78
1070
     8
1070
   140
1040
2.5
1070
   141
1040
2.5
1070
   143
1040
0.0394
1070
   147
1040
0.625
1070
   171
1070
     4
1070
   172
1070
     1
1070
   273
1070
     8
1070
   274
1070
     4
1070
   277
1070
     6
1002
}
  0
MTEXT
  5
666
102
{ACAD_REACTORS
330
665
102
}
330
2
100
AcDbEntity
  8
Dims
 48
0.5
100
AcDbMText
 10
84.33561637462753
 20
134.133519811711
 30
0.0
 40
2.5
 41
0.0
 71
     1
 72
     1
  1
4-M2.6\PDep-3MIN
 73
     1
 44
1.0
  0
MTEXT
  5
791
330
2
100
AcDbEntity
  8
Object
100
AcDbMText
 10
29.57786596450842
 20
185.8715177426956
 30
0.0
 40
4.0
 41
0.0
 71
     1
 72
     1
  1
CM1-\U+25A1-11\U+25A130A　外形寸法\P単位　：　ｍｍ
  7
TEXT
 73
     1
 44
1.0
  0
LINE
  5
793
330
2
100
AcDbEntity
  8
Object
100
AcDbLine
 10
28.75063174208253
 20
18.98295158230133
 30
0.0
 11
108.7506317420825
 21
18.98295158230133
 31
0.0
  0
LINE
  5
794
330
2
100
AcDbEntity
  8
Object
100
AcDbLine
 10
108.7506317420825
 20
41.77623546350139
 30
0.0
 11
28.75063174208253
 21
41.77623546350139
 31
0.0
  0
LINE
  5
795
330
2
100
AcDbEntity
  8
Object
100
AcDbLine
 10
28.75063174208253
 20
34.17847416980135
 30
0.0
 11
108.7506317420825
 21
34.17847416980135
 31
0.0
  0
LINE
  5
796
330
2
100
AcDbEntity
  8
Object
100
AcDbLine
 10
28.75063174208253
 20
26.58071287610142
 30
0.0
 11
108.7506317420825
 21
26.58071287610142
 31
0.0
  0
MTEXT
  5
797
330
2
100
AcDbEntity
  8
Object
100
AcDbMText
 10
35.51285364468253
 20
32.40532998320134
 30
0.0
 40
3.2
 41
0.0
 71
     1
 72
     1
  1
CM1-\U+25A1-11L30A
  7
TEXT
 73
     1
 44
1.0
  0
MTEXT
  5
798
330
2
100
AcDbEntity
  8
Object
100
AcDbMText
 10
35.39729793358253
 20
24.80756868950141
 30
0.0
 40
3.2
 41
0.0
 71
     1
 72
     1
  1
CM1-\U+25A1-11S30A
  7
TEXT
 73
     1
 44
1.0
  0
LINE
  5
799
330
2
100
AcDbEntity
  8
Object
100
AcDbLine
 10
28.75063174208253
 20
41.77623546350139
 30
0.0
 11
28.75063174208253
 21
18.98295158230133
 31
0.0
  0
LINE
  5
79A
330
2
100
AcDbEntity
  8
Object
100
AcDbLine
 10
108.7506317420825
 20
18.98295158230133
 30
0.0
 11
108.7506317420825
 21
41.77623546350139
 31
0.0
  0
LINE
  5
79B
330
2
100
AcDbEntity
  8
Object
100
AcDbLine
 10
68.75063174208253
 20
41.77623546350139
 30
0.0
 11
68.75063174208253
 21
18.98295158230133
 31
0.0
  0
LINE
  5
79C
330
2
100
AcDbEntity
  8
Object
100
AcDbLine
 10
88.75063174208253
 20
41.77623546350139
 30
0.0
 11
88.75063174208253
 21
18.98295158230133
 31
0.0
  0
MTEXT
  5
79D
330
2
100
AcDbEntity
  8
Object
100
AcDbMText
 10
75.57952051788254
 20
24.80756868950141
 30
0.0
 40
3.2
 41
0.0
 71
     1
 72
     1
  1
33.5
  7
TEXT
 73
     1
 44
1.0
  0
MTEXT
  5
79E
330
2
100
AcDbEntity
  8
Object
100
AcDbMText
 10
95.57952051788243
 20
24.80756868950141
 30
0.0
 40
3.2
 41
0.0
 71
     1
 72
     1
  1
71
  7
TEXT
 73
     1
 44
1.0
  0
MTEXT
  5
79F
330
2
100
AcDbEntity
  8
Object
100
AcDbMText
 10
38.55952084798252
 20
40.00309127700132
 30
0.0
 40
3.2
 41
0.0
 71
     1
 72
     1
  1
Model　Name
  7
TEXT
 73
     1
 44
1.0
  0
MTEXT
  5
7A0
330
2
100
AcDbEntity
  8
Object
100
AcDbMText
 10
75.57952051788254
 20
32.40532998320134
 30
0.0
 40
3.2
 41
0.0
 71
     1
 72
     1
  1
47.5
  7
TEXT
 73
     1
 44
1.0
  0
MTEXT
  5
7A1
330
2
100
AcDbEntity
  8
Object
100
AcDbMText
 10
76.81507614248253
 20
40.00309127700132
 30
0.0
 40
3.2
 41
0.0
 71
     1
 72
     1
  1
L1
  7
TEXT
 73
     1
 44
1.0
  0
MTEXT
  5
7A2
330
2
100
AcDbEntity
  8
Object
100
AcDbMText
 10
95.57952051788243
 20
32.40532998320134
 30
0.0
 40
3.2
 41
0.0
 71
     1
 72
     1
  1
85
  7
TEXT
 73
     1
 44
1.0
  0
MTEXT
  5
7A3
330
2
100
AcDbEntity
  8
Object
100
AcDbMText
 10
97.74618730688253
 20
40.00309127700132
 30
0.0
 40
3.2
 41
0.0
 71
     1
 72
     1
  1
L
  7
TEXT
 73
     1
 44
1.0
  0
LINE
  5
810
330
2
100
AcDbEntity
  8
Center
 48
0.5
100
AcDbLine
 10
108.8728990311348
 20
97.42885434189838
 30
0.0
 11
174.0679412970204
 21
97.42885434189838
 31
0.0
  0
DIMENSION
  5
AAD
330
2
100
AcDbEntity
  8
Dims
 48
0.5
100
AcDbDimension
  2
*D52
 10
210.1680091348691
 20
61.03739915087044
 30
0.0
 11
167.6930091348685
 21
61.03739915087044
 31
0.0
 70
   160
  1
L{\H0.8x;%%p1}
 71
     5
 42
84.9500000000013
  3
STANDARD
100
AcDbAlignedDimension
 13
125.2180091348678
 23
83.42885434189851
 33
0.0
 14
210.1680091348691
 24
92.77885434189988
 34
0.0
100
AcDbRotatedDimension
  0
DIMENSION
  5
B0A
330
2
100
AcDbEntity
  8
Dims
 48
0.5
100
AcDbDimension
  2
*D53
 10
101.4185228819378
 20
94.92885434189714
 30
0.0
 11
98.28577754169931
 21
97.59930748736406
 31
0.0
 70
   160
  1
\A1;%%c<>{\H0.56x;\S  0^ -0.012;}
 71
     5
 42
4.999999999999658
  3
STANDARD
100
AcDbAlignedDimension
 13
120.2180091348683
 23
99.9288543418968
 33
0.0
 14
110.7180091348684
 24
94.92885434189714
 34
0.0
 50
90.0
100
AcDbRotatedDimension
1001
ACAD
1000
DSTYLE
1002
{
1070
   279
1070
     2
1002
}
  0
LINE
  5
BBA
330
2
100
AcDbEntity
  8
Object
 48
0.5
100
AcDbLine
 10
170.2180091348678
 20
192.5827123145417
 30
0.0
 11
172.7180091348678
 21
192.5827123145417
 31
0.0
  0
DIMENSION
  5
D15
330
2
100
AcDbEntity
  8
Dims
 48
0.5
100
AcDbDimension
  2
*D55
 10
210.1680091348691
 20
68.12777402254642
 30
0.0
 11
200.7180091348689
 21
68.12777402254642
 31
0.0
 70
   160
  1
（19）
 71
     5
 42
18.90000000000009
  3
STANDARD
100
AcDbAlignedDimension
 13
191.2680091348691
 23
84.22885434189982
 33
0.0
 14
210.1680091348691
 24
92.77885434189988
 34
0.0
100
AcDbRotatedDimension
  0
DIMENSION
  5
D2B
330
2
100
AcDbEntity
  8
Dims
 48
0.5
100
AcDbDimension
  2
*D56
 10
191.2680091348689
 20
68.12777402254642
 30
0.0
 11
181.9930091348686
 21
68.12777402254642
 31
0.0
 70
   160
 71
     5
 42
18.55000000000063
  3
STANDARD
100
AcDbAlignedDimension
 13
172.7180091348682
 23
83.42885434189851
 33
0.0
 14
191.2680091348689
 24
84.22885434189982
 34
0.0
100
AcDbRotatedDimension
1001
ACAD
1000
DSTYLE
1002
{
1070
     3
1000
（<>）
1070
   271
1070
     1
1002
}
  0
LINE
  5
D6F
330
2
100
AcDbEntity
  8
Object
 48
0.5
100
AcDbLine
 10
120.2180091348678
 20
180.0827123145435
 30
0.0
 11
110.2180091348678
 21
177.0827123145397
 31
0.0
  0
LINE
  5
D70
330
2
100
AcDbEntity
  8
Object
 48
0.5
100
AcDbLine
 10
110.2180091348678
 20
180.0827123145435
 30
0.0
 11
120.2180091348678
 21
177.0827123145397
 31
0.0
  0
LEADER
  5
D71
330
2
100
AcDbEntity
  8
Dims
 48
0.5
100
AcDbLeader
  3
STANDARD
 73
     0
 40
2.5
 41
10.95238095238094
 76
     3
 10
115.3308181754932
 20
177.9174416951
 30
0.0
 10
108.9141862840679
 20
169.098454042115
 30
0.0
 10
106.7307473483274
 20
169.098454042115
 30
0.0
340
D72
213
0.0
223
1.25
233
0.0
1001
ACAD
1000
DSTYLE
1002
{
1070
    41
1040
1.199999999999999
1070
   341
1005
D73
1070
   147
1040
0.625
1070
    77
1070
     0
1002
}
  0
MTEXT
  5
D72
102
{ACAD_REACTORS
330
D71
102
}
330
2
100
AcDbEntity
  8
Dims
 48
0.5
100
AcDbMText
 10
106.1057473483274
 20
167.848454042115
 30
0.0
 40
2.5
 41
0.0
 71
     9
 72
     1
  1
D-cut
 73
     1
 44
1.0
  0
DIMENSION
  5
DDD
330
2
100
AcDbEntity
  8
Dims
 48
0.5
100
AcDbDimension
  2
*D58
 10
73.06711412152299
 20
97.42885434189952
 30
0.0
 11
70.93570738960716
 21
112.3624648907307
 31
0.0
 70
   160
 71
     5
 42
34.59999999999995
  3
STANDARD
100
AcDbAlignedDimension
 13
59.83198836015455
 23
132.0288543418994
 33
0.0
 14
62.58198836015836
 24
97.42885434189952
 34
0.0
 50
90.0
100
AcDbRotatedDimension
1001
ACAD
1000
DSTYLE
1002
{
1070
   279
1070
     2
1002
}
  0
DIMENSION
  5
E45
330
2
100
AcDbEntity
  8
Dims
 48
0.5
100
AcDbDimension
  2
*D59
 10
93.87502942340461
 20
86.42885434189841
 30
0.0
 11
91.20836275673793
 21
97.42885434189762
 31
0.0
 70
    32
  1
\A1;%%c<>{\H0.7x;\S  0^ -0.025;}
 71
     5
 42
21.9999999999984
  3
STANDARD
100
AcDbAlignedDimension
 13
123.7180091348685
 23
108.4288543418967
 33
0.0
 14
123.7180091348677
 24
86.42885434189839
 34
0.0
 50
90.0
100
AcDbRotatedDimension
1001
ACAD
1000
DSTYLE
1002
{
1070
   279
1070
     2
1002
}
  0
DIMENSION
  5
EB0
330
2
100
AcDbEntity
  8
Dims
 48
0.5
100
AcDbDimension
  2
*D60
 10
73.04048962130583
 20
83.42885434189986
 30
0.0
 11
71.16548962130581
 21
90.42885434189971
 31
0.0
 70
    32
 71
     5
 42
13.99999999999965
  3
STANDARD
100
AcDbAlignedDimension
 13
62.58198836015836
 23
97.42885434189952
 33
0.0
 14
67.8819883601582
 24
83.42885434189986
 34
0.0
 50
90.0
100
AcDbRotatedDimension
  0
LINE
  5
EDA
330
2
100
AcDbEntity
  8
Object
100
AcDbLine
 10
35.18198836015828
 20
110.5438267017638
 30
0.0
 11
35.18198836015836
 21
128.9288543418997
 31
0.0
  0
LINE
  5
EDB
330
2
100
AcDbEntity
  8
Object
 48
0.5
100
AcDbLine
 10
35.46701600029433
 20
84.02885434189965
 30
0.0
 11
34.58198836015822
 21
84.02885434189967
 31
0.0
  0
LINE
  5
EDC
330
2
100
AcDbEntity
  8
Object
100
AcDbLine
 10
61.98198836015851
 20
84.02885434189988
 30
0.0
 11
61.98198836015852
 21
84.31388198203579
 31
0.0
  0
ENDSEC
  0
SECTION
  2
OBJECTS
  0
DICTIONARY
  5
7
330
0
100
AcDbDictionary
281
     1
  3
ACAD_GROUP
350
20
  3
ACAD_LAYOUT
350
B
  3
ACAD_MLINESTYLE
350
21
  3
ACAD_PLOTSETTINGS
350
22
  3
ACAD_PLOTSTYLENAME
350
6
  3
AcadDim
350
D6E
  3
AcDbVariableDictionary
350
65A
  3
DWGPROPS
350
763
  0
DICTIONARY
  5
20
102
{ACAD_REACTORS
330
7
102
}
330
7
100
AcDbDictionary
281
     1
  0
DICTIONARY
  5
B
102
{ACAD_REACTORS
330
7
102
}
330
7
100
AcDbDictionary
281
     1
  3
Model
350
A
  3
ﾚｲｱｳﾄ1
350
F
  0
DICTIONARY
  5
21
102
{ACAD_REACTORS
330
7
102
}
330
7
100
AcDbDictionary
281
     1
  3
STANDARD
350
24
  0
DICTIONARY
  5
22
102
{ACAD_REACTORS
330
7
102
}
330
7
100
AcDbDictionary
281
     1
  0
ACDBDICTIONARYWDFLT
  5
6
102
{ACAD_REACTORS
330
7
102
}
330
7
100
AcDbDictionary
281
     1
  3
Normal
350
5
100
AcDbDictionaryWithDefault
340
5
  0
XRECORD
  5
D6E
102
{ACAD_REACTORS
330
7
102
}
330
7
100
AcDbXrecord
280
     1
 90
   990106
  3

 60
     0
 61
     0
 62
     1
 63
     3
 64
     0
 65
     0
 66
     0
 67
     3
 68
     1
 69
     0
 70
     0
 71
     0
 72
     0
 40
0.0
170
     0
340
D72
  0
DICTIONARY
  5
65A
102
{ACAD_REACTORS
330
7
102
}
330
7
100
AcDbDictionary
281
     1
  3
DIMASSOC
350
65C
  3
HIDETEXT
350
65B
  0
XRECORD
  5
763
102
{ACAD_REACTORS
330
7
102
}
330
7
100
AcDbXrecord
280
     1
  1
DWGPROPS COOKIE
  2

  3

  4

  6

  7

  8

  9

300
=
301
=
302
=
303
=
304
=
305
=
306
=
307
=
308
=
309
=
 40
12.93713883101851
 41
2451019.405949073
 42
2453347.816065913
  1

 90
        0
  0
LAYOUT
  5
A
102
{ACAD_REACTORS
330
B
102
}
330
B
100
AcDbPlotSettings
  1

  2
クセロPDF2
  4
A4
  6

 40
3.174999952316284
 41
3.174999952316284
 42
3.175003051757812
 43
3.17498779296875
 44
209.9733276367187
 45
296.9683227539062
 46
6.809999999999999
 47
6.809999999999999
 48
174.8641120842248
 49
-784.1342078095204
140
451.8641120842247
141
-594.1342078095202
142
1.0
143
1.0
 70
 11956
 72
     1
 73
     1
 74
     4
  7
monochrome.ctb
 75
    16
147
1.0
148
-174.8641120842248
149
784.1342078095204
100
AcDbLayout
  1
Model
 70
     1
 71
     0
 10
0.0
 20
0.0
 11
12.0
 21
9.0
 12
0.0
 22
0.0
 32
0.0
 14
0.0
 24
0.0
 34
0.0
 15
0.0
 25
0.0
 35
0.0
146
0.0
 13
0.0
 23
0.0
 33
0.0
 16
1.0
 26
0.0
 36
0.0
 17
0.0
 27
1.0
 37
0.0
 76
     0
330
2
  0
LAYOUT
  5
F
102
{ACAD_REACTORS
330
B
102
}
330
B
100
AcDbPlotSettings
  1

  2
NEC FAX printer driver
  4

  6

 40
0.0
 41
0.0
 42
0.0
 43
0.0
 44
0.0
 45
0.0
 46
0.0
 47
0.0
 48
0.0
 49
0.0
140
0.0
141
0.0
142
1.0
143
1.0
 70
   688
 72
     0
 73
     0
 74
     5
  7
monochrome.ctb
 75
    16
147
1.0
148
0.0
149
0.0
100
AcDbLayout
  1
ﾚｲｱｳﾄ1
 70
     1
 71
     1
 10
0.0
 20
0.0
 11
420.0
 21
297.0
 12
0.0
 22
0.0
 32
0.0
 14
1.000000000000000E+20
 24
1.000000000000000E+20
 34
1.000000000000000E+20
 15
-1.000000000000000E+20
 25
-1.000000000000000E+20
 35
-1.000000000000000E+20
146
0.0
 13
0.0
 23
0.0
 33
0.0
 16
1.0
 26
0.0
 36
0.0
 17
0.0
 27
1.0
 37
0.0
 76
     0
330
C
  0
MLINESTYLE
  5
24
102
{ACAD_REACTORS
330
21
102
}
330
21
100
AcDbMlineStyle
  2
STANDARD
 70
     0
  3

 62
   256
 51
90.0
 52
90.0
 71
     2
 49
0.5
 62
   256
  6
BYLAYER
 49
-0.5
 62
   256
  6
BYLAYER
  0
ACDBPLACEHOLDER
  5
5
102
{ACAD_REACTORS
330
6
102
}
330
6
  0
DICTIONARYVAR
  5
65C
102
{ACAD_REACTORS
330
65A
102
}
330
65A
100
DictionaryVariables
280
     0
  1
1
  0
DICTIONARYVAR
  5
65B
102
{ACAD_REACTORS
330
65A
102
}
330
65A
100
DictionaryVariables
280
     0
  1
1
  0
ENDSEC
  0
EOF
