  0
SECTION
  2
HEADER
  9
$ACADVER
  1
AC1014
  9
$ACADMAINTVER
 70
     9
  9
$DWGCODEPAGE
  3
ANSI_932
  9
$INSBASE
 10
0.0
 20
0.0
 30
0.0
  9
$EXTMIN
 10
0.0000439344378265
 20
-0.00000644368061
 30
0.0
  9
$EXTMAX
 10
297.0000439344378
 20
209.9999935563193
 30
0.0
  9
$LIMMIN
 10
0.0
 20
0.0
  9
$LIMMAX
 10
420.0
 20
297.0
  9
$ORTHOMODE
 70
     1
  9
$REGENMODE
 70
     1
  9
$FILLMODE
 70
     1
  9
$QTEXTMODE
 70
     0
  9
$MIRRTEXT
 70
     1
  9
$DRAGMODE
 70
     2
  9
$LTSCALE
 40
1.0
  9
$OSMODE
 70
   191
  9
$ATTMODE
 70
     1
  9
$TEXTSIZE
 40
2.5
  9
$TRACEWID
 40
1.0
  9
$TEXTSTYLE
  7
STANDARD
  9
$CLAYER
  8
DIMS
  9
$CELTYPE
  6
BYLAYER
  9
$CECOLOR
 62
   256
  9
$CELTSCALE
 40
1.0
  9
$DELOBJ
 70
     1
  9
$DISPSILH
 70
     0
  9
$DIMSCALE
 40
1.0
  9
$DIMASZ
 40
2.0
  9
$DIMEXO
 40
0.65
  9
$DIMDLI
 40
6.0
  9
$DIMRND
 40
0.0
  9
$DIMDLE
 40
0.0
  9
$DIMEXE
 40
0.65
  9
$DIMTP
 40
0.0
  9
$DIMTM
 40
0.0
  9
$DIMTXT
 40
2.0
  9
$DIMCEN
 40
0.0
  9
$DIMTSZ
 40
0.0
  9
$DIMTOL
 70
     0
  9
$DIMLIM
 70
     0
  9
$DIMTIH
 70
     0
  9
$DIMTOH
 70
     0
  9
$DIMSE1
 70
     0
  9
$DIMSE2
 70
     0
  9
$DIMTAD
 70
     1
  9
$DIMZIN
 70
     8
  9
$DIMBLK
  1

  9
$DIMASO
 70
     1
  9
$DIMSHO
 70
     1
  9
$DIMPOST
  1

  9
$DIMAPOST
  1

  9
$DIMALT
 70
     0
  9
$DIMALTD
 70
     2
  9
$DIMALTF
 40
25.4
  9
$DIMLFAC
 40
1.0
  9
$DIMTOFL
 70
     1
  9
$DIMTVP
 40
0.0
  9
$DIMTIX
 70
     0
  9
$DIMSOXD
 70
     0
  9
$DIMSAH
 70
     0
  9
$DIMBLK1
  1

  9
$DIMBLK2
  1

  9
$DIMSTYLE
  2
STANDARD
  9
$DIMCLRD
 70
     0
  9
$DIMCLRE
 70
     0
  9
$DIMCLRT
 70
     0
  9
$DIMTFAC
 40
1.0
  9
$DIMGAP
 40
0.65
  9
$DIMJUST
 70
     0
  9
$DIMSD1
 70
     0
  9
$DIMSD2
 70
     0
  9
$DIMTOLJ
 70
     1
  9
$DIMTZIN
 70
     0
  9
$DIMALTZ
 70
     0
  9
$DIMALTTZ
 70
     0
  9
$DIMFIT
 70
     3
  9
$DIMUPT
 70
     0
  9
$DIMUNIT
 70
     2
  9
$DIMDEC
 70
     3
  9
$DIMTDEC
 70
     3
  9
$DIMALTU
 70
     2
  9
$DIMALTTD
 70
     2
  9
$DIMTXSTY
  7
STANDARD
  9
$DIMAUNIT
 70
     0
  9
$LUNITS
 70
     2
  9
$LUPREC
 70
     4
  9
$SKETCHINC
 40
1.0
  9
$FILLETRAD
 40
10.0
  9
$AUNITS
 70
     0
  9
$AUPREC
 70
     0
  9
$MENU
  1
.
  9
$ELEVATION
 40
0.0
  9
$PELEVATION
 40
0.0
  9
$THICKNESS
 40
0.0
  9
$LIMCHECK
 70
     0
  9
$BLIPMODE
 70
     0
  9
$CHAMFERA
 40
10.0
  9
$CHAMFERB
 40
10.0
  9
$CHAMFERC
 40
20.0
  9
$CHAMFERD
 40
0.0
  9
$SKPOLY
 70
     0
  9
$TDCREATE
 40
2454036.711772419
  9
$TDUPDATE
 40
2454524.420715416
  9
$TDINDWG
 40
0.2862402431
  9
$TDUSRTIMER
 40
0.2862396991
  9
$USRTIMER
 70
     1
  9
$ANGBASE
 50
0.0
  9
$ANGDIR
 70
     0
  9
$PDMODE
 70
     0
  9
$PDSIZE
 40
0.0
  9
$PLINEWID
 40
0.0
  9
$COORDS
 70
     0
  9
$SPLFRAME
 70
     0
  9
$SPLINETYPE
 70
     6
  9
$SPLINESEGS
 70
     8
  9
$ATTDIA
 70
     0
  9
$ATTREQ
 70
     1
  9
$HANDLING
 70
 22529
  9
$HANDSEED
  5
1532
  9
$SURFTAB1
 70
     6
  9
$SURFTAB2
 70
     6
  9
$SURFTYPE
 70
     6
  9
$SURFU
 70
     6
  9
$SURFV
 70
     6
  9
$UCSNAME
  2

  9
$UCSORG
 10
0.0
 20
0.0
 30
0.0
  9
$UCSXDIR
 10
1.0
 20
0.0
 30
0.0
  9
$UCSYDIR
 10
0.0
 20
1.0
 30
0.0
  9
$PUCSNAME
  2

  9
$PUCSORG
 10
0.0
 20
0.0
 30
0.0
  9
$PUCSXDIR
 10
1.0
 20
0.0
 30
0.0
  9
$PUCSYDIR
 10
0.0
 20
1.0
 30
0.0
  9
$USERI1
 70
     0
  9
$USERI2
 70
     0
  9
$USERI3
 70
     0
  9
$USERI4
 70
     0
  9
$USERI5
 70
     0
  9
$USERR1
 40
0.0
  9
$USERR2
 40
0.0
  9
$USERR3
 40
0.0
  9
$USERR4
 40
0.0
  9
$USERR5
 40
0.0
  9
$WORLDVIEW
 70
     1
  9
$SHADEDGE
 70
     3
  9
$SHADEDIF
 70
    70
  9
$TILEMODE
 70
     1
  9
$MAXACTVP
 70
    64
  9
$PINSBASE
 10
0.0
 20
0.0
 30
0.0
  9
$PLIMCHECK
 70
     0
  9
$PEXTMIN
 10
0.0
 20
0.0
 30
0.0
  9
$PEXTMAX
 10
594.0
 20
420.0
 30
0.0
  9
$PLIMMIN
 10
-0.0110393610068442
 20
-0.0028022467055191
  9
$PLIMMAX
 10
593.9889606389932
 20
419.9971977532944
  9
$UNITMODE
 70
     0
  9
$VISRETAIN
 70
     1
  9
$PLINEGEN
 70
     0
  9
$PSLTSCALE
 70
     1
  9
$TREEDEPTH
 70
  3020
  9
$PICKSTYLE
 70
     1
  9
$CMLSTYLE
  2
STANDARD
  9
$CMLJUST
 70
     0
  9
$CMLSCALE
 40
20.0
  9
$PROXYGRAPHICS
 70
     1
  9
$MEASUREMENT
 70
     1
  0
ENDSEC
  0
SECTION
  2
CLASSES
  0
CLASS
  1
ACDBDICTIONARYWDFLT
  2
AcDbDictionaryWithDefault
  3
AutoCAD 2000
 90
        0
280
     0
281
     0
  0
CLASS
  1
ACDBPLACEHOLDER
  2
AcDbPlaceHolder
  3
AutoCAD 2000
 90
        0
280
     0
281
     0
  0
CLASS
  1
LAYOUT
  2
AcDbLayout
  3
AutoCAD 2000
 90
        0
280
     0
281
     0
  0
CLASS
  1
PLOTSETTINGS
  2
AcDbPlotSettings
  3
AutoCAD 2000
 90
        0
280
     0
281
     0
  0
CLASS
  1
DICTIONARYVAR
  2
AcDbDictionaryVar
  3
AutoCAD 2000
 90
        0
280
     0
281
     0
  0
CLASS
  1
DIMASSOC
  2
AcDbDimAssoc
  3
"AcDbDimAssoc|Product Desc:     AcDim ARX App For Dimension|Company:          Autodesk, Inc.|WEB Address:      www.autodesk.com"
 90
        0
280
     0
281
     0
  0
CLASS
  1
LONG_TRANSACTION
  2
AcDbLongTransaction
  3
AutoCAD 2000
 90
        0
280
     0
281
     0
  0
CLASS
  1
LWPOLYLINE
  2
AcDbPolyline
  3
AutoCAD 2000
 90
        0
280
     0
281
     1
  0
CLASS
  1
HATCH
  2
AcDbHatch
  3
AutoCAD 2000
 90
        0
280
     0
281
     1
  0
CLASS
  1
XRECORD
  2
AcDbXrecord
  3
AutoCAD 2000
 90
        0
280
     0
281
     0
  0
CLASS
  1
LONG_TRANSACTION
  2
AcDbLongTransaction
  3
AutoCAD 2000
 90
        0
280
     0
281
     0
  0
CLASS
  1
LWPOLYLINE
  2
AcDbPolyline
  3
AutoCAD 2000
 90
        0
280
     0
281
     1
  0
CLASS
  1
HATCH
  2
AcDbHatch
  3
AutoCAD 2000
 90
        0
280
     0
281
     1
  0
CLASS
  1
XRECORD
  2
AcDbXrecord
  3
AutoCAD 2000
 90
        0
280
     0
281
     0
  0
CLASS
  1
LONG_TRANSACTION
  2
AcDbLongTransaction
  3
AutoCAD 2000
 90
        0
280
     0
281
     0
  0
CLASS
  1
LWPOLYLINE
  2
AcDbPolyline
  3
AutoCAD 2000
 90
        0
280
     0
281
     1
  0
CLASS
  1
HATCH
  2
AcDbHatch
  3
AutoCAD 2000
 90
        0
280
     0
281
     1
  0
CLASS
  1
XRECORD
  2
AcDbXrecord
  3
AutoCAD 2000
 90
        0
280
     0
281
     0
  0
CLASS
  1
LONG_TRANSACTION
  2
AcDbLongTransaction
  3
AutoCAD 2000
 90
        0
280
     0
281
     0
  0
CLASS
  1
LWPOLYLINE
  2
AcDbPolyline
  3
AutoCAD 2000
 90
        0
280
     0
281
     1
  0
CLASS
  1
HATCH
  2
AcDbHatch
  3
AutoCAD 2000
 90
        0
280
     0
281
     1
  0
CLASS
  1
XRECORD
  2
AcDbXrecord
  3
AutoCAD 2000
 90
        0
280
     0
281
     0
  0
ENDSEC
  0
SECTION
  2
TABLES
  0
TABLE
  2
VPORT
  5
19
330
0
100
AcDbSymbolTable
 70
     2
  0
VPORT
  5
150F
330
19
100
AcDbSymbolTableRecord
100
AcDbViewportTableRecord
  2
*ACTIVE
 70
     0
 10
0.0
 20
0.0
 11
1.0
 21
1.0
 12
155.1803290514031
 22
75.55872278447194
 13
0.0
 23
0.0
 14
10.0
 24
10.0
 15
10.0
 25
10.0
 16
0.0
 26
0.0
 36
1.0
 17
0.0
 27
0.0
 37
0.0
 40
276.561182692239
 41
1.493654822335025
 42
50.0
 43
0.0
 44
0.0
 50
0.0
 51
0.0
 71
     0
 72
   100
 73
     1
 74
     3
 75
     0
 76
     0
 77
     0
 78
     0
  0
ENDTAB
  0
TABLE
  2
LTYPE
  5
14
330
0
100
AcDbSymbolTable
 70
     2
  0
LTYPE
  5
15
330
14
100
AcDbSymbolTableRecord
100
AcDbLinetypeTableRecord
  2
BYBLOCK
 70
     0
  3

 72
    65
 73
     0
 40
0.0
  0
LTYPE
  5
16
330
14
100
AcDbSymbolTableRecord
100
AcDbLinetypeTableRecord
  2
BYLAYER
 70
     0
  3

 72
    65
 73
     0
 40
0.0
  0
LTYPE
  5
8
330
14
100
AcDbSymbolTableRecord
100
AcDbLinetypeTableRecord
  2
CONTINUOUS
 70
     0
  3
Solid line
 72
    65
 73
     0
 40
0.0
  0
LTYPE
  5
51
330
14
100
AcDbSymbolTableRecord
100
AcDbLinetypeTableRecord
  2
CENTER
 70
     0
  3
____ _ ____ _
 72
    65
 73
     4
 40
29.36842105263158
 49
18.35526315789471
 74
     0
 49
-3.671052631578946
 74
     0
 49
3.671052631578946
 74
     0
 49
-3.671052631578946
 74
     0
  0
ENDTAB
  0
TABLE
  2
LAYER
  5
10
330
0
100
AcDbSymbolTable
 70
     5
  0
LAYER
  5
4
330
10
100
AcDbSymbolTableRecord
100
AcDbLayerTableRecord
  2
0
 70
     0
 62
     7
  6
CONTINUOUS
  0
LAYER
  5
2C
330
10
100
AcDbSymbolTableRecord
100
AcDbLayerTableRecord
  2
OBJECT
 70
     0
 62
     3
  6
CONTINUOUS
  0
LAYER
  5
50
330
10
100
AcDbSymbolTableRecord
100
AcDbLayerTableRecord
  2
CENTER
 70
     0
 62
     1
  6
CENTER
  0
LAYER
  5
28
330
10
100
AcDbSymbolTableRecord
100
AcDbLayerTableRecord
  2
DIMS
 70
     0
 62
     6
  6
CONTINUOUS
  0
LAYER
  5
38
330
10
100
AcDbSymbolTableRecord
100
AcDbLayerTableRecord
  2
DEFPOINTS
 70
     0
 62
     2
  6
CONTINUOUS
  0
ENDTAB
  0
TABLE
  2
STYLE
  5
11
330
0
100
AcDbSymbolTable
 70
     2
  0
STYLE
  5
12
330
11
100
AcDbSymbolTableRecord
100
AcDbTextStyleTableRecord
  2
STANDARD
 70
     0
 40
0.0
 41
1.0
 50
0.0
 71
     0
 42
2.5
  3
simplex.shx
  4
bigfont.shx
  0
STYLE
  5
29
330
11
100
AcDbSymbolTableRecord
100
AcDbTextStyleTableRecord
  2
ROMAN
 70
     0
 40
0.0
 41
1.0
 50
0.0
 71
     0
 42
5.0
  3
romand.shx
  4
bigfont.shx
  0
ENDTAB
  0
TABLE
  2
VIEW
  5
17
330
0
100
AcDbSymbolTable
 70
     0
  0
ENDTAB
  0
TABLE
  2
UCS
  5
18
330
0
100
AcDbSymbolTable
 70
     0
  0
ENDTAB
  0
TABLE
  2
APPID
  5
1B
330
0
100
AcDbSymbolTable
 70
     1
  0
APPID
  5
1C
330
1B
100
AcDbSymbolTableRecord
100
AcDbRegAppTableRecord
  2
ACAD
 70
     0
  0
ENDTAB
  0
TABLE
  2
DIMSTYLE
  5
1D
330
0
100
AcDbSymbolTable
 70
     6
  0
DIMSTYLE
105
1F
102
{ACAD_REACTORS
330
141
330
24A
330
EA
330
105
330
52
330
FFE
330
1016
330
1084
330
109C
330
106C
330
117
102
}
330
1D
100
AcDbSymbolTableRecord
100
AcDbDimStyleTableRecord
  2
STANDARD
 70
     0
  3

  4

  5

  6

  7

 40
1.0
 41
2.0
 42
0.65
 43
6.0
 44
0.65
 45
0.0
 46
0.0
 47
0.0
 48
0.0
140
2.0
141
0.0
142
0.0
143
25.4
144
1.0
145
0.0
146
1.0
147
0.65
 71
     0
 72
     0
 73
     0
 74
     0
 75
     0
 76
     0
 77
     1
 78
     8
170
     0
171
     2
172
     1
173
     0
174
     0
175
     0
176
     0
177
     0
178
     0
270
     2
271
     3
272
     3
273
     2
274
     2
340
12
275
     0
280
     0
281
     0
282
     0
283
     1
284
     0
285
     0
286
     0
287
     3
288
     0
  0
DIMSTYLE
105
23
102
{ACAD_REACTORS
330
2F
330
63
102
}
330
1D
100
AcDbSymbolTableRecord
100
AcDbDimStyleTableRecord
  2
DMST_1
 70
     0
  3
（<>）
  4

  5

  6

  7

 40
1.0
 41
2.0
 42
0.625
 43
7.0
 44
0.625
 45
0.0
 46
0.0
 47
0.1
 48
0.1
140
2.0
141
0.0
142
0.0
143
25.4
144
1.0
145
0.0
146
0.7
147
0.625
 71
     0
 72
     0
 73
     0
 74
     0
 75
     0
 76
     0
 77
     1
 78
     9
170
     0
171
     2
172
     1
173
     0
174
     0
175
     0
176
     0
177
     0
178
     0
270
     2
271
     3
272
     3
273
     2
274
     2
340
12
275
     0
280
     0
281
     0
282
     0
283
     1
284
     0
285
     0
286
     0
287
     3
288
     0
  0
DIMSTYLE
105
21
102
{ACAD_REACTORS
330
139C
102
}
330
1D
100
AcDbSymbolTableRecord
100
AcDbDimStyleTableRecord
  2
DMST_5
 70
     0
  3
%%C<>
  4

  5

  6

  7

 40
1.0
 41
2.0
 42
0.65
 43
5.0
 44
0.65
 45
0.0
 46
0.0
 47
0.0
 48
0.02
140
2.0
141
0.0
142
0.0
143
25.4
144
1.0
145
0.0
146
0.7
147
0.625
 71
     1
 72
     0
 73
     0
 74
     0
 75
     0
 76
     0
 77
     1
 78
     9
170
     0
171
     2
172
     1
173
     0
174
     0
175
     0
176
   256
177
   256
178
     0
270
     2
271
     3
272
     3
273
     2
274
     2
340
12
275
     0
280
     0
281
     0
282
     0
283
     0
284
     8
285
     0
286
     0
287
     3
288
     0
  0
DIMSTYLE
105
22
102
{ACAD_REACTORS
330
73
330
3E
330
1B9
102
}
330
1D
100
AcDbSymbolTableRecord
100
AcDbDimStyleTableRecord
  2
DMST_2
 70
     0
  3

  4

  5

  6

  7

 40
1.0
 41
2.0
 42
0.625
 43
7.0
 44
0.625
 45
0.0
 46
0.0
 47
0.2
 48
0.2
140
2.0
141
0.0
142
0.0
143
25.4
144
1.0
145
0.0
146
0.7
147
0.625
 71
     1
 72
     0
 73
     0
 74
     0
 75
     0
 76
     0
 77
     1
 78
     9
170
     0
171
     2
172
     1
173
     0
174
     0
175
     0
176
   256
177
   256
178
     0
270
     2
271
     3
272
     3
273
     2
274
     2
340
12
275
     0
280
     0
281
     0
282
     0
283
     0
284
     8
285
     0
286
     0
287
     3
288
     0
  0
DIMSTYLE
105
20
102
{ACAD_REACTORS
330
134
330
F8
102
}
330
1D
100
AcDbSymbolTableRecord
100
AcDbDimStyleTableRecord
  2
DMST_4
 70
     0
  3

  4

  5

  6

  7

 40
1.0
 41
2.0
 42
0.65
 43
7.0
 44
0.65
 45
0.0
 46
0.0
 47
0.5
 48
0.5
140
2.0
141
0.0
142
0.0
143
25.4
144
1.0
145
0.0
146
0.7
147
0.65
 71
     1
 72
     0
 73
     0
 74
     0
 75
     0
 76
     0
 77
     1
 78
     9
170
     0
171
     2
172
     1
173
     0
174
     0
175
     0
176
     0
177
     0
178
     0
270
     2
271
     3
272
     3
273
     2
274
     2
340
12
275
     0
280
     0
281
     0
282
     0
283
     0
284
     8
285
     0
286
     0
287
     3
288
     0
  0
DIMSTYLE
105
5A4
102
{ACAD_REACTORS
330
118
330
14E
102
}
330
1D
100
AcDbSymbolTableRecord
100
AcDbDimStyleTableRecord
  2
DMST_3
 70
     0
  3

  4

  5

  6

  7

 40
1.0
 41
2.0
 42
0.625
 43
7.0
 44
0.625
 45
0.0
 46
0.0
 47
0.1
 48
0.1
140
2.0
141
0.0
142
0.0
143
25.4
144
1.0
145
0.0
146
0.7
147
0.625
 71
     1
 72
     0
 73
     0
 74
     0
 75
     0
 76
     0
 77
     1
 78
     9
170
     0
171
     2
172
     1
173
     0
174
     0
175
     0
176
   256
177
   256
178
     0
270
     2
271
     3
272
     3
273
     2
274
     2
340
12
275
     0
280
     0
281
     0
282
     0
283
     0
284
     8
285
     0
286
     0
287
     3
288
     0
  0
ENDTAB
  0
TABLE
  2
BLOCK_RECORD
  5
1
330
0
100
AcDbSymbolTable
 70
    60
  0
BLOCK_RECORD
  5
2
102
{ACAD_XDICTIONARY
360
6FE
102
}
330
1
100
AcDbSymbolTableRecord
100
AcDbBlockTableRecord
  2
*MODEL_SPACE
  0
BLOCK_RECORD
  5
C
102
{ACAD_XDICTIONARY
360
700
102
}
330
1
100
AcDbSymbolTableRecord
100
AcDbBlockTableRecord
  2
*PAPER_SPACE
  0
BLOCK_RECORD
  5
1CF
330
1
100
AcDbSymbolTableRecord
100
AcDbBlockTableRecord
  2
*X0
  0
BLOCK_RECORD
  5
196
330
1
100
AcDbSymbolTableRecord
100
AcDbBlockTableRecord
  2
*X1
  0
BLOCK_RECORD
  5
22D
330
1
100
AcDbSymbolTableRecord
100
AcDbBlockTableRecord
  2
*D2
  0
BLOCK_RECORD
  5
23A
330
1
100
AcDbSymbolTableRecord
100
AcDbBlockTableRecord
  2
*D3
  0
BLOCK_RECORD
  5
220
330
1
100
AcDbSymbolTableRecord
100
AcDbBlockTableRecord
  2
*D4
  0
BLOCK_RECORD
  5
64
330
1
100
AcDbSymbolTableRecord
100
AcDbBlockTableRecord
  2
*D5
  0
BLOCK_RECORD
  5
DA
330
1
100
AcDbSymbolTableRecord
100
AcDbBlockTableRecord
  2
*D6
  0
BLOCK_RECORD
  5
53
330
1
100
AcDbSymbolTableRecord
100
AcDbBlockTableRecord
  2
*D7
  0
BLOCK_RECORD
  5
74
330
1
100
AcDbSymbolTableRecord
100
AcDbBlockTableRecord
  2
*D8
  0
BLOCK_RECORD
  5
3F
330
1
100
AcDbSymbolTableRecord
100
AcDbBlockTableRecord
  2
*D9
  0
BLOCK_RECORD
  5
EB
330
1
100
AcDbSymbolTableRecord
100
AcDbBlockTableRecord
  2
*D10
  0
BLOCK_RECORD
  5
1BA
330
1
100
AcDbSymbolTableRecord
100
AcDbBlockTableRecord
  2
*D11
  0
BLOCK_RECORD
  5
106
330
1
100
AcDbSymbolTableRecord
100
AcDbBlockTableRecord
  2
*D12
  0
BLOCK_RECORD
  5
119
330
1
100
AcDbSymbolTableRecord
100
AcDbBlockTableRecord
  2
*D13
  0
BLOCK_RECORD
  5
24B
330
1
100
AcDbSymbolTableRecord
100
AcDbBlockTableRecord
  2
*D14
  0
BLOCK_RECORD
  5
CD
330
1
100
AcDbSymbolTableRecord
100
AcDbBlockTableRecord
  2
*D15
  0
BLOCK_RECORD
  5
135
330
1
100
AcDbSymbolTableRecord
100
AcDbBlockTableRecord
  2
*D16
  0
BLOCK_RECORD
  5
126
330
1
100
AcDbSymbolTableRecord
100
AcDbBlockTableRecord
  2
*D17
  0
BLOCK_RECORD
  5
F9
330
1
100
AcDbSymbolTableRecord
100
AcDbBlockTableRecord
  2
*D18
  0
BLOCK_RECORD
  5
142
330
1
100
AcDbSymbolTableRecord
100
AcDbBlockTableRecord
  2
*D19
  0
BLOCK_RECORD
  5
14F
330
1
100
AcDbSymbolTableRecord
100
AcDbBlockTableRecord
  2
*D20
  0
BLOCK_RECORD
  5
30
330
1
100
AcDbSymbolTableRecord
100
AcDbBlockTableRecord
  2
*D21
  0
BLOCK_RECORD
  5
298
330
1
100
AcDbSymbolTableRecord
100
AcDbBlockTableRecord
  2
*D22
  0
BLOCK_RECORD
  5
2A4
330
1
100
AcDbSymbolTableRecord
100
AcDbBlockTableRecord
  2
*D23
  0
BLOCK_RECORD
  5
2B9
330
1
100
AcDbSymbolTableRecord
100
AcDbBlockTableRecord
  2
*D24
  0
BLOCK_RECORD
  5
2C5
330
1
100
AcDbSymbolTableRecord
100
AcDbBlockTableRecord
  2
*D25
  0
BLOCK_RECORD
  5
2D1
330
1
100
AcDbSymbolTableRecord
100
AcDbBlockTableRecord
  2
*D26
  0
BLOCK_RECORD
  5
2DD
330
1
100
AcDbSymbolTableRecord
100
AcDbBlockTableRecord
  2
*D27
  0
BLOCK_RECORD
  5
2E9
330
1
100
AcDbSymbolTableRecord
100
AcDbBlockTableRecord
  2
*D28
  0
BLOCK_RECORD
  5
2F5
330
1
100
AcDbSymbolTableRecord
100
AcDbBlockTableRecord
  2
*D29
  0
BLOCK_RECORD
  5
301
330
1
100
AcDbSymbolTableRecord
100
AcDbBlockTableRecord
  2
*D30
  0
BLOCK_RECORD
  5
30D
330
1
100
AcDbSymbolTableRecord
100
AcDbBlockTableRecord
  2
*D31
  0
BLOCK_RECORD
  5
319
330
1
100
AcDbSymbolTableRecord
100
AcDbBlockTableRecord
  2
*D32
  0
BLOCK_RECORD
  5
329
330
1
100
AcDbSymbolTableRecord
100
AcDbBlockTableRecord
  2
*D33
  0
BLOCK_RECORD
  5
337
330
1
100
AcDbSymbolTableRecord
100
AcDbBlockTableRecord
  2
*D34
  0
BLOCK_RECORD
  5
343
330
1
100
AcDbSymbolTableRecord
100
AcDbBlockTableRecord
  2
*D35
  0
BLOCK_RECORD
  5
34F
330
1
100
AcDbSymbolTableRecord
100
AcDbBlockTableRecord
  2
*D36
  0
BLOCK_RECORD
  5
35B
330
1
100
AcDbSymbolTableRecord
100
AcDbBlockTableRecord
  2
*D37
  0
BLOCK_RECORD
  5
367
330
1
100
AcDbSymbolTableRecord
100
AcDbBlockTableRecord
  2
*D38
  0
BLOCK_RECORD
  5
3CE
330
1
100
AcDbSymbolTableRecord
100
AcDbBlockTableRecord
  2
*D39
  0
BLOCK_RECORD
  5
3E9
330
1
100
AcDbSymbolTableRecord
100
AcDbBlockTableRecord
  2
*D40
  0
BLOCK_RECORD
  5
3F5
330
1
100
AcDbSymbolTableRecord
100
AcDbBlockTableRecord
  2
*D41
  0
BLOCK_RECORD
  5
401
330
1
100
AcDbSymbolTableRecord
100
AcDbBlockTableRecord
  2
*D42
  0
BLOCK_RECORD
  5
AFE
330
1
100
AcDbSymbolTableRecord
100
AcDbBlockTableRecord
  2
*D43
  0
BLOCK_RECORD
  5
B1A
330
1
100
AcDbSymbolTableRecord
100
AcDbBlockTableRecord
  2
*D44
  0
BLOCK_RECORD
  5
FCF
330
1
100
AcDbSymbolTableRecord
100
AcDbBlockTableRecord
  2
*D45
  0
BLOCK_RECORD
  5
FE7
330
1
100
AcDbSymbolTableRecord
100
AcDbBlockTableRecord
  2
*D46
  0
BLOCK_RECORD
  5
FFF
330
1
100
AcDbSymbolTableRecord
100
AcDbBlockTableRecord
  2
*D47
  0
BLOCK_RECORD
  5
1017
330
1
100
AcDbSymbolTableRecord
100
AcDbBlockTableRecord
  2
*D48
  0
BLOCK_RECORD
  5
106D
330
1
100
AcDbSymbolTableRecord
100
AcDbBlockTableRecord
  2
*D49
  0
BLOCK_RECORD
  5
1085
330
1
100
AcDbSymbolTableRecord
100
AcDbBlockTableRecord
  2
*D50
  0
BLOCK_RECORD
  5
109D
330
1
100
AcDbSymbolTableRecord
100
AcDbBlockTableRecord
  2
*D51
  0
BLOCK_RECORD
  5
1204
330
1
100
AcDbSymbolTableRecord
100
AcDbBlockTableRecord
  2
*D52
  0
BLOCK_RECORD
  5
1213
330
1
100
AcDbSymbolTableRecord
100
AcDbBlockTableRecord
  2
*D53
  0
BLOCK_RECORD
  5
1319
330
1
100
AcDbSymbolTableRecord
100
AcDbBlockTableRecord
  2
*D54
  0
BLOCK_RECORD
  5
139D
330
1
100
AcDbSymbolTableRecord
100
AcDbBlockTableRecord
  2
*D55
  0
BLOCK_RECORD
  5
1406
330
1
100
AcDbSymbolTableRecord
100
AcDbBlockTableRecord
  2
*D56
  0
BLOCK_RECORD
  5
1461
330
1
100
AcDbSymbolTableRecord
100
AcDbBlockTableRecord
  2
*D57
  0
BLOCK_RECORD
  5
1473
330
1
100
AcDbSymbolTableRecord
100
AcDbBlockTableRecord
  2
*D58
  0
BLOCK_RECORD
  5
148E
330
1
100
AcDbSymbolTableRecord
100
AcDbBlockTableRecord
  2
*D59
  0
ENDTAB
  0
ENDSEC
  0
SECTION
  2
BLOCKS
  0
BLOCK
  5
3
330
2
100
AcDbEntity
  8
0
100
AcDbBlockBegin
  2
*MODEL_SPACE
 70
     2
 10
0.0
 20
0.0
 30
0.0
  3
*MODEL_SPACE
  1

  0
ENDBLK
  5
9
330
2
100
AcDbEntity
  8
0
100
AcDbBlockEnd
  0
BLOCK
  5
D
330
C
100
AcDbEntity
 67
     1
  8
0
100
AcDbBlockBegin
  2
*PAPER_SPACE
 70
     0
 10
0.0
 20
0.0
 30
0.0
  3
*PAPER_SPACE
  1

  0
ENDBLK
  5
E
330
C
100
AcDbEntity
 67
     1
  8
0
100
AcDbBlockEnd
  0
BLOCK
  5
1EC
330
1CF
100
AcDbEntity
  8
0
100
AcDbBlockBegin
  2
*X0
 70
     1
 10
0.0
 20
0.0
 30
0.0
  3
*X0
  1

  0
LINE
  5
1D0
330
1CF
100
AcDbEntity
  8
0
 62
     0
100
AcDbLine
 10
127.0696217697969
 20
126.2933161260532
 30
0.0
 11
127.0696217697969
 21
135.793316126053
 31
0.0
  0
LINE
  5
1D1
330
1CF
100
AcDbEntity
  8
0
 62
     0
100
AcDbLine
 10
127.0696217697969
 20
124.4432066576307
 30
0.0
 11
127.0696217697969
 21
126.2933161260532
 31
0.0
  0
LINE
  5
1D2
330
1CF
100
AcDbEntity
  8
0
 62
     0
100
AcDbLine
 10
126.1171217697969
 20
126.2933161260532
 30
0.0
 11
126.1171217697969
 21
135.793316126053
 31
0.0
  0
LINE
  5
1D3
330
1CF
100
AcDbEntity
  8
0
 62
     0
100
AcDbLine
 10
126.1171217697969
 20
123.7838412042975
 30
0.0
 11
126.1171217697969
 21
126.2933161260532
 31
0.0
  0
LINE
  5
1D4
330
1CF
100
AcDbEntity
  8
0
 62
     0
100
AcDbLine
 10
125.1646217697969
 20
126.2933161260532
 30
0.0
 11
125.1646217697969
 21
135.793316126053
 31
0.0
  0
LINE
  5
1D5
330
1CF
100
AcDbEntity
  8
0
 62
     0
100
AcDbLine
 10
125.1646217697969
 20
123.1244757509643
 30
0.0
 11
125.1646217697969
 21
126.2933161260532
 31
0.0
  0
LINE
  5
1D6
330
1CF
100
AcDbEntity
  8
0
 62
     0
100
AcDbLine
 10
124.2121217697969
 20
126.2933161260532
 30
0.0
 11
124.2121217697969
 21
135.793316126053
 31
0.0
  0
LINE
  5
1D7
330
1CF
100
AcDbEntity
  8
0
 62
     0
100
AcDbLine
 10
124.2121217697969
 20
122.465110297631
 30
0.0
 11
124.2121217697969
 21
126.2933161260532
 31
0.0
  0
LINE
  5
1D8
330
1CF
100
AcDbEntity
  8
0
 62
     0
100
AcDbLine
 10
123.259621769797
 20
126.2933161260532
 30
0.0
 11
123.259621769797
 21
135.793316126053
 31
0.0
  0
LINE
  5
1D9
330
1CF
100
AcDbEntity
  8
0
 62
     0
100
AcDbLine
 10
123.259621769797
 20
121.8057448442979
 30
0.0
 11
123.259621769797
 21
126.2933161260532
 31
0.0
  0
LINE
  5
1DA
330
1CF
100
AcDbEntity
  8
0
 62
     0
100
AcDbLine
 10
122.307121769797
 20
126.2933161260532
 30
0.0
 11
122.307121769797
 21
135.793316126053
 31
0.0
  0
LINE
  5
1DB
330
1CF
100
AcDbEntity
  8
0
 62
     0
100
AcDbLine
 10
122.307121769797
 20
121.1463793909647
 30
0.0
 11
122.307121769797
 21
126.2933161260532
 31
0.0
  0
LINE
  5
1DC
330
1CF
100
AcDbEntity
  8
0
 62
     0
100
AcDbLine
 10
121.354621769797
 20
126.2933161260532
 30
0.0
 11
121.354621769797
 21
135.793316126053
 31
0.0
  0
LINE
  5
1DD
330
1CF
100
AcDbEntity
  8
0
 62
     0
100
AcDbLine
 10
121.354621769797
 20
120.4870139376314
 30
0.0
 11
121.354621769797
 21
126.2933161260532
 31
0.0
  0
LINE
  5
1DE
330
1CF
100
AcDbEntity
  8
0
 62
     0
100
AcDbLine
 10
120.402121769797
 20
126.2933161260532
 30
0.0
 11
120.402121769797
 21
135.793316126053
 31
0.0
  0
LINE
  5
1DF
330
1CF
100
AcDbEntity
  8
0
 62
     0
100
AcDbLine
 10
120.402121769797
 20
119.8276484842983
 30
0.0
 11
120.402121769797
 21
126.2933161260532
 31
0.0
  0
LINE
  5
1E0
330
1CF
100
AcDbEntity
  8
0
 62
     0
100
AcDbLine
 10
119.449621769797
 20
126.2933161260532
 30
0.0
 11
119.449621769797
 21
135.793316126053
 31
0.0
  0
LINE
  5
1E1
330
1CF
100
AcDbEntity
  8
0
 62
     0
100
AcDbLine
 10
119.449621769797
 20
119.168283030965
 30
0.0
 11
119.449621769797
 21
126.2933161260532
 31
0.0
  0
LINE
  5
1E2
330
1CF
100
AcDbEntity
  8
0
 62
     0
100
AcDbLine
 10
118.497121769797
 20
126.2933161260532
 30
0.0
 11
118.497121769797
 21
135.793316126053
 31
0.0
  0
LINE
  5
1E3
330
1CF
100
AcDbEntity
  8
0
 62
     0
100
AcDbLine
 10
118.497121769797
 20
118.5089175776319
 30
0.0
 11
118.497121769797
 21
126.2933161260532
 31
0.0
  0
LINE
  5
1E4
330
1CF
100
AcDbEntity
  8
0
 62
     0
100
AcDbLine
 10
117.544621769797
 20
126.2933161260532
 30
0.0
 11
117.544621769797
 21
135.793316126053
 31
0.0
  0
LINE
  5
1E5
330
1CF
100
AcDbEntity
  8
0
 62
     0
100
AcDbLine
 10
117.544621769797
 20
117.8495521242987
 30
0.0
 11
117.544621769797
 21
126.2933161260532
 31
0.0
  0
LINE
  5
1E6
330
1CF
100
AcDbEntity
  8
0
 62
     0
100
AcDbLine
 10
116.592121769797
 20
126.2933161260532
 30
0.0
 11
116.592121769797
 21
135.793316126053
 31
0.0
  0
LINE
  5
1E7
330
1CF
100
AcDbEntity
  8
0
 62
     0
100
AcDbLine
 10
116.592121769797
 20
117.1901866709656
 30
0.0
 11
116.592121769797
 21
126.2933161260532
 31
0.0
  0
LINE
  5
1E8
330
1CF
100
AcDbEntity
  8
0
 62
     0
100
AcDbLine
 10
115.639621769797
 20
126.2933161260533
 30
0.0
 11
115.639621769797
 21
135.7933161260532
 31
0.0
  0
LINE
  5
1E9
330
1CF
100
AcDbEntity
  8
0
 62
     0
100
AcDbLine
 10
115.639621769797
 20
116.5308212176324
 30
0.0
 11
115.639621769797
 21
126.2933161260533
 31
0.0
  0
LINE
  5
1EA
330
1CF
100
AcDbEntity
  8
0
 62
     0
100
AcDbLine
 10
114.687121769797
 20
126.2933161260533
 30
0.0
 11
114.687121769797
 21
135.7933161260532
 31
0.0
  0
LINE
  5
1EB
330
1CF
100
AcDbEntity
  8
0
 62
     0
100
AcDbLine
 10
114.687121769797
 20
115.8714557642992
 30
0.0
 11
114.687121769797
 21
126.2933161260533
 31
0.0
  0
ENDBLK
  5
1ED
330
1CF
100
AcDbEntity
  8
0
100
AcDbBlockEnd
  0
BLOCK
  5
1B3
330
196
100
AcDbEntity
  8
0
100
AcDbBlockBegin
  2
*X1
 70
     1
 10
0.0
 20
0.0
 30
0.0
  3
*X1
  1

  0
LINE
  5
197
330
196
100
AcDbEntity
  8
0
 62
     0
100
AcDbLine
 10
155.3046217697968
 20
89.29331612605322
 30
0.0
 11
155.3046217697968
 21
79.79331612605324
 31
0.0
  0
LINE
  5
198
330
196
100
AcDbEntity
  8
0
 62
     0
100
AcDbLine
 10
155.3046217697968
 20
91.1434255944758
 30
0.0
 11
155.3046217697968
 21
89.29331612605322
 31
0.0
  0
LINE
  5
199
330
196
100
AcDbEntity
  8
0
 62
     0
100
AcDbLine
 10
156.2571217697968
 20
89.29331612605322
 30
0.0
 11
156.2571217697968
 21
79.79331612605324
 31
0.0
  0
LINE
  5
19A
330
196
100
AcDbEntity
  8
0
 62
     0
100
AcDbLine
 10
156.2571217697968
 20
91.80279104780899
 30
0.0
 11
156.2571217697968
 21
89.29331612605322
 31
0.0
  0
LINE
  5
19B
330
196
100
AcDbEntity
  8
0
 62
     0
100
AcDbLine
 10
157.2096217697968
 20
89.29331612605322
 30
0.0
 11
157.2096217697968
 21
79.79331612605324
 31
0.0
  0
LINE
  5
19C
330
196
100
AcDbEntity
  8
0
 62
     0
100
AcDbLine
 10
157.2096217697968
 20
92.46215650114216
 30
0.0
 11
157.2096217697968
 21
89.29331612605322
 31
0.0
  0
LINE
  5
19D
330
196
100
AcDbEntity
  8
0
 62
     0
100
AcDbLine
 10
158.1621217697968
 20
89.29331612605322
 30
0.0
 11
158.1621217697968
 21
79.7933161260532
 31
0.0
  0
LINE
  5
19E
330
196
100
AcDbEntity
  8
0
 62
     0
100
AcDbLine
 10
158.1621217697968
 20
93.12152195447538
 30
0.0
 11
158.1621217697968
 21
89.29331612605322
 31
0.0
  0
LINE
  5
19F
330
196
100
AcDbEntity
  8
0
 62
     0
100
AcDbLine
 10
159.1146217697968
 20
89.29331612605322
 30
0.0
 11
159.1146217697968
 21
79.7933161260532
 31
0.0
  0
LINE
  5
1A0
330
196
100
AcDbEntity
  8
0
 62
     0
100
AcDbLine
 10
159.1146217697968
 20
93.78088740780858
 30
0.0
 11
159.1146217697968
 21
89.29331612605322
 31
0.0
  0
LINE
  5
1A1
330
196
100
AcDbEntity
  8
0
 62
     0
100
AcDbLine
 10
160.0671217697968
 20
89.29331612605322
 30
0.0
 11
160.0671217697968
 21
79.7933161260532
 31
0.0
  0
LINE
  5
1A2
330
196
100
AcDbEntity
  8
0
 62
     0
100
AcDbLine
 10
160.0671217697968
 20
94.44025286114174
 30
0.0
 11
160.0671217697968
 21
89.29331612605322
 31
0.0
  0
LINE
  5
1A3
330
196
100
AcDbEntity
  8
0
 62
     0
100
AcDbLine
 10
161.0196217697968
 20
89.29331612605322
 30
0.0
 11
161.0196217697968
 21
79.7933161260532
 31
0.0
  0
LINE
  5
1A4
330
196
100
AcDbEntity
  8
0
 62
     0
100
AcDbLine
 10
161.0196217697968
 20
95.09961831447492
 30
0.0
 11
161.0196217697968
 21
89.29331612605322
 31
0.0
  0
LINE
  5
1A5
330
196
100
AcDbEntity
  8
0
 62
     0
100
AcDbLine
 10
161.9721217697968
 20
89.29331612605318
 30
0.0
 11
161.9721217697968
 21
79.7933161260532
 31
0.0
  0
LINE
  5
1A6
330
196
100
AcDbEntity
  8
0
 62
     0
100
AcDbLine
 10
161.9721217697968
 20
95.75898376780813
 30
0.0
 11
161.9721217697968
 21
89.29331612605322
 31
0.0
  0
LINE
  5
1A7
330
196
100
AcDbEntity
  8
0
 62
     0
100
AcDbLine
 10
162.9246217697969
 20
89.29331612605318
 30
0.0
 11
162.9246217697969
 21
79.7933161260532
 31
0.0
  0
LINE
  5
1A8
330
196
100
AcDbEntity
  8
0
 62
     0
100
AcDbLine
 10
162.9246217697969
 20
96.41834922114131
 30
0.0
 11
162.9246217697969
 21
89.29331612605322
 31
0.0
  0
LINE
  5
1A9
330
196
100
AcDbEntity
  8
0
 62
     0
100
AcDbLine
 10
163.8771217697969
 20
89.29331612605318
 30
0.0
 11
163.8771217697969
 21
79.7933161260532
 31
0.0
  0
LINE
  5
1AA
330
196
100
AcDbEntity
  8
0
 62
     0
100
AcDbLine
 10
163.8771217697969
 20
97.0777146744745
 30
0.0
 11
163.8771217697969
 21
89.29331612605322
 31
0.0
  0
LINE
  5
1AB
330
196
100
AcDbEntity
  8
0
 62
     0
100
AcDbLine
 10
164.8296217697969
 20
89.29331612605318
 30
0.0
 11
164.8296217697969
 21
79.7933161260532
 31
0.0
  0
LINE
  5
1AC
330
196
100
AcDbEntity
  8
0
 62
     0
100
AcDbLine
 10
164.8296217697969
 20
97.73708012780769
 30
0.0
 11
164.8296217697969
 21
89.29331612605322
 31
0.0
  0
LINE
  5
1AD
330
196
100
AcDbEntity
  8
0
 62
     0
100
AcDbLine
 10
165.7821217697968
 20
89.29331612605315
 30
0.0
 11
165.7821217697968
 21
79.7933161260532
 31
0.0
  0
LINE
  5
1AE
330
196
100
AcDbEntity
  8
0
 62
     0
100
AcDbLine
 10
165.7821217697968
 20
98.39644558114088
 30
0.0
 11
165.7821217697968
 21
89.29331612605322
 31
0.0
  0
LINE
  5
1AF
330
196
100
AcDbEntity
  8
0
 62
     0
100
AcDbLine
 10
166.7346217697969
 20
89.29331612605315
 30
0.0
 11
166.7346217697969
 21
79.7933161260532
 31
0.0
  0
LINE
  5
1B0
330
196
100
AcDbEntity
  8
0
 62
     0
100
AcDbLine
 10
166.7346217697969
 20
99.05581103447405
 30
0.0
 11
166.7346217697969
 21
89.29331612605322
 31
0.0
  0
LINE
  5
1B1
330
196
100
AcDbEntity
  8
0
 62
     0
100
AcDbLine
 10
167.6871217697969
 20
89.29331612605315
 30
0.0
 11
167.6871217697969
 21
79.7933161260532
 31
0.0
  0
LINE
  5
1B2
330
196
100
AcDbEntity
  8
0
 62
     0
100
AcDbLine
 10
167.6871217697969
 20
99.7151764878072
 30
0.0
 11
167.6871217697969
 21
89.29331612605322
 31
0.0
  0
ENDBLK
  5
1B4
330
196
100
AcDbEntity
  8
0
100
AcDbBlockEnd
  0
BLOCK
  5
237
330
22D
100
AcDbEntity
  8
0
100
AcDbBlockBegin
  2
*D2
 70
     1
 10
0.0
 20
0.0
 30
0.0
  3
*D2
  1

  0
LINE
  5
22E
330
22D
100
AcDbEntity
  8
DIMS
 62
     0
100
AcDbLine
 10
-371.3340775994406
 20
-527.8499514949476
 30
0.0
 11
-363.1624197529383
 21
-527.8499514949476
 31
0.0
  0
LINE
  5
22F
330
22D
100
AcDbEntity
  8
DIMS
 62
     0
100
AcDbLine
 10
-371.3340775994406
 20
-559.8499514949478
 30
0.0
 11
-363.1624197529383
 21
-559.8499514949478
 31
0.0
  0
LINE
  5
230
330
22D
100
AcDbEntity
  8
DIMS
 62
     0
100
AcDbLine
 10
-363.7874197529383
 20
-529.8499514949476
 30
0.0
 11
-363.7874197529383
 21
-557.8499514949478
 31
0.0
  0
SOLID
  5
231
330
22D
100
AcDbEntity
  8
DIMS
 62
     0
100
AcDbTrace
 10
-364.1207530862715
 20
-529.8499514949476
 30
0.0
 11
-363.454086419605
 21
-529.8499514949476
 31
0.0
 12
-363.7874197529383
 22
-527.8499514949476
 32
0.0
 13
-363.7874197529383
 23
-527.8499514949476
 33
0.0
  0
SOLID
  5
232
330
22D
100
AcDbEntity
  8
DIMS
 62
     0
100
AcDbTrace
 10
-364.1207530862715
 20
-557.8499514949478
 30
0.0
 11
-363.454086419605
 21
-557.8499514949478
 31
0.0
 12
-363.7874197529383
 22
-559.8499514949478
 32
0.0
 13
-363.7874197529383
 23
-559.8499514949478
 33
0.0
  0
MTEXT
  5
233
330
22D
100
AcDbEntity
  8
DIMS
 62
     0
100
AcDbMText
 10
-365.6624197529381
 20
-544.4527060002307
 30
0.0
 40
2.5
 41
0.0
 71
     5
 72
     1
  1
\A1;32
 11
0.0000000000000001
 21
1.0
 31
0.0
1001
ACAD
1000
MTEXTBEGIN
1070
    73
1070
     1
1070
    44
1040
1.0
1070
    74
1070
     0
1000
MTEXTEND
1000
MTEXTBEGIN
1070
    73
1070
     1
1070
    44
1040
1.0
1070
    74
1070
     0
1000
MTEXTEND
1000
MTEXTBEGIN
1070
    73
1070
     1
1070
    44
1040
1.0
1070
    74
1070
     0
1000
MTEXTEND
1000
MTEXTBEGIN
1070
    73
1070
     1
1070
    44
1040
1.0
1070
    74
1070
     0
1000
MTEXTEND
  0
POINT
  5
234
330
22D
100
AcDbEntity
  8
DEFPOINTS
 62
     0
100
AcDbPoint
 10
-371.9590775994408
 20
-527.8499514949476
 30
0.0
  0
POINT
  5
235
330
22D
100
AcDbEntity
  8
DEFPOINTS
 62
     0
100
AcDbPoint
 10
-371.9590775994408
 20
-559.8499514949478
 30
0.0
  0
POINT
  5
236
330
22D
100
AcDbEntity
  8
DEFPOINTS
 62
     0
100
AcDbPoint
 10
-363.7874197529383
 20
-559.8499514949478
 30
0.0
  0
ENDBLK
  5
238
330
22D
100
AcDbEntity
  8
0
100
AcDbBlockEnd
  0
BLOCK
  5
244
330
23A
100
AcDbEntity
  8
0
100
AcDbBlockBegin
  2
*D3
 70
     1
 10
0.0
 20
0.0
 30
0.0
  3
*D3
  1

  0
LINE
  5
23B
330
23A
100
AcDbEntity
  8
DIMS
 62
     0
100
AcDbLine
 10
-371.3323824556248
 20
-559.8499514949478
 30
0.0
 11
-363.1624197529383
 21
-559.8499514949478
 31
0.0
  0
LINE
  5
23C
330
23A
100
AcDbEntity
  8
DIMS
 62
     0
100
AcDbLine
 10
-371.3323824556248
 20
-580.8499514949476
 30
0.0
 11
-363.1624197529383
 21
-580.8499514949476
 31
0.0
  0
LINE
  5
23D
330
23A
100
AcDbEntity
  8
DIMS
 62
     0
100
AcDbLine
 10
-363.7874197529383
 20
-561.8499514949478
 30
0.0
 11
-363.7874197529383
 21
-578.8499514949476
 31
0.0
  0
SOLID
  5
23E
330
23A
100
AcDbEntity
  8
DIMS
 62
     0
100
AcDbTrace
 10
-364.1207530862715
 20
-561.8499514949478
 30
0.0
 11
-363.454086419605
 21
-561.8499514949478
 31
0.0
 12
-363.7874197529383
 22
-559.8499514949478
 32
0.0
 13
-363.7874197529383
 23
-559.8499514949478
 33
0.0
  0
SOLID
  5
23F
330
23A
100
AcDbEntity
  8
DIMS
 62
     0
100
AcDbTrace
 10
-364.1207530862715
 20
-578.8499514949476
 30
0.0
 11
-363.454086419605
 21
-578.8499514949476
 31
0.0
 12
-363.7874197529383
 22
-580.8499514949476
 32
0.0
 13
-363.7874197529383
 23
-580.8499514949476
 33
0.0
  0
MTEXT
  5
240
330
23A
100
AcDbEntity
  8
DIMS
 62
     0
100
AcDbMText
 10
-365.6624197529381
 20
-568.7280973140499
 30
0.0
 40
2.5
 41
0.0
 71
     5
 72
     1
  1
\A1;21
 11
0.0000000000000001
 21
1.0
 31
0.0
1001
ACAD
1000
MTEXTBEGIN
1070
    73
1070
     1
1070
    44
1040
1.0
1070
    74
1070
     0
1000
MTEXTEND
1000
MTEXTBEGIN
1070
    73
1070
     1
1070
    44
1040
1.0
1070
    74
1070
     0
1000
MTEXTEND
1000
MTEXTBEGIN
1070
    73
1070
     1
1070
    44
1040
1.0
1070
    74
1070
     0
1000
MTEXTEND
1000
MTEXTBEGIN
1070
    73
1070
     1
1070
    44
1040
1.0
1070
    74
1070
     0
1000
MTEXTEND
  0
POINT
  5
241
330
23A
100
AcDbEntity
  8
DEFPOINTS
 62
     0
100
AcDbPoint
 10
-371.9573824556248
 20
-559.8499514949478
 30
0.0
  0
POINT
  5
242
330
23A
100
AcDbEntity
  8
DEFPOINTS
 62
     0
100
AcDbPoint
 10
-371.9573824556248
 20
-580.8499514949476
 30
0.0
  0
POINT
  5
243
330
23A
100
AcDbEntity
  8
DEFPOINTS
 62
     0
100
AcDbPoint
 10
-363.7874197529383
 20
-580.8499514949476
 30
0.0
  0
ENDBLK
  5
245
330
23A
100
AcDbEntity
  8
0
100
AcDbBlockEnd
  0
BLOCK
  5
22A
330
220
100
AcDbEntity
  8
0
100
AcDbBlockBegin
  2
*D4
 70
     1
 10
0.0
 20
0.0
 30
0.0
  3
*D4
  1

  0
LINE
  5
221
330
220
100
AcDbEntity
  8
DIMS
 62
     0
100
AcDbLine
 10
-396.4840775994407
 20
-517.2499514949477
 30
0.0
 11
-356.2407619064363
 21
-517.2499514949477
 31
0.0
  0
LINE
  5
222
330
220
100
AcDbEntity
  8
DIMS
 62
     0
100
AcDbLine
 10
-371.3340775994406
 20
-559.8499514949478
 30
0.0
 11
-356.2407619064363
 21
-559.8499514949478
 31
0.0
  0
LINE
  5
223
330
220
100
AcDbEntity
  8
DIMS
 62
     0
100
AcDbLine
 10
-356.8657619064363
 20
-519.2499514949477
 30
0.0
 11
-356.8657619064363
 21
-557.8499514949478
 31
0.0
  0
SOLID
  5
224
330
220
100
AcDbEntity
  8
DIMS
 62
     0
100
AcDbTrace
 10
-357.1990952397695
 20
-519.2499514949477
 30
0.0
 11
-356.532428573103
 21
-519.2499514949477
 31
0.0
 12
-356.8657619064363
 22
-517.2499514949477
 32
0.0
 13
-356.8657619064363
 23
-517.2499514949477
 33
0.0
  0
SOLID
  5
225
330
220
100
AcDbEntity
  8
DIMS
 62
     0
100
AcDbTrace
 10
-357.1990952397695
 20
-557.8499514949478
 30
0.0
 11
-356.532428573103
 21
-557.8499514949478
 31
0.0
 12
-356.8657619064363
 22
-559.8499514949478
 32
0.0
 13
-356.8657619064363
 23
-559.8499514949478
 33
0.0
  0
MTEXT
  5
226
330
220
100
AcDbEntity
  8
DIMS
 62
     0
100
AcDbMText
 10
-358.7407619064361
 20
-537.8194690852776
 30
0.0
 40
2.5
 41
0.0
 71
     5
 72
     1
  1
\A1;42.6
 11
0.0000000000000001
 21
1.0
 31
0.0
1001
ACAD
1000
MTEXTBEGIN
1070
    73
1070
     1
1070
    44
1040
1.0
1070
    74
1070
     0
1000
MTEXTEND
1000
MTEXTBEGIN
1070
    73
1070
     1
1070
    44
1040
1.0
1070
    74
1070
     0
1000
MTEXTEND
1000
MTEXTBEGIN
1070
    73
1070
     1
1070
    44
1040
1.0
1070
    74
1070
     0
1000
MTEXTEND
1000
MTEXTBEGIN
1070
    73
1070
     1
1070
    44
1040
1.0
1070
    74
1070
     0
1000
MTEXTEND
  0
POINT
  5
227
330
220
100
AcDbEntity
  8
DEFPOINTS
 62
     0
100
AcDbPoint
 10
-397.1090775994407
 20
-517.2499514949477
 30
0.0
  0
POINT
  5
228
330
220
100
AcDbEntity
  8
DEFPOINTS
 62
     0
100
AcDbPoint
 10
-371.9590775994408
 20
-559.8499514949478
 30
0.0
  0
POINT
  5
229
330
220
100
AcDbEntity
  8
DEFPOINTS
 62
     0
100
AcDbPoint
 10
-356.8657619064363
 20
-559.8499514949478
 30
0.0
  0
ENDBLK
  5
22B
330
220
100
AcDbEntity
  8
0
100
AcDbBlockEnd
  0
BLOCK
  5
6E
330
64
100
AcDbEntity
  8
0
100
AcDbBlockBegin
  2
*D5
 70
     1
 10
0.0
 20
0.0
 30
0.0
  3
*D5
  1

  0
LINE
  5
65
330
64
100
AcDbEntity
  8
DIMS
 62
     0
100
AcDbLine
 10
-583.2345982276962
 20
-517.2499514949479
 30
0.0
 11
-610.4917194195193
 21
-517.2499514949479
 31
0.0
  0
LINE
  5
66
330
64
100
AcDbEntity
  8
DIMS
 62
     0
100
AcDbLine
 10
-591.1397166575627
 20
-587.8499514949477
 30
0.0
 11
-610.4917194195193
 21
-587.8499514949477
 31
0.0
  0
LINE
  5
67
330
64
100
AcDbEntity
  8
DIMS
 62
     0
100
AcDbLine
 10
-609.8667194195193
 20
-519.2499514949481
 30
0.0
 11
-609.8667194195193
 21
-585.8499514949477
 31
0.0
  0
SOLID
  5
68
330
64
100
AcDbEntity
  8
DIMS
 62
     0
100
AcDbTrace
 10
-610.2000527528527
 20
-519.2499514949481
 30
0.0
 11
-609.5333860861861
 21
-519.2499514949481
 31
0.0
 12
-609.8667194195193
 22
-517.2499514949479
 32
0.0
 13
-609.8667194195193
 23
-517.2499514949479
 33
0.0
  0
SOLID
  5
69
330
64
100
AcDbEntity
  8
DIMS
 62
     0
100
AcDbTrace
 10
-610.2000527528527
 20
-585.8499514949477
 30
0.0
 11
-609.5333860861861
 21
-585.8499514949477
 31
0.0
 12
-609.8667194195193
 22
-587.8499514949477
 32
0.0
 13
-609.8667194195193
 23
-587.8499514949477
 33
0.0
  0
MTEXT
  5
6A
330
64
100
AcDbEntity
  8
DIMS
 62
     0
100
AcDbMText
 10
-611.7667194195193
 20
-554.3966194414495
 30
0.0
 40
2.5
 41
0.0
 71
     5
 72
     1
  1
\A1;(70.6)
 11
0.0000000000000001
 21
1.0
 31
0.0
1001
ACAD
1000
MTEXTBEGIN
1070
    73
1070
     1
1070
    44
1040
1.0
1070
    74
1070
     0
1000
MTEXTEND
1000
MTEXTBEGIN
1070
    73
1070
     1
1070
    44
1040
1.0
1070
    74
1070
     0
1000
MTEXTEND
1000
MTEXTBEGIN
1070
    73
1070
     1
1070
    44
1040
1.0
1070
    74
1070
     0
1000
MTEXTEND
1000
MTEXTBEGIN
1070
    73
1070
     1
1070
    44
1040
1.0
1070
    74
1070
     0
1000
MTEXTEND
  0
POINT
  5
6B
330
64
100
AcDbEntity
  8
DEFPOINTS
 62
     0
100
AcDbPoint
 10
-582.6095982276962
 20
-517.2499514949479
 30
0.0
  0
POINT
  5
6C
330
64
100
AcDbEntity
  8
DEFPOINTS
 62
     0
100
AcDbPoint
 10
-590.5147166575629
 20
-587.8499514949477
 30
0.0
  0
POINT
  5
6D
330
64
100
AcDbEntity
  8
DEFPOINTS
 62
     0
100
AcDbPoint
 10
-609.8667194195193
 20
-587.8499514949477
 30
0.0
  0
ENDBLK
  5
6F
330
64
100
AcDbEntity
  8
0
100
AcDbBlockEnd
  0
BLOCK
  5
E4
330
DA
100
AcDbEntity
  8
0
100
AcDbBlockBegin
  2
*D6
 70
     1
 10
0.0
 20
0.0
 30
0.0
  3
*D6
  1

  0
LINE
  5
DB
330
DA
100
AcDbEntity
  8
DIMS
 62
     0
100
AcDbLine
 10
-418.3090775994408
 20
-517.4249514949476
 30
0.0
 11
-418.3090775994408
 21
-501.5882009365395
 31
0.0
  0
LINE
  5
DC
330
DA
100
AcDbEntity
  8
DIMS
 62
     0
100
AcDbLine
 10
-371.9590775994408
 20
-527.2249514949476
 30
0.0
 11
-371.9590775994408
 21
-501.5882009365395
 31
0.0
  0
LINE
  5
DD
330
DA
100
AcDbEntity
  8
DIMS
 62
     0
100
AcDbLine
 10
-416.3090775994406
 20
-502.2132009365395
 30
0.0
 11
-373.9590775994408
 21
-502.2132009365395
 31
0.0
  0
SOLID
  5
DE
330
DA
100
AcDbEntity
  8
DIMS
 62
     0
100
AcDbTrace
 10
-416.3090775994406
 20
-501.879867603206
 30
0.0
 11
-416.3090775994406
 21
-502.5465342698728
 31
0.0
 12
-418.3090775994408
 22
-502.2132009365395
 32
0.0
 13
-418.3090775994408
 23
-502.2132009365395
 33
0.0
  0
SOLID
  5
DF
330
DA
100
AcDbEntity
  8
DIMS
 62
     0
100
AcDbTrace
 10
-373.9590775994408
 20
-501.879867603206
 30
0.0
 11
-373.9590775994408
 21
-502.5465342698728
 31
0.0
 12
-371.9590775994408
 22
-502.2132009365395
 32
0.0
 13
-371.9590775994408
 23
-502.2132009365395
 33
0.0
  0
MTEXT
  5
E0
330
DA
100
AcDbEntity
  8
DIMS
 62
     0
100
AcDbMText
 10
-396.4534405258028
 20
-500.3382009365394
 30
0.0
 40
2.5
 41
0.0
 71
     5
 72
     1
  1
\A1;46.5
1001
ACAD
1000
MTEXTBEGIN
1070
    73
1070
     1
1070
    44
1040
1.0
1070
    74
1070
     0
1000
MTEXTEND
1000
MTEXTBEGIN
1070
    73
1070
     1
1070
    44
1040
1.0
1070
    74
1070
     0
1000
MTEXTEND
1000
MTEXTBEGIN
1070
    73
1070
     1
1070
    44
1040
1.0
1070
    74
1070
     0
1000
MTEXTEND
1000
MTEXTBEGIN
1070
    73
1070
     1
1070
    44
1040
1.0
1070
    74
1070
     0
1000
MTEXTEND
  0
POINT
  5
E1
330
DA
100
AcDbEntity
  8
DEFPOINTS
 62
     0
100
AcDbPoint
 10
-418.3090775994408
 20
-518.0499514949477
 30
0.0
  0
POINT
  5
E2
330
DA
100
AcDbEntity
  8
DEFPOINTS
 62
     0
100
AcDbPoint
 10
-371.9590775994408
 20
-527.8499514949476
 30
0.0
  0
POINT
  5
E3
330
DA
100
AcDbEntity
  8
DEFPOINTS
 62
     0
100
AcDbPoint
 10
-371.9590775994408
 20
-502.2132009365395
 30
0.0
  0
ENDBLK
  5
E5
330
DA
100
AcDbEntity
  8
0
100
AcDbBlockEnd
  0
BLOCK
  5
5D
330
53
100
AcDbEntity
  8
0
100
AcDbBlockBegin
  2
*D7
 70
     1
 10
0.0
 20
0.0
 30
0.0
  3
*D7
  1

  0
LINE
  5
54
330
53
100
AcDbEntity
  8
DIMS
 62
     0
100
AcDbLine
 10
-594.2647166575627
 20
-584.0999514949476
 30
0.0
 11
-594.2647166575627
 21
-604.4960881841602
 31
0.0
  0
LINE
  5
55
330
53
100
AcDbEntity
  8
DIMS
 62
     0
100
AcDbLine
 10
-538.2647166575627
 20
-584.0999514949476
 30
0.0
 11
-538.2647166575627
 21
-604.4960881841602
 31
0.0
  0
LINE
  5
56
330
53
100
AcDbEntity
  8
DIMS
 62
     0
100
AcDbLine
 10
-592.2647166575627
 20
-603.8710881841602
 30
0.0
 11
-540.2647166575627
 21
-603.8710881841602
 31
0.0
  0
SOLID
  5
57
330
53
100
AcDbEntity
  8
DIMS
 62
     0
100
AcDbTrace
 10
-592.2647166575627
 20
-603.5377548508269
 30
0.0
 11
-592.2647166575627
 21
-604.2044215174936
 31
0.0
 12
-594.2647166575627
 22
-603.8710881841602
 32
0.0
 13
-594.2647166575627
 23
-603.8710881841602
 33
0.0
  0
SOLID
  5
58
330
53
100
AcDbEntity
  8
DIMS
 62
     0
100
AcDbTrace
 10
-540.2647166575627
 20
-603.5377548508269
 30
0.0
 11
-540.2647166575627
 21
-604.2044215174936
 31
0.0
 12
-538.2647166575627
 22
-603.8710881841602
 32
0.0
 13
-538.2647166575627
 23
-603.8710881841602
 33
0.0
  0
MTEXT
  5
59
330
53
100
AcDbEntity
  8
DIMS
 62
     0
100
AcDbMText
 10
-566.1574203434432
 20
-601.9710881841602
 30
0.0
 40
2.5
 41
0.0
 71
     5
 72
     1
  1
\A1;\U+25A156
1001
ACAD
1000
MTEXTBEGIN
1070
    73
1070
     1
1070
    44
1040
1.0
1070
    74
1070
     0
1000
MTEXTEND
1000
MTEXTBEGIN
1070
    73
1070
     1
1070
    44
1040
1.0
1070
    74
1070
     0
1000
MTEXTEND
1000
MTEXTBEGIN
1070
    73
1070
     1
1070
    44
1040
1.0
1070
    74
1070
     0
1000
MTEXTEND
1000
MTEXTBEGIN
1070
    73
1070
     1
1070
    44
1040
1.0
1070
    74
1070
     0
1000
MTEXTEND
  0
POINT
  5
5A
330
53
100
AcDbEntity
  8
DEFPOINTS
 62
     0
100
AcDbPoint
 10
-594.2647166575627
 20
-583.4749514949476
 30
0.0
  0
POINT
  5
5B
330
53
100
AcDbEntity
  8
DEFPOINTS
 62
     0
100
AcDbPoint
 10
-538.2647166575627
 20
-583.4749514949476
 30
0.0
  0
POINT
  5
5C
330
53
100
AcDbEntity
  8
DEFPOINTS
 62
     0
100
AcDbPoint
 10
-538.2647166575627
 20
-603.8710881841602
 30
0.0
  0
ENDBLK
  5
5E
330
53
100
AcDbEntity
  8
0
100
AcDbBlockEnd
  0
BLOCK
  5
7E
330
74
100
AcDbEntity
  8
0
100
AcDbBlockBegin
  2
*D8
 70
     1
 10
0.0
 20
0.0
 30
0.0
  3
*D8
  1

  0
LINE
  5
75
330
74
100
AcDbEntity
  8
DIMS
 62
     0
100
AcDbLine
 10
-592.9597166575629
 20
-583.4199514949476
 30
0.0
 11
-600.90999186805
 21
-583.4199514949476
 31
0.0
  0
LINE
  5
76
330
74
100
AcDbEntity
  8
DIMS
 62
     0
100
AcDbLine
 10
-592.9597166575629
 20
-536.2799514949478
 30
0.0
 11
-600.90999186805
 21
-536.2799514949478
 31
0.0
  0
LINE
  5
77
330
74
100
AcDbEntity
  8
DIMS
 62
     0
100
AcDbLine
 10
-600.28499186805
 20
-581.4199514949478
 30
0.0
 11
-600.28499186805
 21
-538.2799514949478
 31
0.0
  0
SOLID
  5
78
330
74
100
AcDbEntity
  8
DIMS
 62
     0
100
AcDbTrace
 10
-600.6183252013832
 20
-581.4199514949478
 30
0.0
 11
-599.9516585347167
 21
-581.4199514949478
 31
0.0
 12
-600.28499186805
 22
-583.4199514949476
 32
0.0
 13
-600.28499186805
 23
-583.4199514949476
 33
0.0
  0
SOLID
  5
79
330
74
100
AcDbEntity
  8
DIMS
 62
     0
100
AcDbTrace
 10
-600.6183252013832
 20
-538.2799514949478
 30
0.0
 11
-599.9516585347167
 21
-538.2799514949478
 31
0.0
 12
-600.28499186805
 22
-536.2799514949478
 32
0.0
 13
-600.28499186805
 23
-536.2799514949478
 33
0.0
  0
MTEXT
  5
7A
330
74
100
AcDbEntity
  8
DIMS
 62
     0
100
AcDbMText
 10
-602.1849918680499
 20
-559.8829169114761
 30
0.0
 40
2.5
 41
0.0
 71
     5
 72
     1
  1
47.14{\H1.750000;±0.2}
 11
0.0000000000000001
 21
1.0
 31
0.0
1001
ACAD
1000
MTEXTBEGIN
1070
    73
1070
     1
1070
    44
1040
1.0
1070
    74
1070
     0
1000
MTEXTEND
1000
MTEXTBEGIN
1070
    73
1070
     1
1070
    44
1040
1.0
1070
    74
1070
     0
1000
MTEXTEND
1000
MTEXTBEGIN
1070
    73
1070
     1
1070
    44
1040
1.0
1070
    74
1070
     0
1000
MTEXTEND
1000
MTEXTBEGIN
1070
    73
1070
     1
1070
    44
1040
1.0
1070
    74
1070
     0
1000
MTEXTEND
  0
POINT
  5
7B
330
74
100
AcDbEntity
  8
DEFPOINTS
 62
     0
100
AcDbPoint
 10
-592.3347166575629
 20
-583.4199514949476
 30
0.0
  0
POINT
  5
7C
330
74
100
AcDbEntity
  8
DEFPOINTS
 62
     0
100
AcDbPoint
 10
-592.3347166575629
 20
-536.2799514949478
 30
0.0
  0
POINT
  5
7D
330
74
100
AcDbEntity
  8
DEFPOINTS
 62
     0
100
AcDbPoint
 10
-600.28499186805
 20
-536.2799514949478
 30
0.0
  0
ENDBLK
  5
7F
330
74
100
AcDbEntity
  8
0
100
AcDbBlockEnd
  0
BLOCK
  5
49
330
3F
100
AcDbEntity
  8
0
100
AcDbBlockBegin
  2
*D9
 70
     1
 10
0.0
 20
0.0
 30
0.0
  3
*D9
  1

  0
LINE
  5
40
330
3F
100
AcDbEntity
  8
DIMS
 62
     0
100
AcDbLine
 10
-589.8347166575629
 20
-586.2946408660006
 30
0.0
 11
-589.8347166575629
 21
-596.0119193428274
 31
0.0
  0
LINE
  5
41
330
3F
100
AcDbEntity
  8
DIMS
 62
     0
100
AcDbLine
 10
-542.694716657563
 20
-586.2946408660006
 30
0.0
 11
-542.694716657563
 21
-596.0119193428274
 31
0.0
  0
LINE
  5
42
330
3F
100
AcDbEntity
  8
DIMS
 62
     0
100
AcDbLine
 10
-587.8347166575629
 20
-595.3869193428272
 30
0.0
 11
-544.694716657563
 21
-595.3869193428272
 31
0.0
  0
SOLID
  5
43
330
3F
100
AcDbEntity
  8
DIMS
 62
     0
100
AcDbTrace
 10
-587.8347166575629
 20
-595.0535860094941
 30
0.0
 11
-587.8347166575629
 21
-595.7202526761607
 31
0.0
 12
-589.8347166575629
 22
-595.3869193428272
 32
0.0
 13
-589.8347166575629
 23
-595.3869193428272
 33
0.0
  0
SOLID
  5
44
330
3F
100
AcDbEntity
  8
DIMS
 62
     0
100
AcDbTrace
 10
-544.694716657563
 20
-595.0535860094941
 30
0.0
 11
-544.694716657563
 21
-595.7202526761607
 31
0.0
 12
-542.694716657563
 22
-595.3869193428272
 32
0.0
 13
-542.694716657563
 23
-595.3869193428272
 33
0.0
  0
MTEXT
  5
45
330
3F
100
AcDbEntity
  8
DIMS
 62
     0
100
AcDbMText
 10
-566.3275373984965
 20
-593.4869193428275
 30
0.0
 40
2.5
 41
0.0
 71
     5
 72
     1
  1
47.14{\H1.750000;±0.2}
1001
ACAD
1000
MTEXTBEGIN
1070
    73
1070
     1
1070
    44
1040
1.0
1070
    74
1070
     0
1000
MTEXTEND
1000
MTEXTBEGIN
1070
    73
1070
     1
1070
    44
1040
1.0
1070
    74
1070
     0
1000
MTEXTEND
1000
MTEXTBEGIN
1070
    73
1070
     1
1070
    44
1040
1.0
1070
    74
1070
     0
1000
MTEXTEND
1000
MTEXTBEGIN
1070
    73
1070
     1
1070
    44
1040
1.0
1070
    74
1070
     0
1000
MTEXTEND
  0
POINT
  5
46
330
3F
100
AcDbEntity
  8
DEFPOINTS
 62
     0
100
AcDbPoint
 10
-589.8347166575629
 20
-585.6696408660002
 30
0.0
  0
POINT
  5
47
330
3F
100
AcDbEntity
  8
DEFPOINTS
 62
     0
100
AcDbPoint
 10
-542.694716657563
 20
-585.6696408660002
 30
0.0
  0
POINT
  5
48
330
3F
100
AcDbEntity
  8
DEFPOINTS
 62
     0
100
AcDbPoint
 10
-542.694716657563
 20
-595.3869193428272
 30
0.0
  0
ENDBLK
  5
4A
330
3F
100
AcDbEntity
  8
0
100
AcDbBlockEnd
  0
BLOCK
  5
F5
330
EB
100
AcDbEntity
  8
0
100
AcDbBlockBegin
  2
*D10
 70
     1
 10
0.0
 20
0.0
 30
0.0
  3
*D10
  1

  0
LINE
  5
EC
330
EB
100
AcDbEntity
  8
DIMS
 62
     0
100
AcDbLine
 10
-371.9590775994408
 20
-581.4749514949475
 30
0.0
 11
-371.9590775994408
 21
-604.4618237516122
 31
0.0
  0
LINE
  5
ED
330
EB
100
AcDbEntity
  8
DIMS
 62
     0
100
AcDbLine
 10
-477.4590775994406
 20
-587.4749514949477
 30
0.0
 11
-477.4590775994406
 21
-604.4618237516122
 31
0.0
  0
LINE
  5
EE
330
EB
100
AcDbEntity
  8
DIMS
 62
     0
100
AcDbLine
 10
-373.9590775994408
 20
-603.8368237516122
 30
0.0
 11
-475.4590775994405
 21
-603.8368237516122
 31
0.0
  0
SOLID
  5
EF
330
EB
100
AcDbEntity
  8
DIMS
 62
     0
100
AcDbTrace
 10
-373.9590775994408
 20
-603.5034904182785
 30
0.0
 11
-373.9590775994408
 21
-604.1701570849455
 31
0.0
 12
-371.9590775994408
 22
-603.8368237516122
 32
0.0
 13
-371.9590775994408
 23
-603.8368237516122
 33
0.0
  0
SOLID
  5
F0
330
EB
100
AcDbEntity
  8
DIMS
 62
     0
100
AcDbTrace
 10
-475.4590775994405
 20
-603.5034904182785
 30
0.0
 11
-475.4590775994405
 21
-604.1701570849455
 31
0.0
 12
-477.4590775994406
 22
-603.8368237516122
 32
0.0
 13
-477.4590775994406
 23
-603.8368237516122
 33
0.0
  0
MTEXT
  5
F1
330
EB
100
AcDbEntity
  8
DIMS
 62
     0
100
AcDbMText
 10
-428.4558709229168
 20
-601.9368237516122
 30
0.0
 40
2.5
 41
0.0
 71
     5
 72
     1
  1
\A1;L
1001
ACAD
1000
MTEXTBEGIN
1070
    73
1070
     1
1070
    44
1040
1.0
1070
    74
1070
     0
1000
MTEXTEND
1000
MTEXTBEGIN
1070
    73
1070
     1
1070
    44
1040
1.0
1070
    74
1070
     0
1000
MTEXTEND
1000
MTEXTBEGIN
1070
    73
1070
     1
1070
    44
1040
1.0
1070
    74
1070
     0
1000
MTEXTEND
1000
MTEXTBEGIN
1070
    73
1070
     1
1070
    44
1040
1.0
1070
    74
1070
     0
1000
MTEXTEND
  0
POINT
  5
F2
330
EB
100
AcDbEntity
  8
DEFPOINTS
 62
     0
100
AcDbPoint
 10
-371.9590775994408
 20
-580.8499514949476
 30
0.0
  0
POINT
  5
F3
330
EB
100
AcDbEntity
  8
DEFPOINTS
 62
     0
100
AcDbPoint
 10
-477.4590775994406
 20
-586.8499514949477
 30
0.0
  0
POINT
  5
F4
330
EB
100
AcDbEntity
  8
DEFPOINTS
 62
     0
100
AcDbPoint
 10
-477.4590775994406
 20
-603.8368237516122
 30
0.0
  0
ENDBLK
  5
F6
330
EB
100
AcDbEntity
  8
0
100
AcDbBlockEnd
  0
BLOCK
  5
1C6
330
1BA
100
AcDbEntity
  8
0
100
AcDbBlockBegin
  2
*D11
 70
     1
 10
0.0
 20
0.0
 30
0.0
  3
*D11
  1

  0
LINE
  5
1BB
330
1BA
100
AcDbEntity
  8
DIMS
 62
     0
100
AcDbLine
 10
-479.0590775994409
 20
-579.5249514949476
 30
0.0
 11
-479.0590775994409
 21
-596.0119193428274
 31
0.0
  0
LINE
  5
1BC
330
1BA
100
AcDbEntity
  8
DIMS
 62
     0
100
AcDbLine
 10
-477.4590775994406
 20
-587.4749514949477
 30
0.0
 11
-477.4590775994406
 21
-596.0119193428274
 31
0.0
  0
LINE
  5
1BD
330
1BA
100
AcDbEntity
  8
DIMS
 62
     0
100
AcDbLine
 10
-481.0590775994405
 20
-595.3869193428272
 30
0.0
 11
-483.0590775994408
 21
-595.3869193428272
 31
0.0
  0
LINE
  5
1BE
330
1BA
100
AcDbEntity
  8
DIMS
 62
     0
100
AcDbLine
 10
-475.4590775994405
 20
-595.3869193428272
 30
0.0
 11
-460.4334823613452
 21
-595.3869193428272
 31
0.0
  0
LINE
  5
1BF
330
1BA
100
AcDbEntity
  8
DIMS
 62
     0
100
AcDbLine
 10
-479.0590775994409
 20
-595.3869193428272
 30
0.0
 11
-477.4590775994406
 21
-595.3869193428272
 31
0.0
  0
SOLID
  5
1C0
330
1BA
100
AcDbEntity
  8
DIMS
 62
     0
100
AcDbTrace
 10
-481.0590775994405
 20
-595.0535860094941
 30
0.0
 11
-481.0590775994405
 21
-595.7202526761607
 31
0.0
 12
-479.0590775994409
 22
-595.3869193428272
 32
0.0
 13
-479.0590775994409
 23
-595.3869193428272
 33
0.0
  0
SOLID
  5
1C1
330
1BA
100
AcDbEntity
  8
DIMS
 62
     0
100
AcDbTrace
 10
-475.4590775994405
 20
-595.0535860094941
 30
0.0
 11
-475.4590775994405
 21
-595.7202526761607
 31
0.0
 12
-477.4590775994406
 22
-595.3869193428272
 32
0.0
 13
-477.4590775994406
 23
-595.3869193428272
 33
0.0
  0
MTEXT
  5
1C2
330
1BA
100
AcDbEntity
  8
DIMS
 62
     0
100
AcDbMText
 10
-466.2126490280122
 20
-593.5119193428272
 30
0.0
 40
2.5
 41
0.0
 71
     5
 72
     1
  1
1.6{\H1.750000;±0.2}
1001
ACAD
1000
MTEXTBEGIN
1070
    73
1070
     1
1070
    44
1040
1.0
1070
    74
1070
     0
1000
MTEXTEND
1000
MTEXTBEGIN
1070
    73
1070
     1
1070
    44
1040
1.0
1070
    74
1070
     0
1000
MTEXTEND
1000
MTEXTBEGIN
1070
    73
1070
     1
1070
    44
1040
1.0
1070
    74
1070
     0
1000
MTEXTEND
1000
MTEXTBEGIN
1070
    73
1070
     1
1070
    44
1040
1.0
1070
    74
1070
     0
1000
MTEXTEND
  0
POINT
  5
1C3
330
1BA
100
AcDbEntity
  8
DEFPOINTS
 62
     0
100
AcDbPoint
 10
-479.0590775994409
 20
-578.8999514949477
 30
0.0
  0
POINT
  5
1C4
330
1BA
100
AcDbEntity
  8
DEFPOINTS
 62
     0
100
AcDbPoint
 10
-477.4590775994406
 20
-586.8499514949477
 30
0.0
  0
POINT
  5
1C5
330
1BA
100
AcDbEntity
  8
DEFPOINTS
 62
     0
100
AcDbPoint
 10
-477.4590775994406
 20
-595.3869193428272
 30
0.0
  0
ENDBLK
  5
1C7
330
1BA
100
AcDbEntity
  8
0
100
AcDbBlockEnd
  0
BLOCK
  5
112
330
106
100
AcDbEntity
  8
0
100
AcDbBlockBegin
  2
*D12
 70
     1
 10
0.0
 20
0.0
 30
0.0
  3
*D12
  1

  0
LINE
  5
107
330
106
100
AcDbEntity
  8
DIMS
 62
     0
100
AcDbLine
 10
-477.4590775994406
 20
-532.2249514949478
 30
0.0
 11
-477.4590775994406
 21
-524.7808313831662
 31
0.0
  0
LINE
  5
108
330
106
100
AcDbEntity
  8
DIMS
 62
     0
100
AcDbLine
 10
-472.4590775994406
 20
-531.2249514949478
 30
0.0
 11
-472.4590775994406
 21
-524.7808313831662
 31
0.0
  0
LINE
  5
109
330
106
100
AcDbEntity
  8
DIMS
 62
     0
100
AcDbLine
 10
-479.4590775994405
 20
-525.4058313831659
 30
0.0
 11
-481.4590775994406
 21
-525.4058313831659
 31
0.0
  0
LINE
  5
10A
330
106
100
AcDbEntity
  8
DIMS
 62
     0
100
AcDbLine
 10
-470.4590775994407
 20
-525.4058313831659
 30
0.0
 11
-468.4590775994406
 21
-525.4058313831659
 31
0.0
  0
LINE
  5
10B
330
106
100
AcDbEntity
  8
DIMS
 62
     0
100
AcDbLine
 10
-477.4590775994406
 20
-525.4058313831659
 30
0.0
 11
-472.4590775994406
 21
-525.4058313831659
 31
0.0
  0
SOLID
  5
10C
330
106
100
AcDbEntity
  8
DIMS
 62
     0
100
AcDbTrace
 10
-479.4590775994405
 20
-525.0724980498326
 30
0.0
 11
-479.4590775994405
 21
-525.7391647164994
 31
0.0
 12
-477.4590775994406
 22
-525.4058313831659
 32
0.0
 13
-477.4590775994406
 23
-525.4058313831659
 33
0.0
  0
SOLID
  5
10D
330
106
100
AcDbEntity
  8
DIMS
 62
     0
100
AcDbTrace
 10
-470.4590775994407
 20
-525.0724980498326
 30
0.0
 11
-470.4590775994407
 21
-525.7391647164994
 31
0.0
 12
-472.4590775994406
 22
-525.4058313831659
 32
0.0
 13
-472.4590775994406
 23
-525.4058313831659
 33
0.0
  0
MTEXT
  5
10E
330
106
100
AcDbEntity
  8
DIMS
 62
     0
100
AcDbMText
 10
-474.9590775994406
 20
-523.5058313831658
 30
0.0
 40
2.5
 41
0.0
 71
     5
 72
     1
  1
\A1;5
1001
ACAD
1000
MTEXTBEGIN
1070
    73
1070
     1
1070
    44
1040
1.0
1070
    74
1070
     0
1000
MTEXTEND
1000
MTEXTBEGIN
1070
    73
1070
     1
1070
    44
1040
1.0
1070
    74
1070
     0
1000
MTEXTEND
1000
MTEXTBEGIN
1070
    73
1070
     1
1070
    44
1040
1.0
1070
    74
1070
     0
1000
MTEXTEND
1000
MTEXTBEGIN
1070
    73
1070
     1
1070
    44
1040
1.0
1070
    74
1070
     0
1000
MTEXTEND
  0
POINT
  5
10F
330
106
100
AcDbEntity
  8
DEFPOINTS
 62
     0
100
AcDbPoint
 10
-477.4590775994406
 20
-532.8499514949478
 30
0.0
  0
POINT
  5
110
330
106
100
AcDbEntity
  8
DEFPOINTS
 62
     0
100
AcDbPoint
 10
-472.4590775994406
 20
-531.8499514949478
 30
0.0
  0
POINT
  5
111
330
106
100
AcDbEntity
  8
DEFPOINTS
 62
     0
100
AcDbPoint
 10
-472.4590775994406
 20
-525.4058313831659
 30
0.0
  0
ENDBLK
  5
113
330
106
100
AcDbEntity
  8
0
100
AcDbBlockEnd
  0
BLOCK
  5
123
330
119
100
AcDbEntity
  8
0
100
AcDbBlockBegin
  2
*D13
 70
     1
 10
0.0
 20
0.0
 30
0.0
  3
*D13
  1

  0
LINE
  5
11A
330
119
100
AcDbEntity
  8
DIMS
 62
     0
100
AcDbLine
 10
-498.0590775994405
 20
-556.5499514949476
 30
0.0
 11
-498.0590775994405
 21
-546.973737925383
 31
0.0
  0
LINE
  5
11B
330
119
100
AcDbEntity
  8
DIMS
 62
     0
100
AcDbLine
 10
-483.0590775994405
 20
-556.0499514949476
 30
0.0
 11
-483.0590775994405
 21
-546.973737925383
 31
0.0
  0
LINE
  5
11C
330
119
100
AcDbEntity
  8
DIMS
 62
     0
100
AcDbLine
 10
-496.0590775994405
 20
-547.598737925383
 30
0.0
 11
-485.0590775994406
 21
-547.598737925383
 31
0.0
  0
MTEXT
  5
11D
330
119
100
AcDbEntity
  8
DIMS
 62
     0
100
AcDbMText
 10
-490.5590775994403
 20
-545.5570712587164
 30
0.0
 40
2.5
 41
0.0
 71
     5
 72
     1
  1
15{\H1.750000;±0,1}
1001
ACAD
1000
MTEXTBEGIN
1070
    73
1070
     1
1070
    44
1040
1.0
1070
    74
1070
     0
1000
MTEXTEND
1000
MTEXTBEGIN
1070
    73
1070
     1
1070
    44
1040
1.0
1070
    74
1070
     0
1000
MTEXTEND
1000
MTEXTBEGIN
1070
    73
1070
     1
1070
    44
1040
1.0
1070
    74
1070
     0
1000
MTEXTEND
1000
MTEXTBEGIN
1070
    73
1070
     1
1070
    44
1040
1.0
1070
    74
1070
     0
1000
MTEXTEND
  0
SOLID
  5
11E
330
119
100
AcDbEntity
  8
DIMS
 62
     0
100
AcDbTrace
 10
-496.0590775994405
 20
-547.2654045920497
 30
0.0
 11
-496.0590775994405
 21
-547.9320712587163
 31
0.0
 12
-498.0590775994405
 22
-547.598737925383
 32
0.0
 13
-498.0590775994405
 23
-547.598737925383
 33
0.0
  0
SOLID
  5
11F
330
119
100
AcDbEntity
  8
DIMS
 62
     0
100
AcDbTrace
 10
-485.0590775994406
 20
-547.2654045920497
 30
0.0
 11
-485.0590775994406
 21
-547.9320712587163
 31
0.0
 12
-483.0590775994405
 22
-547.598737925383
 32
0.0
 13
-483.0590775994405
 23
-547.598737925383
 33
0.0
  0
POINT
  5
120
330
119
100
AcDbEntity
  8
DEFPOINTS
 62
     0
100
AcDbPoint
 10
-498.0590775994405
 20
-557.1749514949478
 30
0.0
  0
POINT
  5
121
330
119
100
AcDbEntity
  8
DEFPOINTS
 62
     0
100
AcDbPoint
 10
-483.0590775994405
 20
-556.6749514949479
 30
0.0
  0
POINT
  5
122
330
119
100
AcDbEntity
  8
DEFPOINTS
 62
     0
100
AcDbPoint
 10
-483.0590775994405
 20
-547.598737925383
 30
0.0
  0
ENDBLK
  5
124
330
119
100
AcDbEntity
  8
0
100
AcDbBlockEnd
  0
BLOCK
  5
255
330
24B
100
AcDbEntity
  8
0
100
AcDbBlockBegin
  2
*D14
 70
     1
 10
0.0
 20
0.0
 30
0.0
  3
*D14
  1

  0
LINE
  5
24C
330
24B
100
AcDbEntity
  8
DIMS
 62
     0
100
AcDbLine
 10
-401.4590775994405
 20
-587.4749514949477
 30
0.0
 11
-401.4590775994405
 21
-596.0119193428274
 31
0.0
  0
LINE
  5
24D
330
24B
100
AcDbEntity
  8
DIMS
 62
     0
100
AcDbLine
 10
-371.9590775994408
 20
-581.4749514949475
 30
0.0
 11
-371.9590775994408
 21
-596.0119193428274
 31
0.0
  0
LINE
  5
24E
330
24B
100
AcDbEntity
  8
DIMS
 62
     0
100
AcDbLine
 10
-399.4590775994406
 20
-595.3869193428272
 30
0.0
 11
-373.9590775994408
 21
-595.3869193428272
 31
0.0
  0
SOLID
  5
24F
330
24B
100
AcDbEntity
  8
DIMS
 62
     0
100
AcDbTrace
 10
-399.4590775994406
 20
-595.0535860094941
 30
0.0
 11
-399.4590775994406
 21
-595.7202526761607
 31
0.0
 12
-401.4590775994405
 22
-595.3869193428272
 32
0.0
 13
-401.4590775994405
 23
-595.3869193428272
 33
0.0
  0
SOLID
  5
250
330
24B
100
AcDbEntity
  8
DIMS
 62
     0
100
AcDbTrace
 10
-373.9590775994408
 20
-595.0535860094941
 30
0.0
 11
-373.9590775994408
 21
-595.7202526761607
 31
0.0
 12
-371.9590775994408
 22
-595.3869193428272
 32
0.0
 13
-371.9590775994408
 23
-595.3869193428272
 33
0.0
  0
MTEXT
  5
251
330
24B
100
AcDbEntity
  8
DIMS
 62
     0
100
AcDbMText
 10
-385.7860997974113
 20
-593.4869193428275
 30
0.0
 40
2.5
 41
0.0
 71
     5
 72
     1
  1
\A1;29.5
1001
ACAD
1000
MTEXTBEGIN
1070
    73
1070
     1
1070
    44
1040
1.0
1070
    74
1070
     0
1000
MTEXTEND
1000
MTEXTBEGIN
1070
    73
1070
     1
1070
    44
1040
1.0
1070
    74
1070
     0
1000
MTEXTEND
1000
MTEXTBEGIN
1070
    73
1070
     1
1070
    44
1040
1.0
1070
    74
1070
     0
1000
MTEXTEND
1000
MTEXTBEGIN
1070
    73
1070
     1
1070
    44
1040
1.0
1070
    74
1070
     0
1000
MTEXTEND
  0
POINT
  5
252
330
24B
100
AcDbEntity
  8
DEFPOINTS
 62
     0
100
AcDbPoint
 10
-401.4590775994405
 20
-586.8499514949477
 30
0.0
  0
POINT
  5
253
330
24B
100
AcDbEntity
  8
DEFPOINTS
 62
     0
100
AcDbPoint
 10
-371.9590775994408
 20
-580.8499514949476
 30
0.0
  0
POINT
  5
254
330
24B
100
AcDbEntity
  8
DEFPOINTS
 62
     0
100
AcDbPoint
 10
-371.9590775994408
 20
-595.3869193428272
 30
0.0
  0
ENDBLK
  5
256
330
24B
100
AcDbEntity
  8
0
100
AcDbBlockEnd
  0
BLOCK
  5
D7
330
CD
100
AcDbEntity
  8
0
100
AcDbBlockBegin
  2
*D15
 70
     1
 10
0.0
 20
0.0
 30
0.0
  3
*D15
  1

  0
LINE
  5
CE
330
CD
100
AcDbEntity
  8
DIMS
 62
     0
100
AcDbLine
 10
-418.3090775994411
 20
-517.4249514949476
 30
0.0
 11
-418.3090775994411
 21
-509.8022576411566
 31
0.0
  0
LINE
  5
CF
330
CD
100
AcDbEntity
  8
DIMS
 62
     0
100
AcDbLine
 10
-396.1090775994406
 20
-517.4249514949476
 30
0.0
 11
-396.1090775994406
 21
-509.8022576411566
 31
0.0
  0
LINE
  5
D0
330
CD
100
AcDbEntity
  8
DIMS
 62
     0
100
AcDbLine
 10
-416.3090775994412
 20
-510.4272576411567
 30
0.0
 11
-398.1090775994406
 21
-510.4272576411567
 31
0.0
  0
SOLID
  5
D1
330
CD
100
AcDbEntity
  8
DIMS
 62
     0
100
AcDbTrace
 10
-416.3090775994412
 20
-510.0939243078234
 30
0.0
 11
-416.3090775994412
 21
-510.7605909744901
 31
0.0
 12
-418.3090775994411
 22
-510.4272576411567
 32
0.0
 13
-418.3090775994411
 23
-510.4272576411567
 33
0.0
  0
SOLID
  5
D2
330
CD
100
AcDbEntity
  8
DIMS
 62
     0
100
AcDbTrace
 10
-398.1090775994406
 20
-510.0939243078234
 30
0.0
 11
-398.1090775994406
 21
-510.7605909744901
 31
0.0
 12
-396.1090775994406
 22
-510.4272576411567
 32
0.0
 13
-396.1090775994406
 23
-510.4272576411567
 33
0.0
  0
MTEXT
  5
D3
330
CD
100
AcDbEntity
  8
DIMS
 62
     0
100
AcDbMText
 10
-406.8461596323841
 20
-508.5522576411567
 30
0.0
 40
2.5
 41
0.0
 71
     5
 72
     1
  1
\A1;22.2
1001
ACAD
1000
MTEXTBEGIN
1070
    73
1070
     1
1070
    44
1040
1.0
1070
    74
1070
     0
1000
MTEXTEND
1000
MTEXTBEGIN
1070
    73
1070
     1
1070
    44
1040
1.0
1070
    74
1070
     0
1000
MTEXTEND
1000
MTEXTBEGIN
1070
    73
1070
     1
1070
    44
1040
1.0
1070
    74
1070
     0
1000
MTEXTEND
1000
MTEXTBEGIN
1070
    73
1070
     1
1070
    44
1040
1.0
1070
    74
1070
     0
1000
MTEXTEND
  0
POINT
  5
D4
330
CD
100
AcDbEntity
  8
DEFPOINTS
 62
     0
100
AcDbPoint
 10
-418.3090775994411
 20
-518.0499514949477
 30
0.0
  0
POINT
  5
D5
330
CD
100
AcDbEntity
  8
DEFPOINTS
 62
     0
100
AcDbPoint
 10
-396.1090775994406
 20
-518.0499514949477
 30
0.0
  0
POINT
  5
D6
330
CD
100
AcDbEntity
  8
DEFPOINTS
 62
     0
100
AcDbPoint
 10
-396.1090775994406
 20
-510.4272576411567
 30
0.0
  0
ENDBLK
  5
D8
330
CD
100
AcDbEntity
  8
0
100
AcDbBlockEnd
  0
BLOCK
  5
13F
330
135
100
AcDbEntity
  8
0
100
AcDbBlockBegin
  2
*D16
 70
     1
 10
0.0
 20
0.0
 30
0.0
  3
*D16
  1

  0
LINE
  5
136
330
135
100
AcDbEntity
  8
DIMS
 62
     0
100
AcDbLine
 10
-498.0590775994406
 20
-563.1499514949476
 30
0.0
 11
-498.0590775994406
 21
-604.4618237516122
 31
0.0
  0
LINE
  5
137
330
135
100
AcDbEntity
  8
DIMS
 62
     0
100
AcDbLine
 10
-477.4590775994406
 20
-587.4749514949477
 30
0.0
 11
-477.4590775994406
 21
-604.4618237516122
 31
0.0
  0
LINE
  5
138
330
135
100
AcDbEntity
  8
DIMS
 62
     0
100
AcDbLine
 10
-496.0590775994409
 20
-603.8368237516122
 30
0.0
 11
-479.4590775994405
 21
-603.8368237516122
 31
0.0
  0
SOLID
  5
139
330
135
100
AcDbEntity
  8
DIMS
 62
     0
100
AcDbTrace
 10
-496.0590775994409
 20
-603.5034904182785
 30
0.0
 11
-496.0590775994409
 21
-604.1701570849455
 31
0.0
 12
-498.0590775994406
 22
-603.8368237516122
 32
0.0
 13
-498.0590775994406
 23
-603.8368237516122
 33
0.0
  0
SOLID
  5
13A
330
135
100
AcDbEntity
  8
DIMS
 62
     0
100
AcDbTrace
 10
-479.4590775994405
 20
-603.5034904182785
 30
0.0
 11
-479.4590775994405
 21
-604.1701570849455
 31
0.0
 12
-477.4590775994406
 22
-603.8368237516122
 32
0.0
 13
-477.4590775994406
 23
-603.8368237516122
 33
0.0
  0
MTEXT
  5
13B
330
135
100
AcDbEntity
  8
DIMS
 62
     0
100
AcDbMText
 10
-487.6299879381392
 20
-601.9368237516122
 30
0.0
 40
2.5
 41
0.0
 71
     5
 72
     1
  1
20.6{\H1.750000;±0.5}
1001
ACAD
1000
MTEXTBEGIN
1070
    73
1070
     1
1070
    44
1040
1.0
1070
    74
1070
     0
1000
MTEXTEND
1000
MTEXTBEGIN
1070
    73
1070
     1
1070
    44
1040
1.0
1070
    74
1070
     0
1000
MTEXTEND
1000
MTEXTBEGIN
1070
    73
1070
     1
1070
    44
1040
1.0
1070
    74
1070
     0
1000
MTEXTEND
1000
MTEXTBEGIN
1070
    73
1070
     1
1070
    44
1040
1.0
1070
    74
1070
     0
1000
MTEXTEND
  0
POINT
  5
13C
330
135
100
AcDbEntity
  8
DEFPOINTS
 62
     0
100
AcDbPoint
 10
-498.0590775994406
 20
-562.5249514949477
 30
0.0
  0
POINT
  5
13D
330
135
100
AcDbEntity
  8
DEFPOINTS
 62
     0
100
AcDbPoint
 10
-477.4590775994406
 20
-586.8499514949477
 30
0.0
  0
POINT
  5
13E
330
135
100
AcDbEntity
  8
DEFPOINTS
 62
     0
100
AcDbPoint
 10
-477.4590775994406
 20
-603.8368237516122
 30
0.0
  0
ENDBLK
  5
140
330
135
100
AcDbEntity
  8
0
100
AcDbBlockEnd
  0
BLOCK
  5
130
330
126
100
AcDbEntity
  8
0
100
AcDbBlockBegin
  2
*D17
 70
     1
 10
0.0
 20
0.0
 30
0.0
  3
*D17
  1

  0
LINE
  5
127
330
126
100
AcDbEntity
  8
DIMS
100
AcDbLine
 10
-484.0590775994406
 20
-556.6749514949479
 30
0.0
 11
-510.3493399718471
 21
-556.6749514949479
 31
0.0
  0
LINE
  5
128
330
126
100
AcDbEntity
  8
DIMS
100
AcDbLine
 10
-498.5590775994406
 20
-563.0249514949476
 30
0.0
 11
-510.3493399718471
 21
-563.0249514949476
 31
0.0
  0
LINE
  5
129
330
126
100
AcDbEntity
  8
DIMS
100
AcDbLine
 10
-509.7243399718471
 20
-558.6749514949477
 30
0.0
 11
-509.7243399718471
 21
-561.0249514949477
 31
0.0
  0
MTEXT
  5
12A
330
126
100
AcDbEntity
  8
DIMS
 62
     0
100
AcDbMText
 10
-513.1789054264098
 20
-552.9928362037633
 30
0.0
 40
2.5
 41
0.0
 71
     5
 72
     1
  1
\A1;%%C6.35{\H1.750000;\S 0^ -0.02;}
 11
0.0000000000000001
 21
1.0
 31
0.0
1001
ACAD
1000
MTEXTBEGIN
1070
    73
1070
     1
1070
    44
1040
1.0
1070
    74
1070
     0
1000
MTEXTEND
1000
MTEXTBEGIN
1070
    73
1070
     1
1070
    44
1040
1.0
1070
    74
1070
     0
1000
MTEXTEND
1000
MTEXTBEGIN
1070
    73
1070
     1
1070
    44
1040
1.0
1070
    74
1070
     0
1000
MTEXTEND
1000
MTEXTBEGIN
1070
    73
1070
     1
1070
    44
1040
1.0
1070
    74
1070
     0
1000
MTEXTEND
  0
SOLID
  5
12B
330
126
100
AcDbEntity
  8
DIMS
100
AcDbTrace
 10
-510.0576733051806
 20
-558.6749514949477
 30
0.0
 11
-509.3910066385139
 21
-558.6749514949477
 31
0.0
 12
-509.7243399718471
 22
-556.6749514949479
 32
0.0
 13
-509.7243399718471
 23
-556.6749514949479
 33
0.0
  0
SOLID
  5
12C
330
126
100
AcDbEntity
  8
DIMS
100
AcDbTrace
 10
-510.0576733051806
 20
-561.0249514949477
 30
0.0
 11
-509.3910066385139
 21
-561.0249514949477
 31
0.0
 12
-509.7243399718471
 22
-563.0249514949476
 32
0.0
 13
-509.7243399718471
 23
-563.0249514949476
 33
0.0
  0
POINT
  5
12D
330
126
100
AcDbEntity
  8
DEFPOINTS
 62
     0
100
AcDbPoint
 10
-483.0590775994405
 20
-556.6749514949479
 30
0.0
  0
POINT
  5
12E
330
126
100
AcDbEntity
  8
DEFPOINTS
 62
     0
100
AcDbPoint
 10
-497.5590775994406
 20
-563.0249514949476
 30
0.0
  0
POINT
  5
12F
330
126
100
AcDbEntity
  8
DEFPOINTS
 62
     0
100
AcDbPoint
 10
-509.7243399718471
 20
-563.0249514949476
 30
0.0
  0
ENDBLK
  5
131
330
126
100
AcDbEntity
  8
0
100
AcDbBlockEnd
  0
BLOCK
  5
103
330
F9
100
AcDbEntity
  8
0
100
AcDbBlockBegin
  2
*D18
 70
     1
 10
0.0
 20
0.0
 30
0.0
  3
*D18
  1

  0
LINE
  5
FA
330
F9
100
AcDbEntity
  8
DIMS
 62
     0
100
AcDbLine
 10
-417.9340775994409
 20
-517.2499514949477
 30
0.0
 11
-423.524966662281
 21
-517.2499514949477
 31
0.0
  0
LINE
  5
FB
330
F9
100
AcDbEntity
  8
DIMS
 62
     0
100
AcDbLine
 10
-418.7590775994408
 20
-531.8499514949478
 30
0.0
 11
-423.524966662281
 21
-531.8499514949478
 31
0.0
  0
LINE
  5
FC
330
F9
100
AcDbEntity
  8
DIMS
 62
     0
100
AcDbLine
 10
-422.8999666622812
 20
-519.2499514949477
 30
0.0
 11
-422.8999666622812
 21
-529.8499514949478
 31
0.0
  0
SOLID
  5
FD
330
F9
100
AcDbEntity
  8
DIMS
 62
     0
100
AcDbTrace
 10
-423.2332999956144
 20
-519.2499514949477
 30
0.0
 11
-422.5666333289479
 21
-519.2499514949477
 31
0.0
 12
-422.8999666622812
 22
-517.2499514949477
 32
0.0
 13
-422.8999666622812
 23
-517.2499514949477
 33
0.0
  0
SOLID
  5
FE
330
F9
100
AcDbEntity
  8
DIMS
 62
     0
100
AcDbTrace
 10
-423.2332999956144
 20
-529.8499514949478
 30
0.0
 11
-422.5666333289479
 21
-529.8499514949478
 31
0.0
 12
-422.8999666622812
 22
-531.8499514949478
 32
0.0
 13
-422.8999666622812
 23
-531.8499514949478
 33
0.0
  0
MTEXT
  5
FF
330
F9
100
AcDbEntity
  8
DIMS
 62
     0
100
AcDbMText
 10
-424.7999666622811
 20
-523.7819052607997
 30
0.0
 40
2.5
 41
0.0
 71
     5
 72
     1
  1
14.6{\H1.750000;±0.5}
 11
0.0000000000000001
 21
1.0
 31
0.0
1001
ACAD
1000
MTEXTBEGIN
1070
    73
1070
     1
1070
    44
1040
1.0
1070
    74
1070
     0
1000
MTEXTEND
1000
MTEXTBEGIN
1070
    73
1070
     1
1070
    44
1040
1.0
1070
    74
1070
     0
1000
MTEXTEND
1000
MTEXTBEGIN
1070
    73
1070
     1
1070
    44
1040
1.0
1070
    74
1070
     0
1000
MTEXTEND
1000
MTEXTBEGIN
1070
    73
1070
     1
1070
    44
1040
1.0
1070
    74
1070
     0
1000
MTEXTEND
  0
POINT
  5
100
330
F9
100
AcDbEntity
  8
DEFPOINTS
 62
     0
100
AcDbPoint
 10
-417.3090775994408
 20
-517.2499514949477
 30
0.0
  0
POINT
  5
101
330
F9
100
AcDbEntity
  8
DEFPOINTS
 62
     0
100
AcDbPoint
 10
-418.1340775994408
 20
-531.8499514949478
 30
0.0
  0
POINT
  5
102
330
F9
100
AcDbEntity
  8
DEFPOINTS
 62
     0
100
AcDbPoint
 10
-422.8999666622812
 20
-531.8499514949478
 30
0.0
  0
ENDBLK
  5
104
330
F9
100
AcDbEntity
  8
0
100
AcDbBlockEnd
  0
BLOCK
  5
14C
330
142
100
AcDbEntity
  8
0
100
AcDbBlockBegin
  2
*D19
 70
     1
 10
0.0
 20
0.0
 30
0.0
  3
*D19
  1

  0
LINE
  5
143
330
142
100
AcDbEntity
  8
DIMS
 62
     0
100
AcDbLine
 10
-479.6840775994406
 20
-540.7999514949477
 30
0.0
 11
-520.9460117547328
 21
-540.7999514949477
 31
0.0
  0
LINE
  5
144
330
142
100
AcDbEntity
  8
DIMS
 62
     0
100
AcDbLine
 10
-479.6840775994406
 20
-578.8999514949477
 30
0.0
 11
-520.9460117547328
 21
-578.8999514949477
 31
0.0
  0
LINE
  5
145
330
142
100
AcDbEntity
  8
DIMS
 62
     0
100
AcDbLine
 10
-519.6960117547328
 20
-542.7999514949476
 30
0.0
 11
-519.6960117547328
 21
-576.8999514949476
 31
0.0
  0
SOLID
  5
146
330
142
100
AcDbEntity
  8
DIMS
 62
     0
100
AcDbTrace
 10
-520.0293450880661
 20
-542.7999514949476
 30
0.0
 11
-519.3626784213994
 21
-542.7999514949476
 31
0.0
 12
-519.6960117547328
 22
-540.7999514949477
 32
0.0
 13
-519.6960117547328
 23
-540.7999514949477
 33
0.0
  0
SOLID
  5
147
330
142
100
AcDbEntity
  8
DIMS
 62
     0
100
AcDbTrace
 10
-520.0293450880661
 20
-576.8999514949476
 30
0.0
 11
-519.3626784213994
 21
-576.8999514949476
 31
0.0
 12
-519.6960117547328
 22
-578.8999514949477
 32
0.0
 13
-519.6960117547328
 23
-578.8999514949477
 33
0.0
  0
MTEXT
  5
148
330
142
100
AcDbEntity
  8
DIMS
 62
     0
100
AcDbMText
 10
-522.3460117547325
 20
-559.8169294255114
 30
0.0
 40
4.0
 41
0.0
 71
     5
 72
     1
  1
φ38.1{\H2.800000;±0.03}
 11
0.0000000000000001
 21
1.0
 31
0.0
1001
ACAD
1000
MTEXTBEGIN
1070
    73
1070
     1
1070
    44
1040
1.0
1070
    74
1070
     0
1000
MTEXTEND
1000
MTEXTBEGIN
1070
    73
1070
     1
1070
    44
1040
1.0
1070
    74
1070
     0
1000
MTEXTEND
1000
MTEXTBEGIN
1070
    73
1070
     1
1070
    44
1040
1.0
1070
    74
1070
     0
1000
MTEXTEND
1000
MTEXTBEGIN
1070
    73
1070
     1
1070
    44
1040
1.0
1070
    74
1070
     0
1000
MTEXTEND
  0
POINT
  5
149
330
142
100
AcDbEntity
  8
DEFPOINTS
 62
     0
100
AcDbPoint
 10
-479.0590775994409
 20
-540.7999514949477
 30
0.0
  0
POINT
  5
14A
330
142
100
AcDbEntity
  8
DEFPOINTS
 62
     0
100
AcDbPoint
 10
-479.0590775994409
 20
-578.8999514949477
 30
0.0
  0
POINT
  5
14B
330
142
100
AcDbEntity
  8
DEFPOINTS
 62
     0
100
AcDbPoint
 10
-519.6960117547328
 20
-578.8999514949477
 30
0.0
  0
ENDBLK
  5
14D
330
142
100
AcDbEntity
  8
0
100
AcDbBlockEnd
  0
BLOCK
  5
159
330
14F
100
AcDbEntity
  8
0
100
AcDbBlockBegin
  2
*D20
 70
     1
 10
0.0
 20
0.0
 30
0.0
  3
*D20
  1

  0
LINE
  5
150
330
14F
100
AcDbEntity
  8
DIMS
 62
     0
100
AcDbLine
 10
-498.6840775994405
 20
-557.1749514949478
 30
0.0
 11
-503.7601739120542
 21
-557.1749514949478
 31
0.0
  0
LINE
  5
151
330
14F
100
AcDbEntity
  8
DIMS
 62
     0
100
AcDbLine
 10
-498.1840775994406
 20
-563.0249514949476
 30
0.0
 11
-503.7601739120542
 21
-563.0249514949476
 31
0.0
  0
LINE
  5
152
330
14F
100
AcDbEntity
  8
DIMS
 62
     0
100
AcDbLine
 10
-503.1351739120542
 20
-559.1749514949476
 30
0.0
 11
-503.1351739120542
 21
-561.0249514949477
 31
0.0
  0
MTEXT
  5
153
330
14F
100
AcDbEntity
  8
DIMS
 62
     0
100
AcDbMText
 10
-505.2482691501493
 20
-572.3249514949477
 30
0.0
 40
2.5
 41
0.0
 71
     5
 72
     1
  1
5,85{\H1.750000;±0,1}
 11
0.0000000000000001
 21
1.0
 31
0.0
1001
ACAD
1000
MTEXTBEGIN
1070
    73
1070
     1
1070
    44
1040
1.0
1070
    74
1070
     0
1000
MTEXTEND
1000
MTEXTBEGIN
1070
    73
1070
     1
1070
    44
1040
1.0
1070
    74
1070
     0
1000
MTEXTEND
1000
MTEXTBEGIN
1070
    73
1070
     1
1070
    44
1040
1.0
1070
    74
1070
     0
1000
MTEXTEND
1000
MTEXTBEGIN
1070
    73
1070
     1
1070
    44
1040
1.0
1070
    74
1070
     0
1000
MTEXTEND
  0
SOLID
  5
154
330
14F
100
AcDbEntity
  8
DIMS
 62
     0
100
AcDbTrace
 10
-503.4685072453875
 20
-559.1749514949476
 30
0.0
 11
-502.8018405787205
 21
-559.1749514949476
 31
0.0
 12
-503.1351739120542
 22
-557.1749514949478
 32
0.0
 13
-503.1351739120542
 23
-557.1749514949478
 33
0.0
  0
SOLID
  5
155
330
14F
100
AcDbEntity
  8
DIMS
 62
     0
100
AcDbTrace
 10
-503.4685072453875
 20
-561.0249514949477
 30
0.0
 11
-502.8018405787205
 21
-561.0249514949477
 31
0.0
 12
-503.1351739120542
 22
-563.0249514949476
 32
0.0
 13
-503.1351739120542
 23
-563.0249514949476
 33
0.0
  0
POINT
  5
156
330
14F
100
AcDbEntity
  8
DEFPOINTS
 62
     0
100
AcDbPoint
 10
-498.0590775994405
 20
-557.1749514949478
 30
0.0
  0
POINT
  5
157
330
14F
100
AcDbEntity
  8
DEFPOINTS
 62
     0
100
AcDbPoint
 10
-497.5590775994406
 20
-563.0249514949476
 30
0.0
  0
POINT
  5
158
330
14F
100
AcDbEntity
  8
DEFPOINTS
 62
     0
100
AcDbPoint
 10
-503.1351739120542
 20
-563.0249514949476
 30
0.0
  0
ENDBLK
  5
15A
330
14F
100
AcDbEntity
  8
0
100
AcDbBlockEnd
  0
BLOCK
  5
3B
330
30
100
AcDbEntity
  8
0
100
AcDbBlockBegin
  2
*D21
 70
     1
 10
0.0
 20
0.0
 30
0.0
  3
*D21
  1

  0
LINE
  5
31
330
30
100
AcDbEntity
  8
DIMS
 62
     0
100
AcDbLine
 10
-583.6095982276962
 20
-517.4249514949476
 30
0.0
 11
-583.6095982276962
 21
-509.1772576411567
 31
0.0
  0
LINE
  5
32
330
30
100
AcDbEntity
  8
DIMS
 62
     0
100
AcDbLine
 10
-548.9095982276961
 20
-517.4249514949476
 30
0.0
 11
-548.9095982276961
 21
-509.1772576411567
 31
0.0
  0
LINE
  5
33
330
30
100
AcDbEntity
  8
DIMS
 62
     0
100
AcDbLine
 10
-579.6095982276962
 20
-510.4272576411567
 30
0.0
 11
-552.9095982276961
 21
-510.4272576411567
 31
0.0
  0
SOLID
  5
34
330
30
100
AcDbEntity
  8
DIMS
 62
     0
100
AcDbTrace
 10
-579.6095982276962
 20
-509.76059097449
 30
0.0
 11
-579.6095982276962
 21
-511.0939243078234
 31
0.0
 12
-583.6095982276962
 22
-510.4272576411567
 32
0.0
 13
-583.6095982276962
 23
-510.4272576411567
 33
0.0
  0
SOLID
  5
35
330
30
100
AcDbEntity
  8
DIMS
 62
     0
100
AcDbTrace
 10
-552.9095982276961
 20
-509.76059097449
 30
0.0
 11
-552.9095982276961
 21
-511.0939243078234
 31
0.0
 12
-548.9095982276961
 22
-510.4272576411567
 32
0.0
 13
-548.9095982276961
 23
-510.4272576411567
 33
0.0
  0
MTEXT
  5
36
330
30
100
AcDbEntity
  8
DIMS
 62
     0
100
AcDbMText
 10
-566.1206228986957
 20
-507.8022576411567
 30
0.0
 40
4.0
 41
0.0
 71
     5
 72
     1
  1
\A1;（34.7）
1001
ACAD
1000
MTEXTBEGIN
1070
    73
1070
     1
1070
    44
1040
1.0
1070
    74
1070
     0
1000
MTEXTEND
1000
MTEXTBEGIN
1070
    73
1070
     1
1070
    44
1040
1.0
1070
    74
1070
     0
1000
MTEXTEND
1000
MTEXTBEGIN
1070
    73
1070
     1
1070
    44
1040
1.0
1070
    74
1070
     0
1000
MTEXTEND
1000
MTEXTBEGIN
1070
    73
1070
     1
1070
    44
1040
1.0
1070
    74
1070
     0
1000
MTEXTEND
  0
POINT
  5
37
330
30
100
AcDbEntity
  8
DEFPOINTS
 62
     0
100
AcDbPoint
 10
-583.6095982276962
 20
-518.0499514949477
 30
0.0
  0
POINT
  5
39
330
30
100
AcDbEntity
  8
DEFPOINTS
 62
     0
100
AcDbPoint
 10
-548.9095982276961
 20
-518.0499514949477
 30
0.0
  0
POINT
  5
3A
330
30
100
AcDbEntity
  8
DEFPOINTS
 62
     0
100
AcDbPoint
 10
-548.9095982276961
 20
-510.4272576411567
 30
0.0
  0
ENDBLK
  5
3C
330
30
100
AcDbEntity
  8
0
100
AcDbBlockEnd
  0
BLOCK
  5
2A2
330
298
100
AcDbEntity
  8
0
100
AcDbBlockBegin
  2
*D22
 70
     1
 10
0.0
 20
0.0
 30
0.0
  3
*D22
  1

  0
LINE
  5
1037
330
298
100
AcDbEntity
  8
DIMS
 62
     0
100
AcDbLine
 10
49.36214428571725
 20
153.8474190615571
 30
0.0
 11
49.36214428571725
 21
159.5172983897319
 31
0.0
  0
LINE
  5
1038
330
298
100
AcDbEntity
  8
DIMS
 62
     0
100
AcDbLine
 10
84.06214428571706
 20
153.8474190615571
 30
0.0
 11
84.06214428571706
 21
159.5172983897319
 31
0.0
  0
LINE
  5
1039
330
298
100
AcDbEntity
  8
DIMS
 62
     0
100
AcDbLine
 10
51.36214428571725
 20
158.8922983897321
 30
0.0
 11
82.06214428571705
 21
158.8922983897321
 31
0.0
  0
SOLID
  5
103A
330
298
100
AcDbEntity
  8
DIMS
 62
     0
100
AcDbTrace
 10
51.36214428571725
 20
159.2256317230654
 30
0.0
 11
51.36214428571725
 21
158.5589650563987
 31
0.0
 12
49.36214428571725
 22
158.8922983897321
 32
0.0
 13
49.36214428571725
 23
158.8922983897321
 33
0.0
  0
SOLID
  5
103B
330
298
100
AcDbEntity
  8
DIMS
 62
     0
100
AcDbTrace
 10
82.06214428571705
 20
159.2256317230654
 30
0.0
 11
82.06214428571705
 21
158.5589650563987
 31
0.0
 12
84.06214428571706
 22
158.8922983897321
 32
0.0
 13
84.06214428571706
 23
158.8922983897321
 33
0.0
  0
MTEXT
  5
103C
330
298
100
AcDbEntity
  8
DIMS
 62
     0
100
AcDbMText
 10
66.78653282554467
 20
160.5172983897319
 30
0.0
 40
2.0
 41
0.0
 71
     5
 72
     1
  1
\A1;（34.7）
1001
ACAD
1000
MTEXTBEGIN
1070
    73
1070
     1
1070
    44
1040
1.0
1070
    74
1070
     0
1000
MTEXTEND
1000
MTEXTBEGIN
1070
    73
1070
     1
1070
    44
1040
1.0
1070
    74
1070
     0
1000
MTEXTEND
  0
POINT
  5
103D
330
298
100
AcDbEntity
  8
DEFPOINTS
 62
     0
100
AcDbPoint
 10
49.36214428571725
 20
153.2224190615571
 30
0.0
  0
POINT
  5
103E
330
298
100
AcDbEntity
  8
DEFPOINTS
 62
     0
100
AcDbPoint
 10
84.06214428571706
 20
153.2224190615571
 30
0.0
  0
POINT
  5
103F
330
298
100
AcDbEntity
  8
DEFPOINTS
 62
     0
100
AcDbPoint
 10
84.06214428571706
 20
158.8922983897321
 30
0.0
  0
ENDBLK
  5
2A3
330
298
100
AcDbEntity
  8
0
100
AcDbBlockEnd
  0
BLOCK
  5
2AE
330
2A4
100
AcDbEntity
  8
0
100
AcDbBlockBegin
  2
*D23
 70
     1
 10
0.0
 20
0.0
 30
0.0
  3
*D23
  1

  0
LINE
  5
E85
330
2A4
100
AcDbEntity
  8
DIMS
 62
     0
100
AcDbLine
 10
49.73714428571724
 20
154.0224190615568
 30
0.0
 11
22.48002309389405
 21
154.0224190615568
 31
0.0
  0
LINE
  5
E86
330
2A4
100
AcDbEntity
  8
DIMS
 62
     0
100
AcDbLine
 10
41.83202585585036
 20
83.4224190615572
 30
0.0
 11
22.48002309389403
 21
83.42241906155722
 31
0.0
  0
LINE
  5
E87
330
2A4
100
AcDbEntity
  8
DIMS
 62
     0
100
AcDbLine
 10
23.10502309389405
 20
152.0224190615568
 30
0.0
 11
23.10502309389403
 21
85.42241906155721
 31
0.0
  0
SOLID
  5
E88
330
2A4
100
AcDbEntity
  8
DIMS
 62
     0
100
AcDbTrace
 10
22.77168976056072
 20
152.0224190615568
 30
0.0
 11
23.43835642722739
 21
152.0224190615568
 31
0.0
 12
23.10502309389405
 22
154.0224190615568
 32
0.0
 13
23.10502309389405
 23
154.0224190615568
 33
0.0
  0
SOLID
  5
E89
330
2A4
100
AcDbEntity
  8
DIMS
 62
     0
100
AcDbTrace
 10
22.77168976056071
 20
85.42241906155721
 30
0.0
 11
23.43835642722737
 21
85.42241906155721
 31
0.0
 12
23.10502309389403
 22
83.42241906155722
 32
0.0
 13
23.10502309389403
 23
83.42241906155722
 33
0.0
  0
MTEXT
  5
E8A
330
2A4
100
AcDbEntity
  8
DIMS
 62
     0
100
AcDbMText
 10
20.9562135700845
 20
116.8757511150553
 30
0.0
 40
2.0
 41
0.0
 71
     5
 72
     1
  1
\A1;(70.6)
 11
0.0000000000000001
 21
1.0
 31
0.0
1001
ACAD
1000
MTEXTBEGIN
1070
    73
1070
     1
1070
    44
1040
1.0
1070
    74
1070
     0
1000
MTEXTEND
1000
MTEXTBEGIN
1070
    73
1070
     1
1070
    44
1040
1.0
1070
    74
1070
     0
1000
MTEXTEND
  0
POINT
  5
E8B
330
2A4
100
AcDbEntity
  8
DEFPOINTS
 62
     0
100
AcDbPoint
 10
50.36214428571724
 20
154.0224190615568
 30
0.0
  0
POINT
  5
E8C
330
2A4
100
AcDbEntity
  8
DEFPOINTS
 62
     0
100
AcDbPoint
 10
42.45702585585036
 20
83.4224190615572
 30
0.0
  0
POINT
  5
E8D
330
2A4
100
AcDbEntity
  8
DEFPOINTS
 62
     0
100
AcDbPoint
 10
23.10502309389403
 20
83.42241906155722
 30
0.0
  0
ENDBLK
  5
2AF
330
2A4
100
AcDbEntity
  8
0
100
AcDbBlockEnd
  0
BLOCK
  5
2C3
330
2B9
100
AcDbEntity
  8
0
100
AcDbBlockBegin
  2
*D24
 70
     1
 10
0.0
 20
0.0
 30
0.0
  3
*D24
  1

  0
LINE
  5
10BD
330
2B9
100
AcDbEntity
  8
DIMS
 62
     0
100
AcDbLine
 10
311.7277486559467
 20
143.4224190615571
 30
0.0
 11
319.8994065024495
 21
143.4224190615571
 31
0.0
  0
LINE
  5
10BE
330
2B9
100
AcDbEntity
  8
DIMS
 62
     0
100
AcDbLine
 10
311.7277486559467
 20
111.4224190615569
 30
0.0
 11
319.8994065024493
 21
111.4224190615569
 31
0.0
  0
LINE
  5
10BF
330
2B9
100
AcDbEntity
  8
DIMS
 62
     0
100
AcDbLine
 10
319.2494065024495
 20
141.4224190615571
 30
0.0
 11
319.2494065024494
 21
113.4224190615569
 31
0.0
  0
SOLID
  5
10C0
330
2B9
100
AcDbEntity
  8
DIMS
 62
     0
100
AcDbTrace
 10
318.9160731691161
 20
141.4224190615571
 30
0.0
 11
319.5827398357828
 21
141.4224190615571
 31
0.0
 12
319.2494065024495
 22
143.4224190615571
 32
0.0
 13
319.2494065024495
 23
143.4224190615571
 33
0.0
  0
SOLID
  5
10C1
330
2B9
100
AcDbEntity
  8
DIMS
 62
     0
100
AcDbTrace
 10
318.9160731691161
 20
113.4224190615569
 30
0.0
 11
319.5827398357828
 21
113.4224190615569
 31
0.0
 12
319.2494065024494
 22
111.4224190615569
 32
0.0
 13
319.2494065024494
 23
111.4224190615569
 33
0.0
  0
MTEXT
  5
10C2
330
2B9
100
AcDbEntity
  8
DIMS
 62
     0
100
AcDbMText
 10
317.5994065024493
 20
126.8196645562742
 30
0.0
 40
2.0
 41
0.0
 71
     5
 72
     1
  1
\A1;32
 11
0.0000000000000001
 21
1.0
 31
0.0
1001
ACAD
1000
MTEXTBEGIN
1070
    73
1070
     1
1070
    44
1040
1.0
1070
    74
1070
     0
1000
MTEXTEND
1000
MTEXTBEGIN
1070
    73
1070
     1
1070
    44
1040
1.0
1070
    74
1070
     0
1000
MTEXTEND
  0
POINT
  5
10C3
330
2B9
100
AcDbEntity
  8
DEFPOINTS
 62
     0
100
AcDbPoint
 10
311.0777486559467
 20
143.4224190615571
 30
0.0
  0
POINT
  5
10C4
330
2B9
100
AcDbEntity
  8
DEFPOINTS
 62
     0
100
AcDbPoint
 10
311.0777486559467
 20
111.4224190615569
 30
0.0
  0
POINT
  5
10C5
330
2B9
100
AcDbEntity
  8
DEFPOINTS
 62
     0
100
AcDbPoint
 10
319.2494065024494
 20
111.4224190615569
 30
0.0
  0
ENDBLK
  5
2C4
330
2B9
100
AcDbEntity
  8
0
100
AcDbBlockEnd
  0
BLOCK
  5
2CF
330
2C5
100
AcDbEntity
  8
0
100
AcDbBlockBegin
  2
*D25
 70
     1
 10
0.0
 20
0.0
 30
0.0
  3
*D25
  1

  0
LINE
  5
10B4
330
2C5
100
AcDbEntity
  8
DIMS
 62
     0
100
AcDbLine
 10
311.7294437997628
 20
111.4224190615569
 30
0.0
 11
319.8994065024493
 21
111.4224190615569
 31
0.0
  0
LINE
  5
10B5
330
2C5
100
AcDbEntity
  8
DIMS
 62
     0
100
AcDbLine
 10
311.7294437997628
 20
90.42241906155719
 30
0.0
 11
319.8994065024493
 21
90.42241906155719
 31
0.0
  0
LINE
  5
10B6
330
2C5
100
AcDbEntity
  8
DIMS
 62
     0
100
AcDbLine
 10
319.2494065024494
 20
109.4224190615569
 30
0.0
 11
319.2494065024494
 21
92.42241906155719
 31
0.0
  0
SOLID
  5
10B7
330
2C5
100
AcDbEntity
  8
DIMS
 62
     0
100
AcDbTrace
 10
318.9160731691161
 20
109.4224190615569
 30
0.0
 11
319.5827398357828
 21
109.4224190615569
 31
0.0
 12
319.2494065024494
 22
111.4224190615569
 32
0.0
 13
319.2494065024494
 23
111.4224190615569
 33
0.0
  0
SOLID
  5
10B8
330
2C5
100
AcDbEntity
  8
DIMS
 62
     0
100
AcDbTrace
 10
318.9160731691161
 20
92.42241906155719
 30
0.0
 11
319.5827398357828
 21
92.42241906155719
 31
0.0
 12
319.2494065024494
 22
90.42241906155719
 32
0.0
 13
319.2494065024494
 23
90.42241906155719
 33
0.0
  0
MTEXT
  5
10B9
330
2C5
100
AcDbEntity
  8
DIMS
 62
     0
100
AcDbMText
 10
317.5994065024493
 20
102.5442732424547
 30
0.0
 40
2.0
 41
0.0
 71
     5
 72
     1
  1
\A1;21
 11
0.0000000000000001
 21
1.0
 31
0.0
1001
ACAD
1000
MTEXTBEGIN
1070
    73
1070
     1
1070
    44
1040
1.0
1070
    74
1070
     0
1000
MTEXTEND
1000
MTEXTBEGIN
1070
    73
1070
     1
1070
    44
1040
1.0
1070
    74
1070
     0
1000
MTEXTEND
  0
POINT
  5
10BA
330
2C5
100
AcDbEntity
  8
DEFPOINTS
 62
     0
100
AcDbPoint
 10
311.0794437997629
 20
111.4224190615569
 30
0.0
  0
POINT
  5
10BB
330
2C5
100
AcDbEntity
  8
DEFPOINTS
 62
     0
100
AcDbPoint
 10
311.0794437997629
 20
90.42241906155719
 30
0.0
  0
POINT
  5
10BC
330
2C5
100
AcDbEntity
  8
DEFPOINTS
 62
     0
100
AcDbPoint
 10
319.2494065024494
 20
90.42241906155719
 30
0.0
  0
ENDBLK
  5
2D0
330
2C5
100
AcDbEntity
  8
0
100
AcDbBlockEnd
  0
BLOCK
  5
2DB
330
2D1
100
AcDbEntity
  8
0
100
AcDbBlockBegin
  2
*D26
 70
     1
 10
0.0
 20
0.0
 30
0.0
  3
*D26
  1

  0
LINE
  5
10C6
330
2D1
100
AcDbEntity
  8
DIMS
 62
     0
100
AcDbLine
 10
286.5777486559469
 20
154.0224190615571
 30
0.0
 11
326.8210643489516
 21
154.0224190615569
 31
0.0
  0
LINE
  5
10C7
330
2D1
100
AcDbEntity
  8
DIMS
 62
     0
100
AcDbLine
 10
311.7277486559467
 20
111.4224190615569
 30
0.0
 11
326.8210643489514
 21
111.4224190615569
 31
0.0
  0
LINE
  5
10C8
330
2D1
100
AcDbEntity
  8
DIMS
 62
     0
100
AcDbLine
 10
326.1710643489516
 20
152.022419061557
 30
0.0
 11
326.1710643489515
 21
113.4224190615569
 31
0.0
  0
SOLID
  5
10C9
330
2D1
100
AcDbEntity
  8
DIMS
 62
     0
100
AcDbTrace
 10
325.8377310156183
 20
152.022419061557
 30
0.0
 11
326.5043976822848
 21
152.022419061557
 31
0.0
 12
326.1710643489516
 22
154.0224190615569
 32
0.0
 13
326.1710643489516
 23
154.0224190615569
 33
0.0
  0
SOLID
  5
10CA
330
2D1
100
AcDbEntity
  8
DIMS
 62
     0
100
AcDbTrace
 10
325.8377310156181
 20
113.4224190615569
 30
0.0
 11
326.5043976822848
 21
113.4224190615569
 31
0.0
 12
326.1710643489515
 22
111.4224190615569
 32
0.0
 13
326.1710643489515
 23
111.4224190615569
 33
0.0
  0
MTEXT
  5
10CB
330
2D1
100
AcDbEntity
  8
DIMS
 62
     0
100
AcDbMText
 10
324.5210643489516
 20
133.4529014712269
 30
0.0
 40
2.0
 41
0.0
 71
     5
 72
     1
  1
\A1;42.6
 11
0.0000000000000001
 21
1.0
 31
0.0
1001
ACAD
1000
MTEXTBEGIN
1070
    73
1070
     1
1070
    44
1040
1.0
1070
    74
1070
     0
1000
MTEXTEND
1000
MTEXTBEGIN
1070
    73
1070
     1
1070
    44
1040
1.0
1070
    74
1070
     0
1000
MTEXTEND
  0
POINT
  5
10CC
330
2D1
100
AcDbEntity
  8
DEFPOINTS
 62
     0
100
AcDbPoint
 10
285.9277486559468
 20
154.0224190615571
 30
0.0
  0
POINT
  5
10CD
330
2D1
100
AcDbEntity
  8
DEFPOINTS
 62
     0
100
AcDbPoint
 10
311.0777486559467
 20
111.4224190615569
 30
0.0
  0
POINT
  5
10CE
330
2D1
100
AcDbEntity
  8
DEFPOINTS
 62
     0
100
AcDbPoint
 10
326.1710643489515
 20
111.4224190615569
 30
0.0
  0
ENDBLK
  5
2DC
330
2D1
100
AcDbEntity
  8
0
100
AcDbBlockEnd
  0
BLOCK
  5
2E7
330
2DD
100
AcDbEntity
  8
0
100
AcDbBlockBegin
  2
*D27
 70
     1
 10
0.0
 20
0.0
 30
0.0
  3
*D27
  1

  0
LINE
  5
DD2
330
2DD
100
AcDbEntity
  8
DIMS
 62
     0
100
AcDbLine
 10
214.6626649139725
 20
153.8724190615571
 30
0.0
 11
214.6626649139725
 21
169.7091696199652
 31
0.0
  0
LINE
  5
DD3
330
2DD
100
AcDbEntity
  8
DIMS
 62
     0
100
AcDbLine
 10
261.0126649139723
 20
144.072419061557
 30
0.0
 11
261.0126649139723
 21
169.7091696199652
 31
0.0
  0
LINE
  5
DD4
330
2DD
100
AcDbEntity
  8
DIMS
 62
     0
100
AcDbLine
 10
216.6626649139725
 20
169.0591696199651
 30
0.0
 11
259.0126649139723
 21
169.0591696199651
 31
0.0
  0
SOLID
  5
DD5
330
2DD
100
AcDbEntity
  8
DIMS
 62
     0
100
AcDbTrace
 10
216.6626649139725
 20
169.3925029532985
 30
0.0
 11
216.6626649139725
 21
168.7258362866318
 31
0.0
 12
214.6626649139725
 22
169.0591696199651
 32
0.0
 13
214.6626649139725
 23
169.0591696199651
 33
0.0
  0
SOLID
  5
DD6
330
2DD
100
AcDbEntity
  8
DIMS
 62
     0
100
AcDbTrace
 10
259.0126649139723
 20
169.3925029532985
 30
0.0
 11
259.0126649139723
 21
168.7258362866318
 31
0.0
 12
261.0126649139723
 22
169.0591696199651
 32
0.0
 13
261.0126649139723
 23
169.0591696199651
 33
0.0
  0
MTEXT
  5
DD7
330
2DD
100
AcDbEntity
  8
DIMS
 62
     0
100
AcDbMText
 10
236.5183019876105
 20
170.7091696199652
 30
0.0
 40
2.0
 41
0.0
 71
     5
 72
     1
  1
\A1;46.5
1001
ACAD
1000
MTEXTBEGIN
1070
    73
1070
     1
1070
    44
1040
1.0
1070
    74
1070
     0
1000
MTEXTEND
1000
MTEXTBEGIN
1070
    73
1070
     1
1070
    44
1040
1.0
1070
    74
1070
     0
1000
MTEXTEND
  0
POINT
  5
DD8
330
2DD
100
AcDbEntity
  8
DEFPOINTS
 62
     0
100
AcDbPoint
 10
214.6626649139725
 20
153.2224190615571
 30
0.0
  0
POINT
  5
DD9
330
2DD
100
AcDbEntity
  8
DEFPOINTS
 62
     0
100
AcDbPoint
 10
261.0126649139723
 20
143.4224190615571
 30
0.0
  0
POINT
  5
DDA
330
2DD
100
AcDbEntity
  8
DEFPOINTS
 62
     0
100
AcDbPoint
 10
261.0126649139723
 20
169.0591696199651
 30
0.0
  0
ENDBLK
  5
2E8
330
2DD
100
AcDbEntity
  8
0
100
AcDbBlockEnd
  0
BLOCK
  5
2F3
330
2E9
100
AcDbEntity
  8
0
100
AcDbBlockBegin
  2
*D28
 70
     1
 10
0.0
 20
0.0
 30
0.0
  3
*D28
  1

  0
LINE
  5
12E2
330
2E9
100
AcDbEntity
  8
DIMS
 62
     0
100
AcDbLine
 10
38.70702585585059
 20
87.14741906155717
 30
0.0
 11
38.70702585585059
 21
66.75128237234455
 31
0.0
  0
LINE
  5
12E3
330
2E9
100
AcDbEntity
  8
DIMS
 62
     0
100
AcDbLine
 10
94.70702585585058
 20
87.14741906155717
 30
0.0
 11
94.70702585585058
 21
66.75128237234455
 31
0.0
  0
LINE
  5
12E4
330
2E9
100
AcDbEntity
  8
DIMS
 62
     0
100
AcDbLine
 10
40.70702585585059
 20
67.40128237234455
 30
0.0
 11
92.70702585585061
 21
67.40128237234455
 31
0.0
  0
MTEXT
  5
12E5
330
2E9
100
AcDbEntity
  8
DIMS
 62
     0
100
AcDbMText
 10
66.81432216996995
 20
69.05128237234456
 30
0.0
 40
2.0
 41
0.0
 71
     5
 72
     1
  1
\A1;\U+25A156
1001
ACAD
1000
MTEXTBEGIN
1070
    73
1070
     1
1070
    44
1040
1.0
1070
    74
1070
     0
1000
MTEXTEND
1000
MTEXTBEGIN
1070
    73
1070
     1
1070
    44
1040
1.0
1070
    74
1070
     0
1000
MTEXTEND
  0
SOLID
  5
12E6
330
2E9
100
AcDbEntity
  8
DIMS
 62
     0
100
AcDbTrace
 10
40.70702585585059
 20
67.73461570567788
 30
0.0
 11
40.70702585585059
 21
67.06794903901123
 31
0.0
 12
38.70702585585059
 22
67.40128237234455
 32
0.0
 13
38.70702585585059
 23
67.40128237234455
 33
0.0
  0
SOLID
  5
12E7
330
2E9
100
AcDbEntity
  8
DIMS
 62
     0
100
AcDbTrace
 10
92.70702585585061
 20
67.73461570567788
 30
0.0
 11
92.70702585585061
 21
67.06794903901123
 31
0.0
 12
94.70702585585058
 22
67.40128237234455
 32
0.0
 13
94.70702585585058
 23
67.40128237234455
 33
0.0
  0
POINT
  5
12E8
330
2E9
100
AcDbEntity
  8
DEFPOINTS
 62
     0
100
AcDbPoint
 10
38.70702585585059
 20
87.79741906155718
 30
0.0
  0
POINT
  5
12E9
330
2E9
100
AcDbEntity
  8
DEFPOINTS
 62
     0
100
AcDbPoint
 10
94.70702585585058
 20
87.79741906155718
 30
0.0
  0
POINT
  5
12EA
330
2E9
100
AcDbEntity
  8
DEFPOINTS
 62
     0
100
AcDbPoint
 10
94.70702585585058
 20
67.40128237234455
 30
0.0
  0
ENDBLK
  5
2F4
330
2E9
100
AcDbEntity
  8
0
100
AcDbBlockEnd
  0
BLOCK
  5
2FF
330
2F5
100
AcDbEntity
  8
0
100
AcDbBlockBegin
  2
*D29
 70
     1
 10
0.0
 20
0.0
 30
0.0
  3
*D29
  1

  0
LINE
  5
E8E
330
2F5
100
AcDbEntity
  8
DIMS
100
AcDbLine
 10
40.0120258558504
 20
87.85241906155704
 30
0.0
 11
32.06175064536344
 21
87.85241906155704
 31
0.0
  0
LINE
  5
E8F
330
2F5
100
AcDbEntity
  8
DIMS
100
AcDbLine
 10
40.0120258558504
 20
134.9924190615569
 30
0.0
 11
32.06175064536344
 21
134.9924190615569
 31
0.0
  0
LINE
  5
E90
330
2F5
100
AcDbEntity
  8
DIMS
100
AcDbLine
 10
32.68675064536344
 20
89.85241906155705
 30
0.0
 11
32.68675064536344
 21
132.9924190615569
 31
0.0
  0
SOLID
  5
E91
330
2F5
100
AcDbEntity
  8
DIMS
100
AcDbTrace
 10
32.3534173120301
 20
89.85241906155705
 30
0.0
 11
33.02008397869677
 21
89.85241906155705
 31
0.0
 12
32.68675064536344
 22
87.85241906155704
 32
0.0
 13
32.68675064536344
 23
87.85241906155704
 33
0.0
  0
SOLID
  5
E92
330
2F5
100
AcDbEntity
  8
DIMS
100
AcDbTrace
 10
32.35341731203011
 20
132.9924190615569
 30
0.0
 11
33.02008397869678
 21
132.9924190615569
 31
0.0
 12
32.68675064536344
 22
134.9924190615569
 32
0.0
 13
32.68675064536344
 23
134.9924190615569
 33
0.0
  0
MTEXT
  5
E93
330
2F5
100
AcDbEntity
  8
DIMS
 62
     0
100
AcDbMText
 10
31.06175064536342
 20
111.3894536450287
 30
0.0
 40
2.0
 41
0.0
 71
     5
 72
     1
  1
47.14{\H1.400000;±0.2}
 11
0.0000000000000001
 21
1.0
 31
0.0
1001
ACAD
1000
MTEXTBEGIN
1070
    73
1070
     1
1070
    44
1040
1.0
1070
    74
1070
     0
1000
MTEXTEND
1000
MTEXTBEGIN
1070
    73
1070
     1
1070
    44
1040
1.0
1070
    74
1070
     0
1000
MTEXTEND
  0
POINT
  5
E94
330
2F5
100
AcDbEntity
  8
DEFPOINTS
 62
     0
100
AcDbPoint
 10
40.6370258558504
 20
87.85241906155704
 30
0.0
  0
POINT
  5
E95
330
2F5
100
AcDbEntity
  8
DEFPOINTS
 62
     0
100
AcDbPoint
 10
40.6370258558504
 20
134.9924190615569
 30
0.0
  0
POINT
  5
E96
330
2F5
100
AcDbEntity
  8
DEFPOINTS
 62
     0
100
AcDbPoint
 10
32.68675064536344
 20
134.9924190615569
 30
0.0
  0
ENDBLK
  5
300
330
2F5
100
AcDbEntity
  8
0
100
AcDbBlockEnd
  0
BLOCK
  5
30B
330
301
100
AcDbEntity
  8
0
100
AcDbBlockBegin
  2
*D30
 70
     1
 10
0.0
 20
0.0
 30
0.0
  3
*D30
  1

  0
LINE
  5
E97
330
301
100
AcDbEntity
  8
DIMS
100
AcDbLine
 10
43.13702585585041
 20
84.97772969050435
 30
0.0
 11
43.13702585585041
 21
75.26045121367758
 31
0.0
  0
LINE
  5
E98
330
301
100
AcDbEntity
  8
DIMS
100
AcDbLine
 10
90.2770258558503
 20
84.97772969050435
 30
0.0
 11
90.2770258558503
 21
75.26045121367758
 31
0.0
  0
LINE
  5
E99
330
301
100
AcDbEntity
  8
DIMS
100
AcDbLine
 10
45.13702585585042
 20
75.88545121367758
 30
0.0
 11
88.27702585585029
 21
75.88545121367758
 31
0.0
  0
SOLID
  5
E9A
330
301
100
AcDbEntity
  8
DIMS
100
AcDbTrace
 10
45.13702585585042
 20
76.21878454701091
 30
0.0
 11
45.13702585585042
 21
75.55211788034426
 31
0.0
 12
43.13702585585041
 22
75.88545121367758
 32
0.0
 13
43.13702585585041
 23
75.88545121367758
 33
0.0
  0
SOLID
  5
E9B
330
301
100
AcDbEntity
  8
DIMS
100
AcDbTrace
 10
88.27702585585029
 20
76.21878454701091
 30
0.0
 11
88.27702585585029
 21
75.55211788034426
 31
0.0
 12
90.2770258558503
 22
75.88545121367758
 32
0.0
 13
90.2770258558503
 23
75.88545121367758
 33
0.0
  0
MTEXT
  5
E9C
330
301
100
AcDbEntity
  8
DIMS
 62
     0
100
AcDbMText
 10
66.64420511491676
 20
77.51045121367758
 30
0.0
 40
2.0
 41
0.0
 71
     5
 72
     1
  1
47.14{\H1.400000;±0.2}
1001
ACAD
1000
MTEXTBEGIN
1070
    73
1070
     1
1070
    44
1040
1.0
1070
    74
1070
     0
1000
MTEXTEND
1000
MTEXTBEGIN
1070
    73
1070
     1
1070
    44
1040
1.0
1070
    74
1070
     0
1000
MTEXTEND
  0
POINT
  5
E9D
330
301
100
AcDbEntity
  8
DEFPOINTS
 62
     0
100
AcDbPoint
 10
43.13702585585041
 20
85.60272969050435
 30
0.0
  0
POINT
  5
E9E
330
301
100
AcDbEntity
  8
DEFPOINTS
 62
     0
100
AcDbPoint
 10
90.2770258558503
 20
85.60272969050435
 30
0.0
  0
POINT
  5
E9F
330
301
100
AcDbEntity
  8
DEFPOINTS
 62
     0
100
AcDbPoint
 10
90.2770258558503
 20
75.88545121367758
 30
0.0
  0
ENDBLK
  5
30C
330
301
100
AcDbEntity
  8
0
100
AcDbBlockEnd
  0
BLOCK
  5
317
330
30D
100
AcDbEntity
  8
0
100
AcDbBlockBegin
  2
*D31
 70
     1
 10
0.0
 20
0.0
 30
0.0
  3
*D31
  1

  0
LINE
  5
12CE
330
30D
100
AcDbEntity
  8
DIMS
 62
     0
100
AcDbLine
 10
261.0126649139723
 20
89.77241906155716
 30
0.0
 11
261.0126649139723
 21
66.78554680489262
 31
0.0
  0
LINE
  5
12CF
330
30D
100
AcDbEntity
  8
DIMS
 62
     0
100
AcDbLine
 10
155.5126649139724
 20
83.7724190615572
 30
0.0
 11
155.5126649139724
 21
66.78554680489262
 31
0.0
  0
LINE
  5
12D0
330
30D
100
AcDbEntity
  8
DIMS
 62
     0
100
AcDbLine
 10
259.0126649139723
 20
67.4355468048926
 30
0.0
 11
157.5126649139724
 21
67.4355468048926
 31
0.0
  0
MTEXT
  5
12D1
330
30D
100
AcDbEntity
  8
DIMS
 62
     0
100
AcDbMText
 10
204.5158715904964
 20
69.0855468048926
 30
0.0
 40
2.0
 41
0.0
 71
     5
 72
     1
  1
\A1;L
1001
ACAD
1000
MTEXTBEGIN
1070
    73
1070
     1
1070
    44
1040
1.0
1070
    74
1070
     0
1000
MTEXTEND
1000
MTEXTBEGIN
1070
    73
1070
     1
1070
    44
1040
1.0
1070
    74
1070
     0
1000
MTEXTEND
  0
SOLID
  5
12D2
330
30D
100
AcDbEntity
  8
DIMS
 62
     0
100
AcDbTrace
 10
259.0126649139723
 20
67.76888013822594
 30
0.0
 11
259.0126649139723
 21
67.10221347155928
 31
0.0
 12
261.0126649139723
 22
67.4355468048926
 32
0.0
 13
261.0126649139723
 23
67.4355468048926
 33
0.0
  0
SOLID
  5
12D3
330
30D
100
AcDbEntity
  8
DIMS
 62
     0
100
AcDbTrace
 10
157.5126649139724
 20
67.76888013822594
 30
0.0
 11
157.5126649139724
 21
67.10221347155928
 31
0.0
 12
155.5126649139724
 22
67.4355468048926
 32
0.0
 13
155.5126649139724
 23
67.4355468048926
 33
0.0
  0
POINT
  5
12D4
330
30D
100
AcDbEntity
  8
DEFPOINTS
 62
     0
100
AcDbPoint
 10
261.0126649139723
 20
90.42241906155719
 30
0.0
  0
POINT
  5
12D5
330
30D
100
AcDbEntity
  8
DEFPOINTS
 62
     0
100
AcDbPoint
 10
155.5126649139724
 20
84.4224190615572
 30
0.0
  0
POINT
  5
12D6
330
30D
100
AcDbEntity
  8
DEFPOINTS
 62
     0
100
AcDbPoint
 10
155.5126649139724
 20
67.4355468048926
 30
0.0
  0
ENDBLK
  5
318
330
30D
100
AcDbEntity
  8
0
100
AcDbBlockEnd
  0
BLOCK
  5
327
330
319
100
AcDbEntity
  8
0
100
AcDbBlockBegin
  2
*D32
 70
     1
 10
0.0
 20
0.0
 30
0.0
  3
*D32
  1

  0
LINE
  5
FB1
330
319
100
AcDbEntity
  8
DIMS
100
AcDbLine
 10
153.9126649139724
 20
91.747419061557
 30
0.0
 11
153.9126649139724
 21
75.28424381237454
 31
0.0
  0
LINE
  5
FB2
330
319
100
AcDbEntity
  8
DIMS
100
AcDbLine
 10
155.5126649139724
 20
83.7974190615572
 30
0.0
 11
155.5126649139724
 21
75.28424381237454
 31
0.0
  0
LINE
  5
FB3
330
319
100
AcDbEntity
  8
DIMS
100
AcDbLine
 10
151.9126649139725
 20
75.90924381237454
 30
0.0
 11
149.9126649139725
 21
75.90924381237454
 31
0.0
  0
LINE
  5
FB4
330
319
100
AcDbEntity
  8
DIMS
100
AcDbLine
 10
157.5126649139724
 20
75.90924381237454
 30
0.0
 11
169.7569506282583
 21
75.90924381237454
 31
0.0
  0
LINE
  5
FB5
330
319
100
AcDbEntity
  8
DIMS
100
AcDbLine
 10
153.9126649139724
 20
75.90924381237454
 30
0.0
 11
155.5126649139724
 21
75.90924381237454
 31
0.0
  0
SOLID
  5
FB6
330
319
100
AcDbEntity
  8
DIMS
100
AcDbTrace
 10
151.9126649139725
 20
76.24257714570787
 30
0.0
 11
151.9126649139725
 21
75.5759104790412
 31
0.0
 12
153.9126649139724
 22
75.90924381237454
 32
0.0
 13
153.9126649139724
 23
75.90924381237454
 33
0.0
  0
SOLID
  5
FB7
330
319
100
AcDbEntity
  8
DIMS
100
AcDbTrace
 10
157.5126649139724
 20
76.24257714570787
 30
0.0
 11
157.5126649139724
 21
75.5759104790412
 31
0.0
 12
155.5126649139724
 22
75.90924381237454
 32
0.0
 13
155.5126649139724
 23
75.90924381237454
 33
0.0
  0
MTEXT
  5
FB8
330
319
100
AcDbEntity
  8
DIMS
 62
     0
100
AcDbMText
 10
164.6348077711153
 20
77.53424381237454
 30
0.0
 40
2.0
 41
0.0
 71
     5
 72
     1
  1
1.6{\H1.400000;±0.2}
1001
ACAD
1000
MTEXTBEGIN
1070
    73
1070
     1
1070
    44
1040
1.0
1070
    74
1070
     0
1000
MTEXTEND
1000
MTEXTBEGIN
1070
    73
1070
     1
1070
    44
1040
1.0
1070
    74
1070
     0
1000
MTEXTEND
  0
POINT
  5
FB9
330
319
100
AcDbEntity
  8
DEFPOINTS
 62
     0
100
AcDbPoint
 10
153.9126649139724
 20
92.372419061557
 30
0.0
  0
POINT
  5
FBA
330
319
100
AcDbEntity
  8
DEFPOINTS
 62
     0
100
AcDbPoint
 10
155.5126649139724
 20
84.4224190615572
 30
0.0
  0
POINT
  5
FBB
330
319
100
AcDbEntity
  8
DEFPOINTS
 62
     0
100
AcDbPoint
 10
155.5126649139724
 20
75.90924381237454
 30
0.0
  0
ENDBLK
  5
328
330
319
100
AcDbEntity
  8
0
100
AcDbBlockEnd
  0
BLOCK
  5
335
330
329
100
AcDbEntity
  8
0
100
AcDbBlockBegin
  2
*D33
 70
     1
 10
0.0
 20
0.0
 30
0.0
  3
*D33
  1

  0
LINE
  5
12D7
330
329
100
AcDbEntity
  8
DIMS
 62
     0
100
AcDbLine
 10
155.5126649139724
 20
139.0724190615568
 30
0.0
 11
155.5126649139724
 21
146.5165391733385
 31
0.0
  0
LINE
  5
12D8
330
329
100
AcDbEntity
  8
DIMS
 62
     0
100
AcDbLine
 10
160.5126649139726
 20
140.0724190615568
 30
0.0
 11
160.5126649139726
 21
146.5165391733385
 31
0.0
  0
LINE
  5
12D9
330
329
100
AcDbEntity
  8
DIMS
 62
     0
100
AcDbLine
 10
153.5126649139724
 20
145.8665391733386
 30
0.0
 11
151.5126649139724
 21
145.8665391733386
 31
0.0
  0
LINE
  5
12DA
330
329
100
AcDbEntity
  8
DIMS
 62
     0
100
AcDbLine
 10
162.5126649139724
 20
145.8665391733386
 30
0.0
 11
164.5126649139726
 21
145.8665391733386
 31
0.0
  0
MTEXT
  5
12DB
330
329
100
AcDbEntity
  8
DIMS
 62
     0
100
AcDbMText
 10
158.0126649139726
 20
147.5165391733385
 30
0.0
 40
2.0
 41
0.0
 71
     5
 72
     1
  1
\A1;5
1001
ACAD
1000
MTEXTBEGIN
1070
    73
1070
     1
1070
    44
1040
1.0
1070
    74
1070
     0
1000
MTEXTEND
1000
MTEXTBEGIN
1070
    73
1070
     1
1070
    44
1040
1.0
1070
    74
1070
     0
1000
MTEXTEND
  0
LINE
  5
12DC
330
329
100
AcDbEntity
  8
DIMS
 62
     0
100
AcDbLine
 10
155.5126649139724
 20
145.8665391733386
 30
0.0
 11
160.5126649139726
 21
145.8665391733386
 31
0.0
  0
SOLID
  5
12DD
330
329
100
AcDbEntity
  8
DIMS
 62
     0
100
AcDbTrace
 10
153.5126649139724
 20
146.1998725066719
 30
0.0
 11
153.5126649139724
 21
145.5332058400053
 31
0.0
 12
155.5126649139724
 22
145.8665391733386
 32
0.0
 13
155.5126649139724
 23
145.8665391733386
 33
0.0
  0
SOLID
  5
12DE
330
329
100
AcDbEntity
  8
DIMS
 62
     0
100
AcDbTrace
 10
162.5126649139724
 20
146.1998725066719
 30
0.0
 11
162.5126649139724
 21
145.5332058400053
 31
0.0
 12
160.5126649139726
 22
145.8665391733386
 32
0.0
 13
160.5126649139726
 23
145.8665391733386
 33
0.0
  0
POINT
  5
12DF
330
329
100
AcDbEntity
  8
DEFPOINTS
 62
     0
100
AcDbPoint
 10
155.5126649139724
 20
138.4224190615569
 30
0.0
  0
POINT
  5
12E0
330
329
100
AcDbEntity
  8
DEFPOINTS
 62
     0
100
AcDbPoint
 10
160.5126649139726
 20
139.4224190615569
 30
0.0
  0
POINT
  5
12E1
330
329
100
AcDbEntity
  8
DEFPOINTS
 62
     0
100
AcDbPoint
 10
160.5126649139726
 20
145.8665391733386
 30
0.0
  0
ENDBLK
  5
336
330
329
100
AcDbEntity
  8
0
100
AcDbBlockEnd
  0
BLOCK
  5
341
330
337
100
AcDbEntity
  8
0
100
AcDbBlockBegin
  2
*D34
 70
     1
 10
0.0
 20
0.0
 30
0.0
  3
*D34
  1

  0
LINE
  5
12C5
330
337
100
AcDbEntity
  8
DIMS
 62
     0
100
AcDbLine
 10
231.5126649139727
 20
83.7724190615572
 30
0.0
 11
231.5126649139727
 21
75.23545121367757
 31
0.0
  0
LINE
  5
12C6
330
337
100
AcDbEntity
  8
DIMS
 62
     0
100
AcDbLine
 10
261.0126649139723
 20
89.77241906155716
 30
0.0
 11
261.0126649139723
 21
75.23545121367757
 31
0.0
  0
LINE
  5
12C7
330
337
100
AcDbEntity
  8
DIMS
 62
     0
100
AcDbLine
 10
233.5126649139727
 20
75.88545121367758
 30
0.0
 11
259.0126649139723
 21
75.88545121367758
 31
0.0
  0
MTEXT
  5
12C8
330
337
100
AcDbEntity
  8
DIMS
 62
     0
100
AcDbMText
 10
247.185642716002
 20
77.53545121367761
 30
0.0
 40
2.0
 41
0.0
 71
     5
 72
     1
  1
\A1;29.5
1001
ACAD
1000
MTEXTBEGIN
1070
    73
1070
     1
1070
    44
1040
1.0
1070
    74
1070
     0
1000
MTEXTEND
1000
MTEXTBEGIN
1070
    73
1070
     1
1070
    44
1040
1.0
1070
    74
1070
     0
1000
MTEXTEND
  0
SOLID
  5
12C9
330
337
100
AcDbEntity
  8
DIMS
 62
     0
100
AcDbTrace
 10
233.5126649139727
 20
76.21878454701091
 30
0.0
 11
233.5126649139727
 21
75.55211788034426
 31
0.0
 12
231.5126649139727
 22
75.88545121367758
 32
0.0
 13
231.5126649139727
 23
75.88545121367758
 33
0.0
  0
SOLID
  5
12CA
330
337
100
AcDbEntity
  8
DIMS
 62
     0
100
AcDbTrace
 10
259.0126649139723
 20
76.21878454701091
 30
0.0
 11
259.0126649139723
 21
75.55211788034426
 31
0.0
 12
261.0126649139723
 22
75.88545121367758
 32
0.0
 13
261.0126649139723
 23
75.88545121367758
 33
0.0
  0
POINT
  5
12CB
330
337
100
AcDbEntity
  8
DEFPOINTS
 62
     0
100
AcDbPoint
 10
231.5126649139727
 20
84.4224190615572
 30
0.0
  0
POINT
  5
12CC
330
337
100
AcDbEntity
  8
DEFPOINTS
 62
     0
100
AcDbPoint
 10
261.0126649139723
 20
90.42241906155719
 30
0.0
  0
POINT
  5
12CD
330
337
100
AcDbEntity
  8
DEFPOINTS
 62
     0
100
AcDbPoint
 10
261.0126649139723
 20
75.88545121367758
 30
0.0
  0
ENDBLK
  5
342
330
337
100
AcDbEntity
  8
0
100
AcDbBlockEnd
  0
BLOCK
  5
34D
330
343
100
AcDbEntity
  8
0
100
AcDbBlockBegin
  2
*D35
 70
     1
 10
0.0
 20
0.0
 30
0.0
  3
*D35
  1

  0
LINE
  5
DDB
330
343
100
AcDbEntity
  8
DIMS
 62
     0
100
AcDbLine
 10
214.6626649139723
 20
153.8724190615571
 30
0.0
 11
214.6626649139723
 21
161.4951129153479
 31
0.0
  0
LINE
  5
DDC
330
343
100
AcDbEntity
  8
DIMS
 62
     0
100
AcDbLine
 10
236.8626649139724
 20
153.8724190615571
 30
0.0
 11
236.8626649139724
 21
161.4951129153479
 31
0.0
  0
LINE
  5
DDD
330
343
100
AcDbEntity
  8
DIMS
 62
     0
100
AcDbLine
 10
216.6626649139723
 20
160.8451129153479
 30
0.0
 11
234.8626649139724
 21
160.8451129153479
 31
0.0
  0
SOLID
  5
DDE
330
343
100
AcDbEntity
  8
DIMS
 62
     0
100
AcDbTrace
 10
216.6626649139723
 20
161.1784462486813
 30
0.0
 11
216.6626649139723
 21
160.5117795820146
 31
0.0
 12
214.6626649139723
 22
160.8451129153479
 32
0.0
 13
214.6626649139723
 23
160.8451129153479
 33
0.0
  0
SOLID
  5
DDF
330
343
100
AcDbEntity
  8
DIMS
 62
     0
100
AcDbTrace
 10
234.8626649139724
 20
161.1784462486813
 30
0.0
 11
234.8626649139724
 21
160.5117795820146
 31
0.0
 12
236.8626649139724
 22
160.8451129153479
 32
0.0
 13
236.8626649139724
 23
160.8451129153479
 33
0.0
  0
MTEXT
  5
DE0
330
343
100
AcDbEntity
  8
DIMS
 62
     0
100
AcDbMText
 10
226.1255828810292
 20
162.4951129153479
 30
0.0
 40
2.0
 41
0.0
 71
     5
 72
     1
  1
\A1;22.2
1001
ACAD
1000
MTEXTBEGIN
1070
    73
1070
     1
1070
    44
1040
1.0
1070
    74
1070
     0
1000
MTEXTEND
1000
MTEXTBEGIN
1070
    73
1070
     1
1070
    44
1040
1.0
1070
    74
1070
     0
1000
MTEXTEND
  0
POINT
  5
DE1
330
343
100
AcDbEntity
  8
DEFPOINTS
 62
     0
100
AcDbPoint
 10
214.6626649139723
 20
153.2224190615571
 30
0.0
  0
POINT
  5
DE2
330
343
100
AcDbEntity
  8
DEFPOINTS
 62
     0
100
AcDbPoint
 10
236.8626649139724
 20
153.2224190615571
 30
0.0
  0
POINT
  5
DE3
330
343
100
AcDbEntity
  8
DEFPOINTS
 62
     0
100
AcDbPoint
 10
236.8626649139724
 20
160.8451129153479
 30
0.0
  0
ENDBLK
  5
34E
330
343
100
AcDbEntity
  8
0
100
AcDbBlockEnd
  0
BLOCK
  5
359
330
34F
100
AcDbEntity
  8
0
100
AcDbBlockBegin
  2
*D36
 70
     1
 10
0.0
 20
0.0
 30
0.0
  3
*D36
  1

  0
LINE
  5
EBE
330
34F
100
AcDbEntity
  8
DIMS
 62
     0
100
AcDbLine
 10
134.9126649139725
 20
108.097419061557
 30
0.0
 11
134.9126649139725
 21
66.78554680489262
 31
0.0
  0
LINE
  5
EBF
330
34F
100
AcDbEntity
  8
DIMS
 62
     0
100
AcDbLine
 10
155.5126649139724
 20
83.7724190615572
 30
0.0
 11
155.5126649139724
 21
66.78554680489262
 31
0.0
  0
LINE
  5
EC0
330
34F
100
AcDbEntity
  8
DIMS
 62
     0
100
AcDbLine
 10
136.9126649139725
 20
67.4355468048926
 30
0.0
 11
153.5126649139724
 21
67.4355468048926
 31
0.0
  0
SOLID
  5
EC1
330
34F
100
AcDbEntity
  8
DIMS
 62
     0
100
AcDbTrace
 10
136.9126649139725
 20
67.76888013822594
 30
0.0
 11
136.9126649139725
 21
67.10221347155928
 31
0.0
 12
134.9126649139725
 22
67.4355468048926
 32
0.0
 13
134.9126649139725
 23
67.4355468048926
 33
0.0
  0
SOLID
  5
EC2
330
34F
100
AcDbEntity
  8
DIMS
 62
     0
100
AcDbTrace
 10
153.5126649139724
 20
67.76888013822594
 30
0.0
 11
153.5126649139724
 21
67.10221347155928
 31
0.0
 12
155.5126649139724
 22
67.4355468048926
 32
0.0
 13
155.5126649139724
 23
67.4355468048926
 33
0.0
  0
MTEXT
  5
EC3
330
34F
100
AcDbEntity
  8
DIMS
 62
     0
100
AcDbMText
 10
145.341754575274
 20
69.0855468048926
 30
0.0
 40
2.0
 41
0.0
 71
     5
 72
     1
  1
20.6{\H1.400000;±0.5}
1001
ACAD
1000
MTEXTBEGIN
1070
    73
1070
     1
1070
    44
1040
1.0
1070
    74
1070
     0
1000
MTEXTEND
1000
MTEXTBEGIN
1070
    73
1070
     1
1070
    44
1040
1.0
1070
    74
1070
     0
1000
MTEXTEND
  0
POINT
  5
EC4
330
34F
100
AcDbEntity
  8
DEFPOINTS
 62
     0
100
AcDbPoint
 10
134.9126649139725
 20
108.747419061557
 30
0.0
  0
POINT
  5
EC5
330
34F
100
AcDbEntity
  8
DEFPOINTS
 62
     0
100
AcDbPoint
 10
155.5126649139724
 20
84.4224190615572
 30
0.0
  0
POINT
  5
EC6
330
34F
100
AcDbEntity
  8
DEFPOINTS
 62
     0
100
AcDbPoint
 10
155.5126649139724
 20
67.4355468048926
 30
0.0
  0
ENDBLK
  5
35A
330
34F
100
AcDbEntity
  8
0
100
AcDbBlockEnd
  0
BLOCK
  5
365
330
35B
100
AcDbEntity
  8
0
100
AcDbBlockBegin
  2
*D37
 70
     1
 10
0.0
 20
0.0
 30
0.0
  3
*D37
  1

  0
LINE
  5
EC7
330
35B
100
AcDbEntity
  8
DIMS
 62
     0
100
AcDbLine
 10
215.0126649139725
 20
154.0224190615571
 30
0.0
 11
209.4217758511323
 21
154.0224190615571
 31
0.0
  0
LINE
  5
EC8
330
35B
100
AcDbEntity
  8
DIMS
 62
     0
100
AcDbLine
 10
214.1876649139724
 20
139.4224190615569
 30
0.0
 11
209.4217758511323
 21
139.4224190615569
 31
0.0
  0
LINE
  5
EC9
330
35B
100
AcDbEntity
  8
DIMS
 62
     0
100
AcDbLine
 10
210.0717758511323
 20
152.0224190615571
 30
0.0
 11
210.0717758511323
 21
141.4224190615569
 31
0.0
  0
SOLID
  5
ECA
330
35B
100
AcDbEntity
  8
DIMS
 62
     0
100
AcDbTrace
 10
209.738442517799
 20
152.0224190615571
 30
0.0
 11
210.4051091844655
 21
152.0224190615571
 31
0.0
 12
210.0717758511323
 22
154.0224190615571
 32
0.0
 13
210.0717758511323
 23
154.0224190615571
 33
0.0
  0
SOLID
  5
ECB
330
35B
100
AcDbEntity
  8
DIMS
 62
     0
100
AcDbTrace
 10
209.738442517799
 20
141.4224190615569
 30
0.0
 11
210.4051091844655
 21
141.4224190615569
 31
0.0
 12
210.0717758511323
 22
139.4224190615569
 32
0.0
 13
210.0717758511323
 23
139.4224190615569
 33
0.0
  0
MTEXT
  5
ECC
330
35B
100
AcDbEntity
  8
DIMS
 62
     0
100
AcDbMText
 10
208.4217758511323
 20
147.490465295705
 30
0.0
 40
2.0
 41
0.0
 71
     5
 72
     1
  1
14.6{\H1.400000;±0.5}
 11
0.0000000000000001
 21
1.0
 31
0.0
1001
ACAD
1000
MTEXTBEGIN
1070
    73
1070
     1
1070
    44
1040
1.0
1070
    74
1070
     0
1000
MTEXTEND
1000
MTEXTBEGIN
1070
    73
1070
     1
1070
    44
1040
1.0
1070
    74
1070
     0
1000
MTEXTEND
  0
POINT
  5
ECD
330
35B
100
AcDbEntity
  8
DEFPOINTS
 62
     0
100
AcDbPoint
 10
215.6626649139725
 20
154.0224190615571
 30
0.0
  0
POINT
  5
ECE
330
35B
100
AcDbEntity
  8
DEFPOINTS
 62
     0
100
AcDbPoint
 10
214.8376649139724
 20
139.4224190615569
 30
0.0
  0
POINT
  5
ECF
330
35B
100
AcDbEntity
  8
DEFPOINTS
 62
     0
100
AcDbPoint
 10
210.0717758511323
 20
139.4224190615569
 30
0.0
  0
ENDBLK
  5
366
330
35B
100
AcDbEntity
  8
0
100
AcDbBlockEnd
  0
BLOCK
  5
371
330
367
100
AcDbEntity
  8
0
100
AcDbBlockBegin
  2
*D38
 70
     1
 10
0.0
 20
0.0
 30
0.0
  3
*D38
  1

  0
LINE
  5
1445
330
367
100
AcDbEntity
  8
DIMS
 62
     0
100
AcDbLine
 10
153.2626649139723
 20
130.4724190615571
 30
0.0
 11
114.8795478214807
 21
130.4724190615571
 31
0.0
  0
LINE
  5
1446
330
367
100
AcDbEntity
  8
DIMS
 62
     0
100
AcDbLine
 10
153.2626649139723
 20
92.372419061557
 30
0.0
 11
114.8795478214807
 21
92.372419061557
 31
0.0
  0
LINE
  5
1447
330
367
100
AcDbEntity
  8
DIMS
 62
     0
100
AcDbLine
 10
115.5295478214806
 20
128.4724190615571
 30
0.0
 11
115.5295478214806
 21
94.37241906155701
 31
0.0
  0
MTEXT
  5
1448
330
367
100
AcDbEntity
  8
DIMS
 62
     0
100
AcDbMText
 10
113.8795478214807
 20
111.4554411309935
 30
0.0
 40
2.0
 41
0.0
 71
     5
 72
     1
  1
φ38.1{\H1.400000;±0.03}
 11
0.0000000000000001
 21
1.0
 31
0.0
1001
ACAD
1000
MTEXTBEGIN
1070
    73
1070
     1
1070
    44
1040
1.0
1070
    74
1070
     0
1000
MTEXTEND
1000
MTEXTBEGIN
1070
    73
1070
     1
1070
    44
1040
1.0
1070
    74
1070
     0
1000
MTEXTEND
  0
SOLID
  5
1449
330
367
100
AcDbEntity
  8
DIMS
 62
     0
100
AcDbTrace
 10
115.1962144881474
 20
128.4724190615571
 30
0.0
 11
115.862881154814
 21
128.4724190615571
 31
0.0
 12
115.5295478214806
 22
130.4724190615571
 32
0.0
 13
115.5295478214806
 23
130.4724190615571
 33
0.0
  0
SOLID
  5
144A
330
367
100
AcDbEntity
  8
DIMS
 62
     0
100
AcDbTrace
 10
115.1962144881474
 20
94.37241906155701
 30
0.0
 11
115.862881154814
 21
94.37241906155701
 31
0.0
 12
115.5295478214806
 22
92.372419061557
 32
0.0
 13
115.5295478214806
 23
92.372419061557
 33
0.0
  0
POINT
  5
144B
330
367
100
AcDbEntity
  8
DEFPOINTS
 62
     0
100
AcDbPoint
 10
153.9126649139724
 20
130.4724190615571
 30
0.0
  0
POINT
  5
144C
330
367
100
AcDbEntity
  8
DEFPOINTS
 62
     0
100
AcDbPoint
 10
153.9126649139724
 20
92.372419061557
 30
0.0
  0
POINT
  5
144D
330
367
100
AcDbEntity
  8
DEFPOINTS
 62
     0
100
AcDbPoint
 10
115.5295478214806
 20
92.372419061557
 30
0.0
  0
ENDBLK
  5
372
330
367
100
AcDbEntity
  8
0
100
AcDbBlockEnd
  0
BLOCK
  5
3DA
330
3CE
100
AcDbEntity
  8
0
100
AcDbBlockBegin
  2
*D39
 70
     1
 10
0.0
 20
0.0
 30
0.0
  3
*D39
  1

  0
LINE
  5
3DD
330
3CE
100
AcDbEntity
  8
DIMS
 62
     0
100
AcDbLine
 10
-498.1840775994403
 20
-515.8083422516191
 30
0.0
 11
-504.3912880694976
 21
-515.8083422516191
 31
0.0
  0
LINE
  5
3DE
330
3CE
100
AcDbEntity
  8
DIMS
 62
     0
100
AcDbLine
 10
-498.1840775994406
 20
-522.1583422516191
 30
0.0
 11
-504.3912880694976
 21
-522.1583422516191
 31
0.0
  0
LINE
  5
3DF
330
3CE
100
AcDbEntity
  8
DIMS
 62
     0
100
AcDbLine
 10
-503.7662880694975
 20
-517.8083422516191
 30
0.0
 11
-503.7662880694975
 21
-520.1583422516192
 31
0.0
  0
LINE
  5
3E0
330
3CE
100
AcDbEntity
  8
DIMS
 62
     0
100
AcDbLine
 10
-503.7662880694975
 20
-518.9833422516191
 30
0.0
 11
-506.5787880694975
 21
-518.1395922516187
 31
0.0
  0
LINE
  5
3E1
330
3CE
100
AcDbEntity
  8
DIMS
 62
     0
100
AcDbLine
 10
-506.5787880694975
 20
-518.1395922516187
 30
0.0
 11
-506.5787880694975
 21
-509.2705446325715
 31
0.0
  0
MTEXT
  5
3E2
330
3CE
100
AcDbEntity
  8
DIMS
 62
     0
100
AcDbMText
 10
-508.4537880694975
 20
-513.7050684420954
 30
0.0
 40
2.5
 41
0.0
 71
     5
 72
     1
  1
\A1;6.35
 11
0.0000000000000001
 21
1.0
 31
0.0
1001
ACAD
1000
MTEXTBEGIN
1070
    73
1070
     1
1070
    44
1040
1.0
1070
    74
1070
     0
1000
MTEXTEND
1000
MTEXTBEGIN
1070
    73
1070
     1
1070
    44
1040
1.0
1070
    74
1070
     0
1000
MTEXTEND
1000
MTEXTBEGIN
1070
    73
1070
     1
1070
    44
1040
1.0
1070
    74
1070
     0
1000
MTEXTEND
1000
MTEXTBEGIN
1070
    73
1070
     1
1070
    44
1040
1.0
1070
    74
1070
     0
1000
MTEXTEND
  0
SOLID
  5
3E3
330
3CE
100
AcDbEntity
  8
DIMS
 62
     0
100
AcDbTrace
 10
-504.0996214028309
 20
-517.8083422516191
 30
0.0
 11
-503.432954736164
 21
-517.8083422516191
 31
0.0
 12
-503.7662880694975
 22
-515.8083422516191
 32
0.0
 13
-503.7662880694975
 23
-515.8083422516191
 33
0.0
  0
SOLID
  5
3E4
330
3CE
100
AcDbEntity
  8
DIMS
 62
     0
100
AcDbTrace
 10
-504.0996214028309
 20
-520.1583422516192
 30
0.0
 11
-503.432954736164
 21
-520.1583422516192
 31
0.0
 12
-503.7662880694975
 22
-522.1583422516191
 32
0.0
 13
-503.7662880694975
 23
-522.1583422516191
 33
0.0
  0
POINT
  5
3E5
330
3CE
100
AcDbEntity
  8
DEFPOINTS
 62
     0
100
AcDbPoint
 10
-497.5590775994404
 20
-515.8083422516191
 30
0.0
  0
POINT
  5
3E6
330
3CE
100
AcDbEntity
  8
DEFPOINTS
 62
     0
100
AcDbPoint
 10
-497.5590775994406
 20
-522.1583422516191
 30
0.0
  0
POINT
  5
3E7
330
3CE
100
AcDbEntity
  8
DEFPOINTS
 62
     0
100
AcDbPoint
 10
-503.7662880694975
 20
-522.1583422516191
 30
0.0
  0
ENDBLK
  5
3DB
330
3CE
100
AcDbEntity
  8
0
100
AcDbBlockEnd
  0
BLOCK
  5
3F3
330
3E9
100
AcDbEntity
  8
0
100
AcDbBlockBegin
  2
*D40
 70
     1
 10
0.0
 20
0.0
 30
0.0
  3
*D40
  1

  0
LINE
  5
FC5
330
3E9
100
AcDbEntity
  8
DIMS
100
AcDbLine
 10
134.9126649139725
 20
114.7224190615569
 30
0.0
 11
134.9126649139725
 21
120.7945358416252
 31
0.0
  0
LINE
  5
FC6
330
3E9
100
AcDbEntity
  8
DIMS
100
AcDbLine
 10
149.9126649139727
 20
115.2224190615569
 30
0.0
 11
149.9126649139727
 21
120.7945358416252
 31
0.0
  0
LINE
  5
FC7
330
3E9
100
AcDbEntity
  8
DIMS
100
AcDbLine
 10
136.9126649139725
 20
120.1695358416252
 30
0.0
 11
147.9126649139725
 21
120.1695358416252
 31
0.0
  0
SOLID
  5
FC8
330
3E9
100
AcDbEntity
  8
DIMS
100
AcDbTrace
 10
136.9126649139725
 20
120.5028691749585
 30
0.0
 11
136.9126649139725
 21
119.836202508292
 31
0.0
 12
134.9126649139725
 22
120.1695358416252
 32
0.0
 13
134.9126649139725
 23
120.1695358416252
 33
0.0
  0
SOLID
  5
FC9
330
3E9
100
AcDbEntity
  8
DIMS
100
AcDbTrace
 10
147.9126649139725
 20
120.5028691749585
 30
0.0
 11
147.9126649139725
 21
119.836202508292
 31
0.0
 12
149.9126649139727
 22
120.1695358416252
 32
0.0
 13
149.9126649139727
 23
120.1695358416252
 33
0.0
  0
MTEXT
  5
FCA
330
3E9
100
AcDbEntity
  8
DIMS
 62
     0
100
AcDbMText
 10
142.6649470907348
 20
121.7945358416252
 30
0.0
 40
2.0
 41
0.0
 71
     5
 72
     1
  1
15{\H1.400000;±0.1}
1001
ACAD
1000
MTEXTBEGIN
1070
    73
1070
     1
1070
    44
1040
1.0
1070
    74
1070
     0
1000
MTEXTEND
1000
MTEXTBEGIN
1070
    73
1070
     1
1070
    44
1040
1.0
1070
    74
1070
     0
1000
MTEXTEND
  0
POINT
  5
FCB
330
3E9
100
AcDbEntity
  8
DEFPOINTS
 62
     0
100
AcDbPoint
 10
134.9126649139725
 20
114.0974190615569
 30
0.0
  0
POINT
  5
FCC
330
3E9
100
AcDbEntity
  8
DEFPOINTS
 62
     0
100
AcDbPoint
 10
149.9126649139727
 20
114.5974190615569
 30
0.0
  0
POINT
  5
FCD
330
3E9
100
AcDbEntity
  8
DEFPOINTS
 62
     0
100
AcDbPoint
 10
149.9126649139727
 20
120.1695358416252
 30
0.0
  0
ENDBLK
  5
3F4
330
3E9
100
AcDbEntity
  8
0
100
AcDbBlockEnd
  0
BLOCK
  5
3FF
330
3F5
100
AcDbEntity
  8
0
100
AcDbBlockBegin
  2
*D41
 70
     1
 10
0.0
 20
0.0
 30
0.0
  3
*D41
  1

  0
LINE
  5
F70
330
3F5
100
AcDbEntity
  8
DIMS
100
AcDbLine
 10
134.2876649139727
 20
114.0974190615569
 30
0.0
 11
128.9045478214806
 21
114.0974190615569
 31
0.0
  0
LINE
  5
F71
330
3F5
100
AcDbEntity
  8
DIMS
100
AcDbLine
 10
134.7876649139725
 20
108.247419061557
 30
0.0
 11
128.9045478214806
 21
108.247419061557
 31
0.0
  0
LINE
  5
F72
330
3F5
100
AcDbEntity
  8
DIMS
100
AcDbLine
 10
129.5295478214806
 20
112.0974190615569
 30
0.0
 11
129.5295478214806
 21
110.247419061557
 31
0.0
  0
LINE
  5
F73
330
3F5
100
AcDbEntity
  8
DIMS
100
AcDbLine
 10
129.5295478214806
 20
108.247419061557
 30
0.0
 11
129.5295478214806
 21
94.317419061557
 31
0.0
  0
SOLID
  5
F74
330
3F5
100
AcDbEntity
  8
DIMS
100
AcDbTrace
 10
129.1962144881472
 20
112.0974190615569
 30
0.0
 11
129.8628811548141
 21
112.0974190615569
 31
0.0
 12
129.5295478214806
 22
114.0974190615569
 32
0.0
 13
129.5295478214806
 23
114.0974190615569
 33
0.0
  0
SOLID
  5
F75
330
3F5
100
AcDbEntity
  8
DIMS
100
AcDbTrace
 10
129.1962144881472
 20
110.247419061557
 30
0.0
 11
129.8628811548141
 21
110.247419061557
 31
0.0
 12
129.5295478214806
 22
108.247419061557
 32
0.0
 13
129.5295478214806
 23
108.247419061557
 33
0.0
  0
MTEXT
  5
F76
330
3F5
100
AcDbEntity
  8
DIMS
 62
     0
100
AcDbMText
 10
127.9045478214806
 20
100.282419061557
 30
0.0
 40
2.0
 41
0.0
 71
     5
 72
     1
  1
5.85{\H1.400000;±0.1}
 11
0.0000000000000001
 21
1.0
 31
0.0
1001
ACAD
1000
MTEXTBEGIN
1070
    73
1070
     1
1070
    44
1040
1.0
1070
    74
1070
     0
1000
MTEXTEND
1000
MTEXTBEGIN
1070
    73
1070
     1
1070
    44
1040
1.0
1070
    74
1070
     0
1000
MTEXTEND
  0
POINT
  5
F77
330
3F5
100
AcDbEntity
  8
DEFPOINTS
 62
     0
100
AcDbPoint
 10
134.9126649139725
 20
114.0974190615569
 30
0.0
  0
POINT
  5
F78
330
3F5
100
AcDbEntity
  8
DEFPOINTS
 62
     0
100
AcDbPoint
 10
135.4126649139727
 20
108.247419061557
 30
0.0
  0
POINT
  5
F79
330
3F5
100
AcDbEntity
  8
DEFPOINTS
 62
     0
100
AcDbPoint
 10
129.5295478214806
 20
108.247419061557
 30
0.0
  0
ENDBLK
  5
400
330
3F5
100
AcDbEntity
  8
0
100
AcDbBlockEnd
  0
BLOCK
  5
40B
330
401
100
AcDbEntity
  8
0
100
AcDbBlockBegin
  2
*D42
 70
     1
 10
0.0
 20
0.0
 30
0.0
  3
*D42
  1

  0
LINE
  5
1345
330
401
100
AcDbEntity
  8
DIMS
100
AcDbLine
 10
149.2626649139725
 20
114.5974190615569
 30
0.0
 11
122.7036329490487
 21
114.5974190615569
 31
0.0
  0
LINE
  5
1346
330
401
100
AcDbEntity
  8
DIMS
100
AcDbLine
 10
134.7626649139725
 20
108.247419061557
 30
0.0
 11
122.7036329490487
 21
108.247419061557
 31
0.0
  0
LINE
  5
1347
330
401
100
AcDbEntity
  8
DIMS
100
AcDbLine
 10
123.3536329490487
 20
116.5974190615569
 30
0.0
 11
123.3536329490487
 21
118.5974190615569
 31
0.0
  0
LINE
  5
1348
330
401
100
AcDbEntity
  8
DIMS
100
AcDbLine
 10
123.3536329490487
 20
106.247419061557
 30
0.0
 11
123.3536329490487
 21
104.247419061557
 31
0.0
  0
MTEXT
  5
1349
330
401
100
AcDbEntity
  8
DIMS
 62
     0
100
AcDbMText
 10
120.9059341838969
 20
114.9953849135396
 30
0.0
 40
2.0
 41
0.0
 71
     5
 72
     1
  1
%%C6.35{\H1.400000;\S 0^ -0.02;}
 11
0.0000000000000001
 21
1.0
 31
0.0
1001
ACAD
1000
MTEXTBEGIN
1070
    73
1070
     1
1070
    44
1040
1.0
1070
    74
1070
     0
1000
MTEXTEND
1000
MTEXTBEGIN
1070
    73
1070
     1
1070
    44
1040
1.0
1070
    74
1070
     0
1000
MTEXTEND
  0
LINE
  5
134A
330
401
100
AcDbEntity
  8
DIMS
100
AcDbLine
 10
123.3536329490487
 20
114.5974190615569
 30
0.0
 11
123.3536329490487
 21
108.247419061557
 31
0.0
  0
SOLID
  5
134B
330
401
100
AcDbEntity
  8
DIMS
100
AcDbTrace
 10
123.0202996157153
 20
116.5974190615569
 30
0.0
 11
123.6869662823819
 21
116.5974190615569
 31
0.0
 12
123.3536329490487
 22
114.5974190615569
 32
0.0
 13
123.3536329490487
 23
114.5974190615569
 33
0.0
  0
SOLID
  5
134C
330
401
100
AcDbEntity
  8
DIMS
100
AcDbTrace
 10
123.0202996157153
 20
106.247419061557
 30
0.0
 11
123.6869662823819
 21
106.247419061557
 31
0.0
 12
123.3536329490487
 22
108.247419061557
 32
0.0
 13
123.3536329490487
 23
108.247419061557
 33
0.0
  0
POINT
  5
134D
330
401
100
AcDbEntity
  8
DEFPOINTS
 62
     0
100
AcDbPoint
 10
149.9126649139727
 20
114.5974190615569
 30
0.0
  0
POINT
  5
134E
330
401
100
AcDbEntity
  8
DEFPOINTS
 62
     0
100
AcDbPoint
 10
135.4126649139727
 20
108.247419061557
 30
0.0
  0
POINT
  5
134F
330
401
100
AcDbEntity
  8
DEFPOINTS
 62
     0
100
AcDbPoint
 10
123.3536329490487
 20
108.247419061557
 30
0.0
  0
ENDBLK
  5
40C
330
401
100
AcDbEntity
  8
0
100
AcDbBlockEnd
  0
BLOCK
  5
B0A
330
AFE
100
AcDbEntity
  8
0
100
AcDbBlockBegin
  2
*D43
 70
     1
 10
0.0
 20
0.0
 30
0.0
  3
*D43
  1

  0
LINE
  5
B0D
330
AFE
100
AcDbEntity
  8
DIMS
 62
     0
100
AcDbLine
 10
65.00188133513598
 20
114.7474190615569
 30
0.0
 11
65.00188133513598
 21
118.0088596383461
 31
0.0
  0
LINE
  5
B0E
330
AFE
100
AcDbEntity
  8
DIMS
 62
     0
100
AcDbLine
 10
68.42240761043353
 20
114.7474190615569
 30
0.0
 11
68.42240761043353
 21
118.0088596383461
 31
0.0
  0
LINE
  5
B0F
330
AFE
100
AcDbEntity
  8
DIMS
 62
     0
100
AcDbLine
 10
63.00188133513596
 20
117.3588596383462
 30
0.0
 11
61.00188133513596
 21
117.3588596383462
 31
0.0
  0
LINE
  5
B10
330
AFE
100
AcDbEntity
  8
DIMS
 62
     0
100
AcDbLine
 10
70.42240761043355
 20
117.3588596383462
 30
0.0
 11
82.65097903900494
 21
117.3588596383462
 31
0.0
  0
LINE
  5
B11
330
AFE
100
AcDbEntity
  8
DIMS
 62
     0
100
AcDbLine
 10
65.00188133513598
 20
117.3588596383462
 30
0.0
 11
68.42240761043353
 21
117.3588596383462
 31
0.0
  0
SOLID
  5
B12
330
AFE
100
AcDbEntity
  8
DIMS
 62
     0
100
AcDbTrace
 10
63.00188133513596
 20
117.6921929716794
 30
0.0
 11
63.00188133513596
 21
117.0255263050129
 31
0.0
 12
65.00188133513598
 22
117.3588596383462
 32
0.0
 13
65.00188133513598
 23
117.3588596383462
 33
0.0
  0
SOLID
  5
B13
330
AFE
100
AcDbEntity
  8
DIMS
 62
     0
100
AcDbTrace
 10
70.42240761043355
 20
117.6921929716794
 30
0.0
 11
70.42240761043355
 21
117.0255263050129
 31
0.0
 12
68.42240761043353
 22
117.3588596383462
 32
0.0
 13
68.42240761043353
 23
117.3588596383462
 33
0.0
  0
MTEXT
  5
B14
330
AFE
100
AcDbEntity
  8
DIMS
 62
     0
100
AcDbMText
 10
77.53669332471925
 20
119.2588596383463
 30
0.0
 40
2.5
 41
0.0
 71
     5
 72
     1
  1
\A1;3.421
1001
ACAD
1000
MTEXTBEGIN
1070
    73
1070
     1
1070
    44
1040
1.0
1070
    74
1070
     0
1000
MTEXTEND
1000
MTEXTBEGIN
1070
    73
1070
     1
1070
    44
1040
1.0
1070
    74
1070
     0
1000
MTEXTEND
1000
MTEXTBEGIN
1070
    73
1070
     1
1070
    44
1040
1.0
1070
    74
1070
     0
1000
MTEXTEND
  0
POINT
  5
B15
330
AFE
100
AcDbEntity
  8
DEFPOINTS
 62
     0
100
AcDbPoint
 10
65.00188133513598
 20
114.0974190615569
 30
0.0
  0
POINT
  5
B16
330
AFE
100
AcDbEntity
  8
DEFPOINTS
 62
     0
100
AcDbPoint
 10
68.42240761043353
 20
114.0974190615569
 30
0.0
  0
POINT
  5
B17
330
AFE
100
AcDbEntity
  8
DEFPOINTS
 62
     0
100
AcDbPoint
 10
68.42240761043353
 20
117.3588596383462
 30
0.0
  0
ENDBLK
  5
B0B
330
AFE
100
AcDbEntity
  8
0
100
AcDbBlockEnd
  0
BLOCK
  5
B26
330
B1A
100
AcDbEntity
  8
0
100
AcDbBlockBegin
  2
*D44
 70
     1
 10
0.0
 20
0.0
 30
0.0
  3
*D44
  1

  0
LINE
  5
B29
330
B1A
100
AcDbEntity
  8
DIMS
 62
     0
100
AcDbLine
 10
149.2626649139725
 20
153.999291442534
 30
0.0
 11
130.260165541492
 21
153.999291442534
 31
0.0
  0
LINE
  5
B2A
330
B1A
100
AcDbEntity
  8
DIMS
 62
     0
100
AcDbLine
 10
149.2626649139725
 20
150.5787651672368
 30
0.0
 11
130.260165541492
 21
150.5787651672368
 31
0.0
  0
LINE
  5
B2B
330
B1A
100
AcDbEntity
  8
DIMS
 62
     0
100
AcDbLine
 10
130.910165541492
 20
155.999291442534
 30
0.0
 11
130.910165541492
 21
157.9992914425339
 31
0.0
  0
LINE
  5
B2C
330
B1A
100
AcDbEntity
  8
DIMS
 62
     0
100
AcDbLine
 10
130.910165541492
 20
148.5787651672366
 30
0.0
 11
130.910165541492
 21
136.3501937386654
 31
0.0
  0
LINE
  5
B2D
330
B1A
100
AcDbEntity
  8
DIMS
 62
     0
100
AcDbLine
 10
130.910165541492
 20
153.999291442534
 30
0.0
 11
130.910165541492
 21
150.5787651672368
 31
0.0
  0
SOLID
  5
B2E
330
B1A
100
AcDbEntity
  8
DIMS
 62
     0
100
AcDbTrace
 10
130.5768322081585
 20
155.999291442534
 30
0.0
 11
131.2434988748254
 21
155.999291442534
 31
0.0
 12
130.910165541492
 22
153.999291442534
 32
0.0
 13
130.910165541492
 23
153.999291442534
 33
0.0
  0
SOLID
  5
B2F
330
B1A
100
AcDbEntity
  8
DIMS
 62
     0
100
AcDbTrace
 10
130.5768322081585
 20
148.5787651672366
 30
0.0
 11
131.2434988748254
 21
148.5787651672366
 31
0.0
 12
130.910165541492
 22
150.5787651672368
 32
0.0
 13
130.910165541492
 23
150.5787651672368
 33
0.0
  0
MTEXT
  5
B30
330
B1A
100
AcDbEntity
  8
DIMS
 62
     0
100
AcDbMText
 10
129.010165541492
 20
141.4644794529509
 30
0.0
 40
2.5
 41
0.0
 71
     5
 72
     1
  1
\A1;3.421
 11
0.0000000000000001
 21
1.0
 31
0.0
1001
ACAD
1000
MTEXTBEGIN
1070
    73
1070
     1
1070
    44
1040
1.0
1070
    74
1070
     0
1000
MTEXTEND
1000
MTEXTBEGIN
1070
    73
1070
     1
1070
    44
1040
1.0
1070
    74
1070
     0
1000
MTEXTEND
1000
MTEXTBEGIN
1070
    73
1070
     1
1070
    44
1040
1.0
1070
    74
1070
     0
1000
MTEXTEND
  0
POINT
  5
B31
330
B1A
100
AcDbEntity
  8
DEFPOINTS
 62
     0
100
AcDbPoint
 10
149.9126649139727
 20
153.999291442534
 30
0.0
  0
POINT
  5
B32
330
B1A
100
AcDbEntity
  8
DEFPOINTS
 62
     0
100
AcDbPoint
 10
149.9126649139727
 20
150.5787651672368
 30
0.0
  0
POINT
  5
B33
330
B1A
100
AcDbEntity
  8
DEFPOINTS
 62
     0
100
AcDbPoint
 10
130.910165541492
 20
150.5787651672368
 30
0.0
  0
ENDBLK
  5
B27
330
B1A
100
AcDbEntity
  8
0
100
AcDbBlockEnd
  0
BLOCK
  5
FD9
330
FCF
100
AcDbEntity
  8
0
100
AcDbBlockBegin
  2
*D45
 70
     1
 10
0.0
 20
0.0
 30
0.0
  3
*D45
  1

  0
LINE
  5
FDC
330
FCF
100
AcDbEntity
  8
DIMS
 62
     0
100
AcDbLine
 10
214.6626649139722
 20
153.8724190615571
 30
0.0
 11
214.6626649139722
 21
161.4951129153479
 31
0.0
  0
LINE
  5
FDD
330
FCF
100
AcDbEntity
  8
DIMS
 62
     0
100
AcDbLine
 10
236.8626649139728
 20
153.8724190615571
 30
0.0
 11
236.8626649139728
 21
161.4951129153479
 31
0.0
  0
LINE
  5
FDE
330
FCF
100
AcDbEntity
  8
DIMS
 62
     0
100
AcDbLine
 10
216.6626649139721
 20
160.8451129153479
 30
0.0
 11
234.8626649139728
 21
160.8451129153479
 31
0.0
  0
SOLID
  5
FDF
330
FCF
100
AcDbEntity
  8
DIMS
 62
     0
100
AcDbTrace
 10
216.6626649139721
 20
161.1784462486813
 30
0.0
 11
216.6626649139721
 21
160.5117795820146
 31
0.0
 12
214.6626649139722
 22
160.8451129153479
 32
0.0
 13
214.6626649139722
 23
160.8451129153479
 33
0.0
  0
SOLID
  5
FE0
330
FCF
100
AcDbEntity
  8
DIMS
 62
     0
100
AcDbTrace
 10
234.8626649139728
 20
161.1784462486813
 30
0.0
 11
234.8626649139728
 21
160.5117795820146
 31
0.0
 12
236.8626649139728
 22
160.8451129153479
 32
0.0
 13
236.8626649139728
 23
160.8451129153479
 33
0.0
  0
MTEXT
  5
FE1
330
FCF
100
AcDbEntity
  8
DIMS
 62
     0
100
AcDbMText
 10
225.7626649139725
 20
162.4951129153479
 30
0.0
 40
2.0
 41
0.0
 71
     5
 72
     1
  1
\A1;22.2
1001
ACAD
1000
MTEXTBEGIN
1070
    73
1070
     1
1070
    44
1040
1.0
1070
    74
1070
     0
1000
MTEXTEND
1000
MTEXTBEGIN
1070
    73
1070
     1
1070
    44
1040
1.0
1070
    74
1070
     0
1000
MTEXTEND
  0
POINT
  5
FE2
330
FCF
100
AcDbEntity
  8
DEFPOINTS
 62
     0
100
AcDbPoint
 10
214.6626649139722
 20
153.2224190615571
 30
0.0
  0
POINT
  5
FE3
330
FCF
100
AcDbEntity
  8
DEFPOINTS
 62
     0
100
AcDbPoint
 10
236.8626649139728
 20
153.2224190615571
 30
0.0
  0
POINT
  5
FE4
330
FCF
100
AcDbEntity
  8
DEFPOINTS
 62
     0
100
AcDbPoint
 10
236.8626649139728
 20
160.8451129153479
 30
0.0
  0
ENDBLK
  5
FDA
330
FCF
100
AcDbEntity
  8
0
100
AcDbBlockEnd
  0
BLOCK
  5
FF1
330
FE7
100
AcDbEntity
  8
0
100
AcDbBlockBegin
  2
*D46
 70
     1
 10
0.0
 20
0.0
 30
0.0
  3
*D46
  1

  0
LINE
  5
FF4
330
FE7
100
AcDbEntity
  8
DIMS
 62
     0
100
AcDbLine
 10
214.6626649139722
 20
153.8724190615571
 30
0.0
 11
214.6626649139722
 21
166.495112915348
 31
0.0
  0
LINE
  5
FF5
330
FE7
100
AcDbEntity
  8
DIMS
 62
     0
100
AcDbLine
 10
261.0126649139723
 20
144.072419061557
 30
0.0
 11
261.0126649139723
 21
166.495112915348
 31
0.0
  0
LINE
  5
FF6
330
FE7
100
AcDbEntity
  8
DIMS
 62
     0
100
AcDbLine
 10
216.6626649139721
 20
165.8451129153478
 30
0.0
 11
259.0126649139723
 21
165.8451129153478
 31
0.0
  0
SOLID
  5
FF7
330
FE7
100
AcDbEntity
  8
DIMS
 62
     0
100
AcDbTrace
 10
216.6626649139721
 20
166.1784462486813
 30
0.0
 11
216.6626649139721
 21
165.5117795820146
 31
0.0
 12
214.6626649139722
 22
165.8451129153478
 32
0.0
 13
214.6626649139722
 23
165.8451129153478
 33
0.0
  0
SOLID
  5
FF8
330
FE7
100
AcDbEntity
  8
DIMS
 62
     0
100
AcDbTrace
 10
259.0126649139723
 20
166.1784462486813
 30
0.0
 11
259.0126649139723
 21
165.5117795820146
 31
0.0
 12
261.0126649139723
 22
165.8451129153478
 32
0.0
 13
261.0126649139723
 23
165.8451129153478
 33
0.0
  0
MTEXT
  5
FF9
330
FE7
100
AcDbEntity
  8
DIMS
 62
     0
100
AcDbMText
 10
237.8376649139723
 20
167.4951129153479
 30
0.0
 40
2.0
 41
0.0
 71
     5
 72
     1
  1
\A1;46.35
1001
ACAD
1000
MTEXTBEGIN
1070
    73
1070
     1
1070
    44
1040
1.0
1070
    74
1070
     0
1000
MTEXTEND
1000
MTEXTBEGIN
1070
    73
1070
     1
1070
    44
1040
1.0
1070
    74
1070
     0
1000
MTEXTEND
  0
POINT
  5
FFA
330
FE7
100
AcDbEntity
  8
DEFPOINTS
 62
     0
100
AcDbPoint
 10
214.6626649139722
 20
153.2224190615571
 30
0.0
  0
POINT
  5
FFB
330
FE7
100
AcDbEntity
  8
DEFPOINTS
 62
     0
100
AcDbPoint
 10
261.0126649139723
 20
143.4224190615571
 30
0.0
  0
POINT
  5
FFC
330
FE7
100
AcDbEntity
  8
DEFPOINTS
 62
     0
100
AcDbPoint
 10
261.0126649139723
 20
165.8451129153478
 30
0.0
  0
ENDBLK
  5
FF2
330
FE7
100
AcDbEntity
  8
0
100
AcDbBlockEnd
  0
BLOCK
  5
1009
330
FFF
100
AcDbEntity
  8
0
100
AcDbBlockBegin
  2
*D47
 70
     1
 10
0.0
 20
0.0
 30
0.0
  3
*D47
  1

  0
LINE
  5
12EB
330
FFF
100
AcDbEntity
  8
DIMS
 62
     0
100
AcDbLine
 10
214.6626649139723
 20
153.8724190615571
 30
0.0
 11
214.6626649139723
 21
159.6327550506531
 31
0.0
  0
LINE
  5
12EC
330
FFF
100
AcDbEntity
  8
DIMS
 62
     0
100
AcDbLine
 10
236.8626649139728
 20
153.8724190615571
 30
0.0
 11
236.8626649139728
 21
159.6327550506531
 31
0.0
  0
LINE
  5
12ED
330
FFF
100
AcDbEntity
  8
DIMS
 62
     0
100
AcDbLine
 10
216.6626649139723
 20
158.9827550506532
 30
0.0
 11
234.8626649139728
 21
158.9827550506532
 31
0.0
  0
SOLID
  5
12EE
330
FFF
100
AcDbEntity
  8
DIMS
 62
     0
100
AcDbTrace
 10
216.6626649139723
 20
159.3160883839866
 30
0.0
 11
216.6626649139723
 21
158.6494217173199
 31
0.0
 12
214.6626649139723
 22
158.9827550506532
 32
0.0
 13
214.6626649139723
 23
158.9827550506532
 33
0.0
  0
SOLID
  5
12EF
330
FFF
100
AcDbEntity
  8
DIMS
 62
     0
100
AcDbTrace
 10
234.8626649139728
 20
159.3160883839866
 30
0.0
 11
234.8626649139728
 21
158.6494217173199
 31
0.0
 12
236.8626649139728
 22
158.9827550506532
 32
0.0
 13
236.8626649139728
 23
158.9827550506532
 33
0.0
  0
MTEXT
  5
12F0
330
FFF
100
AcDbEntity
  8
DIMS
 62
     0
100
AcDbMText
 10
225.7626649139725
 20
160.6327550506532
 30
0.0
 40
2.0
 41
0.0
 71
     5
 72
     1
  1
\A1;22.2
1001
ACAD
1000
MTEXTBEGIN
1070
    73
1070
     1
1070
    44
1040
1.0
1070
    74
1070
     0
1000
MTEXTEND
1000
MTEXTBEGIN
1070
    73
1070
     1
1070
    44
1040
1.0
1070
    74
1070
     0
1000
MTEXTEND
  0
POINT
  5
12F1
330
FFF
100
AcDbEntity
  8
DEFPOINTS
 62
     0
100
AcDbPoint
 10
214.6626649139723
 20
153.2224190615571
 30
0.0
  0
POINT
  5
12F2
330
FFF
100
AcDbEntity
  8
DEFPOINTS
 62
     0
100
AcDbPoint
 10
236.8626649139728
 20
153.2224190615571
 30
0.0
  0
POINT
  5
12F3
330
FFF
100
AcDbEntity
  8
DEFPOINTS
 62
     0
100
AcDbPoint
 10
236.8626649139728
 20
158.9827550506532
 30
0.0
  0
ENDBLK
  5
100A
330
FFF
100
AcDbEntity
  8
0
100
AcDbBlockEnd
  0
BLOCK
  5
1021
330
1017
100
AcDbEntity
  8
0
100
AcDbBlockBegin
  2
*D48
 70
     1
 10
0.0
 20
0.0
 30
0.0
  3
*D48
  1

  0
LINE
  5
12F4
330
1017
100
AcDbEntity
  8
DIMS
 62
     0
100
AcDbLine
 10
214.6626649139723
 20
154.8724190615571
 30
0.0
 11
214.6626649139723
 21
166.6327550506531
 31
0.0
  0
LINE
  5
12F5
330
1017
100
AcDbEntity
  8
DIMS
 62
     0
100
AcDbLine
 10
261.0126649139723
 20
144.072419061557
 30
0.0
 11
261.0126649139723
 21
166.6327550506531
 31
0.0
  0
LINE
  5
12F6
330
1017
100
AcDbEntity
  8
DIMS
 62
     0
100
AcDbLine
 10
216.6626649139723
 20
165.9827550506532
 30
0.0
 11
259.0126649139723
 21
165.9827550506532
 31
0.0
  0
SOLID
  5
12F7
330
1017
100
AcDbEntity
  8
DIMS
 62
     0
100
AcDbTrace
 10
216.6626649139723
 20
166.3160883839865
 30
0.0
 11
216.6626649139723
 21
165.6494217173199
 31
0.0
 12
214.6626649139723
 22
165.9827550506532
 32
0.0
 13
214.6626649139723
 23
165.9827550506532
 33
0.0
  0
SOLID
  5
12F8
330
1017
100
AcDbEntity
  8
DIMS
 62
     0
100
AcDbTrace
 10
259.0126649139723
 20
166.3160883839865
 30
0.0
 11
259.0126649139723
 21
165.6494217173199
 31
0.0
 12
261.0126649139723
 22
165.9827550506532
 32
0.0
 13
261.0126649139723
 23
165.9827550506532
 33
0.0
  0
MTEXT
  5
12F9
330
1017
100
AcDbEntity
  8
DIMS
 62
     0
100
AcDbMText
 10
237.8376649139724
 20
167.6327550506532
 30
0.0
 40
2.0
 41
0.0
 71
     5
 72
     1
  1
\A1;46.35
1001
ACAD
1000
MTEXTBEGIN
1070
    73
1070
     1
1070
    44
1040
1.0
1070
    74
1070
     0
1000
MTEXTEND
1000
MTEXTBEGIN
1070
    73
1070
     1
1070
    44
1040
1.0
1070
    74
1070
     0
1000
MTEXTEND
  0
POINT
  5
12FA
330
1017
100
AcDbEntity
  8
DEFPOINTS
 62
     0
100
AcDbPoint
 10
214.6626649139723
 20
154.2224190615571
 30
0.0
  0
POINT
  5
12FB
330
1017
100
AcDbEntity
  8
DEFPOINTS
 62
     0
100
AcDbPoint
 10
261.0126649139723
 20
143.4224190615571
 30
0.0
  0
POINT
  5
12FC
330
1017
100
AcDbEntity
  8
DEFPOINTS
 62
     0
100
AcDbPoint
 10
261.0126649139723
 20
165.9827550506532
 30
0.0
  0
ENDBLK
  5
1022
330
1017
100
AcDbEntity
  8
0
100
AcDbBlockEnd
  0
BLOCK
  5
1077
330
106D
100
AcDbEntity
  8
0
100
AcDbBlockBegin
  2
*D49
 70
     1
 10
0.0
 20
0.0
 30
0.0
  3
*D49
  1

  0
LINE
  5
130F
330
106D
100
AcDbEntity
  8
DIMS
 62
     0
100
AcDbLine
 10
261.6626649139723
 20
90.42241906155719
 30
0.0
 11
268.1523148407233
 21
90.42241906155719
 31
0.0
  0
LINE
  5
1310
330
106D
100
AcDbEntity
  8
DIMS
 62
     0
100
AcDbLine
 10
261.6626649139723
 20
111.4224190615569
 30
0.0
 11
268.1523148407233
 21
111.4224190615569
 31
0.0
  0
LINE
  5
1311
330
106D
100
AcDbEntity
  8
DIMS
 62
     0
100
AcDbLine
 10
267.5023148407233
 20
92.42241906155719
 30
0.0
 11
267.5023148407233
 21
109.4224190615569
 31
0.0
  0
SOLID
  5
1312
330
106D
100
AcDbEntity
  8
DIMS
 62
     0
100
AcDbTrace
 10
267.1689815073899
 20
92.42241906155719
 30
0.0
 11
267.8356481740566
 21
92.42241906155719
 31
0.0
 12
267.5023148407233
 22
90.42241906155719
 32
0.0
 13
267.5023148407233
 23
90.42241906155719
 33
0.0
  0
SOLID
  5
1313
330
106D
100
AcDbEntity
  8
DIMS
 62
     0
100
AcDbTrace
 10
267.1689815073899
 20
109.4224190615569
 30
0.0
 11
267.8356481740566
 21
109.4224190615569
 31
0.0
 12
267.5023148407233
 22
111.4224190615569
 32
0.0
 13
267.5023148407233
 23
111.4224190615569
 33
0.0
  0
MTEXT
  5
1314
330
106D
100
AcDbEntity
  8
DIMS
 62
     0
100
AcDbMText
 10
265.8523148407232
 20
100.9224190615571
 30
0.0
 40
2.0
 41
0.0
 71
     5
 72
     1
  1
\A1;21
 11
0.0000000000000001
 21
1.0
 31
0.0
1001
ACAD
1000
MTEXTBEGIN
1070
    73
1070
     1
1070
    44
1040
1.0
1070
    74
1070
     0
1000
MTEXTEND
1000
MTEXTBEGIN
1070
    73
1070
     1
1070
    44
1040
1.0
1070
    74
1070
     0
1000
MTEXTEND
  0
POINT
  5
1315
330
106D
100
AcDbEntity
  8
DEFPOINTS
 62
     0
100
AcDbPoint
 10
261.0126649139723
 20
90.42241906155719
 30
0.0
  0
POINT
  5
1316
330
106D
100
AcDbEntity
  8
DEFPOINTS
 62
     0
100
AcDbPoint
 10
261.0126649139723
 20
111.4224190615569
 30
0.0
  0
POINT
  5
1317
330
106D
100
AcDbEntity
  8
DEFPOINTS
 62
     0
100
AcDbPoint
 10
267.5023148407233
 20
111.4224190615569
 30
0.0
  0
ENDBLK
  5
1078
330
106D
100
AcDbEntity
  8
0
100
AcDbBlockEnd
  0
BLOCK
  5
108F
330
1085
100
AcDbEntity
  8
0
100
AcDbBlockBegin
  2
*D50
 70
     1
 10
0.0
 20
0.0
 30
0.0
  3
*D50
  1

  0
LINE
  5
12FD
330
1085
100
AcDbEntity
  8
DIMS
 62
     0
100
AcDbLine
 10
263.6626649139723
 20
111.4224190615569
 30
0.0
 11
268.1523148407233
 21
111.4224190615569
 31
0.0
  0
LINE
  5
12FE
330
1085
100
AcDbEntity
  8
DIMS
 62
     0
100
AcDbLine
 10
261.6626649139723
 20
143.4224190615571
 30
0.0
 11
268.1523148407233
 21
143.4224190615571
 31
0.0
  0
LINE
  5
12FF
330
1085
100
AcDbEntity
  8
DIMS
 62
     0
100
AcDbLine
 10
267.5023148407233
 20
113.4224190615569
 30
0.0
 11
267.5023148407233
 21
141.4224190615571
 31
0.0
  0
SOLID
  5
1300
330
1085
100
AcDbEntity
  8
DIMS
 62
     0
100
AcDbTrace
 10
267.1689815073899
 20
113.4224190615569
 30
0.0
 11
267.8356481740566
 21
113.4224190615569
 31
0.0
 12
267.5023148407233
 22
111.4224190615569
 32
0.0
 13
267.5023148407233
 23
111.4224190615569
 33
0.0
  0
SOLID
  5
1301
330
1085
100
AcDbEntity
  8
DIMS
 62
     0
100
AcDbTrace
 10
267.1689815073899
 20
141.4224190615571
 30
0.0
 11
267.8356481740566
 21
141.4224190615571
 31
0.0
 12
267.5023148407233
 22
143.4224190615571
 32
0.0
 13
267.5023148407233
 23
143.4224190615571
 33
0.0
  0
MTEXT
  5
1302
330
1085
100
AcDbEntity
  8
DIMS
 62
     0
100
AcDbMText
 10
265.8523148407232
 20
127.422419061557
 30
0.0
 40
2.0
 41
0.0
 71
     5
 72
     1
  1
\A1;32
 11
0.0000000000000001
 21
1.0
 31
0.0
1001
ACAD
1000
MTEXTBEGIN
1070
    73
1070
     1
1070
    44
1040
1.0
1070
    74
1070
     0
1000
MTEXTEND
1000
MTEXTBEGIN
1070
    73
1070
     1
1070
    44
1040
1.0
1070
    74
1070
     0
1000
MTEXTEND
  0
POINT
  5
1303
330
1085
100
AcDbEntity
  8
DEFPOINTS
 62
     0
100
AcDbPoint
 10
263.0126649139723
 20
111.4224190615569
 30
0.0
  0
POINT
  5
1304
330
1085
100
AcDbEntity
  8
DEFPOINTS
 62
     0
100
AcDbPoint
 10
261.0126649139723
 20
143.4224190615571
 30
0.0
  0
POINT
  5
1305
330
1085
100
AcDbEntity
  8
DEFPOINTS
 62
     0
100
AcDbPoint
 10
267.5023148407233
 20
143.4224190615571
 30
0.0
  0
ENDBLK
  5
1090
330
1085
100
AcDbEntity
  8
0
100
AcDbBlockEnd
  0
BLOCK
  5
10A7
330
109D
100
AcDbEntity
  8
0
100
AcDbBlockBegin
  2
*D51
 70
     1
 10
0.0
 20
0.0
 30
0.0
  3
*D51
  1

  0
LINE
  5
1306
330
109D
100
AcDbEntity
  8
DIMS
 62
     0
100
AcDbLine
 10
262.6626649139723
 20
111.4224190615569
 30
0.0
 11
275.1523148407233
 21
111.4224190615569
 31
0.0
  0
LINE
  5
1307
330
109D
100
AcDbEntity
  8
DIMS
 62
     0
100
AcDbLine
 10
237.7126649139728
 20
154.0224190615571
 30
0.0
 11
275.1523148407233
 21
154.0224190615571
 31
0.0
  0
LINE
  5
1308
330
109D
100
AcDbEntity
  8
DIMS
 62
     0
100
AcDbLine
 10
274.5023148407233
 20
113.4224190615569
 30
0.0
 11
274.5023148407233
 21
152.0224190615571
 31
0.0
  0
SOLID
  5
1309
330
109D
100
AcDbEntity
  8
DIMS
 62
     0
100
AcDbTrace
 10
274.1689815073899
 20
113.4224190615569
 30
0.0
 11
274.8356481740565
 21
113.4224190615569
 31
0.0
 12
274.5023148407233
 22
111.4224190615569
 32
0.0
 13
274.5023148407233
 23
111.4224190615569
 33
0.0
  0
SOLID
  5
130A
330
109D
100
AcDbEntity
  8
DIMS
 62
     0
100
AcDbTrace
 10
274.1689815073899
 20
152.0224190615571
 30
0.0
 11
274.8356481740567
 21
152.0224190615571
 31
0.0
 12
274.5023148407233
 22
154.0224190615571
 32
0.0
 13
274.5023148407233
 23
154.0224190615571
 33
0.0
  0
MTEXT
  5
130B
330
109D
100
AcDbEntity
  8
DIMS
 62
     0
100
AcDbMText
 10
272.8523148407233
 20
132.722419061557
 30
0.0
 40
2.0
 41
0.0
 71
     5
 72
     1
  1
\A1;42.6
 11
0.0000000000000001
 21
1.0
 31
0.0
1001
ACAD
1000
MTEXTBEGIN
1070
    73
1070
     1
1070
    44
1040
1.0
1070
    74
1070
     0
1000
MTEXTEND
1000
MTEXTBEGIN
1070
    73
1070
     1
1070
    44
1040
1.0
1070
    74
1070
     0
1000
MTEXTEND
  0
POINT
  5
130C
330
109D
100
AcDbEntity
  8
DEFPOINTS
 62
     0
100
AcDbPoint
 10
262.0126649139724
 20
111.4224190615569
 30
0.0
  0
POINT
  5
130D
330
109D
100
AcDbEntity
  8
DEFPOINTS
 62
     0
100
AcDbPoint
 10
237.0626649139728
 20
154.0224190615571
 30
0.0
  0
POINT
  5
130E
330
109D
100
AcDbEntity
  8
DEFPOINTS
 62
     0
100
AcDbPoint
 10
274.5023148407233
 20
154.0224190615571
 30
0.0
  0
ENDBLK
  5
10A8
330
109D
100
AcDbEntity
  8
0
100
AcDbBlockEnd
  0
BLOCK
  5
1210
330
1204
100
AcDbEntity
  8
0
100
AcDbBlockBegin
  2
*D52
 70
     1
 10
0.0
 20
0.0
 30
0.0
  3
*D52
  1

  0
LINE
  5
1205
330
1204
100
AcDbEntity
  8
OBJECT
 62
     0
100
AcDbLine
 10
225.1126649139725
 20
158.9827550506532
 30
0.0
 11
199.199836599062
 21
158.9827550506532
 31
0.0
  0
LINE
  5
1206
330
1204
100
AcDbEntity
  8
OBJECT
 62
     0
100
AcDbLine
 10
225.1126649139725
 20
163.9827550506532
 30
0.0
 11
199.199836599062
 21
163.9827550506532
 31
0.0
  0
LINE
  5
1207
330
1204
100
AcDbEntity
  8
OBJECT
 62
     0
100
AcDbLine
 10
199.8498365990622
 20
156.9827550506531
 30
0.0
 11
199.8498365990622
 21
154.9827550506531
 31
0.0
  0
LINE
  5
1208
330
1204
100
AcDbEntity
  8
OBJECT
 62
     0
100
AcDbLine
 10
199.8498365990622
 20
165.9827550506532
 30
0.0
 11
199.8498365990622
 21
167.9827550506532
 31
0.0
  0
LINE
  5
1209
330
1204
100
AcDbEntity
  8
OBJECT
 62
     0
100
AcDbLine
 10
199.8498365990622
 20
158.9827550506532
 30
0.0
 11
199.8498365990622
 21
163.9827550506532
 31
0.0
  0
SOLID
  5
120A
330
1204
100
AcDbEntity
  8
OBJECT
 62
     0
100
AcDbTrace
 10
199.5165032657288
 20
156.9827550506531
 30
0.0
 11
200.1831699323955
 21
156.9827550506531
 31
0.0
 12
199.8498365990622
 22
158.9827550506532
 32
0.0
 13
199.8498365990622
 23
158.9827550506532
 33
0.0
  0
SOLID
  5
120B
330
1204
100
AcDbEntity
  8
OBJECT
 62
     0
100
AcDbTrace
 10
199.5165032657288
 20
165.9827550506532
 30
0.0
 11
200.1831699323955
 21
165.9827550506532
 31
0.0
 12
199.8498365990622
 22
163.9827550506532
 32
0.0
 13
199.8498365990622
 23
163.9827550506532
 33
0.0
  0
MTEXT
  5
120C
330
1204
100
AcDbEntity
  8
OBJECT
 62
     0
100
AcDbMText
 10
198.199836599062
 20
161.4827550506532
 30
0.0
 40
2.0
 41
0.0
 71
     5
 72
     1
  1
\A1;5
 11
0.0000000000000001
 21
1.0
 31
0.0
1001
ACAD
1000
MTEXTBEGIN
1070
    73
1070
     1
1070
    44
1040
1.0
1070
    74
1070
     0
1000
MTEXTEND
1000
MTEXTBEGIN
1070
    73
1070
     1
1070
    44
1040
1.0
1070
    74
1070
     0
1000
MTEXTEND
  0
POINT
  5
120D
330
1204
100
AcDbEntity
  8
DEFPOINTS
 62
     0
100
AcDbPoint
 10
225.7626649139725
 20
158.9827550506532
 30
0.0
  0
POINT
  5
120E
330
1204
100
AcDbEntity
  8
DEFPOINTS
 62
     0
100
AcDbPoint
 10
225.7626649139725
 20
163.9827550506532
 30
0.0
  0
POINT
  5
120F
330
1204
100
AcDbEntity
  8
DEFPOINTS
 62
     0
100
AcDbPoint
 10
199.8498365990622
 20
163.9827550506532
 30
0.0
  0
ENDBLK
  5
1211
330
1204
100
AcDbEntity
  8
0
100
AcDbBlockEnd
  0
BLOCK
  5
121F
330
1213
100
AcDbEntity
  8
0
100
AcDbBlockBegin
  2
*D53
 70
     1
 10
0.0
 20
0.0
 30
0.0
  3
*D53
  1

  0
LINE
  5
1214
330
1213
100
AcDbEntity
  8
OBJECT
 62
     0
100
AcDbLine
 10
237.5126649139728
 20
158.9827550506532
 30
0.0
 11
252.9160416681834
 21
158.9827550506532
 31
0.0
  0
LINE
  5
1215
330
1213
100
AcDbEntity
  8
OBJECT
 62
     0
100
AcDbLine
 10
237.5126649139728
 20
163.9827550506532
 30
0.0
 11
252.9160416681834
 21
163.9827550506532
 31
0.0
  0
LINE
  5
1216
330
1213
100
AcDbEntity
  8
OBJECT
 62
     0
100
AcDbLine
 10
252.2660416681834
 20
156.9827550506531
 30
0.0
 11
252.2660416681834
 21
154.9827550506531
 31
0.0
  0
LINE
  5
1217
330
1213
100
AcDbEntity
  8
OBJECT
 62
     0
100
AcDbLine
 10
252.2660416681834
 20
165.9827550506532
 30
0.0
 11
252.2660416681834
 21
167.9827550506532
 31
0.0
  0
LINE
  5
1218
330
1213
100
AcDbEntity
  8
OBJECT
 62
     0
100
AcDbLine
 10
252.2660416681834
 20
158.9827550506532
 30
0.0
 11
252.2660416681834
 21
163.9827550506532
 31
0.0
  0
SOLID
  5
1219
330
1213
100
AcDbEntity
  8
OBJECT
 62
     0
100
AcDbTrace
 10
251.93270833485
 20
156.9827550506531
 30
0.0
 11
252.5993750015167
 21
156.9827550506531
 31
0.0
 12
252.2660416681834
 22
158.9827550506532
 32
0.0
 13
252.2660416681834
 23
158.9827550506532
 33
0.0
  0
SOLID
  5
121A
330
1213
100
AcDbEntity
  8
OBJECT
 62
     0
100
AcDbTrace
 10
251.93270833485
 20
165.9827550506532
 30
0.0
 11
252.5993750015167
 21
165.9827550506532
 31
0.0
 12
252.2660416681834
 22
163.9827550506532
 32
0.0
 13
252.2660416681834
 23
163.9827550506532
 33
0.0
  0
MTEXT
  5
121B
330
1213
100
AcDbEntity
  8
OBJECT
 62
     0
100
AcDbMText
 10
250.6160416681834
 20
161.4827550506531
 30
0.0
 40
2.0
 41
0.0
 71
     5
 72
     1
  1
\A1;5
 11
0.0000000000000001
 21
1.0
 31
0.0
1001
ACAD
1000
MTEXTBEGIN
1070
    73
1070
     1
1070
    44
1040
1.0
1070
    74
1070
     0
1000
MTEXTEND
1000
MTEXTBEGIN
1070
    73
1070
     1
1070
    44
1040
1.0
1070
    74
1070
     0
1000
MTEXTEND
  0
POINT
  5
121C
330
1213
100
AcDbEntity
  8
DEFPOINTS
 62
     0
100
AcDbPoint
 10
236.8626649139728
 20
158.9827550506532
 30
0.0
  0
POINT
  5
121D
330
1213
100
AcDbEntity
  8
DEFPOINTS
 62
     0
100
AcDbPoint
 10
236.8626649139728
 20
163.9827550506532
 30
0.0
  0
POINT
  5
121E
330
1213
100
AcDbEntity
  8
DEFPOINTS
 62
     0
100
AcDbPoint
 10
252.2660416681834
 20
163.9827550506532
 30
0.0
  0
ENDBLK
  5
1220
330
1213
100
AcDbEntity
  8
0
100
AcDbBlockEnd
  0
BLOCK
  5
1323
330
1319
100
AcDbEntity
  8
0
100
AcDbBlockBegin
  2
*D54
 70
     1
 10
0.0
 20
0.0
 30
0.0
  3
*D54
  1

  0
LINE
  5
133C
330
1319
100
AcDbEntity
  8
DIMS
 62
     0
100
AcDbLine
 10
121.3576968690275
 20
179.8206152752707
 30
0.0
 11
134.5937779689619
 21
179.8206152752707
 31
0.0
  0
LINE
  5
133D
330
1319
100
AcDbEntity
  8
DIMS
 62
     0
100
AcDbLine
 10
121.3576968690275
 20
170.0863610289407
 30
0.0
 11
134.5937779689619
 21
170.0863610289407
 31
0.0
  0
LINE
  5
133E
330
1319
100
AcDbEntity
  8
DIMS
 62
     0
100
AcDbLine
 10
133.9437779689619
 20
177.8206152752708
 30
0.0
 11
133.9437779689619
 21
172.0863610289407
 31
0.0
  0
SOLID
  5
133F
330
1319
100
AcDbEntity
  8
DIMS
 62
     0
100
AcDbTrace
 10
133.6104446356285
 20
177.8206152752708
 30
0.0
 11
134.2771113022953
 21
177.8206152752708
 31
0.0
 12
133.9437779689619
 22
179.8206152752707
 32
0.0
 13
133.9437779689619
 23
179.8206152752707
 33
0.0
  0
SOLID
  5
1340
330
1319
100
AcDbEntity
  8
DIMS
 62
     0
100
AcDbTrace
 10
133.6104446356285
 20
172.0863610289407
 30
0.0
 11
134.2771113022953
 21
172.0863610289407
 31
0.0
 12
133.9437779689619
 22
170.0863610289407
 32
0.0
 13
133.9437779689619
 23
170.0863610289407
 33
0.0
  0
MTEXT
  5
1341
330
1319
100
AcDbEntity
  8
DIMS
 62
     0
100
AcDbMText
 10
132.2937779689619
 20
174.9534881521056
 30
0.0
 40
2.0
 41
0.0
 71
     5
 72
     1
  1
\A1;9.734
 11
0.0000000000000001
 21
1.0
 31
0.0
1001
ACAD
1000
MTEXTBEGIN
1070
    73
1070
     1
1070
    44
1040
1.0
1070
    74
1070
     0
1000
MTEXTEND
1000
MTEXTBEGIN
1070
    73
1070
     1
1070
    44
1040
1.0
1070
    74
1070
     0
1000
MTEXTEND
  0
POINT
  5
1342
330
1319
100
AcDbEntity
  8
DEFPOINTS
 62
     0
100
AcDbPoint
 10
120.7076968690275
 20
179.8206152752707
 30
0.0
  0
POINT
  5
1343
330
1319
100
AcDbEntity
  8
DEFPOINTS
 62
     0
100
AcDbPoint
 10
120.7076968690275
 20
170.0863610289407
 30
0.0
  0
POINT
  5
1344
330
1319
100
AcDbEntity
  8
DEFPOINTS
 62
     0
100
AcDbPoint
 10
133.9437779689619
 20
170.0863610289407
 30
0.0
  0
ENDBLK
  5
1324
330
1319
100
AcDbEntity
  8
0
100
AcDbBlockEnd
  0
BLOCK
  5
13A9
330
139D
100
AcDbEntity
  8
0
100
AcDbBlockBegin
  2
*D55
 70
     1
 10
0.0
 20
0.0
 30
0.0
  3
*D55
  1

  0
LINE
  5
1484
330
139D
100
AcDbEntity
  8
DIMS
100
AcDbLine
 10
149.2626649139725
 20
114.5974190615569
 30
0.0
 11
122.9045478214807
 21
114.5974190615569
 31
0.0
  0
LINE
  5
1485
330
139D
100
AcDbEntity
  8
DIMS
100
AcDbLine
 10
134.7626649139725
 20
108.247419061557
 30
0.0
 11
122.9045478214807
 21
108.247419061557
 31
0.0
  0
LINE
  5
1486
330
139D
100
AcDbEntity
  8
DIMS
100
AcDbLine
 10
123.5295478214806
 20
112.5974190615569
 30
0.0
 11
123.5295478214806
 21
110.247419061557
 31
0.0
  0
MTEXT
  5
1487
330
139D
100
AcDbEntity
  8
DIMS
 62
     0
100
AcDbMText
 10
121.2712144881474
 20
114.5974190615569
 30
0.0
 40
2.0
 41
0.0
 71
     5
 72
     1
  1
%%C6.35{\H1.400000;\S 0^ -0.02;}
 11
0.0000000000000001
 21
1.0
 31
0.0
1001
ACAD
1000
MTEXTBEGIN
1070
    73
1070
     1
1070
    44
1040
1.0
1070
    74
1070
     0
1000
MTEXTEND
1000
MTEXTBEGIN
1070
    73
1070
     1
1070
    44
1040
1.0
1070
    74
1070
     0
1000
MTEXTEND
  0
SOLID
  5
1488
330
139D
100
AcDbEntity
  8
DIMS
100
AcDbTrace
 10
123.1962144881474
 20
112.5974190615569
 30
0.0
 11
123.8628811548139
 21
112.5974190615569
 31
0.0
 12
123.5295478214806
 22
114.5974190615569
 32
0.0
 13
123.5295478214806
 23
114.5974190615569
 33
0.0
  0
SOLID
  5
1489
330
139D
100
AcDbEntity
  8
DIMS
100
AcDbTrace
 10
123.1962144881474
 20
110.247419061557
 30
0.0
 11
123.8628811548139
 21
110.247419061557
 31
0.0
 12
123.5295478214806
 22
108.247419061557
 32
0.0
 13
123.5295478214806
 23
108.247419061557
 33
0.0
  0
POINT
  5
148A
330
139D
100
AcDbEntity
  8
DEFPOINTS
 62
     0
100
AcDbPoint
 10
149.9126649139727
 20
114.5974190615569
 30
0.0
  0
POINT
  5
148B
330
139D
100
AcDbEntity
  8
DEFPOINTS
 62
     0
100
AcDbPoint
 10
135.4126649139727
 20
108.247419061557
 30
0.0
  0
POINT
  5
148C
330
139D
100
AcDbEntity
  8
DEFPOINTS
 62
     0
100
AcDbPoint
 10
123.5295478214806
 20
108.247419061557
 30
0.0
  0
ENDBLK
  5
13AA
330
139D
100
AcDbEntity
  8
0
100
AcDbBlockEnd
  0
BLOCK
  5
1415
330
1406
100
AcDbEntity
  8
0
100
AcDbBlockBegin
  2
*D56
 70
     1
 10
0.0
 20
0.0
 30
0.0
  3
*D56
  1

  0
LINE
  5
1407
330
1406
100
AcDbEntity
  8
DIMS
 62
     0
100
AcDbLine
 10
123.5295478214806
 20
110.7724190615569
 30
0.0
 11
123.5295478214806
 21
80.4006340020347
 31
0.0
  0
LINE
  5
1408
330
1406
100
AcDbEntity
  8
DIMS
 62
     0
100
AcDbLine
 10
113.2757307586804
 20
110.7724190615569
 30
0.0
 11
113.2757307586804
 21
80.4006340020347
 31
0.0
  0
LINE
  5
1409
330
1406
100
AcDbEntity
  8
DIMS
 62
     0
100
AcDbLine
 10
125.5295478214806
 20
81.05063400203469
 30
0.0
 11
127.5295478214806
 21
81.05063400203469
 31
0.0
  0
LINE
  5
140A
330
1406
100
AcDbEntity
  8
DIMS
 62
     0
100
AcDbLine
 10
111.2757307586804
 20
81.05063400203469
 30
0.0
 11
109.2757307586804
 21
81.05063400203469
 31
0.0
  0
LINE
  5
140B
330
1406
100
AcDbEntity
  8
DIMS
 62
     0
100
AcDbLine
 10
118.4026392900805
 20
81.05063400203469
 30
0.0
 11
119.7901392900805
 21
76.4256340020347
 31
0.0
  0
LINE
  5
140C
330
1406
100
AcDbEntity
  8
DIMS
 62
     0
100
AcDbLine
 10
119.7901392900805
 20
76.4256340020347
 30
0.0
 11
130.7091869091282
 21
76.4256340020347
 31
0.0
  0
MTEXT
  5
140D
330
1406
100
AcDbEntity
  8
DIMS
 62
     0
100
AcDbMText
 10
125.2496630996043
 20
78.07563400203472
 30
0.0
 40
2.0
 41
0.0
 71
     5
 72
     1
  1
\A1;10.254
1001
ACAD
1000
MTEXTBEGIN
1070
    73
1070
     1
1070
    44
1040
1.0
1070
    74
1070
     0
1000
MTEXTEND
1000
MTEXTBEGIN
1070
    73
1070
     1
1070
    44
1040
1.0
1070
    74
1070
     0
1000
MTEXTEND
  0
LINE
  5
140E
330
1406
100
AcDbEntity
  8
DIMS
 62
     0
100
AcDbLine
 10
123.5295478214806
 20
81.05063400203469
 30
0.0
 11
113.2757307586804
 21
81.05063400203469
 31
0.0
  0
LINE
  5
140F
330
1406
100
AcDbEntity
  8
DIMS
 62
     0
100
AcDbLine
 10
123.5295478214806
 20
81.05063400203469
 30
0.0
 11
113.2757307586804
 21
81.05063400203469
 31
0.0
  0
SOLID
  5
1410
330
1406
100
AcDbEntity
  8
DIMS
 62
     0
100
AcDbTrace
 10
125.5295478214806
 20
81.38396733536806
 30
0.0
 11
125.5295478214806
 21
80.71730066870136
 31
0.0
 12
123.5295478214806
 22
81.05063400203469
 32
0.0
 13
123.5295478214806
 23
81.05063400203469
 33
0.0
  0
SOLID
  5
1411
330
1406
100
AcDbEntity
  8
DIMS
 62
     0
100
AcDbTrace
 10
111.2757307586804
 20
81.38396733536806
 30
0.0
 11
111.2757307586804
 21
80.71730066870136
 31
0.0
 12
113.2757307586804
 22
81.05063400203469
 32
0.0
 13
113.2757307586804
 23
81.05063400203469
 33
0.0
  0
POINT
  5
1412
330
1406
100
AcDbEntity
  8
DEFPOINTS
 62
     0
100
AcDbPoint
 10
123.5295478214806
 20
111.4224190615569
 30
0.0
  0
POINT
  5
1413
330
1406
100
AcDbEntity
  8
DEFPOINTS
 62
     0
100
AcDbPoint
 10
113.2757307586804
 20
111.4224190615569
 30
0.0
  0
POINT
  5
1414
330
1406
100
AcDbEntity
  8
DEFPOINTS
 62
     0
100
AcDbPoint
 10
113.2757307586804
 20
81.05063400203469
 30
0.0
  0
ENDBLK
  5
1416
330
1406
100
AcDbEntity
  8
0
100
AcDbBlockEnd
  0
BLOCK
  5
1470
330
1461
100
AcDbEntity
  8
0
100
AcDbBlockBegin
  2
*D57
 70
     1
 10
0.0
 20
0.0
 30
0.0
  3
*D57
  1

  0
LINE
  5
1462
330
1461
100
AcDbEntity
  8
DIMS
 62
     0
100
AcDbLine
 10
122.9045478214807
 20
107.5974190615569
 30
0.0
 11
122.9045478214807
 21
101.6634768344127
 31
0.0
  0
LINE
  5
1463
330
1461
100
AcDbEntity
  8
DIMS
 62
     0
100
AcDbLine
 10
123.5126559295887
 20
107.4960677102055
 30
0.0
 11
123.5126559295887
 21
101.6634768344127
 31
0.0
  0
LINE
  5
1464
330
1461
100
AcDbEntity
  8
DIMS
 62
     0
100
AcDbLine
 10
120.9045478214807
 20
102.3134768344127
 30
0.0
 11
118.9045478214806
 21
102.3134768344127
 31
0.0
  0
LINE
  5
1465
330
1461
100
AcDbEntity
  8
DIMS
 62
     0
100
AcDbLine
 10
125.5126559295888
 20
102.3134768344127
 30
0.0
 11
127.5126559295887
 21
102.3134768344127
 31
0.0
  0
LINE
  5
1466
330
1461
100
AcDbEntity
  8
DIMS
 62
     0
100
AcDbLine
 10
123.2086018755347
 20
102.3134768344127
 30
0.0
 11
124.5961018755348
 21
97.68847683441277
 31
0.0
  0
LINE
  5
1467
330
1461
100
AcDbEntity
  8
DIMS
 62
     0
100
AcDbLine
 10
124.5961018755348
 20
97.68847683441277
 30
0.0
 11
133.8961018755348
 21
97.68847683441277
 31
0.0
  0
MTEXT
  5
1468
330
1461
100
AcDbEntity
  8
DIMS
 62
     0
100
AcDbMText
 10
129.2461018755348
 20
99.33847683441278
 30
0.0
 40
2.0
 41
0.0
 71
     5
 72
     1
  1
\A1;0.608
1001
ACAD
1000
MTEXTBEGIN
1070
    73
1070
     1
1070
    44
1040
1.0
1070
    74
1070
     0
1000
MTEXTEND
1000
MTEXTBEGIN
1070
    73
1070
     1
1070
    44
1040
1.0
1070
    74
1070
     0
1000
MTEXTEND
  0
LINE
  5
1469
330
1461
100
AcDbEntity
  8
DIMS
 62
     0
100
AcDbLine
 10
122.9045478214807
 20
102.3134768344127
 30
0.0
 11
123.5126559295887
 21
102.3134768344127
 31
0.0
  0
LINE
  5
146A
330
1461
100
AcDbEntity
  8
DIMS
 62
     0
100
AcDbLine
 10
122.9045478214807
 20
102.3134768344127
 30
0.0
 11
123.5126559295887
 21
102.3134768344127
 31
0.0
  0
SOLID
  5
146B
330
1461
100
AcDbEntity
  8
DIMS
 62
     0
100
AcDbTrace
 10
120.9045478214807
 20
102.646810167746
 30
0.0
 11
120.9045478214807
 21
101.9801435010794
 31
0.0
 12
122.9045478214807
 22
102.3134768344127
 32
0.0
 13
122.9045478214807
 23
102.3134768344127
 33
0.0
  0
SOLID
  5
146C
330
1461
100
AcDbEntity
  8
DIMS
 62
     0
100
AcDbTrace
 10
125.5126559295888
 20
102.646810167746
 30
0.0
 11
125.5126559295888
 21
101.9801435010794
 31
0.0
 12
123.5126559295887
 22
102.3134768344127
 32
0.0
 13
123.5126559295887
 23
102.3134768344127
 33
0.0
  0
POINT
  5
146D
330
1461
100
AcDbEntity
  8
DEFPOINTS
 62
     0
100
AcDbPoint
 10
122.9045478214807
 20
108.247419061557
 30
0.0
  0
POINT
  5
146E
330
1461
100
AcDbEntity
  8
DEFPOINTS
 62
     0
100
AcDbPoint
 10
123.5126559295887
 20
108.1460677102056
 30
0.0
  0
POINT
  5
146F
330
1461
100
AcDbEntity
  8
DEFPOINTS
 62
     0
100
AcDbPoint
 10
123.5126559295887
 20
102.3134768344127
 30
0.0
  0
ENDBLK
  5
1471
330
1461
100
AcDbEntity
  8
0
100
AcDbBlockEnd
  0
BLOCK
  5
1482
330
1473
100
AcDbEntity
  8
0
100
AcDbBlockBegin
  2
*D58
 70
     1
 10
0.0
 20
0.0
 30
0.0
  3
*D58
  1

  0
LINE
  5
1474
330
1473
100
AcDbEntity
  8
DIMS
 62
     0
100
AcDbLine
 10
123.5295478214806
 20
107.5974190615569
 30
0.0
 11
123.5295478214806
 21
105.9295089725684
 31
0.0
  0
LINE
  5
1475
330
1473
100
AcDbEntity
  8
DIMS
 62
     0
100
AcDbLine
 10
122.9045478214807
 20
107.5974190615569
 30
0.0
 11
122.9045478214807
 21
105.9295089725684
 31
0.0
  0
LINE
  5
1476
330
1473
100
AcDbEntity
  8
DIMS
 62
     0
100
AcDbLine
 10
125.5295478214806
 20
106.5795089725684
 30
0.0
 11
127.5295478214806
 21
106.5795089725684
 31
0.0
  0
LINE
  5
1477
330
1473
100
AcDbEntity
  8
DIMS
 62
     0
100
AcDbLine
 10
120.9045478214807
 20
106.5795089725684
 30
0.0
 11
118.9045478214806
 21
106.5795089725684
 31
0.0
  0
LINE
  5
1478
330
1473
100
AcDbEntity
  8
DIMS
 62
     0
100
AcDbLine
 10
123.2170478214806
 20
106.5795089725684
 30
0.0
 11
124.6045478214806
 21
101.9545089725685
 31
0.0
  0
LINE
  5
1479
330
1473
100
AcDbEntity
  8
DIMS
 62
     0
100
AcDbLine
 10
124.6045478214806
 20
101.9545089725685
 30
0.0
 11
133.9045478214806
 21
101.9545089725685
 31
0.0
  0
MTEXT
  5
147A
330
1473
100
AcDbEntity
  8
DIMS
 62
     0
100
AcDbMText
 10
129.2545478214806
 20
103.6045089725684
 30
0.0
 40
2.0
 41
0.0
 71
     5
 72
     1
  1
\A1;0.625
1001
ACAD
1000
MTEXTBEGIN
1070
    73
1070
     1
1070
    44
1040
1.0
1070
    74
1070
     0
1000
MTEXTEND
1000
MTEXTBEGIN
1070
    73
1070
     1
1070
    44
1040
1.0
1070
    74
1070
     0
1000
MTEXTEND
  0
LINE
  5
147B
330
1473
100
AcDbEntity
  8
DIMS
 62
     0
100
AcDbLine
 10
123.5295478214806
 20
106.5795089725684
 30
0.0
 11
122.9045478214807
 21
106.5795089725684
 31
0.0
  0
LINE
  5
147C
330
1473
100
AcDbEntity
  8
DIMS
 62
     0
100
AcDbLine
 10
123.5295478214806
 20
106.5795089725684
 30
0.0
 11
122.9045478214807
 21
106.5795089725684
 31
0.0
  0
SOLID
  5
147D
330
1473
100
AcDbEntity
  8
DIMS
 62
     0
100
AcDbTrace
 10
125.5295478214806
 20
106.9128423059017
 30
0.0
 11
125.5295478214806
 21
106.246175639235
 31
0.0
 12
123.5295478214806
 22
106.5795089725684
 32
0.0
 13
123.5295478214806
 23
106.5795089725684
 33
0.0
  0
SOLID
  5
147E
330
1473
100
AcDbEntity
  8
DIMS
 62
     0
100
AcDbTrace
 10
120.9045478214807
 20
106.9128423059017
 30
0.0
 11
120.9045478214807
 21
106.246175639235
 31
0.0
 12
122.9045478214807
 22
106.5795089725684
 32
0.0
 13
122.9045478214807
 23
106.5795089725684
 33
0.0
  0
POINT
  5
147F
330
1473
100
AcDbEntity
  8
DEFPOINTS
 62
     0
100
AcDbPoint
 10
123.5295478214806
 20
108.247419061557
 30
0.0
  0
POINT
  5
1480
330
1473
100
AcDbEntity
  8
DEFPOINTS
 62
     0
100
AcDbPoint
 10
122.9045478214807
 20
108.247419061557
 30
0.0
  0
POINT
  5
1481
330
1473
100
AcDbEntity
  8
DEFPOINTS
 62
     0
100
AcDbPoint
 10
122.9045478214807
 20
106.5795089725684
 30
0.0
  0
ENDBLK
  5
1483
330
1473
100
AcDbEntity
  8
0
100
AcDbBlockEnd
  0
BLOCK
  5
149A
330
148E
100
AcDbEntity
  8
0
100
AcDbBlockBegin
  2
*D59
 70
     1
 10
0.0
 20
0.0
 30
0.0
  3
*D59
  1

  0
LINE
  5
148F
330
148E
100
AcDbEntity
  8
DIMS
 62
     0
100
AcDbLine
 10
149.2626649139725
 20
115.2474190615569
 30
0.0
 11
149.2626649139725
 21
115.7567625253995
 31
0.0
  0
LINE
  5
1490
330
148E
100
AcDbEntity
  8
DIMS
 62
     0
100
AcDbLine
 10
149.9126649139727
 20
115.2474190615569
 30
0.0
 11
149.9126649139727
 21
115.7567625253995
 31
0.0
  0
LINE
  5
1491
330
148E
100
AcDbEntity
  8
DIMS
 62
     0
100
AcDbLine
 10
147.2626649139725
 20
115.1067625253995
 30
0.0
 11
145.2626649139725
 21
115.1067625253995
 31
0.0
  0
LINE
  5
1492
330
148E
100
AcDbEntity
  8
DIMS
 62
     0
100
AcDbLine
 10
151.9126649139725
 20
115.1067625253995
 30
0.0
 11
153.9126649139725
 21
115.1067625253995
 31
0.0
  0
MTEXT
  5
1493
330
148E
100
AcDbEntity
  8
DIMS
 62
     0
100
AcDbMText
 10
151.0251649139726
 20
119.3817625253996
 30
0.0
 40
2.0
 41
0.0
 71
     5
 72
     1
  1
\A1;0.65
1001
ACAD
1000
MTEXTBEGIN
1070
    73
1070
     1
1070
    44
1040
1.0
1070
    74
1070
     0
1000
MTEXTEND
1000
MTEXTBEGIN
1070
    73
1070
     1
1070
    44
1040
1.0
1070
    74
1070
     0
1000
MTEXTEND
  0
LINE
  5
1494
330
148E
100
AcDbEntity
  8
DIMS
 62
     0
100
AcDbLine
 10
149.2626649139725
 20
115.1067625253995
 30
0.0
 11
149.9126649139727
 21
115.1067625253995
 31
0.0
  0
SOLID
  5
1495
330
148E
100
AcDbEntity
  8
DIMS
 62
     0
100
AcDbTrace
 10
147.2626649139725
 20
115.4400958587329
 30
0.0
 11
147.2626649139725
 21
114.7734291920663
 31
0.0
 12
149.2626649139725
 22
115.1067625253995
 32
0.0
 13
149.2626649139725
 23
115.1067625253995
 33
0.0
  0
SOLID
  5
1496
330
148E
100
AcDbEntity
  8
DIMS
 62
     0
100
AcDbTrace
 10
151.9126649139725
 20
115.4400958587329
 30
0.0
 11
151.9126649139725
 21
114.7734291920663
 31
0.0
 12
149.9126649139727
 22
115.1067625253995
 32
0.0
 13
149.9126649139727
 23
115.1067625253995
 33
0.0
  0
POINT
  5
1497
330
148E
100
AcDbEntity
  8
DEFPOINTS
 62
     0
100
AcDbPoint
 10
149.2626649139725
 20
114.5974190615569
 30
0.0
  0
POINT
  5
1498
330
148E
100
AcDbEntity
  8
DEFPOINTS
 62
     0
100
AcDbPoint
 10
149.9126649139727
 20
114.5974190615569
 30
0.0
  0
POINT
  5
1499
330
148E
100
AcDbEntity
  8
DEFPOINTS
 62
     0
100
AcDbPoint
 10
149.9126649139727
 20
115.1067625253995
 30
0.0
  0
ENDBLK
  5
149B
330
148E
100
AcDbEntity
  8
0
100
AcDbBlockEnd
  0
ENDSEC
  0
SECTION
  2
ENTITIES
  0
LINE
  5
2B
330
2
100
AcDbEntity
  8
OBJECT
100
AcDbLine
 10
83.26214428571686
 20
154.0224190615568
 30
0.0
 11
50.16214428571696
 21
154.0224190615568
 31
0.0
  0
LINE
  5
2D
330
2
100
AcDbEntity
  8
OBJECT
100
AcDbLine
 10
84.06214428571706
 20
139.4224190615569
 30
0.0
 11
49.36214428571725
 21
139.4224190615569
 31
0.0
  0
LINE
  5
2E
330
2
100
AcDbEntity
  8
OBJECT
100
AcDbLine
 10
90.70702585585058
 20
139.4224190615569
 30
0.0
 11
42.70702585585057
 21
139.4224190615569
 31
0.0
  0
DIMENSION
  5
2F
330
2
100
AcDbEntity
  8
DIMS
100
AcDbDimension
  2
*D22
 10
84.06214428571706
 20
158.8922983897321
 30
0.0
 11
66.78653282554467
 21
158.8922983897321
 31
0.0
 70
   160
  3
DMST_1
100
AcDbAlignedDimension
 13
49.36214428571725
 23
153.2224190615571
 33
0.0
 14
84.06214428571706
 24
153.2224190615571
 34
0.0
100
AcDbRotatedDimension
  0
LINE
  5
3D
330
2
100
AcDbEntity
  8
OBJECT
100
AcDbLine
 10
42.70702585585057
 20
83.4224190615572
 30
0.0
 11
90.70702585585058
 21
83.4224190615572
 31
0.0
  0
DIMENSION
  5
3E
330
2
100
AcDbEntity
  8
DIMS
100
AcDbDimension
  2
*D30
 10
90.2770258558503
 20
75.88545121367758
 30
0.0
 11
66.64420511491676
 21
75.88545121367758
 31
0.0
 70
   160
  3
DMST_2
100
AcDbAlignedDimension
 13
43.13702585585041
 23
85.60272969050435
 33
0.0
 14
90.2770258558503
 24
85.60272969050435
 34
0.0
100
AcDbRotatedDimension
  0
CIRCLE
  5
4B
330
2
100
AcDbEntity
  8
OBJECT
100
AcDbCircle
 10
66.70702585585059
 20
111.4224190615569
 30
0.0
 40
19.05
  0
CIRCLE
  5
4C
330
2
100
AcDbEntity
  8
OBJECT
100
AcDbCircle
 10
66.70702609636625
 20
111.4224190615569
 30
0.0
 40
17.5
  0
CIRCLE
  5
4D
330
2
100
AcDbEntity
  8
OBJECT
100
AcDbCircle
 10
66.70702633688165
 20
111.4224188919854
 30
0.0
 40
14.5
  0
TEXT
  5
4E
330
2
100
AcDbEntity
  8
OBJECT
 48
0.5
100
AcDbText
 10
31.45581632324524
 20
191.547663092539
 30
0.0
 40
4.0
  1
CM1-□-23L20/S30　外形寸法　                                       単位：mm
  7
ROMAN
100
AcDbText
  0
LINE
  5
4F
330
2
100
AcDbEntity
  8
CENTER
 48
0.5
100
AcDbLine
 10
94.70702585585035
 20
111.4224190615569
 30
0.0
 11
38.70702585585059
 21
111.4224190615569
 31
0.0
  0
DIMENSION
  5
52
330
2
100
AcDbEntity
  8
DIMS
100
AcDbDimension
  2
*D28
 10
94.70702585585058
 20
67.40128237234455
 30
0.0
 11
66.81432216996995
 21
67.40128237234455
 31
0.0
 70
   160
  1
\U+25A1<>
  3
STANDARD
100
AcDbAlignedDimension
 13
38.70702585585059
 23
87.79741906155718
 33
0.0
 14
94.70702585585058
 24
87.79741906155718
 34
0.0
100
AcDbRotatedDimension
  0
LINE
  5
5F
330
2
100
AcDbEntity
  8
OBJECT
100
AcDbLine
 10
49.36214428571725
 20
143.0850292973
 30
0.0
 11
45.71214447278475
 21
139.4224190615569
 31
0.0
  0
LINE
  5
60
330
2
100
AcDbEntity
  8
OBJECT
100
AcDbLine
 10
49.96214428571715
 20
147.0224190615571
 30
0.0
 11
49.96214428571715
 21
139.4224190615569
 31
0.0
  0
LINE
  5
61
330
2
100
AcDbEntity
  8
OBJECT
100
AcDbLine
 10
49.36214428571725
 20
153.2224190615571
 30
0.0
 11
49.36214428571725
 21
139.4224190615569
 31
0.0
  0
LINE
  5
62
330
2
100
AcDbEntity
  8
CENTER
 48
0.5
100
AcDbLine
 10
66.71214465985258
 20
83.4224190615572
 30
0.0
 11
66.71214418817474
 21
154.0224190615568
 31
0.0
  0
DIMENSION
  5
63
330
2
100
AcDbEntity
  8
DIMS
100
AcDbDimension
  2
*D23
 10
23.10502309389403
 20
83.42241906155722
 30
0.0
 11
23.10502309389403
 21
116.8757511150553
 31
0.0
 70
   160
  1
(70.6)
  3
DMST_1
100
AcDbAlignedDimension
 13
50.36214428571724
 23
154.0224190615568
 33
0.0
 14
42.45702585585036
 24
83.4224190615572
 34
0.0
 50
90.0
100
AcDbRotatedDimension
  0
CIRCLE
  5
70
330
2
100
AcDbEntity
  8
OBJECT
100
AcDbCircle
 10
41.71214457634004
 20
95.922420703204
 30
0.0
 40
2.799999999999998
  0
ARC
  5
71
330
2
100
AcDbEntity
  8
OBJECT
100
AcDbCircle
 10
41.70190800803175
 20
95.9089907049864
 30
0.0
 40
3.5
100
AcDbArc
 50
270.0000014467746
 51
90.00000144677478
  0
LINE
  5
72
330
2
100
AcDbEntity
  8
OBJECT
100
AcDbLine
 10
38.70702585585059
 20
135.4224190615569
 30
0.0
 11
38.70702585585059
 21
87.42241906155717
 31
0.0
  0
DIMENSION
  5
73
330
2
100
AcDbEntity
  8
DIMS
100
AcDbDimension
  2
*D29
 10
32.68675064536344
 20
134.9924190615569
 30
0.0
 11
32.68675064536342
 21
111.3894536450287
 31
0.0
 70
   160
  3
DMST_2
100
AcDbAlignedDimension
 13
40.6370258558504
 23
87.85241906155704
 33
0.0
 14
40.6370258558504
 24
134.9924190615569
 34
0.0
 50
90.0
100
AcDbRotatedDimension
  0
LINE
  5
80
330
2
100
AcDbEntity
  8
OBJECT
100
AcDbLine
 10
41.35859125722936
 20
96.98308089881118
 30
0.0
 11
40.69639168928211
 21
97.64528055601649
 31
0.0
  0
LINE
  5
81
330
2
100
AcDbEntity
  8
OBJECT
100
AcDbLine
 10
41.35859111426406
 20
94.86176055525163
 30
0.0
 11
40.69639145705901
 21
94.19956098730393
 31
0.0
  0
LINE
  5
82
330
2
100
AcDbEntity
  8
OBJECT
100
AcDbLine
 10
41.7019080964103
 20
92.40899070498642
 30
0.0
 11
39.70702681698934
 21
92.40899065461404
 31
0.0
  0
CIRCLE
  5
83
330
2
100
AcDbEntity
  8
OBJECT
100
AcDbCircle
 10
43.13702585585041
 20
87.85241906155704
 30
0.0
 40
2.25
  0
ARC
  5
84
330
2
100
AcDbEntity
  8
OBJECT
100
AcDbCircle
 10
42.70702585585057
 20
87.42241906155717
 30
0.0
 40
4.0
100
AcDbArc
 50
180.0
 51
270.0
  0
LINE
  5
85
330
2
100
AcDbEntity
  8
CENTER
100
AcDbLine
 10
40.6370258558504
 20
87.85241906155704
 30
0.0
 11
45.63702585585041
 21
87.85241906155704
 31
0.0
  0
ARC
  5
86
330
2
100
AcDbEntity
  8
OBJECT
100
AcDbCircle
 10
41.71214457634004
 20
95.922420703204
 30
0.0
 40
2.0
100
AcDbArc
 50
120.5224839526432
 51
149.4775083245071
  0
ARC
  5
87
330
2
100
AcDbEntity
  8
OBJECT
100
AcDbCircle
 10
40.29793101396694
 20
95.92242079851429
 30
0.0
 40
0.5
100
AcDbArc
 50
314.9999961385773
 51
44.99999613857739
  0
LINE
  5
88
330
2
100
AcDbEntity
  8
OBJECT
100
AcDbLine
 10
40.65148438073288
 20
95.5688673840933
 30
0.0
 11
39.98928472352758
 21
94.90666781614562
 31
0.0
  0
ARC
  5
89
330
2
100
AcDbEntity
  8
OBJECT
100
AcDbCircle
 10
41.71214457634004
 20
95.922420703204
 30
0.0
 40
2.0
100
AcDbArc
 50
210.5224839526432
 51
239.4775083245038
  0
ARC
  5
8A
330
2
100
AcDbEntity
  8
OBJECT
100
AcDbCircle
 10
39.70702684224056
 20
91.40899065461384
 30
0.0
 40
0.9999999999999944
100
AcDbArc
 50
90.00000144677478
 51
180.0000014467746
  0
LINE
  5
8B
330
2
100
AcDbEntity
  8
OBJECT
100
AcDbLine
 10
40.6514844283879
 20
96.27597416527976
 30
0.0
 11
39.98928486044018
 21
96.93817382248504
 31
0.0
  0
ARC
  5
8C
330
2
100
AcDbEntity
  8
OBJECT
100
AcDbCircle
 10
41.71214457634004
 20
95.922420703204
 30
0.0
 40
2.0
100
AcDbArc
 50
30.52248395264882
 51
59.47750832450725
  0
LINE
  5
8D
330
2
100
AcDbEntity
  8
OBJECT
100
AcDbLine
 10
42.72789769562109
 20
97.64528041910409
 30
0.0
 11
42.06569803841626
 21
96.98308085115641
 31
0.0
  0
ARC
  5
8E
330
2
100
AcDbEntity
  8
OBJECT
100
AcDbCircle
 10
41.71214467165031
 20
97.33663426557692
 30
0.0
 40
0.5
100
AcDbArc
 50
224.9999961385774
 51
314.9999961385773
  0
LINE
  5
8F
330
2
100
AcDbEntity
  8
OBJECT
100
AcDbLine
 10
43.43500429224036
 20
94.90666758392295
 30
0.0
 11
42.7728047242922
 21
95.56886724112805
 31
0.0
  0
ARC
  5
90
330
2
100
AcDbEntity
  8
OBJECT
100
AcDbCircle
 10
41.71214457634004
 20
95.922420703204
 30
0.0
 40
2.0
100
AcDbArc
 50
300.5224839526488
 51
329.4775083245072
  0
ARC
  5
91
330
2
100
AcDbEntity
  8
OBJECT
100
AcDbCircle
 10
43.12635813871316
 20
95.92242060789372
 30
0.0
 40
0.5
100
AcDbArc
 50
134.9999961385771
 51
224.9999961385774
  0
LINE
  5
92
330
2
100
AcDbEntity
  8
OBJECT
100
AcDbLine
 10
42.72789746339845
 20
94.19956085039157
 30
0.0
 11
42.0656978954505
 21
94.86176050759658
 31
0.0
  0
ARC
  5
93
330
2
100
AcDbEntity
  8
OBJECT
100
AcDbCircle
 10
41.71214448102978
 20
94.50820714083091
 30
0.0
 40
0.5
100
AcDbArc
 50
44.99999613857739
 51
134.9999961385771
  0
LINE
  5
94
330
2
100
AcDbEntity
  8
CENTER
100
AcDbLine
 10
43.13702585585041
 20
85.35241906155704
 30
0.0
 11
43.13702585585041
 21
90.35241906155704
 31
0.0
  0
LINE
  5
95
330
2
100
AcDbEntity
  8
OBJECT
100
AcDbLine
 10
43.43500442915249
 20
96.93817359026221
 30
0.0
 11
42.77280477194746
 21
96.27597402231449
 31
0.0
  0
LINE
  5
96
330
2
100
AcDbEntity
  8
OBJECT
100
AcDbLine
 10
41.70190713619468
 20
130.43584615532
 30
0.0
 11
39.70702585677395
 21
130.4358461049474
 31
0.0
  0
LINE
  5
97
330
2
100
AcDbEntity
  8
OBJECT
100
AcDbLine
 10
41.35859090715371
 20
127.9830775488229
 30
0.0
 11
40.69639124994842
 21
128.6452771167708
 31
0.0
  0
LINE
  5
98
330
2
100
AcDbEntity
  8
OBJECT
100
AcDbLine
 10
41.35859105011877
 20
125.8617572052634
 30
0.0
 11
40.69639148217106
 21
125.1995575480584
 31
0.0
  0
LINE
  5
99
330
2
100
AcDbEntity
  8
OBJECT
100
AcDbLine
 10
41.70190733633512
 20
123.4358461553199
 30
0.0
 11
39.70702603353084
 21
123.435846104947
 31
0.0
  0
CIRCLE
  5
9A
330
2
100
AcDbEntity
  8
OBJECT
100
AcDbCircle
 10
41.71214436922968
 20
126.9224174008708
 30
0.0
 40
2.799999999999998
  0
CIRCLE
  5
9B
330
2
100
AcDbEntity
  8
OBJECT
100
AcDbCircle
 10
43.13702585585041
 20
134.9924190615569
 30
0.0
 40
2.25
  0
ARC
  5
9C
330
2
100
AcDbEntity
  8
OBJECT
100
AcDbCircle
 10
42.70702585585057
 20
135.4224190615569
 30
0.0
 40
4.0
100
AcDbArc
 50
90.0
 51
180.0
  0
LINE
  5
9D
330
2
100
AcDbEntity
  8
CENTER
100
AcDbLine
 10
40.6370258558504
 20
134.9924190615569
 30
0.0
 11
45.63702585585041
 21
134.9924190615569
 31
0.0
  0
LINE
  5
9E
330
2
100
AcDbEntity
  8
OBJECT
100
AcDbLine
 10
41.70190794303699
 20
99.40899070498645
 30
0.0
 11
39.70702664023267
 21
99.40899065461385
 31
0.0
  0
ARC
  5
9F
330
2
100
AcDbEntity
  8
OBJECT
100
AcDbCircle
 10
39.70702661498171
 20
100.4089906546134
 30
0.0
 40
0.9999999999999944
100
AcDbArc
 50
180.0000014467746
 51
270.0000014467746
  0
ARC
  5
A0
330
2
100
AcDbEntity
  8
OBJECT
100
AcDbCircle
 10
39.7070258315232
 20
131.4358461049474
 30
0.0
 40
0.9999999999999944
100
AcDbArc
 50
180.0000014467746
 51
270.0000014467746
  0
LINE
  5
A1
330
2
100
AcDbEntity
  8
OBJECT
100
AcDbLine
 10
40.65148417362206
 20
127.2759707199815
 30
0.0
 11
39.989284516417
 21
127.9381702879289
 31
0.0
  0
ARC
  5
A2
330
2
100
AcDbEntity
  8
OBJECT
100
AcDbCircle
 10
41.71214436922968
 20
126.9224174008708
 30
0.0
 40
2.0
100
AcDbArc
 50
120.522491675496
 51
149.4775160473508
  0
LINE
  5
A3
330
2
100
AcDbEntity
  8
OBJECT
100
AcDbLine
 10
40.65148422127708
 20
126.5688639387949
 30
0.0
 11
39.98928465332937
 21
125.9066642815899
 31
0.0
  0
ARC
  5
A4
330
2
100
AcDbEntity
  8
OBJECT
100
AcDbCircle
 10
39.70702605878182
 20
122.435846104947
 30
0.0
 40
0.9999999999999944
100
AcDbArc
 50
90.00000144677478
 51
180.0000014467746
  0
ARC
  5
A5
330
2
100
AcDbEntity
  8
OBJECT
100
AcDbCircle
 10
41.71214436922968
 20
126.9224174008708
 30
0.0
 40
2.0
100
AcDbArc
 50
210.5224916754927
 51
239.4775160473566
  0
ARC
  5
A6
330
2
100
AcDbEntity
  8
OBJECT
100
AcDbCircle
 10
40.29793080685634
 20
126.9224173055607
 30
0.0
 40
0.5
100
AcDbArc
 50
315.0000038614226
 51
45.0000038614226
  0
CIRCLE
  5
A7
330
2
100
AcDbEntity
  8
OBJECT
100
AcDbCircle
 10
66.71214447278476
 20
111.4224190615569
 30
0.0
 40
2.674999999999998
  0
LINE
  5
A8
330
2
100
AcDbEntity
  8
OBJECT
100
AcDbLine
 10
68.42240761043353
 20
114.0974190615569
 30
0.0
 11
65.00188133513622
 21
114.0974190615569
 31
0.0
  0
CIRCLE
  5
A9
330
2
100
AcDbEntity
  8
OBJECT
100
AcDbCircle
 10
66.71214447278476
 20
111.4224190615569
 30
0.0
 40
3.174999999999998
  0
LINE
  5
AA
330
2
100
AcDbEntity
  8
OBJECT
100
AcDbLine
 10
43.43500408512932
 20
127.9381705201517
 30
0.0
 11
42.77280451718161
 21
127.2759708629467
 31
0.0
  0
ARC
  5
AB
330
2
100
AcDbEntity
  8
OBJECT
100
AcDbCircle
 10
41.71214436922968
 20
126.9224174008708
 30
0.0
 40
2.0
100
AcDbArc
 50
30.52249167549275
 51
59.47751604735117
  0
LINE
  5
AC
330
2
100
AcDbEntity
  8
OBJECT
100
AcDbLine
 10
42.72789725628785
 20
128.6452772536832
 30
0.0
 11
42.06569768833992
 21
127.9830775964782
 31
0.0
  0
ARC
  5
AD
330
2
100
AcDbEntity
  8
OBJECT
100
AcDbCircle
 10
41.71214427391919
 20
128.3366309632441
 30
0.0
 40
0.5
100
AcDbArc
 50
225.0000038614226
 51
315.0000038614226
  0
ARC
  5
AE
330
2
100
AcDbEntity
  8
OBJECT
100
AcDbCircle
 10
41.71214436922968
 20
126.9224174008708
 30
0.0
 40
2.0
100
AcDbArc
 50
300.5224916754926
 51
329.4775160473511
  0
LINE
  5
AF
330
2
100
AcDbEntity
  8
OBJECT
100
AcDbLine
 10
43.43500422204193
 20
125.9066645138126
 30
0.0
 11
42.77280456483707
 21
126.5688640817602
 31
0.0
  0
LINE
  5
B0
330
2
100
AcDbEntity
  8
OBJECT
100
AcDbLine
 10
42.7278974885105
 20
125.1995576849709
 30
0.0
 11
42.06569783130542
 21
125.8617572529185
 31
0.0
  0
ARC
  5
B1
330
2
100
AcDbEntity
  8
OBJECT
100
AcDbCircle
 10
41.71214446453972
 20
125.5082038384979
 30
0.0
 40
0.5
100
AcDbArc
 50
45.0000038614226
 51
135.0000038614225
  0
ARC
  5
B2
330
2
100
AcDbEntity
  8
OBJECT
100
AcDbCircle
 10
43.12635793160256
 20
126.9224174961812
 30
0.0
 40
0.5
100
AcDbArc
 50
135.0000038614225
 51
225.0000038614226
  0
ARC
  5
B3
330
2
100
AcDbEntity
  8
OBJECT
100
AcDbCircle
 10
41.70190722457323
 20
126.9358461553198
 30
0.0
 40
3.5
100
AcDbArc
 50
270.0000014467746
 51
90.00000144677478
  0
LINE
  5
B4
330
2
100
AcDbEntity
  8
CENTER
100
AcDbLine
 10
43.13702585585041
 20
132.4924190615571
 30
0.0
 11
43.13702585585041
 21
137.4924190615569
 31
0.0
  0
LINE
  5
B5
330
2
100
AcDbEntity
  8
OBJECT
100
AcDbLine
 10
50.36214428571724
 20
153.422419061557
 30
0.0
 11
50.16214428571696
 21
153.422419061557
 31
0.0
  0
ARC
  5
B6
330
2
100
AcDbEntity
  8
OBJECT
100
AcDbCircle
 10
50.16214428571696
 20
153.2224190615571
 30
0.0
 40
0.2
100
AcDbArc
 50
90.0
 51
180.0
  0
LINE
  5
B7
330
2
100
AcDbEntity
  8
OBJECT
100
AcDbLine
 10
50.36214428571724
 20
154.0224190615568
 30
0.0
 11
50.36214428571724
 21
152.9224190615569
 31
0.0
  0
LINE
  5
B8
330
2
100
AcDbEntity
  8
OBJECT
100
AcDbLine
 10
49.96214428571715
 20
153.2224190615571
 30
0.0
 11
49.96214428571715
 21
152.5224190615575
 31
0.0
  0
ARC
  5
B9
330
2
100
AcDbEntity
  8
OBJECT
100
AcDbCircle
 10
50.16214428571696
 20
153.2224190615571
 30
0.0
 40
0.8
100
AcDbArc
 50
90.0
 51
180.0
  0
LINE
  5
BA
330
2
100
AcDbEntity
  8
OBJECT
100
AcDbLine
 10
49.96214428571715
 20
147.0224190615571
 30
0.0
 11
49.36214428571725
 21
147.0224190615571
 31
0.0
  0
LINE
  5
BB
330
2
100
AcDbEntity
  8
OBJECT
100
AcDbLine
 10
50.36214428571724
 20
152.9224190615569
 30
0.0
 11
49.36214428571725
 21
151.9224190615569
 31
0.0
  0
LINE
  5
BC
330
2
100
AcDbEntity
  8
OBJECT
100
AcDbLine
 10
101.686342614568
 20
43.40309661319178
 30
0.0
 11
181.686342614568
 21
43.40309661319178
 31
0.0
  0
LINE
  5
BD
330
2
100
AcDbEntity
  8
OBJECT
100
AcDbLine
 10
101.686342614568
 20
36.40309661319179
 30
0.0
 11
181.686342614568
 21
36.40309661319202
 31
0.0
  0
LINE
  5
BE
330
2
100
AcDbEntity
  8
OBJECT
100
AcDbLine
 10
101.686342614568
 20
29.40309661319179
 30
0.0
 11
181.686342614568
 21
29.40309661319179
 31
0.0
  0
LINE
  5
BF
330
2
100
AcDbEntity
  8
OBJECT
100
AcDbLine
 10
101.686342614568
 20
22.40309661319179
 30
0.0
 11
181.686342614568
 21
22.40309661319179
 31
0.0
  0
TEXT
  5
C0
330
2
100
AcDbEntity
  8
OBJECT
100
AcDbText
 10
107.0945663432177
 20
24.79457621082723
 30
0.0
 40
2.5
  1
CM1-□-23S30
  7
ROMAN
100
AcDbText
  0
TEXT
  5
C1
330
2
100
AcDbEntity
  8
OBJECT
100
AcDbText
 10
107.0945663432177
 20
31.2658056572793
 30
0.0
 40
2.5
  1
CM1-□-23L20
  7
ROMAN
100
AcDbText
  0
LINE
  5
C2
330
2
100
AcDbEntity
  8
OBJECT
100
AcDbLine
 10
101.686342614568
 20
22.40309661319179
 30
0.0
 11
101.686342614568
 21
43.40309661319178
 31
0.0
  0
LINE
  5
C3
330
2
100
AcDbEntity
  8
OBJECT
100
AcDbLine
 10
141.6863426145678
 20
22.40309661319179
 30
0.0
 11
141.6863426145678
 21
43.40309661319178
 31
0.0
  0
TEXT
  5
C4
330
2
100
AcDbEntity
  8
OBJECT
100
AcDbText
 10
114.6157469432729
 20
38.30288273997485
 30
0.0
 40
2.5
  1
MODEL
  7
ROMAN
100
AcDbText
  0
LINE
  5
C5
330
2
100
AcDbEntity
  8
OBJECT
100
AcDbLine
 10
181.686342614568
 20
22.40309661319179
 30
0.0
 11
181.686342614568
 21
43.40309661319178
 31
0.0
  0
TEXT
  5
C6
330
2
100
AcDbEntity
  8
OBJECT
100
AcDbText
 10
154.8117600991825
 20
24.33383140589217
 30
0.0
 40
2.5
  1
71.5
  7
ROMAN
100
AcDbText
  0
TEXT
  5
C7
330
2
100
AcDbEntity
  8
OBJECT
100
AcDbText
 10
154.8117600991825
 20
31.33383140589216
 30
0.0
 40
2.5
  1
105.5
  7
ROMAN
100
AcDbText
  0
TEXT
  5
C8
330
2
100
AcDbEntity
  8
OBJECT
100
AcDbText
 10
158.3550250064901
 20
38.55300898494101
 30
0.0
 40
2.5
  1
L
  7
ROMAN
100
AcDbText
  0
LINE
  5
C9
330
2
100
AcDbEntity
  8
OBJECT
100
AcDbLine
 10
236.0626649139728
 20
154.0224190615571
 30
0.0
 11
215.4626649139725
 21
154.0224190615571
 31
0.0
  0
LINE
  5
CA
330
2
100
AcDbEntity
  8
OBJECT
100
AcDbLine
 10
231.6626649139725
 20
140.7224190615571
 30
0.0
 11
219.0626649139723
 21
140.7224190615571
 31
0.0
  0
LINE
  5
CB
330
2
100
AcDbEntity
  8
OBJECT
100
AcDbLine
 10
219.5126649139722
 20
140.4224190615569
 30
0.0
 11
230.5126649139724
 21
140.4224190615569
 31
0.0
  0
LINE
  5
E6
330
2
100
AcDbEntity
  8
OBJECT
100
AcDbLine
 10
160.5126649139726
 20
129.9224190615572
 30
0.0
 11
231.5126649139727
 21
129.9224190615572
 31
0.0
  0
LINE
  5
E7
330
2
100
AcDbEntity
  8
OBJECT
100
AcDbLine
 10
160.5126649139726
 20
92.92241906155719
 30
0.0
 11
231.5126649139727
 21
92.92241906155719
 31
0.0
  0
LINE
  5
E8
330
2
100
AcDbEntity
  8
OBJECT
100
AcDbLine
 10
230.5126649139724
 20
83.4224190615572
 30
0.0
 11
156.5126649139726
 21
83.4224190615572
 31
0.0
  0
LINE
  5
E9
330
2
100
AcDbEntity
  8
CENTER
 48
0.5
100
AcDbLine
 10
261.0126649139723
 20
111.4224190615569
 30
0.0
 11
134.041163368832
 21
111.4224190615569
 31
0.0
  0
DIMENSION
  5
EA
330
2
100
AcDbEntity
  8
DIMS
100
AcDbDimension
  2
*D31
 10
155.5126649139724
 20
67.4355468048926
 30
0.0
 11
204.5158715904964
 21
67.4355468048926
 31
0.0
 70
   160
  1
L
  3
STANDARD
100
AcDbAlignedDimension
 13
261.0126649139723
 23
90.42241906155719
 33
0.0
 14
155.5126649139724
 24
84.4224190615572
 34
0.0
100
AcDbRotatedDimension
  0
LINE
  5
F7
102
{ACAD_REACTORS
330
1015
102
}
330
2
100
AcDbEntity
  8
OBJECT
100
AcDbLine
 10
214.6626649139723
 20
153.2224190615571
 30
0.0
 11
214.6626649139723
 21
139.4224190615572
 31
0.0
  0
DIMENSION
  5
F8
330
2
100
AcDbEntity
  8
DIMS
100
AcDbDimension
  2
*D37
 10
210.0717758511323
 20
139.4224190615569
 30
0.0
 11
210.0717758511323
 21
147.490465295705
 31
0.0
 70
   160
  3
DMST_4
100
AcDbAlignedDimension
 13
215.6626649139725
 23
154.0224190615571
 33
0.0
 14
214.8376649139724
 24
139.4224190615569
 34
0.0
 50
270.0
100
AcDbRotatedDimension
  0
DIMENSION
  5
105
330
2
100
AcDbEntity
  8
DIMS
100
AcDbDimension
  2
*D33
 10
160.5126649139726
 20
145.8665391733386
 30
0.0
 11
158.0126649139726
 21
145.8665391733386
 31
0.0
 70
   160
  3
STANDARD
100
AcDbAlignedDimension
 13
155.5126649139724
 23
138.4224190615569
 33
0.0
 14
160.5126649139726
 24
139.4224190615569
 34
0.0
100
AcDbRotatedDimension
  0
LINE
  5
114
330
2
100
AcDbEntity
  8
OBJECT
100
AcDbLine
 10
84.06214428571706
 20
143.0850296714349
 30
0.0
 11
87.71214447278497
 21
139.4224190615569
 31
0.0
  0
LINE
  5
115
330
2
100
AcDbEntity
  8
OBJECT
100
AcDbLine
 10
83.46214428571716
 20
147.0224190615571
 30
0.0
 11
83.46214428571716
 21
139.4224190615569
 31
0.0
  0
LINE
  5
116
330
2
100
AcDbEntity
  8
OBJECT
100
AcDbLine
 10
84.06214428571706
 20
153.2224190615571
 30
0.0
 11
84.06214428571706
 21
139.4224190615569
 31
0.0
  0
LEADER
  5
117
330
2
100
AcDbEntity
  8
DIMS
100
AcDbLeader
  3
STANDARD
 76
     3
 10
91.5534392065779
 20
136.8453273048558
 30
0.0
 10
100.9519021804164
 20
150.4886267177306
 30
0.0
 10
118.3216909180315
 20
150.4886267177306
 30
0.0
1001
ACAD
1000
DSTYLE
1002
{
1070
     5
1000

1070
    41
1040
2.0
1070
    42
1040
0.625
1070
    43
1040
3.75
1070
    44
1040
0.625
1070
    73
1070
     0
1070
    74
1070
     0
1070
    77
1070
     0
1070
    78
1070
     8
1070
    79
1070
     2
1070
   140
1040
2.5
1070
   141
1040
2.5
1070
   143
1040
0.0394
1070
   147
1040
0.65
1070
   171
1070
     4
1070
   172
1070
     1
1070
   179
1070
     2
1070
   273
1070
     8
1070
   274
1070
     4
1070
   277
1070
     6
1070
   288
1070
     1
1070
   342
1005
0
1002
}
1000
LEANOF
1010
0.0
1020
0.0
1030
0.0
  0
DIMENSION
  5
118
330
2
100
AcDbEntity
  8
DIMS
100
AcDbDimension
  2
*D40
 10
149.9126649139727
 20
120.1695358416252
 30
0.0
 11
142.6649470907348
 21
120.1695358416252
 31
0.0
 70
   160
  3
DMST_3
100
AcDbAlignedDimension
 13
134.9126649139725
 23
114.0974190615569
 33
0.0
 14
149.9126649139727
 24
114.5974190615569
 34
0.0
100
AcDbRotatedDimension
  0
LINE
  5
132
330
2
100
AcDbEntity
  8
OBJECT
100
AcDbLine
 10
135.4126649139727
 20
108.247419061557
 30
0.0
 11
153.9126649139724
 21
108.247419061557
 31
0.0
  0
LINE
  5
133
330
2
100
AcDbEntity
  8
OBJECT
100
AcDbLine
 10
134.9126649139725
 20
114.0974190615569
 30
0.0
 11
149.9126649139727
 21
114.0974190615569
 31
0.0
  0
DIMENSION
  5
134
330
2
100
AcDbEntity
  8
DIMS
100
AcDbDimension
  2
*D36
 10
155.5126649139724
 20
67.4355468048926
 30
0.0
 11
145.341754575274
 21
67.4355468048926
 31
0.0
 70
   160
  3
DMST_4
100
AcDbAlignedDimension
 13
134.9126649139725
 23
108.747419061557
 33
0.0
 14
155.5126649139724
 24
84.4224190615572
 34
0.0
100
AcDbRotatedDimension
  0
DIMENSION
  5
141
330
2
100
AcDbEntity
  8
DIMS
100
AcDbDimension
  2
*D38
 10
115.5295478214806
 20
92.372419061557
 30
0.0
 11
115.5295478214806
 21
111.4554411309935
 31
0.0
 70
   160
  1
<>
  3
STANDARD
100
AcDbAlignedDimension
 13
153.9126649139724
 23
130.4724190615571
 33
0.0
 14
153.9126649139724
 24
92.372419061557
 34
0.0
 50
90.0
100
AcDbRotatedDimension
1001
ACAD
1000
DSTYLE
1002
{
1070
    41
1040
2.0
1070
    47
1040
0.03
1070
     3
1000
φ<>
1070
   284
1070
     8
1070
   283
1070
     0
1070
   146
1040
0.7
1070
    48
1040
0.03
1070
   147
1040
0.65
1070
    72
1070
     0
1070
    71
1070
     1
1002
}
  0
DIMENSION
  5
14E
330
2
100
AcDbEntity
  8
DIMS
100
AcDbDimension
  2
*D41
 10
129.5295478214806
 20
108.247419061557
 30
0.0
 11
129.5295478214806
 21
100.282419061557
 31
0.0
 70
   160
  3
DMST_3
100
AcDbAlignedDimension
 13
134.9126649139725
 23
114.0974190615569
 33
0.0
 14
135.4126649139727
 24
108.247419061557
 34
0.0
 50
90.0
100
AcDbRotatedDimension
1001
ACAD
1000
DSTYLE
1002
{
1070
   287
1070
     3
1070
   140
1040
2.0
1070
   279
1070
     0
1002
}
  0
LINE
  5
15B
330
2
100
AcDbEntity
  8
OBJECT
100
AcDbLine
 10
94.70702585585035
 20
135.4224190615569
 30
0.0
 11
94.70702585585035
 21
87.42241906155717
 31
0.0
  0
ARC
  5
15C
330
2
100
AcDbEntity
  8
OBJECT
100
AcDbCircle
 10
91.71214457642987
 20
95.90899133639039
 30
0.0
 40
3.5
100
AcDbArc
 50
90.0
 51
270.0
  0
CIRCLE
  5
15D
330
2
100
AcDbEntity
  8
OBJECT
100
AcDbCircle
 10
91.71214457642987
 20
95.90899133639039
 30
0.0
 40
2.799999999999998
  0
ARC
  5
15E
330
2
100
AcDbEntity
  8
OBJECT
100
AcDbCircle
 10
90.70702585585058
 20
87.42241906155717
 30
0.0
 40
4.0
100
AcDbArc
 50
270.0
 51
0.0
  0
ARC
  5
15F
330
2
100
AcDbEntity
  8
OBJECT
100
AcDbCircle
 10
93.70702585585034
 20
91.40899133639038
 30
0.0
 40
0.9999999999999944
100
AcDbArc
 50
0.0
 51
90.0
  0
LINE
  5
160
330
2
100
AcDbEntity
  8
OBJECT
100
AcDbLine
 10
94.70702585585035
 20
87.42241906155717
 30
0.0
 11
94.70702585585035
 21
87.85241906155704
 31
0.0
  0
LINE
  5
161
330
2
100
AcDbEntity
  8
OBJECT
100
AcDbLine
 10
94.70702585585035
 20
87.42241906155717
 30
0.0
 11
94.70702585585035
 21
87.85241906155704
 31
0.0
  0
LINE
  5
162
330
2
100
AcDbEntity
  8
OBJECT
100
AcDbLine
 10
92.06626781594128
 20
96.96946138841338
 30
0.0
 11
92.72882313730317
 21
97.63130510102804
 31
0.0
  0
LINE
  5
163
330
2
100
AcDbEntity
  8
OBJECT
100
AcDbLine
 10
90.69731742421049
 20
97.6323966430781
 30
0.0
 11
91.3591611368249
 21
96.96984132171557
 31
0.0
  0
ARC
  5
164
330
2
100
AcDbEntity
  8
OBJECT
100
AcDbCircle
 10
91.71290444303414
 20
97.32320469462266
 30
0.0
 40
0.5
100
AcDbArc
 50
224.9692145849301
 51
314.9692145849301
  0
ARC
  5
165
330
2
100
AcDbEntity
  8
OBJECT
100
AcDbCircle
 10
91.71214457642987
 20
95.90899133639039
 30
0.0
 40
2.0
100
AcDbArc
 50
30.49170239900014
 51
59.44672677085765
  0
ARC
  5
166
330
2
100
AcDbEntity
  8
OBJECT
100
AcDbCircle
 10
91.71214457642987
 20
95.90899133639039
 30
0.0
 40
2.0
100
AcDbArc
 50
120.4917023990001
 51
149.4467267708575
  0
LINE
  5
167
330
2
100
AcDbEntity
  8
OBJECT
100
AcDbLine
 10
92.06512801603478
 20
94.84814135106478
 30
0.0
 11
92.726971728649
 21
94.18558602970293
 31
0.0
  0
ARC
  5
168
330
2
100
AcDbEntity
  8
OBJECT
100
AcDbCircle
 10
90.29793121819762
 20
95.90975120299473
 30
0.0
 40
0.5
100
AcDbArc
 50
314.9692145849257
 51
44.96921458493027
  0
LINE
  5
169
330
2
100
AcDbEntity
  8
OBJECT
100
AcDbLine
 10
90.69546601555634
 20
94.18667757175295
 30
0.0
 11
91.35802133691868
 21
94.84852128436717
 31
0.0
  0
ARC
  5
16A
330
2
100
AcDbEntity
  8
OBJECT
100
AcDbCircle
 10
91.71138470982555
 20
94.49477797815815
 30
0.0
 40
0.5
100
AcDbArc
 50
44.96921458493027
 51
134.9692145849255
  0
ARC
  5
16B
330
2
100
AcDbEntity
  8
OBJECT
100
AcDbCircle
 10
93.12635793466213
 20
95.90823146978584
 30
0.0
 40
0.5
100
AcDbArc
 50
134.9692145849302
 51
224.9692145849301
  0
LINE
  5
16C
330
2
100
AcDbEntity
  8
OBJECT
100
AcDbLine
 10
92.77261462845286
 20
95.55486809687895
 30
0.0
 11
93.4344583410675
 21
94.89231277551708
 31
0.0
  0
ARC
  5
16D
330
2
100
AcDbEntity
  8
OBJECT
100
AcDbCircle
 10
91.71214457642987
 20
95.90899133639039
 30
0.0
 40
2.0
100
AcDbArc
 50
300.4917023990001
 51
329.4467267708576
  0
LINE
  5
16E
330
2
100
AcDbEntity
  8
OBJECT
100
AcDbLine
 10
89.98873926974217
 20
94.894164184171
 30
0.0
 11
90.65129459110449
 21
95.55600789678543
 31
0.0
  0
ARC
  5
16F
330
2
100
AcDbEntity
  8
OBJECT
100
AcDbCircle
 10
91.71214457642987
 20
95.90899133639039
 30
0.0
 40
2.0
100
AcDbArc
 50
210.4917023990001
 51
239.4467267708574
  0
LINE
  5
170
330
2
100
AcDbEntity
  8
CENTER
100
AcDbLine
 10
87.77702585585052
 20
87.85241906155704
 30
0.0
 11
92.77702585585052
 21
87.85241906155704
 31
0.0
  0
LINE
  5
171
330
2
100
AcDbEntity
  8
CENTER
100
AcDbLine
 10
90.27702585585052
 20
85.35241906155704
 30
0.0
 11
90.27702585585052
 21
90.35241906155704
 31
0.0
  0
CIRCLE
  5
172
330
2
100
AcDbEntity
  8
OBJECT
100
AcDbCircle
 10
90.27702585585052
 20
87.85241906155704
 30
0.0
 40
2.25
  0
LINE
  5
173
330
2
100
AcDbEntity
  8
OBJECT
100
AcDbLine
 10
92.77299456175502
 20
96.26197477599513
 30
0.0
 11
93.43554988311757
 21
96.92381848860954
 31
0.0
  0
LINE
  5
174
330
2
100
AcDbEntity
  8
OBJECT
100
AcDbLine
 10
89.98983081179222
 20
96.9256698972639
 30
0.0
 11
90.65167452440665
 21
96.26311457590157
 31
0.0
  0
LINE
  5
175
330
2
100
AcDbEntity
  8
OBJECT
100
AcDbLine
 10
91.71214457642987
 20
92.40899133639059
 30
0.0
 11
93.70702585585034
 21
92.40899133639059
 31
0.0
  0
ARC
  5
176
330
2
100
AcDbEntity
  8
OBJECT
100
AcDbCircle
 10
93.70702585585034
 20
100.4089913363902
 30
0.0
 40
0.9999999999999944
100
AcDbArc
 50
270.0
 51
0.0
  0
LINE
  5
177
330
2
100
AcDbEntity
  8
OBJECT
100
AcDbLine
 10
91.7121445530463
 20
99.40899133639041
 30
0.0
 11
93.70702585585034
 21
99.40899133639041
 31
0.0
  0
ARC
  5
178
330
2
100
AcDbEntity
  8
OBJECT
100
AcDbCircle
 10
90.70702585585058
 20
135.4224190615569
 30
0.0
 40
4.0
100
AcDbArc
 50
0.0
 51
90.0
  0
ARC
  5
179
330
2
100
AcDbEntity
  8
OBJECT
100
AcDbCircle
 10
93.7070258558506
 20
131.4358467867233
 30
0.0
 40
0.9999999999999944
100
AcDbArc
 50
270.0
 51
0.0
  0
ARC
  5
17A
330
2
100
AcDbEntity
  8
OBJECT
100
AcDbCircle
 10
93.70702585585034
 20
122.4358467867235
 30
0.0
 40
0.9999999999999944
100
AcDbArc
 50
0.0
 51
90.0
  0
LINE
  5
17B
330
2
100
AcDbEntity
  8
CENTER
100
AcDbLine
 10
87.77702585585052
 20
134.9924190615569
 30
0.0
 11
92.77702585585052
 21
134.9924190615569
 31
0.0
  0
LINE
  5
17C
330
2
100
AcDbEntity
  8
OBJECT
100
AcDbLine
 10
92.06626775177051
 20
127.9694535621747
 30
0.0
 11
92.728823162342
 21
128.6312971854837
 31
0.0
  0
LINE
  5
17D
330
2
100
AcDbEntity
  8
OBJECT
100
AcDbLine
 10
90.69731744939621
 20
128.632389001358
 30
0.0
 11
91.35916107270556
 21
127.969833590787
 31
0.0
  0
ARC
  5
17E
330
2
100
AcDbEntity
  8
OBJECT
100
AcDbCircle
 10
91.71290442654413
 20
128.3231969160132
 30
0.0
 40
0.5
100
AcDbArc
 50
224.9692068620837
 51
314.969206862084
  0
ARC
  5
17F
330
2
100
AcDbEntity
  8
OBJECT
100
AcDbCircle
 10
91.71214436931929
 20
126.9089835578834
 30
0.0
 40
2.0
100
AcDbArc
 50
30.49169467615328
 51
59.44671904801442
  0
LINE
  5
180
330
2
100
AcDbEntity
  8
OBJECT
100
AcDbLine
 10
92.77299440222281
 20
127.261966854497
 30
0.0
 11
93.43554981279451
 21
127.9238104778068
 31
0.0
  0
ARC
  5
181
330
2
100
AcDbEntity
  8
OBJECT
100
AcDbCircle
 10
91.71214436931929
 20
126.9089835578834
 30
0.0
 40
2.0
100
AcDbArc
 50
120.4916946761529
 51
149.4467190480144
  0
LINE
  5
182
330
2
100
AcDbEntity
  8
OBJECT
100
AcDbLine
 10
89.98983074171858
 20
127.9256623509059
 30
0.0
 11
90.65167436502816
 21
127.2631069403347
 31
0.0
  0
LINE
  5
183
330
2
100
AcDbEntity
  8
OBJECT
100
AcDbLine
 10
92.065127665933
 20
125.8481335249795
 30
0.0
 11
92.7269712892423
 21
125.1855781144084
 31
0.0
  0
LINE
  5
184
330
2
100
AcDbEntity
  8
OBJECT
100
AcDbLine
 10
90.69546557629655
 20
125.186669930283
 30
0.0
 11
91.35802098686804
 21
125.8485135535923
 31
0.0
  0
ARC
  5
185
330
2
100
AcDbEntity
  8
OBJECT
100
AcDbCircle
 10
91.71138431209442
 20
125.4947701997538
 30
0.0
 40
0.5
100
AcDbArc
 50
44.96920686208397
 51
134.9692068620839
  0
LINE
  5
186
330
2
100
AcDbEntity
  8
OBJECT
100
AcDbLine
 10
92.77261437361065
 20
126.554860175432
 30
0.0
 11
93.43445799691973
 21
125.8923047648607
 31
0.0
  0
ARC
  5
187
330
2
100
AcDbEntity
  8
OBJECT
100
AcDbCircle
 10
91.71214436931929
 20
126.9089835578834
 30
0.0
 40
2.0
100
AcDbArc
 50
300.4916946761531
 51
329.4467190480143
  0
LINE
  5
188
330
2
100
AcDbEntity
  8
OBJECT
100
AcDbLine
 10
89.98873892584402
 20
125.8941566379604
 30
0.0
 11
90.65129433641571
 21
126.5560002612694
 31
0.0
  0
ARC
  5
189
330
2
100
AcDbEntity
  8
OBJECT
100
AcDbCircle
 10
91.71214436931929
 20
126.9089835578834
 30
0.0
 40
2.0
100
AcDbArc
 50
210.4916946761531
 51
239.4467190480144
  0
ARC
  5
18A
330
2
100
AcDbEntity
  8
OBJECT
100
AcDbCircle
 10
90.29793101118936
 20
126.909743615108
 30
0.0
 40
0.5
100
AcDbArc
 50
314.969206862084
 51
44.96920686208397
  0
ARC
  5
18B
330
2
100
AcDbEntity
  8
OBJECT
100
AcDbCircle
 10
93.1263577274492
 20
126.9082235006588
 30
0.0
 40
0.5
100
AcDbArc
 50
134.9692068620839
 51
224.9692068620837
  0
ARC
  5
18C
330
2
100
AcDbEntity
  8
OBJECT
100
AcDbCircle
 10
91.71214457642987
 20
126.9358467867238
 30
0.0
 40
3.5
100
AcDbArc
 50
90.0
 51
270.0
  0
LINE
  5
18D
330
2
100
AcDbEntity
  8
CENTER
100
AcDbLine
 10
90.27702585585052
 20
132.4924190615571
 30
0.0
 11
90.27702585585052
 21
137.4924190615569
 31
0.0
  0
CIRCLE
  5
18E
330
2
100
AcDbEntity
  8
OBJECT
100
AcDbCircle
 10
90.27702585585052
 20
134.9924190615569
 30
0.0
 40
2.25
  0
LINE
  5
18F
330
2
100
AcDbEntity
  8
OBJECT
100
AcDbLine
 10
91.71214457642987
 20
130.4358467867233
 30
0.0
 11
93.7070258558506
 21
130.4358467867233
 31
0.0
  0
LINE
  5
190
330
2
100
AcDbEntity
  8
OBJECT
100
AcDbLine
 10
91.7121445530463
 20
123.4358467867235
 30
0.0
 11
93.7070258558506
 21
123.4358467867235
 31
0.0
  0
CIRCLE
  5
191
330
2
100
AcDbEntity
  8
OBJECT
100
AcDbCircle
 10
91.71214436931929
 20
126.9089835578834
 30
0.0
 40
2.799999999999998
  0
LINE
  5
192
330
2
100
AcDbEntity
  8
OBJECT
100
AcDbLine
 10
134.9126649139725
 20
108.747419061557
 30
0.0
 11
135.4126649139727
 21
108.247419061557
 31
0.0
  0
LINE
  5
193
330
2
100
AcDbEntity
  8
OBJECT
100
AcDbLine
 10
135.4126649139727
 20
114.0974190615569
 30
0.0
 11
135.4126649139727
 21
108.247419061557
 31
0.0
  0
LINE
  5
194
330
2
100
AcDbEntity
  8
OBJECT
100
AcDbLine
 10
134.9126649139725
 20
114.0974190615569
 30
0.0
 11
134.9126649139725
 21
108.747419061557
 31
0.0
  0
INSERT
  5
195
330
2
100
AcDbEntity
  8
OBJECT
100
AcDbBlockReference
  2
*X1
 10
51.32554314417598
 20
3.629102935503965
 30
0.0
1001
ACAD
1000
HATCH
1002
{
1070
    19
1000
ANSI31
1040
0.3
1040
3.926990816987241
1000
R14_HATCH_DATA
1000
814
1011
52.32554314417575
1021
3.629102935503965
1031
0.0
1011
51.32554314417598
1021
4.629102935503738
1031
0.0
1011
51.32554314417598
1021
3.629102935503965
1031
1.0
1040
0.0
1010
0.0
1020
0.0
1030
1.0
1000
ANSI31
1070
     0
1070
     0
1071
        2
1071
        7
1070
     0
1070
     1
1071
        4
1040
154.7990180141334
1040
89.29331612605324
1040
154.7999999999998
1040
79.79331612605327
1040
167.7999999999999
1040
79.79331612605324
1040
167.7999999999999
1040
89.2933161260532
1071
        0
1071
        7
1070
     0
1070
     1
1071
        4
1040
167.7999999999999
1040
89.29331612605325
1040
167.7999999999999
1040
99.79331612605321
1040
154.7988629638003
1040
90.79331547962736
1040
154.7990180141334
1040
89.29331612605324
1071
        0
1070
     0
1070
     1
1040
3.926990816987241
1040
0.3
1070
     0
1070
     1
1040
4.712388980384688
1040
281.9871217697969
1040
293.1413063025483
1040
0.9524999999999998
1040
-0.0000000000000003
1070
     0
1040
0.0832720573296724
1071
        2
1040
163.5975382110899
1040
87.08697173869648
1040
0.0
1040
164.5979522648489
1040
89.91822185806395
1040
0.0
1002
}
  0
LINE
  5
1B5
330
2
100
AcDbEntity
  8
OBJECT
100
AcDbLine
 10
165.5126649139724
 20
139.4224190615569
 30
0.0
 11
165.5126649139724
 21
83.4224190615572
 31
0.0
  0
LINE
  5
1B6
330
2
100
AcDbEntity
  8
OBJECT
100
AcDbLine
 10
219.5126649139722
 20
83.4224190615572
 30
0.0
 11
219.5126649139722
 21
140.4224190615569
 31
0.0
  0
LINE
  5
1B7
330
2
100
AcDbEntity
  8
OBJECT
100
AcDbLine
 10
153.9126649139724
 20
130.4724190615571
 30
0.0
 11
153.9126649139724
 21
92.372419061557
 31
0.0
  0
LINE
  5
1B8
330
2
100
AcDbEntity
  8
OBJECT
100
AcDbLine
 10
155.5126649139724
 20
84.4224190615572
 30
0.0
 11
155.5126649139724
 21
138.4224190615569
 31
0.0
  0
DIMENSION
  5
1B9
330
2
100
AcDbEntity
  8
DIMS
100
AcDbDimension
  2
*D32
 10
155.5126649139724
 20
75.90924381237454
 30
0.0
 11
164.6348077711153
 21
75.90924381237454
 31
0.0
 70
   160
  3
DMST_2
100
AcDbAlignedDimension
 13
153.9126649139724
 23
92.372419061557
 33
0.0
 14
155.5126649139724
 24
84.4224190615572
 34
0.0
100
AcDbRotatedDimension
  0
LINE
  5
1C8
330
2
100
AcDbEntity
  8
OBJECT
100
AcDbLine
 10
153.9126649139724
 20
92.372419061557
 30
0.0
 11
155.5126649139724
 21
92.372419061557
 31
0.0
  0
LINE
  5
1C9
330
2
100
AcDbEntity
  8
OBJECT
100
AcDbLine
 10
153.9126649139724
 20
92.372419061557
 30
0.0
 11
155.5126649139724
 21
92.372419061557
 31
0.0
  0
LINE
  5
1CA
330
2
100
AcDbEntity
  8
CENTER
100
AcDbLine
 10
154.3286921214501
 20
87.85241906155704
 30
0.0
 11
162.3284741662168
 21
87.85241906155704
 31
0.0
  0
ARC
  5
1CB
330
2
100
AcDbEntity
  8
OBJECT
100
AcDbCircle
 10
156.5126649139726
 20
84.4224190615572
 30
0.0
 40
1.0
100
AcDbArc
 50
180.0
 51
270.0
  0
LINE
  5
1CC
330
2
100
AcDbEntity
  8
OBJECT
100
AcDbLine
 10
160.5126649139726
 20
83.4224190615572
 30
0.0
 11
160.5126649139726
 21
95.92241906155718
 31
0.0
  0
LINE
  5
1CD
330
2
100
AcDbEntity
  8
OBJECT
100
AcDbLine
 10
156.5126649139726
 20
139.4224190615569
 30
0.0
 11
219.5126649139722
 21
139.4224190615569
 31
0.0
  0
INSERT
  5
1CE
330
2
100
AcDbEntity
  8
OBJECT
100
AcDbBlockReference
  2
*X0
 10
51.32554314417598
 20
3.629102935503965
 30
0.0
1001
ACAD
1000
HATCH
1002
{
1070
    19
1000
ANSI31
1040
0.3
1040
0.7853981633974483
1000
R14_HATCH_DATA
1000
813
1011
52.32554314417575
1021
3.629102935503965
1031
0.0
1011
51.32554314417598
1021
4.629102935503738
1031
0.0
1011
51.32554314417598
1021
3.629102935503965
1031
1.0
1040
0.0
1010
0.0
1020
0.0
1030
1.0
1000
ANSI31
1070
     0
1070
     0
1071
        2
1071
        7
1070
     0
1070
     1
1071
        4
1040
127.5752255254605
1040
126.2933161260533
1040
127.574243539594
1040
135.7933161260532
1040
114.574243539594
1040
135.7933161260532
1040
114.574243539594
1040
126.2933161260533
1071
        0
1071
        7
1070
     0
1070
     1
1071
        4
1040
114.574243539594
1040
126.2933161260533
1040
114.574243539594
1040
115.7933161260533
1040
127.5753805757934
1040
124.7933167724792
1040
127.5752255254605
1040
126.2933161260533
1071
        0
1070
     0
1070
     1
1040
0.7853981633974483
1040
0.3
1070
     0
1070
     1
1040
1.570796326794896
1040
0.3871217697970479
1040
-77.554674050442
1040
-0.9524999999999998
1040
0.0000000000000002
1070
     0
1040
0.0832720573296724
1071
        2
1040
118.776705328504
1040
128.49966051341
1040
0.0
1040
117.7762912747451
1040
125.6684103940425
1040
0.0
1002
}
  0
LINE
  5
1EE
330
2
100
AcDbEntity
  8
OBJECT
100
AcDbLine
 10
153.9126649139724
 20
108.247419061557
 30
0.0
 11
153.9126649139724
 21
114.5974190615569
 31
0.0
  0
LINE
  5
1EF
330
2
100
AcDbEntity
  8
OBJECT
100
AcDbLine
 10
149.9126649139727
 20
114.5974190615569
 30
0.0
 11
149.9126649139727
 21
114.0974190615569
 31
0.0
  0
LINE
  5
1F0
330
2
100
AcDbEntity
  8
OBJECT
100
AcDbLine
 10
149.9126649139727
 20
114.5974190615569
 30
0.0
 11
153.9126649139724
 21
114.5974190615569
 31
0.0
  0
ARC
  5
1F1
330
2
100
AcDbEntity
  8
OBJECT
100
AcDbCircle
 10
156.5126649139726
 20
138.4224190615569
 30
0.0
 40
1.0
100
AcDbArc
 50
90.0
 51
180.0
  0
LINE
  5
1F2
330
2
100
AcDbEntity
  8
OBJECT
100
AcDbLine
 10
153.9126649139724
 20
130.4724190615571
 30
0.0
 11
155.5126649139724
 21
130.4724190615571
 31
0.0
  0
LINE
  5
1F3
330
2
100
AcDbEntity
  8
CENTER
100
AcDbLine
 10
154.3286921214501
 20
134.9924190615569
 30
0.0
 11
162.3284741662168
 21
134.9924190615569
 31
0.0
  0
LINE
  5
1F4
330
2
100
AcDbEntity
  8
OBJECT
100
AcDbLine
 10
160.5126649139726
 20
126.9224190615569
 30
0.0
 11
160.5126649139726
 21
139.4224190615569
 31
0.0
  0
LINE
  5
1F5
330
2
100
AcDbEntity
  8
OBJECT
100
AcDbLine
 10
219.0626649139723
 20
140.7224190615571
 30
0.0
 11
219.0626649139723
 21
139.4224190615572
 31
0.0
  0
LINE
  5
1F6
330
2
100
AcDbEntity
  8
OBJECT
100
AcDbLine
 10
219.0626649139723
 20
139.4224190615572
 30
0.0
 11
214.6626649139723
 21
139.4224190615572
 31
0.0
  0
LINE
  5
1F7
330
2
100
AcDbEntity
  8
OBJECT
100
AcDbLine
 10
135.4126649139727
 20
155.4640283048854
 30
0.0
 11
151.3798314946773
 21
155.4640283048854
 31
0.0
  0
LINE
  5
1F8
330
2
100
AcDbEntity
  8
CENTER
 48
0.5
100
AcDbLine
 10
152.9924594471544
 20
152.2890283048853
 30
0.0
 11
134.041163368832
 21
152.2890283048853
 31
0.0
  0
LINE
  5
1F9
330
2
100
AcDbEntity
  8
OBJECT
100
AcDbLine
 10
134.9126649139725
 20
153.999291442534
 30
0.0
 11
149.9126649139727
 21
153.999291442534
 31
0.0
  0
LINE
  5
1FA
330
2
100
AcDbEntity
  8
OBJECT
100
AcDbLine
 10
135.4126649139727
 20
149.1140283048856
 30
0.0
 11
151.1266813615848
 21
149.1140283048856
 31
0.0
  0
LINE
  5
1FB
330
2
100
AcDbEntity
  8
OBJECT
100
AcDbLine
 10
134.9126649139725
 20
150.5787651672368
 30
0.0
 11
149.9126649139727
 21
150.5787651672368
 31
0.0
  0
LINE
  5
1FC
330
2
100
AcDbEntity
  8
OBJECT
100
AcDbLine
 10
149.9126649139727
 20
153.999291442534
 30
0.0
 11
134.9126649139725
 21
150.5787651672368
 31
0.0
  0
LINE
  5
1FD
330
2
100
AcDbEntity
  8
OBJECT
100
AcDbLine
 10
149.9126649139727
 20
150.5787651672368
 30
0.0
 11
134.9126649139725
 21
153.999291442534
 31
0.0
  0
TEXT
  5
1FE
330
2
100
AcDbEntity
  8
DIMS
100
AcDbText
 10
103.2932633097781
 20
151.4788663821003
 30
0.0
 40
2.0
  1
4-φ4.5
100
AcDbText
  0
TEXT
  5
1FF
330
2
100
AcDbEntity
  8
DIMS
100
AcDbText
 10
101.6537986247451
 20
146.9469426033566
 30
0.0
 40
2.0
  1
THRU HOLE
 41
0.95
100
AcDbText
  0
LINE
  5
200
330
2
100
AcDbEntity
  8
OBJECT
100
AcDbLine
 10
83.46214428571716
 20
153.2224190615571
 30
0.0
 11
83.46214428571716
 21
152.5224190615569
 31
0.0
  0
ARC
  5
201
330
2
100
AcDbEntity
  8
OBJECT
100
AcDbCircle
 10
83.26214428571686
 20
153.2224190615571
 30
0.0
 40
0.2
100
AcDbArc
 50
0.0
 51
90.0
  0
ARC
  5
202
330
2
100
AcDbEntity
  8
OBJECT
100
AcDbCircle
 10
83.26214428571686
 20
153.2224190615571
 30
0.0
 40
0.8
100
AcDbArc
 50
0.0
 51
90.0
  0
LINE
  5
203
330
2
100
AcDbEntity
  8
OBJECT
100
AcDbLine
 10
83.06214428571704
 20
154.0224190615568
 30
0.0
 11
83.06214428571704
 21
152.9224190615569
 31
0.0
  0
LINE
  5
204
330
2
100
AcDbEntity
  8
OBJECT
100
AcDbLine
 10
83.26214428571686
 20
153.422419061557
 30
0.0
 11
83.06214428571704
 21
153.422419061557
 31
0.0
  0
LINE
  5
205
330
2
100
AcDbEntity
  8
OBJECT
100
AcDbLine
 10
84.06214428571706
 20
147.0224190615571
 30
0.0
 11
83.46214428571716
 21
147.0224190615571
 31
0.0
  0
LINE
  5
206
330
2
100
AcDbEntity
  8
OBJECT
100
AcDbLine
 10
83.06214428571704
 20
152.9224190615569
 30
0.0
 11
84.06214428571706
 21
151.9224190615569
 31
0.0
  0
TEXT
  5
207
330
2
100
AcDbEntity
  8
DIMS
100
AcDbText
 10
135.7886966360078
 20
159.7758012588393
 30
0.0
 40
2.0
  1
D-cut
100
AcDbText
  0
LINE
  5
208
330
2
100
AcDbEntity
  8
OBJECT
100
AcDbLine
 10
135.4126649139727
 20
155.4640283048854
 30
0.0
 11
135.4126649139727
 21
153.999291442534
 31
0.0
  0
LINE
  5
209
330
2
100
AcDbEntity
  8
OBJECT
100
AcDbLine
 10
134.9126649139725
 20
154.9640283048853
 30
0.0
 11
135.4126649139727
 21
155.4640283048854
 31
0.0
  0
LINE
  5
20A
330
2
100
AcDbEntity
  8
OBJECT
100
AcDbLine
 10
135.4126649139727
 20
150.5787651672368
 30
0.0
 11
135.4126649139727
 21
149.1140283048856
 31
0.0
  0
LINE
  5
20B
330
2
100
AcDbEntity
  8
OBJECT
100
AcDbLine
 10
134.9126649139725
 20
149.6140283048856
 30
0.0
 11
135.4126649139727
 21
149.1140283048856
 31
0.0
  0
LINE
  5
20C
330
2
100
AcDbEntity
  8
OBJECT
100
AcDbLine
 10
134.9126649139725
 20
154.9640283048853
 30
0.0
 11
134.9126649139725
 21
149.6140283048856
 31
0.0
  0
SPLINE
  5
20D
330
2
100
AcDbEntity
  8
OBJECT
100
AcDbSpline
210
0.0
220
0.0
230
1.0
 70
     8
 71
     3
 72
    10
 73
     6
 74
     0
 42
0.0000000001
 43
0.0000000001
 40
0.0
 40
0.0
 40
0.0
 40
0.0
 40
2.430941099780457
 40
5.083581160522935
 40
8.322554841812188
 40
8.322554841812188
 40
8.322554841812188
 40
8.322554841812188
 10
152.5120037127949
 20
156.0014560824645
 30
0.0
 10
151.9729292482089
 20
155.3964709471763
 30
0.0
 10
151.1697849691975
 20
153.5784776161781
 30
0.0
 10
153.2095806356094
 20
151.045965441109
 30
0.0
 10
151.9213206294578
 20
149.1485033897521
 30
0.0
 10
151.2610806230759
 20
148.2168150012311
 30
0.0
  0
SPLINE
  5
20E
330
2
100
AcDbEntity
  8
OBJECT
100
AcDbSpline
210
0.0
220
0.0
230
1.0
 70
     8
 71
     3
 72
    10
 73
     6
 74
     0
 42
0.0000000001
 43
0.0000000001
 40
0.0
 40
0.0
 40
0.0
 40
0.0
 40
2.430941099780457
 40
5.083581160522935
 40
8.322554841812188
 40
8.322554841812188
 40
8.322554841812188
 40
8.322554841812188
 10
151.7740127093704
 20
156.0014560824645
 30
0.0
 10
151.2349382447836
 20
155.3964709471763
 30
0.0
 10
150.4317939657728
 20
153.5784776161781
 30
0.0
 10
152.4715896321843
 20
151.045965441109
 30
0.0
 10
151.1833296260329
 20
149.1485033897521
 30
0.0
 10
150.5230896196511
 20
148.2168150012311
 30
0.0
  0
LINE
  5
20F
330
2
100
AcDbEntity
  8
OBJECT
100
AcDbLine
 10
149.9126649139727
 20
153.999291442534
 30
0.0
 11
149.9126649139727
 21
150.5787651672368
 31
0.0
  0
LINE
  5
210
330
2
100
AcDbEntity
  8
OBJECT
100
AcDbLine
 10
215.6626649139725
 20
154.0224190615571
 30
0.0
 11
215.6626649139725
 21
152.9224190615571
 31
0.0
  0
ARC
  5
211
330
2
100
AcDbEntity
  8
OBJECT
100
AcDbCircle
 10
215.4626649139725
 20
153.2224190615571
 30
0.0
 40
0.2
100
AcDbArc
 50
90.0
 51
180.0
  0
ARC
  5
212
102
{ACAD_REACTORS
330
1015
102
}
330
2
100
AcDbEntity
  8
OBJECT
100
AcDbCircle
 10
215.4626649139725
 20
153.2224190615571
 30
0.0
 40
0.8
100
AcDbArc
 50
90.0
 51
180.0
  0
LINE
  5
213
330
2
100
AcDbEntity
  8
OBJECT
100
AcDbLine
 10
215.6626649139725
 20
153.422419061557
 30
0.0
 11
215.4626649139725
 21
153.422419061557
 31
0.0
  0
LINE
  5
214
330
2
100
AcDbEntity
  8
OBJECT
100
AcDbLine
 10
215.6626649139725
 20
152.9224190615571
 30
0.0
 11
215.2626649139723
 21
152.5224190615569
 31
0.0
  0
LINE
  5
215
330
2
100
AcDbEntity
  8
OBJECT
100
AcDbLine
 10
215.2626649139723
 20
147.0224190615571
 30
0.0
 11
214.6626649139723
 21
147.0224190615571
 31
0.0
  0
LINE
  5
216
330
2
100
AcDbEntity
  8
OBJECT
100
AcDbLine
 10
215.2626649139723
 20
146.5224190615571
 30
0.0
 11
214.6626649139723
 21
146.5224190615571
 31
0.0
  0
LINE
  5
217
330
2
100
AcDbEntity
  8
OBJECT
100
AcDbLine
 10
215.2626649139723
 20
153.2224190615571
 30
0.0
 11
215.2626649139723
 21
146.5224190615571
 31
0.0
  0
LINE
  5
218
330
2
100
AcDbEntity
  8
CENTER
100
AcDbLine
 10
239.8626649139726
 20
146.0224190615571
 30
0.0
 11
239.8626649139726
 21
141.4224190615571
 31
0.0
  0
LINE
  5
219
330
2
100
AcDbEntity
  8
CENTER
100
AcDbLine
 10
239.8626649139726
 20
147.0224190615571
 30
0.0
 11
239.8626649139726
 21
142.4224190615571
 31
0.0
  0
LINE
  5
21A
330
2
100
AcDbEntity
  8
OBJECT
100
AcDbLine
 10
237.0126649139724
 20
142.7224190615578
 30
0.0
 11
237.0126649139721
 21
134.3224190615579
 31
0.0
  0
LINE
  5
21B
330
2
100
AcDbEntity
  8
OBJECT
 48
0.5
100
AcDbLine
 10
237.0126649139721
 20
142.9224473525013
 30
0.0
 11
237.0126649139721
 21
132.822419061557
 31
0.0
  0
LINE
  5
21C
330
2
100
AcDbEntity
  8
OBJECT
100
AcDbLine
 10
236.8626649139724
 20
153.2224190615571
 30
0.0
 11
236.8626649139724
 21
132.9224190615572
 31
0.0
  0
LINE
  5
21D
330
2
100
AcDbEntity
  8
OBJECT
 48
10.0
100
AcDbLine
 10
259.0126649139723
 20
90.42241906155719
 30
0.0
 11
259.0126649139723
 21
143.4224190615571
 31
0.0
  0
LINE
  5
21E
330
2
100
AcDbEntity
  8
OBJECT
 48
0.5
100
AcDbLine
 10
261.0126649139723
 20
90.42241906155719
 30
0.0
 11
261.0126649139723
 21
143.4224190615571
 31
0.0
  0
LINE
  5
246
330
2
100
AcDbEntity
  8
OBJECT
100
AcDbLine
 10
234.5126649139724
 20
132.2724190615571
 30
0.0
 11
234.5126649139724
 21
90.0224190615571
 31
0.0
  0
LINE
  5
247
330
2
100
AcDbEntity
  8
OBJECT
100
AcDbLine
 10
231.5126649139727
 20
139.4224190615569
 30
0.0
 11
231.5126649139727
 21
84.4224190615572
 31
0.0
  0
LINE
  5
248
330
2
100
AcDbEntity
  8
OBJECT
 48
0.5
100
AcDbLine
 10
259.0126649139723
 20
94.4224190615572
 30
0.0
 11
235.5126649139722
 21
94.4224190615572
 31
0.0
  0
LINE
  5
249
330
2
100
AcDbEntity
  8
OBJECT
 48
0.5
100
AcDbLine
 10
236.0073460660039
 20
90.42241906155719
 30
0.0
 11
259.0126649139723
 21
90.42241906155719
 31
0.0
  0
DIMENSION
  5
24A
330
2
100
AcDbEntity
  8
DIMS
100
AcDbDimension
  2
*D34
 10
261.0126649139723
 20
75.88545121367758
 30
0.0
 11
247.185642716002
 21
75.88545121367758
 31
0.0
 70
   160
  3
STANDARD
100
AcDbAlignedDimension
 13
231.5126649139727
 23
84.4224190615572
 33
0.0
 14
261.0126649139723
 24
90.42241906155719
 34
0.0
100
AcDbRotatedDimension
  0
ARC
  5
257
330
2
100
AcDbEntity
  8
OBJECT
 48
0.5
100
AcDbCircle
 10
235.0126649139721
 20
95.92241906155718
 30
0.0
 40
0.5
100
AcDbArc
 50
0.0
 51
90.0
  0
ARC
  5
258
330
2
100
AcDbEntity
  8
OBJECT
 48
0.5
100
AcDbCircle
 10
236.0126649139722
 20
90.92239077061313
 30
0.0
 40
0.5
100
AcDbArc
 50
180.0
 51
270.6095065766752
  0
LINE
  5
259
330
2
100
AcDbEntity
  8
OBJECT
 48
0.5
100
AcDbLine
 10
235.5126649139722
 20
95.92241906155718
 30
0.0
 11
235.5126649139722
 21
90.92239077061313
 31
0.0
  0
LINE
  5
25A
330
2
100
AcDbEntity
  8
OBJECT
100
AcDbLine
 10
234.5126649139724
 20
94.02241906155712
 30
0.0
 11
231.5126649139727
 21
94.02241906155712
 31
0.0
  0
LINE
  5
25B
330
2
100
AcDbEntity
  8
OBJECT
100
AcDbLine
 10
234.5126649139724
 20
90.0224190615571
 30
0.0
 11
231.5126649139727
 21
90.0224190615571
 31
0.0
  0
ARC
  5
25C
330
2
100
AcDbEntity
  8
OBJECT
100
AcDbCircle
 10
230.5126649139724
 20
84.4224190615572
 30
0.0
 40
1.0
100
AcDbArc
 50
270.0
 51
0.0
  0
ARC
  5
25D
330
2
100
AcDbEntity
  8
OBJECT
 48
0.5
100
AcDbCircle
 10
235.0126649139721
 20
96.92241906155722
 30
0.0
 40
0.5
100
AcDbArc
 50
180.0
 51
270.0
  0
LINE
  5
25E
330
2
100
AcDbEntity
  8
OBJECT
100
AcDbLine
 10
259.0126649139723
 20
94.4224190615572
 30
0.0
 11
261.0126649139723
 21
94.4224190615572
 31
0.0
  0
LINE
  5
25F
330
2
100
AcDbEntity
  8
OBJECT
100
AcDbLine
 10
259.0126649139723
 20
90.42241906155719
 30
0.0
 11
261.0126649139723
 21
90.42241906155719
 31
0.0
  0
LINE
  5
260
330
2
100
AcDbEntity
  8
OBJECT
 48
0.5
100
AcDbLine
 10
259.0126649139723
 20
139.4224190615572
 30
0.0
 11
237.0126649139721
 21
139.4224190615574
 31
0.0
  0
ARC
  5
261
330
2
100
AcDbEntity
  8
OBJECT
100
AcDbCircle
 10
230.5126649139724
 20
139.4224190615569
 30
0.0
 40
1.0
100
AcDbArc
 50
0.0
 51
90.0
  0
LINE
  5
262
330
2
100
AcDbEntity
  8
OBJECT
100
AcDbLine
 10
234.4126649139725
 20
135.4224190615572
 30
0.0
 11
232.9126649139725
 21
135.4224190615572
 31
0.0
  0
ARC
  5
263
330
2
100
AcDbEntity
  8
OBJECT
 48
0.5
100
AcDbCircle
 10
236.5126649139724
 20
132.822419061557
 30
0.0
 40
0.5
100
AcDbArc
 50
270.0
 51
0.0
  0
LINE
  5
264
330
2
100
AcDbEntity
  8
OBJECT
100
AcDbLine
 10
236.8626649139724
 20
132.9224190615572
 30
0.0
 11
236.3626649139725
 21
132.4224190615572
 31
0.0
  0
LINE
  5
265
330
2
100
AcDbEntity
  8
OBJECT
 48
0.5
100
AcDbLine
 10
235.5126649139722
 20
129.6051348959977
 30
0.0
 11
235.5126649139722
 21
130.3224190615567
 31
0.0
  0
ARC
  5
266
330
2
100
AcDbEntity
  8
OBJECT
 48
0.5
100
AcDbCircle
 10
235.0126649139721
 20
130.3224190615567
 30
0.0
 40
0.5
100
AcDbArc
 50
0.0
 51
90.0
  0
LINE
  5
267
330
2
100
AcDbEntity
  8
OBJECT
 48
0.5
100
AcDbLine
 10
234.5126649139724
 20
131.3224190615573
 30
0.0
 11
234.5126649139724
 21
131.822419061557
 31
0.0
  0
ARC
  5
268
330
2
100
AcDbEntity
  8
OBJECT
 48
0.5
100
AcDbCircle
 10
235.0126649139721
 20
131.3224190615573
 30
0.0
 40
0.5
100
AcDbArc
 50
180.0
 51
270.0
  0
ARC
  5
269
330
2
100
AcDbEntity
  8
OBJECT
 48
0.5
100
AcDbCircle
 10
235.0126649139721
 20
131.822419061557
 30
0.0
 40
0.5
100
AcDbArc
 50
90.0
 51
180.0
  0
LINE
  5
26A
330
2
100
AcDbEntity
  8
OBJECT
100
AcDbLine
 10
234.4126649139725
 20
134.7224190615569
 30
0.0
 11
232.9126649139725
 21
134.7224190615569
 31
0.0
  0
LINE
  5
26B
330
2
100
AcDbEntity
  8
OBJECT
100
AcDbLine
 10
232.9126649139725
 20
133.4224190615572
 30
0.0
 11
234.4126649139725
 21
133.4224190615572
 31
0.0
  0
LINE
  5
26C
330
2
100
AcDbEntity
  8
OBJECT
 48
0.5
100
AcDbLine
 10
235.0126649139721
 20
132.3224190615567
 30
0.0
 11
236.5126649139724
 21
132.3224190615567
 31
0.0
  0
LINE
  5
26D
330
2
100
AcDbEntity
  8
CENTER
100
AcDbLine
 10
233.6626649139725
 20
136.7615176558148
 30
0.0
 11
233.6626649139725
 21
132.4224190615572
 31
0.0
  0
LINE
  5
26E
330
2
100
AcDbEntity
  8
OBJECT
100
AcDbLine
 10
232.9126649139725
 20
135.4224190615569
 30
0.0
 11
232.9126649139725
 21
133.4224190615572
 31
0.0
  0
LINE
  5
26F
330
2
100
AcDbEntity
  8
OBJECT
100
AcDbLine
 10
234.4126649139725
 20
135.4224190615569
 30
0.0
 11
234.4126649139725
 21
133.4224190615572
 31
0.0
  0
LINE
  5
270
330
2
100
AcDbEntity
  8
OBJECT
100
AcDbLine
 10
232.1626649139725
 20
132.4224190615572
 30
0.0
 11
231.6626649139723
 21
132.9224190615572
 31
0.0
  0
LINE
  5
271
330
2
100
AcDbEntity
  8
OBJECT
100
AcDbLine
 10
234.5126649139724
 20
132.2724190615571
 30
0.0
 11
231.5126649139727
 21
132.2724190615571
 31
0.0
  0
LINE
  5
272
330
2
100
AcDbEntity
  8
OBJECT
100
AcDbLine
 10
234.5126649139724
 20
130.2724190615566
 30
0.0
 11
231.5126649139727
 21
130.2724190615571
 31
0.0
  0
LINE
  5
273
330
2
100
AcDbEntity
  8
OBJECT
100
AcDbLine
 10
236.3626649139725
 20
132.4224190615572
 30
0.0
 11
232.1626649139725
 21
132.4224190615572
 31
0.0
  0
ARC
  5
274
330
2
100
AcDbEntity
  8
OBJECT
 48
0.5
100
AcDbCircle
 10
235.0126649139721
 20
121.9224190615574
 30
0.0
 40
0.5
100
AcDbArc
 50
270.0
 51
0.0
  0
ARC
  5
275
330
2
100
AcDbEntity
  8
OBJECT
 48
0.5
100
AcDbCircle
 10
235.0126649139721
 20
120.9224190615571
 30
0.0
 40
0.5
100
AcDbArc
 50
90.0
 51
180.0
  0
LINE
  5
276
330
2
100
AcDbEntity
  8
OBJECT
 48
0.5
100
AcDbLine
 10
235.5126649139722
 20
121.9224190615574
 30
0.0
 11
235.5126649139722
 21
129.6051348959977
 31
0.0
  0
LINE
  5
277
330
2
100
AcDbEntity
  8
OBJECT
100
AcDbLine
 10
231.6626649139727
 20
140.7224190615569
 30
0.0
 11
231.6626649139723
 21
132.9224190615572
 31
0.0
  0
LINE
  5
278
330
2
100
AcDbEntity
  8
OBJECT
100
AcDbLine
 10
259.0126649139723
 20
139.4224190615572
 30
0.0
 11
261.0126649139723
 21
139.4224190615572
 31
0.0
  0
LINE
  5
279
330
2
100
AcDbEntity
  8
OBJECT
 48
0.5
100
AcDbLine
 10
237.5179837619409
 20
143.4224190615571
 30
0.0
 11
259.0126649139723
 21
143.4224190615571
 31
0.0
  0
LWPOLYLINE
  5
27A
330
2
100
AcDbEntity
  8
OBJECT
100
AcDbPolyline
 90
        6
 70
     1
 43
0.0
 10
242.1126649139742
 20
144.6224190615569
 10
237.6126649139739
 20
144.6224190615573
 10
237.6126649139739
 20
145.322419061557
 42
-0.4142135623730951
 10
238.6126649139739
 20
146.322419061557
 10
241.1126649139744
 20
146.322419061557
 42
-0.4142135623730951
 10
242.1126649139742
 20
145.3224190615568
  0
LWPOLYLINE
  5
27B
330
2
100
AcDbEntity
  8
OBJECT
100
AcDbPolyline
 90
        4
 70
     1
 43
0.0
 10
242.3626649139739
 20
144.6224190615569
 10
242.3626649139739
 20
144.0224190615571
 10
237.3626649139739
 20
144.0224190615575
 10
237.3626649139739
 20
144.6224190615573
  0
LINE
  5
27C
330
2
100
AcDbEntity
  8
OBJECT
100
AcDbLine
 10
242.8626649139725
 20
144.0224190615571
 30
0.0
 11
236.8626649139724
 21
144.0224190615571
 31
0.0
  0
LINE
  5
27D
330
2
100
AcDbEntity
  8
OBJECT
100
AcDbLine
 10
242.8626649139725
 20
143.4224190615571
 30
0.0
 11
236.8626649139724
 21
143.4224190615571
 31
0.0
  0
LINE
  5
27E
330
2
100
AcDbEntity
  8
OBJECT
100
AcDbLine
 10
236.0626649139728
 20
153.422419061557
 30
0.0
 11
235.8626649139726
 21
153.422419061557
 31
0.0
  0
ARC
  5
27F
330
2
100
AcDbEntity
  8
OBJECT
100
AcDbCircle
 10
236.0626649139728
 20
153.2224190615571
 30
0.0
 40
0.2
100
AcDbArc
 50
0.0
 51
90.0
  0
LINE
  5
280
330
2
100
AcDbEntity
  8
OBJECT
100
AcDbLine
 10
235.8626649139726
 20
154.0224190615571
 30
0.0
 11
235.8626649139726
 21
152.9224190615571
 31
0.0
  0
LINE
  5
281
330
2
100
AcDbEntity
  8
OBJECT
100
AcDbLine
 10
236.2626649139723
 20
152.5224190615571
 30
0.0
 11
235.8626649139726
 21
152.9224190615571
 31
0.0
  0
ARC
  5
282
102
{ACAD_REACTORS
330
1015
102
}
330
2
100
AcDbEntity
  8
OBJECT
100
AcDbCircle
 10
236.0626649139728
 20
153.2224190615571
 30
0.0
 40
0.8
100
AcDbArc
 50
0.0
 51
90.0
  0
LINE
  5
283
330
2
100
AcDbEntity
  8
OBJECT
100
AcDbLine
 10
236.8626649139724
 20
147.0224190615571
 30
0.0
 11
236.2626649139723
 21
147.0224190615571
 31
0.0
  0
LINE
  5
284
330
2
100
AcDbEntity
  8
OBJECT
100
AcDbLine
 10
236.8626649139724
 20
146.5224190615571
 30
0.0
 11
236.2626649139723
 21
146.5224190615571
 31
0.0
  0
ARC
  5
285
330
2
100
AcDbEntity
  8
OBJECT
 48
0.5
100
AcDbCircle
 10
237.5126649139722
 20
142.9224473525013
 30
0.0
 40
0.5
100
AcDbArc
 50
89.39049342332468
 51
180.0
  0
LINE
  5
286
330
2
100
AcDbEntity
  8
OBJECT
100
AcDbLine
 10
236.2626649139723
 20
153.2224190615571
 30
0.0
 11
236.2626649139723
 21
146.5224190615571
 31
0.0
  0
LINE
  5
287
330
2
100
AcDbEntity
  8
OBJECT
100
AcDbLine
 10
242.8626649139725
 20
144.0224190615571
 30
0.0
 11
242.8626649139725
 21
143.4224190615571
 31
0.0
  0
LINE
  5
288
330
2
100
AcDbEntity
  8
OBJECT
100
AcDbLine
 10
241.8626649139726
 20
144.0224190615571
 30
0.0
 11
241.8626649139726
 21
143.4224190615571
 31
0.0
  0
LINE
  5
289
330
2
100
AcDbEntity
  8
CENTER
100
AcDbLine
 10
239.8626649139726
 20
143.2532706793434
 30
0.0
 11
239.8626649139726
 21
144.7915674437707
 31
0.0
  0
LINE
  5
28A
330
2
100
AcDbEntity
  8
OBJECT
100
AcDbLine
 10
240.3286608634075
 20
144.0224190615571
 30
0.0
 11
239.8626649139739
 21
144.6224190615573
 31
0.0
  0
LINE
  5
28B
330
2
100
AcDbEntity
  8
OBJECT
100
AcDbLine
 10
239.8626649139739
 20
144.0224190615571
 30
0.0
 11
239.3966689645403
 21
144.6224190615573
 31
0.0
  0
LINE
  5
28C
330
2
100
AcDbEntity
  8
OBJECT
100
AcDbLine
 10
259.0126649139723
 20
143.4224190615571
 30
0.0
 11
261.0126649139723
 21
143.4224190615571
 31
0.0
  0
DIMENSION
  5
FFE
102
{ACAD_XDICTIONARY
360
100B
102
}
102
{ACAD_REACTORS
330
1015
102
}
330
2
100
AcDbEntity
  8
DIMS
100
AcDbDimension
  2
*D47
 10
236.8626649139728
 20
158.9827550506532
 30
0.0
 11
225.7626649139725
 21
160.6327550506532
 31
0.0
 70
    32
  3
STANDARD
100
AcDbAlignedDimension
 13
214.6626649139723
 23
153.2224190615571
 33
0.0
 14
236.8626649139728
 24
153.2224190615571
 34
0.0
100
AcDbRotatedDimension
  0
DIMENSION
  5
1016
330
2
100
AcDbEntity
  8
DIMS
100
AcDbDimension
  2
*D48
 10
261.0126649139723
 20
165.9827550506532
 30
0.0
 11
237.8376649139724
 21
167.6327550506532
 31
0.0
 70
    32
  3
STANDARD
100
AcDbAlignedDimension
 13
214.6626649139723
 23
154.2224190615571
 33
0.0
 14
261.0126649139723
 24
143.4224190615571
 34
0.0
100
AcDbRotatedDimension
  0
DIMENSION
  5
106C
330
2
100
AcDbEntity
  8
DIMS
100
AcDbDimension
  2
*D49
 10
267.5023148407233
 20
111.4224190615569
 30
0.0
 11
265.8523148407232
 21
100.9224190615571
 31
0.0
 70
    32
  3
STANDARD
100
AcDbAlignedDimension
 13
261.0126649139723
 23
90.42241906155719
 33
0.0
 14
261.0126649139723
 24
111.4224190615569
 34
0.0
 50
90.0
100
AcDbRotatedDimension
  0
DIMENSION
  5
1084
330
2
100
AcDbEntity
  8
DIMS
100
AcDbDimension
  2
*D50
 10
267.5023148407233
 20
143.4224190615571
 30
0.0
 11
265.8523148407232
 21
127.422419061557
 31
0.0
 70
    32
  3
STANDARD
100
AcDbAlignedDimension
 13
263.0126649139723
 23
111.4224190615569
 33
0.0
 14
261.0126649139723
 24
143.4224190615571
 34
0.0
 50
90.0
100
AcDbRotatedDimension
  0
DIMENSION
  5
109C
330
2
100
AcDbEntity
  8
DIMS
100
AcDbDimension
  2
*D51
 10
274.5023148407233
 20
154.0224190615571
 30
0.0
 11
272.8523148407233
 21
132.722419061557
 31
0.0
 70
    32
  3
STANDARD
100
AcDbAlignedDimension
 13
262.0126649139724
 23
111.4224190615569
 33
0.0
 14
237.0626649139728
 24
154.0224190615571
 34
0.0
 50
90.0
100
AcDbRotatedDimension
  0
DIMENSION
  5
139C
330
2
100
AcDbEntity
  8
DIMS
100
AcDbDimension
  2
*D55
 10
123.5295478214806
 20
108.247419061557
 30
0.0
 11
123.5295478214806
 21
114.5974190615569
 31
0.0
 70
   160
  3
DMST_5
100
AcDbAlignedDimension
 13
149.9126649139727
 23
114.5974190615569
 33
0.0
 14
135.4126649139727
 24
108.247419061557
 34
0.0
 50
90.0
100
AcDbRotatedDimension
1001
ACAD
1000
DSTYLE
1002
{
1070
    44
1040
0.625
1070
    42
1040
0.65
1002
}
  0
ENDSEC
  0
SECTION
  2
OBJECTS
  0
DICTIONARY
  5
7
330
0
100
AcDbDictionary
  3
ACAD_GROUP
350
25
  3
ACAD_LAYOUT
350
B
  3
ACAD_MLINESTYLE
350
26
  3
ACAD_PLOTSETTINGS
350
27
  3
ACAD_PLOTSTYLENAME
350
6
  3
ACDBHEADERROUNDTRIPXREC
350
1510
  3
ACDBVARIABLEDICTIONARY
350
290
  0
DICTIONARY
  5
6FE
330
2
100
AcDbDictionary
280
     1
  3
ACAD_LAYOUTSELFREF
360
1530
  0
DICTIONARY
  5
700
330
C
100
AcDbDictionary
280
     1
  3
ACAD_LAYOUTSELFREF
360
1531
  0
DICTIONARY
  5
100B
330
FFE
100
AcDbDictionary
280
     1
  3
ACAD_DIMASSOC
360
1015
  0
DICTIONARY
  5
25
102
{ACAD_REACTORS
330
7
102
}
330
7
100
AcDbDictionary
  0
DICTIONARY
  5
B
102
{ACAD_REACTORS
330
7
102
}
330
7
100
AcDbDictionary
  0
DICTIONARY
  5
26
102
{ACAD_REACTORS
330
7
102
}
330
7
100
AcDbDictionary
  3
STANDARD
350
2A
  0
DICTIONARY
  5
27
102
{ACAD_REACTORS
330
7
102
}
330
7
100
AcDbDictionary
  0
ACDBDICTIONARYWDFLT
  5
6
102
{ACAD_REACTORS
330
7
102
}
330
7
100
AcDbDictionary
281
     1
  3
Normal
350
5
100
AcDbDictionaryWithDefault
340
5
  0
DICTIONARY
  5
1510
102
{ACAD_REACTORS
330
7
102
}
330
7
100
AcDbDictionary
  3
CEPSNTYPE
350
151A
  3
FINGERPRINTGUID
350
151B
  3
HYPERLINKBASE
350
1513
  3
INSUNITS
350
1519
  3
LAYOUTDICT
350
1515
  3
LWETCUNION
350
1518
  3
PLOTSETDICT
350
1516
  3
PLOTSTYLNAMDICT
350
1517
  3
PSVPSCALE
350
151D
  3
PUCSBASE
350
1520
  3
PUCSORGBACK
350
1526
  3
PUCSORGBOTTOM
350
1522
  3
PUCSORGFRONT
350
1525
  3
PUCSORGLEFT
350
1523
  3
PUCSORGRIGHT
350
1524
  3
PUCSORGTOP
350
1521
  3
PUCSORTHOREF
350
151E
  3
PUCSORTHOVIEW
350
151F
  3
STYLESHEET
350
1514
  3
TSTACKALIGN
350
1511
  3
TSTACKSIZE
350
1512
  3
UCSBASE
350
1529
  3
UCSORGBACK
350
152F
  3
UCSORGBOTTOM
350
152B
  3
UCSORGFRONT
350
152E
  3
UCSORGLEFT
350
152C
  3
UCSORGRIGHT
350
152D
  3
UCSORGTOP
350
152A
  3
UCSORTHOREF
350
1527
  3
UCSORTHOVIEW
350
1528
  3
VERSIONGUID
350
151C
  0
DICTIONARY
  5
290
102
{ACAD_REACTORS
330
7
102
}
330
7
100
AcDbDictionary
  3
DIMASSOC
350
292
  3
HIDETEXT
350
291
  0
XRECORD
  5
1530
102
{ACAD_REACTORS
330
6FE
102
}
330
6FE
100
AcDbXrecord
340
2
  0
XRECORD
  5
1531
102
{ACAD_REACTORS
330
700
102
}
330
700
100
AcDbXrecord
340
C
  0
DIMASSOC
  5
1015
102
{ACAD_REACTORS
330
100B
102
}
330
100B
100
AcDbDimAssoc
330
FFE
 90
        3
 70
     0
 71
     0
  1
AcDbOsnapPointRef
 72
     6
331
F7
 73
     2
 91
        0
 40
0.0
 10
214.6626649139723
 20
153.2224190615571
 30
0.0
332
212
 74
     2
 92
        0
 75
     0
  1
AcDbOsnapPointRef
 72
    13
331
282
 73
     2
 91
        0
 40
0.0
 10
236.8626649139728
 20
153.2224190615571
 30
0.0
 75
     0
  0
MLINESTYLE
  5
2A
102
{ACAD_REACTORS
330
26
102
}
330
26
100
AcDbMlineStyle
  2
STANDARD
 70
     0
  3

 62
   256
 51
90.0
 52
90.0
 71
     2
 49
0.5
 62
   256
  6
BYLAYER
 49
-0.5
 62
   256
  6
BYLAYER
  0
ACDBPLACEHOLDER
  5
5
102
{ACAD_REACTORS
330
6
102
}
330
6
100
AcDbPlaceHolder
280
     0
  0
XRECORD
  5
151A
102
{ACAD_REACTORS
330
1510
102
}
330
1510
100
AcDbXrecord
 90
        0
  0
XRECORD
  5
151B
102
{ACAD_REACTORS
330
1510
102
}
330
1510
100
AcDbXrecord
  1
{82FD4B47-A590-11D2-9A33-0060089B3A3F}
  0
XRECORD
  5
1513
102
{ACAD_REACTORS
330
1510
102
}
330
1510
100
AcDbXrecord
  1

  0
XRECORD
  5
1519
102
{ACAD_REACTORS
330
1510
102
}
330
1510
100
AcDbXrecord
 90
        4
  0
XRECORD
  5
1515
102
{ACAD_REACTORS
330
1510
102
}
330
1510
100
AcDbXrecord
340
B
  0
XRECORD
  5
1518
102
{ACAD_REACTORS
330
1510
102
}
330
1510
100
AcDbXrecord
 90
    10781
  0
XRECORD
  5
1516
102
{ACAD_REACTORS
330
1510
102
}
330
1510
100
AcDbXrecord
340
27
  0
XRECORD
  5
1517
102
{ACAD_REACTORS
330
1510
102
}
330
1510
100
AcDbXrecord
340
6
  0
XRECORD
  5
151D
102
{ACAD_REACTORS
330
1510
102
}
330
1510
100
AcDbXrecord
 40
0.0
  0
XRECORD
  5
1520
102
{ACAD_REACTORS
330
1510
102
}
330
1510
100
AcDbXrecord
340
0
  0
XRECORD
  5
1526
102
{ACAD_REACTORS
330
1510
102
}
330
1510
100
AcDbXrecord
 10
0.0
 20
0.0
 30
0.0
  0
XRECORD
  5
1522
102
{ACAD_REACTORS
330
1510
102
}
330
1510
100
AcDbXrecord
 10
0.0
 20
0.0
 30
0.0
  0
XRECORD
  5
1525
102
{ACAD_REACTORS
330
1510
102
}
330
1510
100
AcDbXrecord
 10
0.0
 20
0.0
 30
0.0
  0
XRECORD
  5
1523
102
{ACAD_REACTORS
330
1510
102
}
330
1510
100
AcDbXrecord
 10
0.0
 20
0.0
 30
0.0
  0
XRECORD
  5
1524
102
{ACAD_REACTORS
330
1510
102
}
330
1510
100
AcDbXrecord
 10
0.0
 20
0.0
 30
0.0
  0
XRECORD
  5
1521
102
{ACAD_REACTORS
330
1510
102
}
330
1510
100
AcDbXrecord
 10
0.0
 20
0.0
 30
0.0
  0
XRECORD
  5
151E
102
{ACAD_REACTORS
330
1510
102
}
330
1510
100
AcDbXrecord
340
0
  0
XRECORD
  5
151F
102
{ACAD_REACTORS
330
1510
102
}
330
1510
100
AcDbXrecord
 70
     0
  0
XRECORD
  5
1514
102
{ACAD_REACTORS
330
1510
102
}
330
1510
100
AcDbXrecord
  1
monochrome.ctb
  0
XRECORD
  5
1511
102
{ACAD_REACTORS
330
1510
102
}
330
1510
100
AcDbXrecord
 90
        1
  0
XRECORD
  5
1512
102
{ACAD_REACTORS
330
1510
102
}
330
1510
100
AcDbXrecord
 90
       70
  0
XRECORD
  5
1529
102
{ACAD_REACTORS
330
1510
102
}
330
1510
100
AcDbXrecord
340
0
  0
XRECORD
  5
152F
102
{ACAD_REACTORS
330
1510
102
}
330
1510
100
AcDbXrecord
 10
0.0
 20
0.0
 30
0.0
  0
XRECORD
  5
152B
102
{ACAD_REACTORS
330
1510
102
}
330
1510
100
AcDbXrecord
 10
0.0
 20
0.0
 30
0.0
  0
XRECORD
  5
152E
102
{ACAD_REACTORS
330
1510
102
}
330
1510
100
AcDbXrecord
 10
0.0
 20
0.0
 30
0.0
  0
XRECORD
  5
152C
102
{ACAD_REACTORS
330
1510
102
}
330
1510
100
AcDbXrecord
 10
0.0
 20
0.0
 30
0.0
  0
XRECORD
  5
152D
102
{ACAD_REACTORS
330
1510
102
}
330
1510
100
AcDbXrecord
 10
0.0
 20
0.0
 30
0.0
  0
XRECORD
  5
152A
102
{ACAD_REACTORS
330
1510
102
}
330
1510
100
AcDbXrecord
 10
0.0
 20
0.0
 30
0.0
  0
XRECORD
  5
1527
102
{ACAD_REACTORS
330
1510
102
}
330
1510
100
AcDbXrecord
340
0
  0
XRECORD
  5
1528
102
{ACAD_REACTORS
330
1510
102
}
330
1510
100
AcDbXrecord
 70
     0
  0
XRECORD
  5
151C
102
{ACAD_REACTORS
330
1510
102
}
330
1510
100
AcDbXrecord
  1
{81208DDA-E69C-4E6D-B981-9E04FB7C6949}
  0
DICTIONARYVAR
  5
292
102
{ACAD_REACTORS
330
290
102
}
330
290
100
DictionaryVariables
280
     0
  1
2
  0
DICTIONARYVAR
  5
291
102
{ACAD_REACTORS
330
290
102
}
330
290
100
DictionaryVariables
280
     0
  1
1
  0
ENDSEC
  0
EOF
