  0
SECTION
  2
HEADER
  9
$ACADVER
  1
AC1024
  9
$ACADMAINTVER
 70
     6
  9
$DWGCODEPAGE
  3
ANSI_932
  9
$LASTSAVEDBY
  1
3DSW1
  9
$INSBASE
 10
443.2815246918204
 20
0.0941246217023206
 30
0.0
  9
$EXTMIN
 10
0.0
 20
0.0
 30
0.0
  9
$EXTMAX
 10
297.0
 20
209.9999999999998
 30
0.0
  9
$LIMMIN
 10
0.0
 20
0.0
  9
$LIMMAX
 10
420.0
 20
297.0
  9
$ORTHOMODE
 70
     1
  9
$REGENMODE
 70
     1
  9
$FILLMODE
 70
     1
  9
$QTEXTMODE
 70
     0
  9
$MIRRTEXT
 70
     1
  9
$LTSCALE
 40
1.0
  9
$ATTMODE
 70
     1
  9
$TEXTSIZE
 40
3.0
  9
$TRACEWID
 40
1.0
  9
$TEXTSTYLE
  7
STANDARD
  9
$CLAYER
  8
Object
  9
$CELTYPE
  6
BYLAYER
  9
$CECOLOR
 62
   256
  9
$CELTSCALE
 40
1.0
  9
$DISPSILH
 70
     0
  9
$DIMSCALE
 40
1.0
  9
$DIMASZ
 40
3.0
  9
$DIMEXO
 40
0.625
  9
$DIMDLI
 40
3.0
  9
$DIMRND
 40
0.0
  9
$DIMDLE
 40
0.0
  9
$DIMEXE
 40
1.0
  9
$DIMTP
 40
0.0
  9
$DIMTM
 40
0.0
  9
$DIMTXT
 40
3.0
  9
$DIMCEN
 40
2.5
  9
$DIMTSZ
 40
0.0
  9
$DIMTOL
 70
     0
  9
$DIMLIM
 70
     0
  9
$DIMTIH
 70
     0
  9
$DIMTOH
 70
     0
  9
$DIMSE1
 70
     0
  9
$DIMSE2
 70
     0
  9
$DIMTAD
 70
     1
  9
$DIMZIN
 70
     8
  9
$DIMBLK
  1
OPEN30
  9
$DIMASO
 70
     1
  9
$DIMSHO
 70
     1
  9
$DIMPOST
  1

  9
$DIMAPOST
  1

  9
$DIMALT
 70
     0
  9
$DIMALTD
 70
     2
  9
$DIMALTF
 40
25.4
  9
$DIMLFAC
 40
1.0
  9
$DIMTOFL
 70
     1
  9
$DIMTVP
 40
0.0
  9
$DIMTIX
 70
     0
  9
$DIMSOXD
 70
     0
  9
$DIMSAH
 70
     0
  9
$DIMBLK1
  1

  9
$DIMBLK2
  1

  9
$DIMSTYLE
  2
STANDARD
  9
$DIMCLRD
 70
     0
  9
$DIMCLRE
 70
     0
  9
$DIMCLRT
 70
     0
  9
$DIMTFAC
 40
1.0
  9
$DIMGAP
 40
0.625
  9
$DIMJUST
 70
     0
  9
$DIMSD1
 70
     0
  9
$DIMSD2
 70
     0
  9
$DIMTOLJ
 70
     1
  9
$DIMTZIN
 70
     0
  9
$DIMALTZ
 70
     0
  9
$DIMALTTZ
 70
     0
  9
$DIMUPT
 70
     0
  9
$DIMDEC
 70
     4
  9
$DIMTDEC
 70
     4
  9
$DIMALTU
 70
     2
  9
$DIMALTTD
 70
     2
  9
$DIMTXSTY
  7
STANDARD
  9
$DIMAUNIT
 70
     0
  9
$DIMADEC
 70
     0
  9
$DIMALTRND
 40
0.0
  9
$DIMAZIN
 70
     2
  9
$DIMDSEP
 70
    46
  9
$DIMATFIT
 70
     3
  9
$DIMFRAC
 70
     0
  9
$DIMLDRBLK
  1
OPEN30
  9
$DIMLUNIT
 70
     2
  9
$DIMLWD
 70
    -2
  9
$DIMLWE
 70
    -2
  9
$DIMTMOVE
 70
     0
  9
$DIMFXL
 40
1.0
  9
$DIMFXLON
 70
     0
  9
$DIMJOGANG
 40
0.7853981633974483
  9
$DIMTFILL
 70
     0
  9
$DIMTFILLCLR
 70
     0
  9
$DIMARCSYM
 70
     0
  9
$DIMLTYPE
  6

  9
$DIMLTEX1
  6

  9
$DIMLTEX2
  6

  9
$DIMTXTDIRECTION
 70
     0
  9
$LUNITS
 70
     2
  9
$LUPREC
 70
     4
  9
$SKETCHINC
 40
1.0
  9
$FILLETRAD
 40
5.0
  9
$AUNITS
 70
     0
  9
$AUPREC
 70
     0
  9
$MENU
  1
acad
  9
$ELEVATION
 40
0.0
  9
$PELEVATION
 40
0.0
  9
$THICKNESS
 40
0.0
  9
$LIMCHECK
 70
     0
  9
$CHAMFERA
 40
10.0
  9
$CHAMFERB
 40
10.0
  9
$CHAMFERC
 40
20.0
  9
$CHAMFERD
 40
0.0
  9
$SKPOLY
 70
     0
  9
$TDCREATE
 40
2451019.405949063
  9
$TDUCREATE
 40
2451019.030949063
  9
$TDUPDATE
 40
2457759.482810625
  9
$TDUUPDATE
 40
2457759.107810625
  9
$TDINDWG
 40
0.0391688657
  9
$TDUSRTIMER
 40
2457759.105070116
  9
$USRTIMER
 70
     1
  9
$ANGBASE
 50
0.0
  9
$ANGDIR
 70
     0
  9
$PDMODE
 70
     0
  9
$PDSIZE
 40
0.0
  9
$PLINEWID
 40
0.2
  9
$SPLFRAME
 70
     0
  9
$SPLINETYPE
 70
     6
  9
$SPLINESEGS
 70
     8
  9
$HANDSEED
  5
EED
  9
$SURFTAB1
 70
     6
  9
$SURFTAB2
 70
     6
  9
$SURFTYPE
 70
     6
  9
$SURFU
 70
     6
  9
$SURFV
 70
     6
  9
$UCSBASE
  2

  9
$UCSNAME
  2

  9
$UCSORG
 10
0.0
 20
0.0
 30
0.0
  9
$UCSXDIR
 10
1.0
 20
0.0
 30
0.0
  9
$UCSYDIR
 10
0.0
 20
1.0
 30
0.0
  9
$UCSORTHOREF
  2

  9
$UCSORTHOVIEW
 70
     0
  9
$UCSORGTOP
 10
0.0
 20
0.0
 30
0.0
  9
$UCSORGBOTTOM
 10
0.0
 20
0.0
 30
0.0
  9
$UCSORGLEFT
 10
0.0
 20
0.0
 30
0.0
  9
$UCSORGRIGHT
 10
0.0
 20
0.0
 30
0.0
  9
$UCSORGFRONT
 10
0.0
 20
0.0
 30
0.0
  9
$UCSORGBACK
 10
0.0
 20
0.0
 30
0.0
  9
$PUCSBASE
  2

  9
$PUCSNAME
  2

  9
$PUCSORG
 10
0.0
 20
0.0
 30
0.0
  9
$PUCSXDIR
 10
1.0
 20
0.0
 30
0.0
  9
$PUCSYDIR
 10
0.0
 20
1.0
 30
0.0
  9
$PUCSORTHOREF
  2

  9
$PUCSORTHOVIEW
 70
     0
  9
$PUCSORGTOP
 10
0.0
 20
0.0
 30
0.0
  9
$PUCSORGBOTTOM
 10
0.0
 20
0.0
 30
0.0
  9
$PUCSORGLEFT
 10
0.0
 20
0.0
 30
0.0
  9
$PUCSORGRIGHT
 10
0.0
 20
0.0
 30
0.0
  9
$PUCSORGFRONT
 10
0.0
 20
0.0
 30
0.0
  9
$PUCSORGBACK
 10
0.0
 20
0.0
 30
0.0
  9
$USERI1
 70
     0
  9
$USERI2
 70
     0
  9
$USERI3
 70
     0
  9
$USERI4
 70
     0
  9
$USERI5
 70
     0
  9
$USERR1
 40
0.0
  9
$USERR2
 40
0.0
  9
$USERR3
 40
0.0
  9
$USERR4
 40
0.0
  9
$USERR5
 40
0.0
  9
$WORLDVIEW
 70
     1
  9
$SHADEDGE
 70
     3
  9
$SHADEDIF
 70
    70
  9
$TILEMODE
 70
     1
  9
$MAXACTVP
 70
    48
  9
$PINSBASE
 10
0.0
 20
0.0
 30
0.0
  9
$PLIMCHECK
 70
     0
  9
$PEXTMIN
 10
1.000000000000000E+20
 20
1.000000000000000E+20
 30
1.000000000000000E+20
  9
$PEXTMAX
 10
-1.000000000000000E+20
 20
-1.000000000000000E+20
 30
-1.000000000000000E+20
  9
$PLIMMIN
 10
0.0
 20
0.0
  9
$PLIMMAX
 10
0.0
 20
0.0
  9
$UNITMODE
 70
     0
  9
$VISRETAIN
 70
     1
  9
$PLINEGEN
 70
     0
  9
$PSLTSCALE
 70
     1
  9
$TREEDEPTH
 70
  3020
  9
$CMLSTYLE
  2
STANDARD
  9
$CMLJUST
 70
     0
  9
$CMLSCALE
 40
20.0
  9
$PROXYGRAPHICS
 70
     1
  9
$MEASUREMENT
 70
     1
  9
$CELWEIGHT
370
    -1
  9
$ENDCAPS
280
     0
  9
$JOINSTYLE
280
     0
  9
$LWDISPLAY
290
     0
  9
$INSUNITS
 70
     0
  9
$HYPERLINKBASE
  1

  9
$STYLESHEET
  1
monochrome.ctb
  9
$XEDIT
290
     1
  9
$CEPSNTYPE
380
     0
  9
$PSTYLEMODE
290
     1
  9
$FINGERPRINTGUID
  2
{2A62C0A0-B0AE-11D4-A709-0040CA1FD371}
  9
$VERSIONGUID
  2
{1891DB27-2A6D-4CC0-AFE7-E3465CFB5460}
  9
$EXTNAMES
290
     1
  9
$PSVPSCALE
 40
0.0
  9
$OLESTARTUP
290
     0
  9
$SORTENTS
280
   127
  9
$INDEXCTL
280
     0
  9
$HIDETEXT
280
     1
  9
$XCLIPFRAME
280
     2
  9
$HALOGAP
280
     0
  9
$OBSCOLOR
 70
   257
  9
$OBSLTYPE
280
     0
  9
$INTERSECTIONDISPLAY
280
     0
  9
$INTERSECTIONCOLOR
 70
   257
  9
$DIMASSOC
280
     1
  9
$PROJECTNAME
  1

  9
$CAMERADISPLAY
290
     0
  9
$LENSLENGTH
 40
50.0
  9
$CAMERAHEIGHT
 40
0.0
  9
$STEPSPERSEC
 40
2.0
  9
$STEPSIZE
 40
6.0
  9
$3DDWFPREC
 40
2.0
  9
$PSOLWIDTH
 40
0.25
  9
$PSOLHEIGHT
 40
4.0
  9
$LOFTANG1
 40
1.570796326794897
  9
$LOFTANG2
 40
1.570796326794897
  9
$LOFTMAG1
 40
0.0
  9
$LOFTMAG2
 40
0.0
  9
$LOFTPARAM
 70
     7
  9
$LOFTNORMALS
280
     1
  9
$LATITUDE
 40
37.795
  9
$LONGITUDE
 40
-122.394
  9
$NORTHDIRECTION
 40
0.0
  9
$TIMEZONE
 70
 -8000
  9
$LIGHTGLYPHDISPLAY
280
     1
  9
$TILEMODELIGHTSYNCH
280
     1
  9
$SOLIDHIST
280
     1
  9
$SHOWHIST
280
     1
  9
$DWFFRAME
280
     2
  9
$DGNFRAME
280
     2
  9
$REALWORLDSCALE
290
     1
  9
$INTERFERECOLOR
 62
   256
  9
$CSHADOW
280
     0
  9
$SHADOWPLANELOCATION
 40
0.0
  0
ENDSEC
  0
SECTION
  2
CLASSES
  0
CLASS
  1
ACDBDICTIONARYWDFLT
  2
AcDbDictionaryWithDefault
  3
ObjectDBX Classes
 90
        0
 91
        5
280
     0
281
     0
  0
CLASS
  1
MATERIAL
  2
AcDbMaterial
  3
ObjectDBX Classes
 90
     1153
 91
        5
280
     0
281
     0
  0
CLASS
  1
VISUALSTYLE
  2
AcDbVisualStyle
  3
ObjectDBX Classes
 90
     4095
 91
        5
280
     0
281
     0
  0
CLASS
  1
SUN
  2
AcDbSun
  3
SCENEOE
 90
     1153
 91
        5
280
     0
281
     0
  0
CLASS
  1
SCALE
  2
AcDbScale
  3
ObjectDBX Classes
 90
     1153
 91
        5
280
     0
281
     0
  0
CLASS
  1
DICTIONARYVAR
  2
AcDbDictionaryVar
  3
ObjectDBX Classes
 90
        0
 91
        4
280
     0
281
     0
  0
CLASS
  1
TABLESTYLE
  2
AcDbTableStyle
  3
ObjectDBX Classes
 90
     4095
 91
        5
280
     0
281
     0
  0
CLASS
  1
RASTERVARIABLES
  2
AcDbRasterVariables
  3
ISM
 90
        0
 91
        5
280
     0
281
     0
  0
CLASS
  1
CELLSTYLEMAP
  2
AcDbCellStyleMap
  3
ObjectDBX Classes
 90
     1152
 91
        4
280
     0
281
     0
  0
ENDSEC
  0
SECTION
  2
TABLES
  0
TABLE
  2
VPORT
  5
27
330
0
100
AcDbSymbolTable
 70
     1
  0
VPORT
  5
2D
330
27
100
AcDbSymbolTableRecord
100
AcDbViewportTableRecord
  2
*Active
 70
     0
 10
0.0
 20
0.0
 11
1.0
 21
1.0
 12
148.5
 22
104.9999999999999
 13
0.0
 23
0.0
 14
10.0
 24
10.0
 15
10.0
 25
10.0
 16
0.0
 26
0.0
 36
1.0
 17
0.0
 27
0.0
 37
0.0
 40
214.1999999999998
 41
2.208282582216809
 42
50.0
 43
0.0
 44
0.0
 50
0.0
 51
0.0
 71
    16
 72
   100
 73
     1
 74
     1
 75
     0
 76
     0
 77
     0
 78
     0
281
     0
 65
     1
110
0.0
120
0.0
130
0.0
111
1.0
121
0.0
131
0.0
112
0.0
122
1.0
132
0.0
 79
     0
146
0.0
348
2E
 60
     3
 61
     5
292
     1
282
     1
141
0.0
142
0.0
 63
   256
361
2F
  0
ENDTAB
  0
TABLE
  2
LTYPE
  5
B
330
0
100
AcDbSymbolTable
 70
     1
  0
LTYPE
  5
C
330
B
100
AcDbSymbolTableRecord
100
AcDbLinetypeTableRecord
  2
BYBLOCK
 70
     0
  3

 72
    65
 73
     0
 40
0.0
  0
LTYPE
  5
D
330
B
100
AcDbSymbolTableRecord
100
AcDbLinetypeTableRecord
  2
BYLAYER
 70
     0
  3

 72
    65
 73
     0
 40
0.0
  0
LTYPE
  5
A
330
B
100
AcDbSymbolTableRecord
100
AcDbLinetypeTableRecord
  2
CONTINUOUS
 70
     0
  3
Solid line
 72
    65
 73
     0
 40
0.0
  0
ENDTAB
  0
TABLE
  2
LAYER
  5
2
102
{ACAD_XDICTIONARY
360
3
102
}
330
0
100
AcDbSymbolTable
 70
     4
  0
LAYER
  5
16
330
2
100
AcDbSymbolTableRecord
100
AcDbLayerTableRecord
  2
0
 70
     0
 62
     7
  6
CONTINUOUS
370
    -3
390
5
347
8
  0
LAYER
  5
57
330
2
100
AcDbSymbolTableRecord
100
AcDbLayerTableRecord
  2
Object
 70
     0
 62
     7
  6
CONTINUOUS
370
    -3
390
5
347
8
  0
LAYER
  5
FE
330
2
100
AcDbSymbolTableRecord
100
AcDbLayerTableRecord
  2
Defpoints
 70
     0
 62
    -2
  6
CONTINUOUS
290
     0
370
    -3
390
5
347
8
  0
LAYER
  5
1
330
2
100
AcDbSymbolTableRecord
100
AcDbLayerTableRecord
  2
Dims
 70
     0
 62
     7
  6
CONTINUOUS
370
    -3
390
5
347
8
  0
ENDTAB
  0
TABLE
  2
STYLE
  5
F
330
0
100
AcDbSymbolTable
 70
     2
  0
STYLE
  5
E
330
F
100
AcDbSymbolTableRecord
100
AcDbTextStyleTableRecord
  2
STANDARD
 70
     0
 40
0.0
 41
1.0
 50
0.0
 71
     0
 42
3.0
  3
simplex.shx
  4
bigfont.shx
  0
STYLE
  5
59
330
F
100
AcDbSymbolTableRecord
100
AcDbTextStyleTableRecord
  2
Roman
 70
     0
 40
0.0
 41
0.9
 50
0.0
 71
     0
 42
3.0
  3
romans.shx
  4
bigfont.shx
  0
ENDTAB
  0
TABLE
  2
VIEW
  5
25
330
0
100
AcDbSymbolTable
 70
     0
  0
ENDTAB
  0
TABLE
  2
UCS
  5
26
330
0
100
AcDbSymbolTable
 70
     0
  0
ENDTAB
  0
TABLE
  2
APPID
  5
28
330
0
100
AcDbSymbolTable
 70
     1
  0
APPID
  5
2C
330
28
100
AcDbSymbolTableRecord
100
AcDbRegAppTableRecord
  2
ACAD
 70
     0
  0
ENDTAB
  0
TABLE
  2
DIMSTYLE
  5
11
330
0
100
AcDbSymbolTable
 70
     2
100
AcDbDimStyleTable
  0
DIMSTYLE
105
10
102
{ACAD_REACTORS
330
B51
330
B61
330
B78
330
C6B
330
CF1
330
CF2
330
CF9
330
CFA
330
CFB
330
CFC
330
E14
330
E7E
330
EAF
330
C71
102
}
330
11
100
AcDbSymbolTableRecord
100
AcDbDimStyleTableRecord
  2
STANDARD
 70
     0
 41
3.0
 42
0.625
 43
3.0
 44
1.0
 73
     0
 74
     0
 77
     1
 78
     8
 79
     2
140
3.0
141
2.5
147
0.625
172
     1
178
     0
340
E
341
12
342
12
  0
ENDTAB
  0
TABLE
  2
BLOCK_RECORD
  5
13
330
0
100
AcDbSymbolTable
 70
    17
  0
BLOCK_RECORD
  5
14
330
13
100
AcDbSymbolTableRecord
100
AcDbBlockTableRecord
  2
*MODEL_SPACE
340
18
 70
     0
280
     1
281
     0
  0
BLOCK_RECORD
  5
1A
330
13
100
AcDbSymbolTableRecord
100
AcDbBlockTableRecord
  2
*PAPER_SPACE
340
1D
 70
     0
280
     1
281
     0
  0
BLOCK_RECORD
  5
12
330
13
100
AcDbSymbolTableRecord
100
AcDbBlockTableRecord
  2
_OPEN30
340
0
102
{BLKREFS
331
D0C
331
D0D
331
D18
331
D19
331
D24
331
D25
331
D30
331
D31
331
D3C
331
D3D
331
D48
331
D49
331
D56
331
D57
331
D62
331
D63
331
0
331
0
331
D7C
331
D7D
331
D88
331
D89
331
D96
331
D97
331
DFF
331
E00
331
E1B
331
E1C
331
0
331
0
331
D71
331
0
102
}
 70
     0
280
     1
281
     0
  0
BLOCK_RECORD
  5
2EE
330
13
100
AcDbSymbolTableRecord
100
AcDbBlockTableRecord
  2
A$C30917
340
0
102
{BLKREFS
331
C56
331
C74
102
}
 70
     0
280
     1
281
     0
  0
BLOCK_RECORD
  5
D06
330
13
100
AcDbSymbolTableRecord
100
AcDbBlockTableRecord
  2
*D2
340
0
 70
     0
280
     1
281
     0
  0
BLOCK_RECORD
  5
D12
330
13
100
AcDbSymbolTableRecord
100
AcDbBlockTableRecord
  2
*D3
340
0
 70
     0
280
     1
281
     0
  0
BLOCK_RECORD
  5
D1E
330
13
100
AcDbSymbolTableRecord
100
AcDbBlockTableRecord
  2
*D4
340
0
 70
     0
280
     1
281
     0
  0
BLOCK_RECORD
  5
D2A
330
13
100
AcDbSymbolTableRecord
100
AcDbBlockTableRecord
  2
*D5
340
0
 70
     0
280
     1
281
     0
  0
BLOCK_RECORD
  5
D42
330
13
100
AcDbSymbolTableRecord
100
AcDbBlockTableRecord
  2
*D7
340
0
 70
     0
280
     1
281
     0
  0
BLOCK_RECORD
  5
D4E
330
13
100
AcDbSymbolTableRecord
100
AcDbBlockTableRecord
  2
*D8
340
0
 70
     0
280
     1
281
     0
  0
BLOCK_RECORD
  5
D5A
330
13
100
AcDbSymbolTableRecord
100
AcDbBlockTableRecord
  2
*D9
340
0
 70
     0
280
     1
281
     0
  0
BLOCK_RECORD
  5
D68
330
13
100
AcDbSymbolTableRecord
100
AcDbBlockTableRecord
  2
*D10
340
0
 70
     0
280
     1
281
     0
  0
BLOCK_RECORD
  5
D76
330
13
100
AcDbSymbolTableRecord
100
AcDbBlockTableRecord
  2
*D11
340
0
 70
     0
280
     1
281
     0
  0
BLOCK_RECORD
  5
D82
330
13
100
AcDbSymbolTableRecord
100
AcDbBlockTableRecord
  2
*D12
340
0
 70
     0
280
     1
281
     0
  0
BLOCK_RECORD
  5
E15
330
13
100
AcDbSymbolTableRecord
100
AcDbBlockTableRecord
  2
*D15
340
0
 70
     0
280
     1
281
     0
  0
ENDTAB
  0
ENDSEC
  0
SECTION
  2
BLOCKS
  0
BLOCK
  5
15
330
14
100
AcDbEntity
  8
0
100
AcDbBlockBegin
  2
*MODEL_SPACE
 70
     0
 10
0.0
 20
0.0
 30
0.0
  3
*MODEL_SPACE
  1
*MODEL_SPACE
  0
ENDBLK
  5
17
330
14
100
AcDbEntity
  8
0
100
AcDbBlockEnd
  0
BLOCK
  5
1B
330
1A
100
AcDbEntity
 67
     1
  8
0
100
AcDbBlockBegin
  2
*PAPER_SPACE
 70
     0
 10
0.0
 20
0.0
 30
0.0
  3
*PAPER_SPACE
  1
*PAPER_SPACE
  0
ENDBLK
  5
1C
330
1A
100
AcDbEntity
 67
     1
  8
0
100
AcDbBlockEnd
  0
BLOCK
  5
1E
330
12
100
AcDbEntity
  8
0
100
AcDbBlockBegin
  2
_OPEN30
 70
     0
 10
0.0
 20
0.0
 30
0.0
  3
_OPEN30
  1
_OPEN30
  0
LINE
  5
1F
330
12
100
AcDbEntity
  8
0
  6
ByBlock
 62
     0
370
    -2
100
AcDbLine
 10
-1.0
 20
0.267949
 30
0.0
 11
0.0
 21
0.0
 31
0.0
  0
LINE
  5
20
330
12
100
AcDbEntity
  8
0
  6
ByBlock
 62
     0
370
    -2
100
AcDbLine
 10
0.0
 20
0.0
 30
0.0
 11
-1.0
 21
-0.267949
 31
0.0
  0
LINE
  5
21
330
12
100
AcDbEntity
  8
0
  6
ByBlock
 62
     0
370
    -2
100
AcDbLine
 10
0.0
 20
0.0
 30
0.0
 11
-1.0
 21
0.0
 31
0.0
  0
ENDBLK
  5
22
330
12
100
AcDbEntity
  8
0
100
AcDbBlockEnd
  0
BLOCK
  5
2EF
330
2EE
100
AcDbEntity
  8
0
100
AcDbBlockBegin
  2
A$C30917
 70
     0
 10
0.0
 20
0.0
 30
0.0
  3
A$C30917
  1
A$C30917
  0
LWPOLYLINE
  5
2F0
330
2EE
100
AcDbEntity
  8
Object
100
AcDbPolyline
 90
        4
 70
     0
 43
0.0
 10
2.0
 20
13.87934028693806
 10
2.0
 20
19.27734417456671
 10
-2.0
 20
19.27734417456659
 10
-2.0
 20
13.8793402720369
  0
LINE
  5
2F1
330
2EE
100
AcDbEntity
  8
Object
100
AcDbLine
 10
1.520084296415007
 20
11.39554943598401
 30
0.0
 11
-1.520084296415007
 21
11.39554943598401
 31
0.0
  0
LWPOLYLINE
  5
2F2
330
2EE
100
AcDbEntity
  8
Object
100
AcDbPolyline
 90
        4
 70
     0
 43
0.0
 10
2.5
 20
11.40717274012107
 10
2.5
 20
0.0000000000000568
 10
-2.5
 20
-0.0000000000000568
 10
-2.5
 20
11.40717272894508
  0
LINE
  5
2F3
330
2EE
100
AcDbEntity
  8
Object
100
AcDbLine
 10
-2.0
 20
13.8793402720369
 30
0.0
 11
-2.5
 21
11.40717272894508
 31
0.0
  0
LINE
  5
2F4
330
2EE
100
AcDbEntity
  8
Object
100
AcDbLine
 10
2.0
 20
13.87934028693806
 30
0.0
 11
2.520084296415007
 21
11.39554943598401
 31
0.0
  0
ENDBLK
  5
2F5
330
2EE
100
AcDbEntity
  8
0
100
AcDbBlockEnd
  0
BLOCK
  5
D07
330
D06
100
AcDbEntity
  8
0
100
AcDbBlockBegin
  2
*D2
 70
     1
 10
0.0
 20
0.0
 30
0.0
  3
*D2
  1
*D28
  0
LINE
  5
D09
330
D06
100
AcDbEntity
  8
Dims
 62
     0
370
    -2
100
AcDbLine
 10
52.28327367083855
 20
107.3129566040468
 30
0.0
 11
52.28327367083855
 21
94.00777253536086
 31
0.0
  0
LINE
  5
D0A
330
D06
100
AcDbEntity
  8
Dims
 62
     0
370
    -2
100
AcDbLine
 10
251.4870340656095
 20
107.9719739785507
 30
0.0
 11
251.4870340656095
 21
94.00777253536086
 31
0.0
  0
LINE
  5
D0B
330
D06
100
AcDbEntity
  8
Dims
 62
     0
370
    -2
100
AcDbLine
 10
55.28327367083855
 20
95.00777253536086
 30
0.0
 11
248.4870340656095
 21
95.00777253536086
 31
0.0
  0
INSERT
  5
D0C
330
D06
100
AcDbEntity
  8
Dims
 62
     0
370
    -2
100
AcDbBlockReference
  2
_OPEN30
 10
52.28327367083855
 20
95.00777253536086
 30
0.0
 41
3.0
 42
3.0
 43
3.0
 50
180.0
  0
INSERT
  5
D0D
330
D06
100
AcDbEntity
  8
Dims
 62
     0
370
    -2
100
AcDbBlockReference
  2
_OPEN30
 10
251.4870340656095
 20
95.00777253536086
 30
0.0
 41
3.0
 42
3.0
 43
3.0
  0
MTEXT
  5
D0E
330
D06
100
AcDbEntity
  8
Dims
 62
     0
100
AcDbMText
 10
133.387624390546
 20
97.13277253536086
 30
0.0
 40
3.0
 41
0.0
 46
0.0
 71
     5
 72
     1
  1
\A1;2000±20
 73
     1
 44
1.0
  0
POINT
  5
D0F
330
D06
100
AcDbEntity
  8
Defpoints
 62
     0
100
AcDbPoint
 10
52.28327367083855
 20
107.9379566040468
 30
0.0
  0
POINT
  5
D10
330
D06
100
AcDbEntity
  8
Defpoints
 62
     0
100
AcDbPoint
 10
251.4870340656095
 20
108.5969739785507
 30
0.0
  0
POINT
  5
D11
330
D06
100
AcDbEntity
  8
Defpoints
 62
     0
100
AcDbPoint
 10
251.4870340656095
 20
95.00777253536086
 30
0.0
  0
ENDBLK
  5
D08
330
D06
100
AcDbEntity
  8
0
100
AcDbBlockEnd
  0
BLOCK
  5
D13
330
D12
100
AcDbEntity
  8
0
100
AcDbBlockBegin
  2
*D3
 70
     1
 10
0.0
 20
0.0
 30
0.0
  3
*D3
  1
*D29
  0
LINE
  5
D15
330
D12
100
AcDbEntity
  8
Dims
 62
     0
370
    -2
100
AcDbLine
 10
236.4870340656095
 20
128.8011612907214
 30
0.0
 11
236.4870340656095
 21
139.4727480736008
 31
0.0
  0
LINE
  5
D16
330
D12
100
AcDbEntity
  8
Dims
 62
     0
370
    -2
100
AcDbLine
 10
186.4870340656097
 20
128.8011612907213
 30
0.0
 11
186.4870340656097
 21
139.4727480736008
 31
0.0
  0
LINE
  5
D17
330
D12
100
AcDbEntity
  8
Dims
 62
     0
370
    -2
100
AcDbLine
 10
233.4870340656095
 20
138.4727480736008
 30
0.0
 11
189.4870340656097
 21
138.4727480736008
 31
0.0
  0
INSERT
  5
D18
330
D12
100
AcDbEntity
  8
Dims
 62
     0
370
    -2
100
AcDbBlockReference
  2
_OPEN30
 10
236.4870340656095
 20
138.4727480736008
 30
0.0
 41
3.0
 42
3.0
 43
3.0
  0
INSERT
  5
D19
330
D12
100
AcDbEntity
  8
Dims
 62
     0
370
    -2
100
AcDbBlockReference
  2
_OPEN30
 10
186.4870340656097
 20
138.4727480736008
 30
0.0
 41
3.0
 42
3.0
 43
3.0
 50
180.0
  0
MTEXT
  5
D1A
330
D12
100
AcDbEntity
  8
Dims
 62
     0
100
AcDbMText
 10
211.4870340656097
 20
141.3789980736008
 30
0.0
 40
3.0
 41
0.0
 46
0.0
 71
     5
 72
     1
  1
\A1;(80)
 73
     1
 44
1.0
  0
POINT
  5
D1B
330
D12
100
AcDbEntity
  8
Defpoints
 62
     0
100
AcDbPoint
 10
236.4870340656095
 20
128.1761612907214
 30
0.0
  0
POINT
  5
D1C
330
D12
100
AcDbEntity
  8
Defpoints
 62
     0
100
AcDbPoint
 10
186.4870340656097
 20
128.1761612907213
 30
0.0
  0
POINT
  5
D1D
330
D12
100
AcDbEntity
  8
Defpoints
 62
     0
100
AcDbPoint
 10
186.4870340656097
 20
138.4727480736008
 30
0.0
  0
ENDBLK
  5
D14
330
D12
100
AcDbEntity
  8
0
100
AcDbBlockEnd
  0
BLOCK
  5
D1F
330
D1E
100
AcDbEntity
  8
0
100
AcDbBlockBegin
  2
*D4
 70
     1
 10
0.0
 20
0.0
 30
0.0
  3
*D4
  1
*D30
  0
LINE
  5
D21
330
D1E
100
AcDbEntity
  8
Dims
 62
     0
370
    -2
100
AcDbLine
 10
236.4870340656095
 20
128.8011612907214
 30
0.0
 11
236.4870340656095
 21
139.4727480736008
 31
0.0
  0
LINE
  5
D22
330
D1E
100
AcDbEntity
  8
Dims
 62
     0
370
    -2
100
AcDbLine
 10
251.4870340656095
 20
134.7011612907212
 30
0.0
 11
251.4870340656095
 21
139.4727480736008
 31
0.0
  0
LINE
  5
D23
330
D1E
100
AcDbEntity
  8
Dims
 62
     0
370
    -2
100
AcDbLine
 10
239.4870340656095
 20
138.4727480736008
 30
0.0
 11
248.4870340656095
 21
138.4727480736008
 31
0.0
  0
INSERT
  5
D24
330
D1E
100
AcDbEntity
  8
Dims
 62
     0
370
    -2
100
AcDbBlockReference
  2
_OPEN30
 10
236.4870340656095
 20
138.4727480736008
 30
0.0
 41
3.0
 42
3.0
 43
3.0
 50
180.0
  0
INSERT
  5
D25
330
D1E
100
AcDbEntity
  8
Dims
 62
     0
370
    -2
100
AcDbBlockReference
  2
_OPEN30
 10
251.4870340656095
 20
138.4727480736008
 30
0.0
 41
3.0
 42
3.0
 43
3.0
  0
MTEXT
  5
D26
330
D1E
100
AcDbEntity
  8
Dims
 62
     0
100
AcDbMText
 10
244.0155702867202
 20
141.3789980736008
 30
0.0
 40
3.0
 41
0.0
 46
0.0
 71
     5
 72
     1
  1
\A1;(15)
 73
     1
 44
1.0
  0
POINT
  5
D27
330
D1E
100
AcDbEntity
  8
Defpoints
 62
     0
100
AcDbPoint
 10
236.4870340656095
 20
128.1761612907214
 30
0.0
  0
POINT
  5
D28
330
D1E
100
AcDbEntity
  8
Defpoints
 62
     0
100
AcDbPoint
 10
251.4870340656095
 20
134.0761612907212
 30
0.0
  0
POINT
  5
D29
330
D1E
100
AcDbEntity
  8
Defpoints
 62
     0
100
AcDbPoint
 10
251.4870340656095
 20
138.4727480736008
 30
0.0
  0
ENDBLK
  5
D20
330
D1E
100
AcDbEntity
  8
0
100
AcDbBlockEnd
  0
BLOCK
  5
D2B
330
D2A
100
AcDbEntity
  8
0
100
AcDbBlockBegin
  2
*D5
 70
     1
 10
0.0
 20
0.0
 30
0.0
  3
*D5
  1
*D31
  0
LINE
  5
D2D
330
D2A
100
AcDbEntity
  8
Dims
 62
     0
370
    -2
100
AcDbLine
 10
53.27309685359484
 20
155.125349467136
 30
0.0
 11
53.2269323973465
 21
154.7532018580084
 31
0.0
  0
LINE
  5
D2E
330
D2A
100
AcDbEntity
  8
Dims
 62
     0
370
    -2
100
AcDbLine
 10
25.70757480677765
 20
145.8986648213291
 30
0.0
 11
27.45258664640058
 21
159.9658073112497
 31
0.0
  0
LINE
  5
D2F
330
D2A
100
AcDbEntity
  8
Dims
 62
     0
370
    -2
100
AcDbLine
 10
50.37285674098887
 20
156.1149111323349
 30
0.0
 11
30.30666230275821
 21
158.6040980369232
 31
0.0
  0
INSERT
  5
D30
330
D2A
100
AcDbEntity
  8
Dims
 62
     0
370
    -2
100
AcDbBlockReference
  2
_OPEN30
 10
53.35003761400868
 20
155.7455954823483
 30
0.0
 41
3.0
 42
3.0
 43
3.0
 50
352.9286524323327
  0
INSERT
  5
D31
330
D2A
100
AcDbEntity
  8
Dims
 62
     0
370
    -2
100
AcDbBlockReference
  2
_OPEN30
 10
27.32948142973839
 20
158.9734136869098
 30
0.0
 41
3.0
 42
3.0
 43
3.0
 50
172.9286524323327
  0
MTEXT
  5
D32
330
D2A
100
AcDbEntity
  8
Dims
 62
     0
100
AcDbMText
 10
39.52867373153399
 20
159.601406222632
 30
0.0
 40
3.0
 41
0.0
 46
0.0
 71
     5
 72
     1
  1
\A1;（100）
 11
0.9923936243399373
 21
-0.1231052166621848
 31
0.0
 73
     1
 44
1.0
  0
POINT
  5
D33
330
D2A
100
AcDbEntity
  8
Defpoints
 62
     0
100
AcDbPoint
 10
53.3500376140087
 20
155.7455954823484
 30
0.0
  0
POINT
  5
D34
330
D2A
100
AcDbEntity
  8
Defpoints
 62
     0
100
AcDbPoint
 10
25.63063404636378
 20
145.2784188061166
 30
0.0
  0
POINT
  5
D35
330
D2A
100
AcDbEntity
  8
Defpoints
 62
     0
100
AcDbPoint
 10
27.32948142973839
 20
158.9734136869098
 30
0.0
  0
ENDBLK
  5
D2C
330
D2A
100
AcDbEntity
  8
0
100
AcDbBlockEnd
  0
BLOCK
  5
D43
330
D42
100
AcDbEntity
  8
0
100
AcDbBlockBegin
  2
*D7
 70
     1
 10
0.0
 20
0.0
 30
0.0
  3
*D7
  1
*D33
  0
LINE
  5
D45
330
D42
100
AcDbEntity
  8
Dims
 62
     0
370
    -2
100
AcDbLine
 10
36.28327367083867
 20
108.9129566040467
 30
0.0
 11
36.28327367083867
 21
94.00777253536086
 31
0.0
  0
LINE
  5
D46
330
D42
100
AcDbEntity
  8
Dims
 62
     0
370
    -2
100
AcDbLine
 10
52.28327367083867
 20
107.3129566040468
 30
0.0
 11
52.28327367083867
 21
94.00777253536086
 31
0.0
  0
LINE
  5
D47
330
D42
100
AcDbEntity
  8
Dims
 62
     0
370
    -2
100
AcDbLine
 10
39.28327367083867
 20
95.00777253536086
 30
0.0
 11
49.28327367083867
 21
95.00777253536086
 31
0.0
  0
INSERT
  5
D48
330
D42
100
AcDbEntity
  8
Dims
 62
     0
370
    -2
100
AcDbBlockReference
  2
_OPEN30
 10
36.28327367083867
 20
95.00777253536086
 30
0.0
 41
3.0
 42
3.0
 43
3.0
 50
180.0
  0
INSERT
  5
D49
330
D42
100
AcDbEntity
  8
Dims
 62
     0
370
    -2
100
AcDbBlockReference
  2
_OPEN30
 10
52.28327367083867
 20
95.00777253536086
 30
0.0
 41
3.0
 42
3.0
 43
3.0
  0
MTEXT
  5
D4A
330
D42
100
AcDbEntity
  8
Dims
 62
     0
100
AcDbMText
 10
44.28327367083867
 20
97.13277253536086
 30
0.0
 40
3.0
 41
0.0
 46
0.0
 71
     5
 72
     1
  1
\A1;8
 73
     1
 44
1.0
  0
POINT
  5
D4B
330
D42
100
AcDbEntity
  8
Defpoints
 62
     0
100
AcDbPoint
 10
36.28327367083867
 20
109.5379566040467
 30
0.0
  0
POINT
  5
D4C
330
D42
100
AcDbEntity
  8
Defpoints
 62
     0
100
AcDbPoint
 10
52.28327367083867
 20
107.9379566040468
 30
0.0
  0
POINT
  5
D4D
330
D42
100
AcDbEntity
  8
Defpoints
 62
     0
100
AcDbPoint
 10
52.28327367083867
 20
95.00777253536086
 30
0.0
  0
ENDBLK
  5
D44
330
D42
100
AcDbEntity
  8
0
100
AcDbBlockEnd
  0
BLOCK
  5
D4F
330
D4E
100
AcDbEntity
  8
0
100
AcDbBlockBegin
  2
*D8
 70
     1
 10
0.0
 20
0.0
 30
0.0
  3
*D8
  1
*D34
  0
LINE
  5
D51
330
D4E
100
AcDbEntity
  8
Dims
 62
     0
370
    -2
100
AcDbLine
 10
26.45898616585281
 20
113.5129566041468
 30
0.0
 11
26.45898616585281
 21
94.00777253536086
 31
0.0
  0
LINE
  5
D52
330
D4E
100
AcDbEntity
  8
Dims
 62
     0
370
    -2
100
AcDbLine
 10
14.85898616585267
 20
107.3129566041468
 30
0.0
 11
14.85898616585267
 21
94.00777253536086
 31
0.0
  0
LINE
  5
D53
330
D4E
100
AcDbEntity
  8
Dims
 62
     0
370
    -2
100
AcDbLine
 10
26.45898616585281
 20
95.00777253536086
 30
0.0
 11
14.85898616585267
 21
95.00777253536086
 31
0.0
  0
LINE
  5
D54
330
D4E
100
AcDbEntity
  8
Dims
 62
     0
370
    -2
100
AcDbLine
 10
29.45898616585281
 20
95.00777253536086
 30
0.0
 11
32.45898616585281
 21
95.00777253536086
 31
0.0
  0
LINE
  5
D55
330
D4E
100
AcDbEntity
  8
Dims
 62
     0
370
    -2
100
AcDbLine
 10
11.85898616585267
 20
95.00777253536086
 30
0.0
 11
8.85898616585267
 21
95.00777253536086
 31
0.0
  0
INSERT
  5
D56
330
D4E
100
AcDbEntity
  8
Dims
 62
     0
370
    -2
100
AcDbBlockReference
  2
_OPEN30
 10
26.45898616585281
 20
95.00777253536086
 30
0.0
 41
3.0
 42
3.0
 43
3.0
 50
180.0
  0
INSERT
  5
D57
330
D4E
100
AcDbEntity
  8
Dims
 62
     0
370
    -2
100
AcDbBlockReference
  2
_OPEN30
 10
14.85898616585267
 20
95.00777253536086
 30
0.0
 41
3.0
 42
3.0
 43
3.0
  0
MTEXT
  5
D58
330
D4E
100
AcDbEntity
  8
Dims
 62
     0
100
AcDbMText
 10
20.65898616585274
 20
97.13277253536086
 30
0.0
 40
3.0
 41
0.0
 46
0.0
 71
     5
 72
     1
  1
\A1;5.8
 73
     1
 44
1.0
  0
POINT
  5
D59
330
D4E
100
AcDbEntity
  8
Defpoints
 62
     0
100
AcDbPoint
 10
26.45898616585281
 20
114.1379566041468
 30
0.0
  0
POINT
  5
E0F
330
D4E
100
AcDbEntity
  8
Defpoints
 62
     0
100
AcDbPoint
 10
14.85898616585267
 20
107.9379566041468
 30
0.0
  0
POINT
  5
E10
330
D4E
100
AcDbEntity
  8
Defpoints
 62
     0
100
AcDbPoint
 10
14.85898616585267
 20
95.00777253536086
 30
0.0
  0
ENDBLK
  5
D50
330
D4E
100
AcDbEntity
  8
0
100
AcDbBlockEnd
  0
BLOCK
  5
D5B
330
D5A
100
AcDbEntity
  8
0
100
AcDbBlockBegin
  2
*D9
 70
     1
 10
0.0
 20
0.0
 30
0.0
  3
*D9
  1
*D35
  0
LINE
  5
D5D
330
D5A
100
AcDbEntity
  8
Dims
 62
     0
370
    -2
100
AcDbLine
 10
251.4870340656095
 20
107.6511612907214
 30
0.0
 11
251.4870340656095
 21
94.00777253536086
 31
0.0
  0
LINE
  5
D5E
330
D5A
100
AcDbEntity
  8
Dims
 62
     0
370
    -2
100
AcDbLine
 10
257.1870340656095
 20
108.1511612907214
 30
0.0
 11
257.1870340656095
 21
94.00777253536086
 31
0.0
  0
LINE
  5
D5F
330
D5A
100
AcDbEntity
  8
Dims
 62
     0
370
    -2
100
AcDbLine
 10
251.4870340656095
 20
95.00777253536086
 30
0.0
 11
257.1870340656095
 21
95.00777253536086
 31
0.0
  0
LINE
  5
D60
330
D5A
100
AcDbEntity
  8
Dims
 62
     0
370
    -2
100
AcDbLine
 10
248.4870340656095
 20
95.00777253536086
 30
0.0
 11
245.4870340656095
 21
95.00777253536086
 31
0.0
  0
LINE
  5
D61
330
D5A
100
AcDbEntity
  8
Dims
 62
     0
370
    -2
100
AcDbLine
 10
260.1870340656095
 20
95.00777253536086
 30
0.0
 11
263.1870340656095
 21
95.00777253536086
 31
0.0
  0
INSERT
  5
D62
330
D5A
100
AcDbEntity
  8
Dims
 62
     0
370
    -2
100
AcDbBlockReference
  2
_OPEN30
 10
251.4870340656095
 20
95.00777253536086
 30
0.0
 41
3.0
 42
3.0
 43
3.0
  0
INSERT
  5
D63
330
D5A
100
AcDbEntity
  8
Dims
 62
     0
370
    -2
100
AcDbBlockReference
  2
_OPEN30
 10
257.1870340656095
 20
95.00777253536086
 30
0.0
 41
3.0
 42
3.0
 43
3.0
 50
180.0
  0
MTEXT
  5
D64
330
D5A
100
AcDbEntity
  8
Dims
 62
     0
100
AcDbMText
 10
254.5679864465619
 20
96.88277253536086
 30
0.0
 40
2.5
 41
0.0
 46
0.0
 71
     5
 72
     1
  1
\A1;5.7
 73
     1
 44
1.0
  0
POINT
  5
D65
330
D5A
100
AcDbEntity
  8
Defpoints
 62
     0
100
AcDbPoint
 10
251.4870340656095
 20
108.2761612907214
 30
0.0
  0
POINT
  5
D66
330
D5A
100
AcDbEntity
  8
Defpoints
 62
     0
100
AcDbPoint
 10
257.1870340656095
 20
108.7761612907214
 30
0.0
  0
POINT
  5
D67
330
D5A
100
AcDbEntity
  8
Defpoints
 62
     0
100
AcDbPoint
 10
257.1870340656095
 20
95.00777253536086
 30
0.0
  0
ENDBLK
  5
D5C
330
D5A
100
AcDbEntity
  8
0
100
AcDbBlockEnd
  0
BLOCK
  5
D69
330
D68
100
AcDbEntity
  8
0
100
AcDbBlockBegin
  2
*D10
 70
     1
 10
0.0
 20
0.0
 30
0.0
  3
*D10
  1
*D36
  0
LINE
  5
D6B
330
D68
100
AcDbEntity
  8
Dims
 62
     0
370
    -2
100
AcDbLine
 10
274.2134387601437
 20
109.8011612907215
 30
0.0
 11
274.2134387601437
 21
94.00777253536086
 31
0.0
  0
LINE
  5
D6C
330
D68
100
AcDbEntity
  8
Dims
 62
     0
370
    -2
100
AcDbLine
 10
278.0834387601436
 20
107.6511612907214
 30
0.0
 11
278.0834387601436
 21
94.00777253536086
 31
0.0
  0
LINE
  5
D6D
330
D68
100
AcDbEntity
  8
Dims
 62
     0
370
    -2
100
AcDbLine
 10
278.0834387601436
 20
95.00777253536086
 30
0.0
 11
292.9524863791912
 21
95.00777253536086
 31
0.0
  0
LINE
  5
D6E
330
D68
100
AcDbEntity
  8
Dims
 62
     0
370
    -2
100
AcDbLine
 10
274.2134387601437
 20
95.00777253536086
 30
0.0
 11
278.0834387601436
 21
95.00777253536086
 31
0.0
  0
LINE
  5
D6F
330
D68
100
AcDbEntity
  8
Dims
 62
     0
370
    -2
100
AcDbLine
 10
271.2134387601437
 20
95.00777253536086
 30
0.0
 11
268.2134387601437
 21
95.00777253536086
 31
0.0
  0
LINE
  5
D70
330
D68
100
AcDbEntity
  8
Dims
 62
     0
370
    -2
100
AcDbLine
 10
281.0834387601436
 20
95.00777253536086
 30
0.0
 11
284.0834387601436
 21
95.00777253536086
 31
0.0
  0
INSERT
  5
D71
330
D68
100
AcDbEntity
  8
Dims
 62
     0
370
    -2
100
AcDbBlockReference
  2
_OPEN30
 10
274.2134387601437
 20
95.00777253536086
 30
0.0
 41
3.0
 42
3.0
 43
3.0
  0
INSERT
  5
D72
330
D68
100
AcDbEntity
  8
Dims
 62
     0
370
    -2
100
AcDbBlockReference
  2
_OPEN30
 10
278.0834387601436
 20
95.00777253536086
 30
0.0
 41
3.0
 42
3.0
 43
3.0
 50
180.0
  0
MTEXT
  5
D73
330
D68
100
AcDbEntity
  8
Dims
 62
     0
100
AcDbMText
 10
288.5179625696674
 20
96.88277253536086
 30
0.0
 40
2.5
 41
0.0
 46
0.0
 71
     5
 72
     1
  1
\A1;3.87
 73
     1
 44
1.0
  0
POINT
  5
EE2
330
D68
100
AcDbEntity
  8
Defpoints
 62
     0
100
AcDbPoint
 10
274.2134387601437
 20
110.4261612907215
 30
0.0
  0
POINT
  5
EE3
330
D68
100
AcDbEntity
  8
Defpoints
 62
     0
100
AcDbPoint
 10
278.0834387601436
 20
108.2761612907214
 30
0.0
  0
POINT
  5
EE4
330
D68
100
AcDbEntity
  8
Defpoints
 62
     0
100
AcDbPoint
 10
278.0834387601436
 20
95.00777253536086
 30
0.0
  0
ENDBLK
  5
D6A
330
D68
100
AcDbEntity
  8
0
100
AcDbBlockEnd
  0
BLOCK
  5
D77
330
D76
100
AcDbEntity
  8
0
100
AcDbBlockBegin
  2
*D11
 70
     1
 10
0.0
 20
0.0
 30
0.0
  3
*D11
  1
*D37
  0
LINE
  5
D79
330
D76
100
AcDbEntity
  8
Dims
 62
     0
370
    -2
100
AcDbLine
 10
278.7084387601436
 20
134.0761612907215
 30
0.0
 11
285.0507061012032
 21
134.0761612907215
 31
0.0
  0
LINE
  5
D7A
330
D76
100
AcDbEntity
  8
Dims
 62
     0
370
    -2
100
AcDbLine
 10
278.7084387601436
 20
108.2761612907214
 30
0.0
 11
285.0507061012032
 21
108.2761612907214
 31
0.0
  0
LINE
  5
D7B
330
D76
100
AcDbEntity
  8
Dims
 62
     0
370
    -2
100
AcDbLine
 10
284.0507061012032
 20
131.0761612907215
 30
0.0
 11
284.0507061012032
 21
111.2761612907214
 31
0.0
  0
INSERT
  5
D7C
330
D76
100
AcDbEntity
  8
Dims
 62
     0
370
    -2
100
AcDbBlockReference
  2
_OPEN30
 10
284.0507061012032
 20
134.0761612907215
 30
0.0
 41
3.0
 42
3.0
 43
3.0
 50
90.0
  0
INSERT
  5
D7D
330
D76
100
AcDbEntity
  8
Dims
 62
     0
370
    -2
100
AcDbBlockReference
  2
_OPEN30
 10
284.0507061012032
 20
108.2761612907214
 30
0.0
 41
3.0
 42
3.0
 43
3.0
 50
270.0
  0
MTEXT
  5
D7E
330
D76
100
AcDbEntity
  8
Dims
 62
     0
100
AcDbMText
 10
282.1757061012032
 20
121.1761612907214
 30
0.0
 40
2.5
 41
0.0
 46
0.0
 71
     5
 72
     1
  1
\A1;25.8
 11
0.0
 21
1.0
 31
0.0
 73
     1
 44
1.0
  0
POINT
  5
D7F
330
D76
100
AcDbEntity
  8
Defpoints
 62
     0
100
AcDbPoint
 10
278.0834387601436
 20
134.0761612907215
 30
0.0
  0
POINT
  5
D80
330
D76
100
AcDbEntity
  8
Defpoints
 62
     0
100
AcDbPoint
 10
278.0834387601436
 20
108.2761612907214
 30
0.0
  0
POINT
  5
D81
330
D76
100
AcDbEntity
  8
Defpoints
 62
     0
100
AcDbPoint
 10
284.0507061012032
 20
108.2761612907214
 30
0.0
  0
ENDBLK
  5
D78
330
D76
100
AcDbEntity
  8
0
100
AcDbBlockEnd
  0
BLOCK
  5
D83
330
D82
100
AcDbEntity
  8
0
100
AcDbBlockBegin
  2
*D12
 70
     1
 10
0.0
 20
0.0
 30
0.0
  3
*D12
  1
*D38
  0
LINE
  5
D85
330
D82
100
AcDbEntity
  8
Dims
 62
     0
370
    -2
100
AcDbLine
 10
14.23398616585267
 20
127.9379566041467
 30
0.0
 11
7.693578408404038
 21
127.9379566041467
 31
0.0
  0
LINE
  5
D86
330
D82
100
AcDbEntity
  8
Dims
 62
     0
370
    -2
100
AcDbLine
 10
14.23398616585267
 20
107.9379566041468
 30
0.0
 11
7.693578408404036
 21
107.9379566041468
 31
0.0
  0
LINE
  5
D87
330
D82
100
AcDbEntity
  8
Dims
 62
     0
370
    -2
100
AcDbLine
 10
8.693578408404038
 20
124.9379566041467
 30
0.0
 11
8.693578408404036
 21
110.9379566041468
 31
0.0
  0
INSERT
  5
D88
330
D82
100
AcDbEntity
  8
Dims
 62
     0
370
    -2
100
AcDbBlockReference
  2
_OPEN30
 10
8.693578408404038
 20
127.9379566041467
 30
0.0
 41
3.0
 42
3.0
 43
3.0
 50
90.0
  0
INSERT
  5
D89
330
D82
100
AcDbEntity
  8
Dims
 62
     0
370
    -2
100
AcDbBlockReference
  2
_OPEN30
 10
8.693578408404036
 20
107.9379566041468
 30
0.0
 41
3.0
 42
3.0
 43
3.0
 50
270.0
  0
MTEXT
  5
D8A
330
D82
100
AcDbEntity
  8
Dims
 62
     0
100
AcDbMText
 10
6.568578408404036
 20
117.9379566041467
 30
0.0
 40
3.0
 41
0.0
 46
0.0
 71
     5
 72
     1
  1
\A1;10
 11
8.881784197001296E-17
 21
1.0
 31
0.0
 73
     1
 44
1.0
  0
POINT
  5
D8B
330
D82
100
AcDbEntity
  8
Defpoints
 62
     0
100
AcDbPoint
 10
14.85898616585267
 20
127.9379566041467
 30
0.0
  0
POINT
  5
D8C
330
D82
100
AcDbEntity
  8
Defpoints
 62
     0
100
AcDbPoint
 10
14.85898616585267
 20
107.9379566041468
 30
0.0
  0
POINT
  5
D8D
330
D82
100
AcDbEntity
  8
Defpoints
 62
     0
100
AcDbPoint
 10
8.693578408404036
 20
107.9379566041468
 30
0.0
  0
ENDBLK
  5
D84
330
D82
100
AcDbEntity
  8
0
100
AcDbBlockEnd
  0
BLOCK
  5
E16
330
E15
100
AcDbEntity
  8
0
100
AcDbBlockBegin
  2
*D15
 70
     1
 10
0.0
 20
0.0
 30
0.0
  3
*D15
  1
*D15
  0
LINE
  5
E18
330
E15
100
AcDbEntity
  8
Object
 62
     0
370
    -2
100
AcDbLine
 10
251.5087749398061
 20
147.4861239798309
 30
0.0
 11
251.5909186491126
 21
149.8461370706352
 31
0.0
  0
LINE
  5
E19
330
E15
100
AcDbEntity
  8
Object
 62
     0
370
    -2
100
AcDbLine
 10
53.30267930341679
 20
154.3849771964317
 30
0.0
 11
53.38482301272317
 21
156.744990287236
 31
0.0
  0
LINE
  5
E1A
330
E15
100
AcDbEntity
  8
Object
 62
     0
370
    -2
100
AcDbLine
 10
248.5579488357353
 20
148.951098461891
 30
0.0
 11
56.34822202867142
 21
155.641239286205
 31
0.0
  0
INSERT
  5
E1B
330
E15
100
AcDbEntity
  8
Object
 62
     0
370
    -2
100
AcDbBlockReference
  2
_OPEN30
 10
251.556133250398
 20
148.8467422657476
 30
0.0
 41
3.0
 42
3.0
 43
3.0
 50
358.0065413049332
  0
INSERT
  5
E1C
330
E15
100
AcDbEntity
  8
Object
 62
     0
370
    -2
100
AcDbBlockReference
  2
_OPEN30
 10
53.3500376140087
 20
155.7455954823484
 30
0.0
 41
3.0
 42
3.0
 43
3.0
 50
178.0065413049333
  0
MTEXT
  5
E1D
330
E15
100
AcDbEntity
  8
Object
 62
     0
100
AcDbMText
 10
152.5270044044716
 20
154.4198828344341
 30
0.0
 40
3.0
 41
0.0
 46
0.0
 71
     5
 72
     1
  1
\A1;2000±20
 11
0.9993948048875751
 21
-0.03478539871448343
 31
0.0
 73
     1
 44
1.0
  0
POINT
  5
E1E
330
E15
100
AcDbEntity
  8
Defpoints
 62
     0
100
AcDbPoint
 10
251.4870340656095
 20
146.8615022267762
 30
0.0
  0
POINT
  5
E1F
330
E15
100
AcDbEntity
  8
Defpoints
 62
     0
100
AcDbPoint
 10
53.28093842922024
 20
153.760355443377
 30
0.0
  0
POINT
  5
E20
330
E15
100
AcDbEntity
  8
Defpoints
 62
     0
100
AcDbPoint
 10
53.35003761400873
 20
155.7455954823484
 30
0.0
  0
ENDBLK
  5
E17
330
E15
100
AcDbEntity
  8
0
100
AcDbBlockEnd
  0
ENDSEC
  0
SECTION
  2
ENTITIES
  0
TEXT
  5
8B6
330
14
100
AcDbEntity
  8
Object
  6
Continuous
 62
     7
100
AcDbText
 10
479.9181757224147
 20
205.9684355272029
 30
0.0
 40
2.5
  1
　
 50
90.0
100
AcDbText
  0
DIMENSION
  5
B51
330
14
100
AcDbEntity
  8
Dims
100
AcDbDimension
280
     0
  2
*D2
 10
251.4870340656095
 20
95.00777253536086
 30
0.0
 11
133.387624390546
 21
95.00777253536086
 31
0.0
 70
   160
  1
2000±20
 71
     5
 42
199.2037603947709
 73
     0
 74
     0
 75
     0
  3
STANDARD
100
AcDbAlignedDimension
 13
52.28327367083855
 23
107.9379566040468
 33
0.0
 14
251.4870340656095
 24
108.5969739785507
 34
0.0
100
AcDbRotatedDimension
  0
TEXT
  5
B52
330
14
100
AcDbEntity
  8
Object
100
AcDbText
 10
252.5864414140182
 20
111.1683406912984
 30
0.0
 40
1.3
  1
12
 50
90.0
 41
0.7
  7
Roman
 71
     6
100
AcDbText
  0
LINE
  5
B53
330
14
100
AcDbEntity
  8
Object
100
AcDbLine
 10
257.1870340656095
 20
109.0969739785507
 30
0.0
 11
257.1870340656095
 21
121.4969739785507
 31
0.0
  0
LINE
  5
B54
330
14
100
AcDbEntity
  8
Object
100
AcDbLine
 10
251.4870340656095
 20
108.5969739785507
 30
0.0
 11
251.4870340656095
 21
121.4969739785507
 31
0.0
  0
LINE
  5
B55
330
14
100
AcDbEntity
  8
Object
100
AcDbLine
 10
252.2870340656096
 20
108.5969739785507
 30
0.0
 11
252.2870340656096
 21
121.4969739785507
 31
0.0
  0
LINE
  5
B56
330
14
100
AcDbEntity
  8
Object
100
AcDbLine
 10
257.1870340656095
 20
109.0969739785507
 30
0.0
 11
252.2870340656096
 21
109.0969739785507
 31
0.0
  0
LINE
  5
B57
330
14
100
AcDbEntity
  8
Object
100
AcDbLine
 10
252.2870340656096
 20
108.5969739785505
 30
0.0
 11
251.4870340656095
 21
108.5969739785507
 31
0.0
  0
LINE
  5
B58
330
14
100
AcDbEntity
  8
Dims
100
AcDbLine
 10
251.4870340656095
 20
139.3518837112917
 30
0.0
 11
251.4870340656095
 21
135.2797016486667
 31
0.0
  0
LINE
  5
B59
330
14
100
AcDbEntity
  8
Object
100
AcDbLine
 10
256.1870340656095
 20
109.0969739785507
 30
0.0
 11
257.1870340656095
 21
110.0969739785507
 31
0.0
  0
LINE
  5
B5A
330
14
100
AcDbEntity
  8
Object
100
AcDbLine
 10
256.1870340656095
 20
130.7469739785508
 30
0.0
 11
255.1870340656095
 21
130.7469739785508
 31
0.0
  0
LINE
  5
B5B
330
14
100
AcDbEntity
  8
Object
100
AcDbLine
 10
256.1870340656095
 20
132.2469739785508
 30
0.0
 11
255.1870340656095
 21
132.2469739785508
 31
0.0
  0
LINE
  5
B5C
330
14
100
AcDbEntity
  8
Object
100
AcDbLine
 10
257.1870340656095
 20
133.8969739785508
 30
0.0
 11
252.2870340656096
 21
133.8969739785508
 31
0.0
  0
LINE
  5
B5D
330
14
100
AcDbEntity
  8
Object
100
AcDbLine
 10
256.1870340656095
 20
110.7469739785507
 30
0.0
 11
255.1870340656095
 21
110.7469739785507
 31
0.0
  0
LINE
  5
B5E
330
14
100
AcDbEntity
  8
Object
100
AcDbLine
 10
256.1870340656095
 20
112.2469739785507
 30
0.0
 11
255.1870340656095
 21
112.2469739785507
 31
0.0
  0
LINE
  5
B5F
330
14
100
AcDbEntity
  8
Object
100
AcDbLine
 10
229.4870340656095
 20
129.8177866663801
 30
0.0
 11
193.4870340656095
 21
129.8177866663801
 31
0.0
  0
LINE
  5
B60
330
14
100
AcDbEntity
  8
Object
100
AcDbLine
 10
229.4870340656095
 20
113.1761612907214
 30
0.0
 11
193.4870340656097
 21
113.1761612907214
 31
0.0
  0
DIMENSION
  5
B61
330
14
100
AcDbEntity
  8
Dims
100
AcDbDimension
280
     0
  2
*D3
 10
186.4870340656097
 20
138.4727480736008
 30
0.0
 11
211.4870340656097
 21
138.4727480736008
 31
0.0
 70
   160
  1
(80)
 71
     5
 42
49.99999999999974
 73
     0
 74
     0
 75
     0
  3
STANDARD
100
AcDbAlignedDimension
 13
236.4870340656095
 23
128.1761612907214
 33
0.0
 14
186.4870340656097
 24
128.1761612907213
 34
0.0
100
AcDbRotatedDimension
  0
LINE
  5
B62
330
14
100
AcDbEntity
  8
Object
 48
0.5
100
AcDbLine
 10
186.4870340656095
 20
128.1761612907213
 30
0.0
 11
186.4870340656097
 21
114.1761612907214
 31
0.0
  0
LINE
  5
B63
330
14
100
AcDbEntity
  8
Object
100
AcDbLine
 10
186.4870340656097
 20
114.1761612907214
 30
0.0
 11
191.4870340656097
 21
114.1761612907214
 31
0.0
  0
LINE
  5
B64
330
14
100
AcDbEntity
  8
Object
100
AcDbLine
 10
191.4870340656097
 20
114.1761612907214
 30
0.0
 11
193.4870340656097
 21
113.1761612907214
 31
0.0
  0
LINE
  5
B65
330
14
100
AcDbEntity
  8
Object
100
AcDbLine
 10
186.4870340656097
 20
128.8177866663801
 30
0.0
 11
191.4870340656097
 21
128.8177866663802
 31
0.0
  0
LINE
  5
B66
330
14
100
AcDbEntity
  8
Object
100
AcDbLine
 10
191.4870340656097
 20
128.8177866663802
 30
0.0
 11
193.4870340656097
 21
129.8177866663802
 31
0.0
  0
LINE
  5
B67
330
14
100
AcDbEntity
  8
Object
100
AcDbLine
 10
236.4870340656095
 20
128.8177866663802
 30
0.0
 11
231.4870340656097
 21
128.81778666638
 31
0.0
  0
LINE
  5
B68
330
14
100
AcDbEntity
  8
Object
100
AcDbLine
 10
236.4870340656095
 20
114.1761612907214
 30
0.0
 11
231.4870340656095
 21
114.1761612907214
 31
0.0
  0
LINE
  5
B69
330
14
100
AcDbEntity
  8
Object
100
AcDbLine
 10
231.4870340656095
 20
114.1761612907214
 30
0.0
 11
229.4870340656095
 21
113.1761612907214
 31
0.0
  0
LINE
  5
B6A
330
14
100
AcDbEntity
  8
Object
100
AcDbLine
 10
231.4870340656095
 20
128.8177866663801
 30
0.0
 11
229.4870340656095
 21
129.8177866663801
 31
0.0
  0
TEXT
  5
B6B
330
14
100
AcDbEntity
  8
Object
100
AcDbText
 10
252.5864414140182
 20
128.971349881289
 30
0.0
 40
1.3
  1
3
 50
90.0
 41
0.8
  7
Roman
 71
     6
100
AcDbText
  0
LINE
  5
B6C
330
14
100
AcDbEntity
  8
Object
100
AcDbLine
 10
251.4870340656095
 20
134.3969739785507
 30
0.0
 11
251.4870340656095
 21
121.4969739785508
 31
0.0
  0
LINE
  5
B6D
330
14
100
AcDbEntity
  8
Object
100
AcDbLine
 10
252.2870340656096
 20
134.3969739785507
 30
0.0
 11
252.2870340656096
 21
121.4969739785508
 31
0.0
  0
LINE
  5
B6E
330
14
100
AcDbEntity
  8
Object
 48
0.5
100
AcDbLine
 10
236.4870340656095
 20
129.1385993542095
 30
0.0
 11
236.4870340656095
 21
114.1761612907214
 31
0.0
  0
TEXT
  5
B6F
330
14
100
AcDbEntity
  8
Object
100
AcDbText
 10
252.5864414140182
 20
119.1546212716693
 30
0.0
 40
1.3
  1
8
 50
90.0
 41
0.8
  7
Roman
 71
     6
100
AcDbText
  0
LINE
  5
B70
330
14
100
AcDbEntity
  8
Object
100
AcDbLine
 10
255.1870340656095
 20
110.7469739785507
 30
0.0
 11
255.1870340656095
 21
112.2469739785507
 31
0.0
  0
TEXT
  5
B71
330
14
100
AcDbEntity
  8
Object
100
AcDbText
 10
252.5864414140182
 20
117.0051957627862
 30
0.0
 40
1.2
  1
9
 50
90.0
 41
0.8
  7
Roman
 71
     6
100
AcDbText
  0
TEXT
  5
B72
330
14
100
AcDbEntity
  8
Object
100
AcDbText
 10
252.5864414140182
 20
115.8440401251941
 30
0.0
 40
1.3
  1
10
 50
90.0
 41
0.7
  7
Roman
 71
     6
100
AcDbText
  0
TEXT
  5
B73
330
14
100
AcDbEntity
  8
Object
100
AcDbText
 10
252.5864414140182
 20
113.5969650022922
 30
0.0
 40
1.3
  1
11
 50
90.0
 41
0.7
  7
Roman
 71
     6
100
AcDbText
  0
TEXT
  5
B74
330
14
100
AcDbEntity
  8
Object
100
AcDbText
 10
252.5864414140182
 20
125.1269069568931
 30
0.0
 40
1.3
  1
5
 50
90.0
 41
0.8
  7
Roman
 71
     6
100
AcDbText
  0
TEXT
  5
B75
330
14
100
AcDbEntity
  8
Object
100
AcDbText
 10
252.5864414140182
 20
122.9762339972323
 30
0.0
 40
1.2
  1
6
 50
90.0
 41
0.8
  7
Roman
 71
     6
100
AcDbText
  0
TEXT
  5
B76
330
14
100
AcDbEntity
  8
Object
100
AcDbText
 10
252.5864414140182
 20
121.0836425736716
 30
0.0
 40
1.2
  1
7
 50
90.0
 41
0.8
  7
Roman
 71
     6
100
AcDbText
  0
TEXT
  5
B77
330
14
100
AcDbEntity
  8
Object
100
AcDbText
 10
252.5864414140182
 20
127.0799267868344
 30
0.0
 40
1.2
  1
4
 50
90.0
 41
0.8
  7
Roman
 71
     6
100
AcDbText
  0
DIMENSION
  5
B78
330
14
100
AcDbEntity
  8
Dims
100
AcDbDimension
280
     0
  2
*D4
 10
251.4870340656095
 20
138.4727480736008
 30
0.0
 11
244.0155702867202
 21
138.4727480736008
 31
0.0
 70
   160
  1
(15)
 71
     5
 42
15.0
 73
     0
 74
     0
 75
     0
  3
STANDARD
100
AcDbAlignedDimension
 13
236.4870340656095
 23
128.1761612907214
 33
0.0
 14
251.4870340656095
 24
134.0761612907212
 34
0.0
100
AcDbRotatedDimension
  0
LINE
  5
B79
330
14
100
AcDbEntity
  8
Object
100
AcDbLine
 10
255.1870340656095
 20
132.2469739785508
 30
0.0
 11
255.1870340656095
 21
130.7469739785508
 31
0.0
  0
TEXT
  5
B7A
330
14
100
AcDbEntity
  8
Object
100
AcDbText
 10
252.5085923456294
 20
133.2628032859063
 30
0.0
 40
1.3
  1
1
 50
90.0
 41
0.8
  7
Roman
 71
     6
100
AcDbText
  0
TEXT
  5
B7B
330
14
100
AcDbEntity
  8
Object
100
AcDbText
 10
252.5864414140182
 20
130.8831103281292
 30
0.0
 40
1.3
  1
2
 50
90.0
 41
0.8
  7
Roman
 71
     6
100
AcDbText
  0
LINE
  5
B7C
330
14
100
AcDbEntity
  8
Object
100
AcDbLine
 10
252.2870340656096
 20
134.3969739785507
 30
0.0
 11
251.4870340656095
 21
134.3969739785507
 31
0.0
  0
LINE
  5
B7D
330
14
100
AcDbEntity
  8
Object
100
AcDbLine
 10
257.1870340656095
 20
133.8969739785508
 30
0.0
 11
257.1870340656095
 21
121.4969739785508
 31
0.0
  0
LINE
  5
B7E
330
14
100
AcDbEntity
  8
Object
100
AcDbLine
 10
256.1870340656095
 20
110.7469739785507
 30
0.0
 11
256.1870340656095
 21
112.2469739785507
 31
0.0
  0
LINE
  5
B7F
330
14
100
AcDbEntity
  8
Object
100
AcDbLine
 10
256.1870340656095
 20
133.8969739785509
 30
0.0
 11
257.1870340656095
 21
132.8969739785509
 31
0.0
  0
LINE
  5
B80
330
14
100
AcDbEntity
  8
Object
100
AcDbLine
 10
256.1870340656095
 20
132.2469739785508
 30
0.0
 11
256.1870340656095
 21
130.7469739785508
 31
0.0
  0
LINE
  5
B81
330
14
100
AcDbEntity
  8
Object
100
AcDbLine
 10
276.1334387601435
 20
109.6761612907215
 30
0.0
 11
275.9434387601437
 21
109.8661612907214
 31
0.0
  0
LINE
  5
B82
330
14
100
AcDbEntity
  8
Object
100
AcDbLine
 10
276.1334387601435
 20
109.6761612907215
 30
0.0
 11
276.1334387601435
 21
110.6761612907215
 31
0.0
  0
LINE
  5
B83
330
14
100
AcDbEntity
  8
Object
100
AcDbLine
 10
275.1334387601435
 20
109.6761612907215
 30
0.0
 11
275.3234387601436
 21
109.8661612907214
 31
0.0
  0
LINE
  5
B84
330
14
100
AcDbEntity
  8
Object
100
AcDbLine
 10
275.1334387601435
 20
109.6761612907215
 30
0.0
 11
275.1334387601435
 21
110.6761612907214
 31
0.0
  0
LINE
  5
B85
330
14
100
AcDbEntity
  8
Object
100
AcDbLine
 10
278.0834387601436
 20
108.2761612907214
 30
0.0
 11
278.0834387601436
 21
121.1761612907214
 31
0.0
  0
LINE
  5
B86
330
14
100
AcDbEntity
  8
Object
100
AcDbLine
 10
277.7334387601434
 20
108.6261612907214
 30
0.0
 11
277.7334387601434
 21
121.1761612907214
 31
0.0
  0
LINE
  5
B87
330
14
100
AcDbEntity
  8
Object
100
AcDbLine
 10
274.6334387601435
 20
108.2761612907214
 30
0.0
 11
274.6334387601435
 21
121.1761612907214
 31
0.0
  0
LINE
  5
B88
330
14
100
AcDbEntity
  8
Object
100
AcDbLine
 10
274.8834387601435
 20
109.1761612907214
 30
0.0
 11
274.8834387601435
 21
121.1761612907214
 31
0.0
  0
LINE
  5
B89
330
14
100
AcDbEntity
  8
Object
100
AcDbLine
 10
276.2534387601434
 20
108.9261612907214
 30
0.0
 11
275.1334387601435
 21
108.9261612907213
 31
0.0
  0
LINE
  5
B8A
330
14
100
AcDbEntity
  8
Object
100
AcDbLine
 10
276.1334387601435
 20
109.6761612907215
 30
0.0
 11
275.1334387601435
 21
109.6761612907215
 31
0.0
  0
LINE
  5
B8B
330
14
100
AcDbEntity
  8
Object
100
AcDbLine
 10
276.9834387601434
 20
109.1761612907214
 30
0.0
 11
274.8834387601435
 21
109.1761612907214
 31
0.0
  0
LINE
  5
B8C
330
14
100
AcDbEntity
  8
Object
100
AcDbLine
 10
277.7334387601434
 20
108.6261612907214
 30
0.0
 11
274.6334387601435
 21
108.6261612907214
 31
0.0
  0
LINE
  5
B8D
330
14
100
AcDbEntity
  8
Object
100
AcDbLine
 10
278.0834387601436
 20
108.2761612907214
 30
0.0
 11
274.6334387601435
 21
108.2761612907214
 31
0.0
  0
LINE
  5
B8E
330
14
100
AcDbEntity
  8
Object
100
AcDbLine
 10
275.3834387601435
 20
108.6261612907213
 30
0.0
 11
275.1334387601435
 21
108.9261612907213
 31
0.0
  0
LINE
  5
B8F
330
14
100
AcDbEntity
  8
Object
100
AcDbLine
 10
276.9834387601434
 20
108.6261612907214
 30
0.0
 11
276.9834387601434
 21
109.1761612907214
 31
0.0
  0
LINE
  5
B90
330
14
100
AcDbEntity
  8
Object
100
AcDbLine
 10
276.2534387601434
 20
108.9261612907213
 30
0.0
 11
276.0034387601434
 21
108.6261612907213
 31
0.0
  0
LINE
  5
B91
330
14
100
AcDbEntity
  8
Object
100
AcDbLine
 10
276.1334387601435
 20
127.6761612907215
 30
0.0
 11
276.1334387601435
 21
128.6761612907214
 31
0.0
  0
LINE
  5
B92
330
14
100
AcDbEntity
  8
Object
100
AcDbLine
 10
275.9434387601437
 20
127.8661612907214
 30
0.0
 11
275.9434387601435
 21
128.4861612907214
 31
0.0
  0
LINE
  5
B93
330
14
100
AcDbEntity
  8
Object
100
AcDbLine
 10
275.1334387601435
 20
127.6761612907215
 30
0.0
 11
275.1334387601435
 21
128.6761612907214
 31
0.0
  0
LINE
  5
B94
330
14
100
AcDbEntity
  8
Object
100
AcDbLine
 10
275.3234387601436
 20
127.8661612907214
 30
0.0
 11
275.3234387601436
 21
128.4861612907214
 31
0.0
  0
LINE
  5
B95
330
14
100
AcDbEntity
  8
Object
100
AcDbLine
 10
277.7334387601434
 20
133.7261612907214
 30
0.0
 11
277.7334387601434
 21
121.1761612907215
 31
0.0
  0
LINE
  5
B96
330
14
100
AcDbEntity
  8
Object
100
AcDbLine
 10
278.0834387601436
 20
134.0761612907215
 30
0.0
 11
278.0834387601436
 21
121.1761612907215
 31
0.0
  0
LINE
  5
B97
330
14
100
AcDbEntity
  8
Object
100
AcDbLine
 10
274.8834387601435
 20
133.1761612907214
 30
0.0
 11
274.8834387601435
 21
121.1761612907215
 31
0.0
  0
LINE
  5
B98
330
14
100
AcDbEntity
  8
Object
100
AcDbLine
 10
274.6334387601435
 20
134.0761612907214
 30
0.0
 11
274.6334387601435
 21
121.1761612907215
 31
0.0
  0
LINE
  5
B99
330
14
100
AcDbEntity
  8
Object
100
AcDbLine
 10
274.5834387601436
 20
130.4261612907213
 30
0.0
 11
274.5834387601436
 21
121.1761612907214
 31
0.0
  0
LINE
  5
B9A
330
14
100
AcDbEntity
  8
Object
100
AcDbLine
 10
276.1334387601435
 20
127.6761612907215
 30
0.0
 11
275.1334387601435
 21
127.6761612907214
 31
0.0
  0
LINE
  5
B9B
330
14
100
AcDbEntity
  8
Object
100
AcDbLine
 10
275.9434387601437
 20
127.8661612907214
 30
0.0
 11
275.3234387601436
 21
127.8661612907214
 31
0.0
  0
LINE
  5
B9C
330
14
100
AcDbEntity
  8
Object
100
AcDbLine
 10
276.1334387601435
 20
126.6761612907215
 30
0.0
 11
275.1334387601435
 21
126.6761612907215
 31
0.0
  0
LINE
  5
B9D
330
14
100
AcDbEntity
  8
Object
100
AcDbLine
 10
275.9434387601432
 20
126.4861612907214
 30
0.0
 11
275.3234387601436
 21
126.4861612907215
 31
0.0
  0
LINE
  5
B9E
330
14
100
AcDbEntity
  8
Object
100
AcDbLine
 10
276.1334387601435
 20
123.6761612907215
 30
0.0
 11
275.1334387601435
 21
123.6761612907214
 31
0.0
  0
LINE
  5
B9F
330
14
100
AcDbEntity
  8
Object
100
AcDbLine
 10
276.1334387601435
 20
121.6761612907215
 30
0.0
 11
275.1334387601435
 21
121.6761612907214
 31
0.0
  0
LINE
  5
BA0
330
14
100
AcDbEntity
  8
Object
100
AcDbLine
 10
276.1334387601435
 20
122.6761612907215
 30
0.0
 11
275.1334387601435
 21
122.6761612907215
 31
0.0
  0
LINE
  5
BA1
330
14
100
AcDbEntity
  8
Object
100
AcDbLine
 10
276.1334387601435
 20
119.6761612907215
 30
0.0
 11
275.1334387601435
 21
119.6761612907214
 31
0.0
  0
LINE
  5
BA2
330
14
100
AcDbEntity
  8
Object
100
AcDbLine
 10
276.1334387601435
 20
120.6761612907215
 30
0.0
 11
275.1334387601435
 21
120.6761612907215
 31
0.0
  0
LINE
  5
BA3
330
14
100
AcDbEntity
  8
Object
100
AcDbLine
 10
275.9434387601437
 20
121.8661612907214
 30
0.0
 11
275.3234387601436
 21
121.8661612907214
 31
0.0
  0
LINE
  5
BA4
330
14
100
AcDbEntity
  8
Object
100
AcDbLine
 10
275.9434387601432
 20
122.4861612907214
 30
0.0
 11
275.3234387601436
 21
122.4861612907215
 31
0.0
  0
LINE
  5
BA5
330
14
100
AcDbEntity
  8
Object
100
AcDbLine
 10
275.9434387601437
 20
119.8661612907214
 30
0.0
 11
275.3234387601436
 21
119.8661612907214
 31
0.0
  0
LINE
  5
BA6
330
14
100
AcDbEntity
  8
Object
100
AcDbLine
 10
275.9434387601432
 20
120.4861612907214
 30
0.0
 11
275.3234387601436
 21
120.4861612907215
 31
0.0
  0
LINE
  5
BA7
330
14
100
AcDbEntity
  8
Object
100
AcDbLine
 10
276.1334387601435
 20
117.6761612907215
 30
0.0
 11
275.1334387601435
 21
117.6761612907214
 31
0.0
  0
LINE
  5
BA8
330
14
100
AcDbEntity
  8
Object
100
AcDbLine
 10
276.1334387601435
 20
118.6761612907215
 30
0.0
 11
275.1334387601435
 21
118.6761612907215
 31
0.0
  0
LINE
  5
BA9
330
14
100
AcDbEntity
  8
Object
100
AcDbLine
 10
275.9434387601437
 20
117.8661612907214
 30
0.0
 11
275.3234387601436
 21
117.8661612907214
 31
0.0
  0
LINE
  5
BAA
330
14
100
AcDbEntity
  8
Object
100
AcDbLine
 10
275.9434387601432
 20
118.4861612907214
 30
0.0
 11
275.3234387601436
 21
118.4861612907215
 31
0.0
  0
LINE
  5
BAB
330
14
100
AcDbEntity
  8
Object
100
AcDbLine
 10
276.1334387601435
 20
125.6761612907215
 30
0.0
 11
275.1334387601435
 21
125.6761612907214
 31
0.0
  0
LINE
  5
BAC
330
14
100
AcDbEntity
  8
Object
100
AcDbLine
 10
275.9434387601437
 20
125.8661612907214
 30
0.0
 11
275.3234387601436
 21
125.8661612907214
 31
0.0
  0
LINE
  5
BAD
330
14
100
AcDbEntity
  8
Object
100
AcDbLine
 10
275.9434387601437
 20
123.8661612907214
 30
0.0
 11
275.3234387601436
 21
123.8661612907214
 31
0.0
  0
LINE
  5
BAE
330
14
100
AcDbEntity
  8
Object
100
AcDbLine
 10
276.1334387601435
 20
124.6761612907215
 30
0.0
 11
275.1334387601435
 21
124.6761612907215
 31
0.0
  0
LINE
  5
BAF
330
14
100
AcDbEntity
  8
Object
100
AcDbLine
 10
275.9434387601432
 20
124.4861612907214
 30
0.0
 11
275.3234387601436
 21
124.4861612907215
 31
0.0
  0
LINE
  5
BB0
330
14
100
AcDbEntity
  8
Object
100
AcDbLine
 10
275.9434387601432
 20
114.4861612907214
 30
0.0
 11
275.3234387601436
 21
114.4861612907215
 31
0.0
  0
LINE
  5
BB1
330
14
100
AcDbEntity
  8
Object
100
AcDbLine
 10
276.1334387601435
 20
114.6761612907215
 30
0.0
 11
275.1334387601435
 21
114.6761612907215
 31
0.0
  0
LINE
  5
BB2
330
14
100
AcDbEntity
  8
Object
100
AcDbLine
 10
276.1334387601435
 20
113.6761612907215
 30
0.0
 11
275.1334387601435
 21
113.6761612907214
 31
0.0
  0
LINE
  5
BB3
330
14
100
AcDbEntity
  8
Object
100
AcDbLine
 10
276.1334387601435
 20
111.6761612907215
 30
0.0
 11
275.1334387601435
 21
111.6761612907214
 31
0.0
  0
LINE
  5
BB4
330
14
100
AcDbEntity
  8
Object
100
AcDbLine
 10
276.1334387601435
 20
112.6761612907215
 30
0.0
 11
275.1334387601435
 21
112.6761612907215
 31
0.0
  0
LINE
  5
BB5
330
14
100
AcDbEntity
  8
Object
100
AcDbLine
 10
276.1334387601435
 20
110.6761612907215
 30
0.0
 11
275.1334387601435
 21
110.6761612907215
 31
0.0
  0
LINE
  5
BB6
330
14
100
AcDbEntity
  8
Object
100
AcDbLine
 10
275.9434387601437
 20
113.8661612907214
 30
0.0
 11
275.3234387601436
 21
113.8661612907214
 31
0.0
  0
LINE
  5
BB7
330
14
100
AcDbEntity
  8
Object
100
AcDbLine
 10
275.9434387601437
 20
111.8661612907214
 30
0.0
 11
275.3234387601436
 21
111.8661612907214
 31
0.0
  0
LINE
  5
BB8
330
14
100
AcDbEntity
  8
Object
100
AcDbLine
 10
275.9434387601432
 20
112.4861612907214
 30
0.0
 11
275.3234387601436
 21
112.4861612907215
 31
0.0
  0
LINE
  5
BB9
330
14
100
AcDbEntity
  8
Object
100
AcDbLine
 10
275.9434387601432
 20
110.4861612907214
 30
0.0
 11
275.3234387601436
 21
110.4861612907215
 31
0.0
  0
LINE
  5
BBA
330
14
100
AcDbEntity
  8
Object
100
AcDbLine
 10
275.9434387601437
 20
109.8661612907214
 30
0.0
 11
275.3234387601436
 21
109.8661612907214
 31
0.0
  0
LINE
  5
BBB
330
14
100
AcDbEntity
  8
Object
100
AcDbLine
 10
276.1334387601435
 20
115.6761612907215
 30
0.0
 11
275.1334387601435
 21
115.6761612907214
 31
0.0
  0
LINE
  5
BBC
330
14
100
AcDbEntity
  8
Object
100
AcDbLine
 10
276.1334387601435
 20
116.6761612907215
 30
0.0
 11
275.1334387601435
 21
116.6761612907215
 31
0.0
  0
LINE
  5
BBD
330
14
100
AcDbEntity
  8
Object
100
AcDbLine
 10
275.9434387601437
 20
115.8661612907214
 30
0.0
 11
275.3234387601436
 21
115.8661612907214
 31
0.0
  0
LINE
  5
BBE
330
14
100
AcDbEntity
  8
Object
100
AcDbLine
 10
275.9434387601432
 20
116.4861612907214
 30
0.0
 11
275.3234387601436
 21
116.4861612907215
 31
0.0
  0
LINE
  5
BBF
330
14
100
AcDbEntity
  8
Object
100
AcDbLine
 10
274.5834387601436
 20
111.9261612907214
 30
0.0
 11
274.5834387601436
 21
121.1761612907214
 31
0.0
  0
LINE
  5
BC0
330
14
100
AcDbEntity
  8
Object
100
AcDbLine
 10
275.1334387601435
 20
117.6761612907215
 30
0.0
 11
275.1334387601435
 21
118.6761612907214
 31
0.0
  0
LINE
  5
BC1
330
14
100
AcDbEntity
  8
Object
100
AcDbLine
 10
275.3234387601436
 20
117.8661612907214
 30
0.0
 11
275.3234387601436
 21
118.4861612907215
 31
0.0
  0
LINE
  5
BC2
330
14
100
AcDbEntity
  8
Object
100
AcDbLine
 10
275.3234387601436
 20
118.4861612907216
 30
0.0
 11
275.1334387601435
 21
118.6761612907214
 31
0.0
  0
POINT
  5
BC3
330
14
100
AcDbEntity
  8
Object
100
AcDbPoint
 10
275.6334387601435
 20
118.1761612907215
 30
0.0
 50
89.99999999999999
  0
LINE
  5
BC4
330
14
100
AcDbEntity
  8
Object
100
AcDbLine
 10
275.1334387601435
 20
117.6761612907215
 30
0.0
 11
275.3234387601436
 21
117.8661612907214
 31
0.0
  0
POINT
  5
BC5
330
14
100
AcDbEntity
  8
Object
100
AcDbPoint
 10
275.6334387601435
 20
114.1761612907215
 30
0.0
 50
89.99999999999999
  0
LINE
  5
BC6
330
14
100
AcDbEntity
  8
Object
100
AcDbLine
 10
275.3234387601436
 20
114.4861612907216
 30
0.0
 11
275.1334387601435
 21
114.6761612907214
 31
0.0
  0
LINE
  5
BC7
330
14
100
AcDbEntity
  8
Object
100
AcDbLine
 10
275.1334387601435
 20
113.6761612907215
 30
0.0
 11
275.3234387601436
 21
113.8661612907214
 31
0.0
  0
LINE
  5
BC8
330
14
100
AcDbEntity
  8
Object
100
AcDbLine
 10
275.1334387601435
 20
111.6761612907215
 30
0.0
 11
275.1334387601435
 21
112.6761612907214
 31
0.0
  0
LINE
  5
BC9
330
14
100
AcDbEntity
  8
Object
100
AcDbLine
 10
275.3234387601436
 20
111.8661612907214
 30
0.0
 11
275.3234387601436
 21
112.4861612907215
 31
0.0
  0
LINE
  5
BCA
330
14
100
AcDbEntity
  8
Object
100
AcDbLine
 10
275.3234387601436
 20
112.4861612907216
 30
0.0
 11
275.1334387601435
 21
112.6761612907214
 31
0.0
  0
LINE
  5
BCB
330
14
100
AcDbEntity
  8
Object
100
AcDbLine
 10
275.1334387601435
 20
111.6761612907215
 30
0.0
 11
275.3234387601436
 21
111.8661612907214
 31
0.0
  0
POINT
  5
BCC
330
14
100
AcDbEntity
  8
Object
100
AcDbPoint
 10
275.6334387601435
 20
112.1761612907215
 30
0.0
 50
89.99999999999999
  0
POINT
  5
BCD
330
14
100
AcDbEntity
  8
Object
100
AcDbPoint
 10
275.6334387601435
 20
110.1761612907215
 30
0.0
 50
89.99999999999999
  0
LINE
  5
BCE
330
14
100
AcDbEntity
  8
Object
100
AcDbLine
 10
275.3234387601436
 20
110.4861612907216
 30
0.0
 11
275.1334387601435
 21
110.6761612907214
 31
0.0
  0
LINE
  5
BCF
330
14
100
AcDbEntity
  8
Object
100
AcDbLine
 10
275.3234387601436
 20
109.8661612907214
 30
0.0
 11
275.3234387601436
 21
110.4861612907215
 31
0.0
  0
LINE
  5
BD0
330
14
100
AcDbEntity
  8
Object
100
AcDbLine
 10
274.6334387601435
 20
109.9761612907215
 30
0.0
 11
274.5834387601436
 21
109.9761612907215
 31
0.0
  0
LINE
  5
BD1
330
14
100
AcDbEntity
  8
Object
100
AcDbLine
 10
274.5834387601436
 20
109.9761612907215
 30
0.0
 11
274.5834387601433
 21
110.4261612907214
 31
0.0
  0
LINE
  5
BD2
330
14
100
AcDbEntity
  8
Object
100
AcDbLine
 10
274.2134387601437
 20
110.4261612907215
 30
0.0
 11
274.2134387601437
 21
111.9261612907215
 31
0.0
  0
LINE
  5
BD3
330
14
100
AcDbEntity
  8
Object
100
AcDbLine
 10
274.5834387601436
 20
110.4261612907214
 30
0.0
 11
274.2134387601437
 21
110.4261612907215
 31
0.0
  0
LINE
  5
BD4
330
14
100
AcDbEntity
  8
Object
100
AcDbLine
 10
274.5834387601436
 20
111.9261612907214
 30
0.0
 11
274.2134387601437
 21
111.9261612907215
 31
0.0
  0
LINE
  5
BD5
330
14
100
AcDbEntity
  8
Object
100
AcDbLine
 10
275.3234387601436
 20
113.8661612907214
 30
0.0
 11
275.3234387601436
 21
114.4861612907215
 31
0.0
  0
LINE
  5
BD6
330
14
100
AcDbEntity
  8
Object
100
AcDbLine
 10
275.1334387601435
 20
113.6761612907215
 30
0.0
 11
275.1334387601435
 21
114.6761612907214
 31
0.0
  0
LINE
  5
BD7
330
14
100
AcDbEntity
  8
Object
100
AcDbLine
 10
275.1334387601435
 20
115.6761612907215
 30
0.0
 11
275.1334387601435
 21
116.6761612907214
 31
0.0
  0
LINE
  5
BD8
330
14
100
AcDbEntity
  8
Object
100
AcDbLine
 10
275.3234387601436
 20
115.8661612907214
 30
0.0
 11
275.3234387601436
 21
116.4861612907215
 31
0.0
  0
LINE
  5
BD9
330
14
100
AcDbEntity
  8
Object
100
AcDbLine
 10
275.3234387601436
 20
116.4861612907216
 30
0.0
 11
275.1334387601435
 21
116.6761612907214
 31
0.0
  0
LINE
  5
BDA
330
14
100
AcDbEntity
  8
Object
100
AcDbLine
 10
275.1334387601435
 20
115.6761612907215
 30
0.0
 11
275.3234387601436
 21
115.8661612907214
 31
0.0
  0
POINT
  5
BDB
330
14
100
AcDbEntity
  8
Object
100
AcDbPoint
 10
275.6334387601435
 20
116.1761612907215
 30
0.0
 50
89.99999999999999
  0
LINE
  5
BDC
330
14
100
AcDbEntity
  8
Object
100
AcDbLine
 10
275.1334387601435
 20
127.6761612907215
 30
0.0
 11
275.3234387601436
 21
127.8661612907214
 31
0.0
  0
LINE
  5
BDD
330
14
100
AcDbEntity
  8
Object
100
AcDbLine
 10
275.3234387601436
 20
126.4861612907216
 30
0.0
 11
275.1334387601435
 21
126.6761612907214
 31
0.0
  0
LINE
  5
BDE
330
14
100
AcDbEntity
  8
Object
100
AcDbLine
 10
275.1334387601435
 20
123.6761612907215
 30
0.0
 11
275.3234387601436
 21
123.8661612907214
 31
0.0
  0
LINE
  5
BDF
330
14
100
AcDbEntity
  8
Object
100
AcDbLine
 10
275.1334387601435
 20
123.6761612907215
 30
0.0
 11
275.1334387601435
 21
124.6761612907214
 31
0.0
  0
LINE
  5
BE0
330
14
100
AcDbEntity
  8
Object
100
AcDbLine
 10
275.1334387601435
 20
121.6761612907215
 30
0.0
 11
275.1334387601435
 21
122.6761612907214
 31
0.0
  0
LINE
  5
BE1
330
14
100
AcDbEntity
  8
Object
100
AcDbLine
 10
275.3234387601436
 20
121.8661612907214
 30
0.0
 11
275.3234387601436
 21
122.4861612907215
 31
0.0
  0
LINE
  5
BE2
330
14
100
AcDbEntity
  8
Object
100
AcDbLine
 10
275.3234387601436
 20
122.4861612907216
 30
0.0
 11
275.1334387601435
 21
122.6761612907214
 31
0.0
  0
LINE
  5
BE3
330
14
100
AcDbEntity
  8
Object
100
AcDbLine
 10
275.1334387601435
 20
121.6761612907215
 30
0.0
 11
275.3234387601436
 21
121.8661612907214
 31
0.0
  0
POINT
  5
BE4
330
14
100
AcDbEntity
  8
Object
100
AcDbPoint
 10
275.6334387601435
 20
122.1761612907215
 30
0.0
 50
89.99999999999999
  0
LINE
  5
BE5
330
14
100
AcDbEntity
  8
Object
100
AcDbLine
 10
275.1334387601435
 20
119.6761612907215
 30
0.0
 11
275.1334387601435
 21
120.6761612907214
 31
0.0
  0
LINE
  5
BE6
330
14
100
AcDbEntity
  8
Object
100
AcDbLine
 10
275.3234387601436
 20
119.8661612907214
 30
0.0
 11
275.3234387601436
 21
120.4861612907215
 31
0.0
  0
LINE
  5
BE7
330
14
100
AcDbEntity
  8
Object
100
AcDbLine
 10
275.3234387601436
 20
120.4861612907216
 30
0.0
 11
275.1334387601435
 21
120.6761612907214
 31
0.0
  0
LINE
  5
BE8
330
14
100
AcDbEntity
  8
Object
100
AcDbLine
 10
275.1334387601435
 20
119.6761612907215
 30
0.0
 11
275.3234387601436
 21
119.8661612907214
 31
0.0
  0
POINT
  5
BE9
330
14
100
AcDbEntity
  8
Object
100
AcDbPoint
 10
275.6334387601435
 20
120.1761612907215
 30
0.0
 50
89.99999999999999
  0
POINT
  5
BEA
330
14
100
AcDbEntity
  8
Object
100
AcDbPoint
 10
275.6334387601435
 20
126.1761612907215
 30
0.0
 50
89.99999999999999
  0
LINE
  5
BEB
330
14
100
AcDbEntity
  8
Object
100
AcDbLine
 10
275.1334387601435
 20
125.6761612907215
 30
0.0
 11
275.3234387601436
 21
125.8661612907214
 31
0.0
  0
LINE
  5
BEC
330
14
100
AcDbEntity
  8
Object
100
AcDbLine
 10
275.3234387601436
 20
124.4861612907216
 30
0.0
 11
275.1334387601435
 21
124.6761612907214
 31
0.0
  0
POINT
  5
BED
330
14
100
AcDbEntity
  8
Object
100
AcDbPoint
 10
275.6334387601435
 20
124.1761612907215
 30
0.0
 50
89.99999999999999
  0
LINE
  5
BEE
330
14
100
AcDbEntity
  8
Object
100
AcDbLine
 10
275.3234387601436
 20
123.8661612907214
 30
0.0
 11
275.3234387601436
 21
124.4861612907215
 31
0.0
  0
LINE
  5
BEF
330
14
100
AcDbEntity
  8
Object
100
AcDbLine
 10
275.3234387601436
 20
125.8661612907214
 30
0.0
 11
275.3234387601436
 21
126.4861612907215
 31
0.0
  0
LINE
  5
BF0
330
14
100
AcDbEntity
  8
Object
100
AcDbLine
 10
275.1334387601435
 20
125.6761612907215
 30
0.0
 11
275.1334387601435
 21
126.6761612907214
 31
0.0
  0
LINE
  5
BF1
330
14
100
AcDbEntity
  8
Object
100
AcDbLine
 10
276.1334387601435
 20
117.6761612907215
 30
0.0
 11
276.1334387601435
 21
118.6761612907215
 31
0.0
  0
LINE
  5
BF2
330
14
100
AcDbEntity
  8
Object
100
AcDbLine
 10
275.9434387601437
 20
117.8661612907214
 30
0.0
 11
275.9434387601435
 21
118.4861612907214
 31
0.0
  0
LINE
  5
BF3
330
14
100
AcDbEntity
  8
Object
100
AcDbLine
 10
275.9434387601435
 20
118.4861612907214
 30
0.0
 11
276.1334387601435
 21
118.6761612907215
 31
0.0
  0
LINE
  5
BF4
330
14
100
AcDbEntity
  8
Object
100
AcDbLine
 10
276.1334387601435
 20
117.6761612907215
 30
0.0
 11
275.9434387601437
 21
117.8661612907214
 31
0.0
  0
LINE
  5
BF5
330
14
100
AcDbEntity
  8
Object
100
AcDbLine
 10
275.9434387601435
 20
114.4861612907214
 30
0.0
 11
276.1334387601435
 21
114.6761612907215
 31
0.0
  0
LINE
  5
BF6
330
14
100
AcDbEntity
  8
Object
100
AcDbLine
 10
276.1334387601435
 20
113.6761612907215
 30
0.0
 11
275.9434387601437
 21
113.8661612907214
 31
0.0
  0
LINE
  5
BF7
330
14
100
AcDbEntity
  8
Object
100
AcDbLine
 10
276.1334387601435
 20
111.6761612907215
 30
0.0
 11
275.9434387601437
 21
111.8661612907214
 31
0.0
  0
LINE
  5
BF8
330
14
100
AcDbEntity
  8
Object
100
AcDbLine
 10
275.9434387601435
 20
112.4861612907214
 30
0.0
 11
276.1334387601435
 21
112.6761612907215
 31
0.0
  0
LINE
  5
BF9
330
14
100
AcDbEntity
  8
Object
100
AcDbLine
 10
275.9434387601435
 20
110.4861612907214
 30
0.0
 11
276.1334387601435
 21
110.6761612907215
 31
0.0
  0
LINE
  5
BFA
330
14
100
AcDbEntity
  8
Object
100
AcDbLine
 10
276.1334387601435
 20
111.6761612907215
 30
0.0
 11
276.1334387601435
 21
112.6761612907215
 31
0.0
  0
LINE
  5
BFB
330
14
100
AcDbEntity
  8
Object
100
AcDbLine
 10
275.9434387601437
 20
111.8661612907214
 30
0.0
 11
275.9434387601435
 21
112.4861612907214
 31
0.0
  0
LINE
  5
BFC
330
14
100
AcDbEntity
  8
Object
100
AcDbLine
 10
275.9434387601437
 20
109.8661612907214
 30
0.0
 11
275.9434387601435
 21
110.4861612907214
 31
0.0
  0
LINE
  5
BFD
330
14
100
AcDbEntity
  8
Object
100
AcDbLine
 10
275.9434387601437
 20
113.8661612907214
 30
0.0
 11
275.9434387601435
 21
114.4861612907214
 31
0.0
  0
LINE
  5
BFE
330
14
100
AcDbEntity
  8
Object
100
AcDbLine
 10
276.1334387601435
 20
113.6761612907215
 30
0.0
 11
276.1334387601435
 21
114.6761612907215
 31
0.0
  0
LINE
  5
BFF
330
14
100
AcDbEntity
  8
Object
100
AcDbLine
 10
276.1334387601435
 20
115.6761612907215
 30
0.0
 11
275.9434387601437
 21
115.8661612907214
 31
0.0
  0
LINE
  5
C00
330
14
100
AcDbEntity
  8
Object
100
AcDbLine
 10
275.9434387601435
 20
116.4861612907214
 30
0.0
 11
276.1334387601435
 21
116.6761612907215
 31
0.0
  0
LINE
  5
C01
330
14
100
AcDbEntity
  8
Object
100
AcDbLine
 10
276.1334387601435
 20
115.6761612907215
 30
0.0
 11
276.1334387601435
 21
116.6761612907215
 31
0.0
  0
LINE
  5
C02
330
14
100
AcDbEntity
  8
Object
100
AcDbLine
 10
275.9434387601437
 20
115.8661612907214
 30
0.0
 11
275.9434387601435
 21
116.4861612907214
 31
0.0
  0
LINE
  5
C03
330
14
100
AcDbEntity
  8
Object
100
AcDbLine
 10
276.1334387601435
 20
127.6761612907215
 30
0.0
 11
275.9434387601437
 21
127.8661612907214
 31
0.0
  0
LINE
  5
C04
330
14
100
AcDbEntity
  8
Object
100
AcDbLine
 10
275.9434387601435
 20
126.4861612907214
 30
0.0
 11
276.1334387601435
 21
126.6761612907215
 31
0.0
  0
LINE
  5
C05
330
14
100
AcDbEntity
  8
Object
100
AcDbLine
 10
276.1334387601435
 20
123.6761612907215
 30
0.0
 11
275.9434387601437
 21
123.8661612907214
 31
0.0
  0
LINE
  5
C06
330
14
100
AcDbEntity
  8
Object
100
AcDbLine
 10
276.1334387601435
 20
123.6761612907215
 30
0.0
 11
276.1334387601435
 21
124.6761612907215
 31
0.0
  0
LINE
  5
C07
330
14
100
AcDbEntity
  8
Object
100
AcDbLine
 10
276.1334387601435
 20
121.6761612907215
 30
0.0
 11
275.9434387601437
 21
121.8661612907214
 31
0.0
  0
LINE
  5
C08
330
14
100
AcDbEntity
  8
Object
100
AcDbLine
 10
275.9434387601435
 20
122.4861612907214
 30
0.0
 11
276.1334387601435
 21
122.6761612907215
 31
0.0
  0
LINE
  5
C09
330
14
100
AcDbEntity
  8
Object
100
AcDbLine
 10
276.1334387601435
 20
119.6761612907215
 30
0.0
 11
275.9434387601437
 21
119.8661612907214
 31
0.0
  0
LINE
  5
C0A
330
14
100
AcDbEntity
  8
Object
100
AcDbLine
 10
275.9434387601435
 20
120.4861612907214
 30
0.0
 11
276.1334387601435
 21
120.6761612907215
 31
0.0
  0
LINE
  5
C0B
330
14
100
AcDbEntity
  8
Object
100
AcDbLine
 10
276.1334387601435
 20
121.6761612907215
 30
0.0
 11
276.1334387601435
 21
122.6761612907215
 31
0.0
  0
LINE
  5
C0C
330
14
100
AcDbEntity
  8
Object
100
AcDbLine
 10
276.1334387601435
 20
119.6761612907215
 30
0.0
 11
276.1334387601435
 21
120.6761612907215
 31
0.0
  0
LINE
  5
C0D
330
14
100
AcDbEntity
  8
Object
100
AcDbLine
 10
275.9434387601437
 20
121.8661612907214
 30
0.0
 11
275.9434387601435
 21
122.4861612907214
 31
0.0
  0
LINE
  5
C0E
330
14
100
AcDbEntity
  8
Object
100
AcDbLine
 10
275.9434387601437
 20
119.8661612907214
 30
0.0
 11
275.9434387601435
 21
120.4861612907214
 31
0.0
  0
LINE
  5
C0F
330
14
100
AcDbEntity
  8
Object
100
AcDbLine
 10
276.1334387601435
 20
125.6761612907215
 30
0.0
 11
275.9434387601437
 21
125.8661612907214
 31
0.0
  0
LINE
  5
C10
330
14
100
AcDbEntity
  8
Object
100
AcDbLine
 10
275.9434387601435
 20
124.4861612907214
 30
0.0
 11
276.1334387601435
 21
124.6761612907215
 31
0.0
  0
LINE
  5
C11
330
14
100
AcDbEntity
  8
Object
100
AcDbLine
 10
275.9434387601437
 20
123.8661612907214
 30
0.0
 11
275.9434387601435
 21
124.4861612907214
 31
0.0
  0
LINE
  5
C12
330
14
100
AcDbEntity
  8
Object
100
AcDbLine
 10
276.1334387601435
 20
125.6761612907215
 30
0.0
 11
276.1334387601435
 21
126.6761612907215
 31
0.0
  0
LINE
  5
C13
330
14
100
AcDbEntity
  8
Object
100
AcDbLine
 10
275.9434387601437
 20
125.8661612907214
 30
0.0
 11
275.9434387601435
 21
126.4861612907214
 31
0.0
  0
LINE
  5
C14
330
14
100
AcDbEntity
  8
Object
100
AcDbLine
 10
276.1334387601435
 20
131.6761612907214
 30
0.0
 11
275.1334387601435
 21
131.6761612907214
 31
0.0
  0
LINE
  5
C15
330
14
100
AcDbEntity
  8
Object
100
AcDbLine
 10
275.9434387601437
 20
131.8661612907214
 30
0.0
 11
275.3234387601436
 21
131.8661612907214
 31
0.0
  0
LINE
  5
C16
330
14
100
AcDbEntity
  8
Object
100
AcDbLine
 10
275.9434387601432
 20
132.4861612907214
 30
0.0
 11
275.3234387601436
 21
132.4861612907214
 31
0.0
  0
LINE
  5
C17
330
14
100
AcDbEntity
  8
Object
100
AcDbLine
 10
276.1334387601435
 20
129.6761612907214
 30
0.0
 11
275.1334387601435
 21
129.6761612907214
 31
0.0
  0
LINE
  5
C18
330
14
100
AcDbEntity
  8
Object
100
AcDbLine
 10
276.1334387601435
 20
128.6761612907214
 30
0.0
 11
275.1334387601435
 21
128.6761612907214
 31
0.0
  0
LINE
  5
C19
330
14
100
AcDbEntity
  8
Object
100
AcDbLine
 10
275.9434387601432
 20
128.4861612907214
 30
0.0
 11
275.3234387601436
 21
128.4861612907214
 31
0.0
  0
LINE
  5
C1A
330
14
100
AcDbEntity
  8
Object
100
AcDbLine
 10
276.1334387601435
 20
130.6761612907214
 30
0.0
 11
275.1334387601435
 21
130.6761612907214
 31
0.0
  0
LINE
  5
C1B
330
14
100
AcDbEntity
  8
Object
100
AcDbLine
 10
275.9434387601432
 20
130.4861612907214
 30
0.0
 11
275.3234387601436
 21
130.4861612907214
 31
0.0
  0
LINE
  5
C1C
330
14
100
AcDbEntity
  8
Object
100
AcDbLine
 10
275.9434387601437
 20
129.8661612907214
 30
0.0
 11
275.3234387601436
 21
129.8661612907214
 31
0.0
  0
LINE
  5
C1D
330
14
100
AcDbEntity
  8
Object
100
AcDbLine
 10
276.1334387601435
 20
132.6761612907214
 30
0.0
 11
275.1334387601435
 21
132.6761612907214
 31
0.0
  0
LINE
  5
C1E
330
14
100
AcDbEntity
  8
Object
100
AcDbLine
 10
276.2534387601434
 20
133.4261612907214
 30
0.0
 11
275.1334387601435
 21
133.4261612907214
 31
0.0
  0
LINE
  5
C1F
330
14
100
AcDbEntity
  8
Object
100
AcDbLine
 10
276.9834387601434
 20
133.1761612907214
 30
0.0
 11
274.8834387601435
 21
133.1761612907214
 31
0.0
  0
LINE
  5
C20
330
14
100
AcDbEntity
  8
Object
100
AcDbLine
 10
278.0834387601436
 20
134.0761612907215
 30
0.0
 11
274.6334387601435
 21
134.0761612907215
 31
0.0
  0
LINE
  5
C21
330
14
100
AcDbEntity
  8
Object
100
AcDbLine
 10
277.7334387601434
 20
133.7261612907214
 30
0.0
 11
274.6334387601435
 21
133.7261612907214
 31
0.0
  0
LINE
  5
C22
330
14
100
AcDbEntity
  8
Object
100
AcDbLine
 10
275.1334387601435
 20
131.6761612907214
 30
0.0
 11
275.1334387601435
 21
132.6761612907214
 31
0.0
  0
LINE
  5
C23
330
14
100
AcDbEntity
  8
Object
100
AcDbLine
 10
275.3234387601436
 20
132.4861612907216
 30
0.0
 11
275.1334387601435
 21
132.6761612907214
 31
0.0
  0
LINE
  5
C24
330
14
100
AcDbEntity
  8
Object
100
AcDbLine
 10
275.3234387601436
 20
131.8661612907214
 30
0.0
 11
275.3234387601436
 21
132.4861612907214
 31
0.0
  0
LINE
  5
C25
330
14
100
AcDbEntity
  8
Object
100
AcDbLine
 10
275.1334387601435
 20
131.6761612907214
 30
0.0
 11
275.3234387601436
 21
131.8661612907214
 31
0.0
  0
POINT
  5
C26
330
14
100
AcDbEntity
  8
Object
100
AcDbPoint
 10
275.6334387601435
 20
132.1761612907214
 30
0.0
 50
89.99999999999999
  0
LINE
  5
C27
330
14
100
AcDbEntity
  8
Object
100
AcDbLine
 10
274.6334387601435
 20
132.3761612907213
 30
0.0
 11
274.5834387601436
 21
132.3761612907213
 31
0.0
  0
LINE
  5
C28
330
14
100
AcDbEntity
  8
Object
100
AcDbLine
 10
274.5834387601436
 20
132.3761612907213
 30
0.0
 11
274.5834387601433
 21
131.9261612907213
 31
0.0
  0
LINE
  5
C29
330
14
100
AcDbEntity
  8
Object
100
AcDbLine
 10
274.5834387601436
 20
131.9261612907213
 30
0.0
 11
274.2134387601437
 21
131.9261612907213
 31
0.0
  0
LINE
  5
C2A
330
14
100
AcDbEntity
  8
Object
100
AcDbLine
 10
275.1334387601435
 20
129.6761612907214
 30
0.0
 11
275.3234387601436
 21
129.8661612907214
 31
0.0
  0
LINE
  5
C2B
330
14
100
AcDbEntity
  8
Object
100
AcDbLine
 10
275.1334387601435
 20
129.6761612907214
 30
0.0
 11
275.1334387601435
 21
130.6761612907214
 31
0.0
  0
LINE
  5
C2C
330
14
100
AcDbEntity
  8
Object
100
AcDbLine
 10
275.3234387601436
 20
128.4861612907216
 30
0.0
 11
275.1334387601435
 21
128.6761612907214
 31
0.0
  0
POINT
  5
C2D
330
14
100
AcDbEntity
  8
Object
100
AcDbPoint
 10
275.6334387601435
 20
128.1761612907214
 30
0.0
 50
89.99999999999999
  0
LINE
  5
C2E
330
14
100
AcDbEntity
  8
Object
100
AcDbLine
 10
275.3234387601436
 20
130.4861612907216
 30
0.0
 11
275.1334387601435
 21
130.6761612907214
 31
0.0
  0
POINT
  5
C2F
330
14
100
AcDbEntity
  8
Object
100
AcDbPoint
 10
275.6334387601435
 20
130.1761612907214
 30
0.0
 50
89.99999999999999
  0
LINE
  5
C30
330
14
100
AcDbEntity
  8
Object
100
AcDbLine
 10
274.5834387601436
 20
130.4261612907213
 30
0.0
 11
274.2134387601437
 21
130.4261612907213
 31
0.0
  0
LINE
  5
C31
330
14
100
AcDbEntity
  8
Object
100
AcDbLine
 10
275.3234387601436
 20
129.8661612907214
 30
0.0
 11
275.3234387601436
 21
130.4861612907214
 31
0.0
  0
LINE
  5
C32
330
14
100
AcDbEntity
  8
Object
100
AcDbLine
 10
274.2134387601437
 20
131.9261612907213
 30
0.0
 11
274.2134387601437
 21
130.4261612907213
 31
0.0
  0
LINE
  5
C33
330
14
100
AcDbEntity
  8
Object
100
AcDbLine
 10
275.3834387601435
 20
133.7261612907214
 30
0.0
 11
275.1334387601435
 21
133.4261612907214
 31
0.0
  0
LINE
  5
C34
330
14
100
AcDbEntity
  8
Object
100
AcDbLine
 10
275.9434387601435
 20
132.4861612907214
 30
0.0
 11
276.1334387601435
 21
132.6761612907214
 31
0.0
  0
LINE
  5
C35
330
14
100
AcDbEntity
  8
Object
100
AcDbLine
 10
276.1334387601435
 20
131.6761612907214
 30
0.0
 11
276.1334387601435
 21
132.6761612907214
 31
0.0
  0
LINE
  5
C36
330
14
100
AcDbEntity
  8
Object
100
AcDbLine
 10
276.1334387601435
 20
131.6761612907214
 30
0.0
 11
275.9434387601437
 21
131.8661612907214
 31
0.0
  0
LINE
  5
C37
330
14
100
AcDbEntity
  8
Object
100
AcDbLine
 10
275.9434387601437
 20
131.8661612907214
 30
0.0
 11
275.9434387601435
 21
132.4861612907214
 31
0.0
  0
LINE
  5
C38
330
14
100
AcDbEntity
  8
Object
100
AcDbLine
 10
276.1334387601435
 20
129.6761612907214
 30
0.0
 11
275.9434387601437
 21
129.8661612907214
 31
0.0
  0
LINE
  5
C39
330
14
100
AcDbEntity
  8
Object
100
AcDbLine
 10
276.1334387601435
 20
129.6761612907214
 30
0.0
 11
276.1334387601435
 21
130.6761612907214
 31
0.0
  0
LINE
  5
C3A
330
14
100
AcDbEntity
  8
Object
100
AcDbLine
 10
275.9434387601435
 20
128.4861612907214
 30
0.0
 11
276.1334387601435
 21
128.6761612907214
 31
0.0
  0
LINE
  5
C3B
330
14
100
AcDbEntity
  8
Object
100
AcDbLine
 10
275.9434387601435
 20
130.4861612907214
 30
0.0
 11
276.1334387601435
 21
130.6761612907214
 31
0.0
  0
LINE
  5
C3C
330
14
100
AcDbEntity
  8
Object
100
AcDbLine
 10
275.9434387601437
 20
129.8661612907214
 30
0.0
 11
275.9434387601435
 21
130.4861612907214
 31
0.0
  0
LINE
  5
C3D
330
14
100
AcDbEntity
  8
Object
100
AcDbLine
 10
276.9834387601434
 20
133.7261612907213
 30
0.0
 11
276.9834387601434
 21
133.1761612907214
 31
0.0
  0
LINE
  5
C3E
330
14
100
AcDbEntity
  8
Object
100
AcDbLine
 10
276.2534387601434
 20
133.4261612907214
 30
0.0
 11
276.0034387601434
 21
133.7261612907214
 31
0.0
  0
LINE
  5
C3F
330
14
100
AcDbEntity
  8
Object
100
AcDbLine
 10
52.28327367083855
 20
127.9379566040468
 30
0.0
 11
52.28327367083855
 21
107.9379566040468
 31
0.0
  0
LWPOLYLINE
  5
C40
330
14
100
AcDbEntity
  8
Object
100
AcDbPolyline
 90
       12
 70
     0
 43
0.0
 10
251.4870340656095
 20
132.9303010462947
 10
249.5042252808561
 20
132.9303010462948
 42
0.1522896978347436
 10
247.1739398906335
 20
132.2036925148493
 10
242.0966208037295
 20
128.6963609169606
 42
-0.1522896978347337
 10
240.3346977038053
 20
128.1469739785507
 10
236.4870340656095
 20
128.1469739785507
 10
236.4870340656095
 20
127.1469739785506
 10
240.3346977038053
 20
127.1469739785506
 42
0.1522896978347337
 10
242.6649830940277
 20
127.8735825099961
 10
247.7423021809317
 20
131.3809141078847
 42
-0.1522896978347222
 10
249.5042252808556
 20
131.9303010462947
 10
251.4870340656095
 20
131.9303010462949
  0
LWPOLYLINE
  5
C41
330
14
100
AcDbEntity
  8
Object
100
AcDbPolyline
 90
       12
 70
     0
 43
0.0
 10
251.4870340656095
 20
130.9303010462948
 10
249.5042252808561
 20
130.9303010462949
 42
0.1522896978347436
 10
247.1739398906335
 20
130.2036925148493
 10
242.0966208037295
 20
126.6963609169607
 42
-0.1522896978347337
 10
240.3346977038053
 20
126.1469739785508
 10
236.4870340656095
 20
126.1469739785508
 10
236.4870340656095
 20
125.1469739785508
 10
240.3346977038053
 20
125.1469739785508
 42
0.1522896978347337
 10
242.6649830940277
 20
125.8735825099962
 10
247.7423021809317
 20
129.3809141078849
 42
-0.1522896978347222
 10
249.5042252808556
 20
129.9303010462949
 10
251.4870340656095
 20
129.9303010462949
  0
LINE
  5
C42
330
14
100
AcDbEntity
  8
Object
 48
0.5
100
AcDbLine
 10
251.4870340656083
 20
128.9303010462948
 30
0.0
 11
249.8787020946992
 21
128.9303010462948
 31
0.0
  0
LINE
  5
C43
330
14
100
AcDbEntity
  8
Object
 48
0.5
100
AcDbLine
 10
251.4870340656083
 20
127.9303010462949
 30
0.0
 11
249.5779853900841
 21
127.9303010462949
 31
0.0
  0
LINE
  5
C44
330
14
100
AcDbEntity
  8
Object
 48
0.5
100
AcDbLine
 10
251.4870340656083
 20
126.9303010462948
 30
0.0
 11
249.8787020946992
 21
126.9303010462948
 31
0.0
  0
LINE
  5
C45
330
14
100
AcDbEntity
  8
Object
 48
0.5
100
AcDbLine
 10
251.4870340656083
 20
125.9303010462949
 30
0.0
 11
249.5779853900841
 21
125.9303010462949
 31
0.0
  0
LWPOLYLINE
  5
C46
330
14
100
AcDbEntity
  8
Object
100
AcDbPolyline
 90
       12
 70
     0
 43
0.0
 10
251.4870340656095
 20
125.0636469108067
 10
249.5881827191748
 20
125.0636469108067
 42
0.0322329405513831
 10
249.0612072949024
 20
125.0296396434875
 10
241.1591391895557
 20
124.0054873721432
 42
-0.0322329405513813
 10
240.7606943565694
 20
123.9797745602677
 10
236.4870340656095
 20
123.9797745602677
 10
236.4870340656095
 20
122.9797745602677
 10
240.5383630049809
 20
122.9797745602677
 42
0.0315079067486017
 10
241.053556271103
 20
123.012272144959
 10
249.1602720822833
 20
124.0390755662841
 42
-0.0315079067486006
 10
249.5498084542295
 20
124.0636469108067
 10
251.4870340656095
 20
124.0636469108067
  0
LWPOLYLINE
  5
C47
330
14
100
AcDbEntity
  8
Object
100
AcDbPolyline
 90
       12
 70
     0
 43
0.0
 10
251.4870340656086
 20
117.9303010462945
 10
250.2492462612209
 20
117.9303010462945
 42
-0.0981063080732151
 10
248.6860249909383
 20
118.2400056409023
 10
242.0222100404541
 20
120.9883447959467
 42
0.0981063080732064
 10
241.2215357312849
 20
121.1469739785506
 10
236.4870340656095
 20
121.1469739785506
 10
236.4870340656095
 20
122.1469739785507
 10
241.0234162452624
 20
122.1469739785507
 42
-0.0981063080732064
 10
242.586637515545
 20
121.8372693839427
 10
249.0703001706464
 20
119.1632299522478
 42
0.0983596828208744
 10
250.2553597785212
 20
118.9290646254828
 10
251.4871344468391
 20
118.9303010966763
  0
LINE
  5
C48
330
14
100
AcDbEntity
  8
Object
 48
0.5
100
AcDbLine
 10
251.4870340656095
 20
115.9319155105327
 30
0.0
 11
249.5779853900852
 21
115.9319155105327
 31
0.0
  0
LINE
  5
C49
330
14
100
AcDbEntity
  8
Object
 48
0.5
100
AcDbLine
 10
251.4870340656086
 20
116.9303010462944
 30
0.0
 11
249.8787020946994
 21
116.9303010462944
 31
0.0
  0
LINE
  5
C4A
330
14
100
AcDbEntity
  8
Object
 48
0.5
100
AcDbLine
 10
251.4870340656083
 20
120.0636469108067
 30
0.0
 11
249.5779853900841
 21
120.0636469108067
 31
0.0
  0
LINE
  5
C4B
330
14
100
AcDbEntity
  8
Object
 48
0.5
100
AcDbLine
 10
251.4870340656083
 20
121.0636469108067
 30
0.0
 11
249.8787020946992
 21
121.0636469108067
 31
0.0
  0
LINE
  5
C4C
330
14
100
AcDbEntity
  8
Object
 48
0.5
100
AcDbLine
 10
251.4870340656083
 20
121.9303010462949
 30
0.0
 11
249.5779853900841
 21
121.9303010462949
 31
0.0
  0
LINE
  5
C4D
330
14
100
AcDbEntity
  8
Object
 48
0.5
100
AcDbLine
 10
251.4870340656083
 20
122.9303010462948
 30
0.0
 11
249.8787020946992
 21
122.9303010462948
 31
0.0
  0
LWPOLYLINE
  5
C4E
330
14
100
AcDbEntity
  8
Object
100
AcDbPolyline
 90
       12
 70
     0
 43
0.0
 10
251.4870340656095
 20
110.0636469108068
 10
249.5042252808561
 20
110.0636469108067
 42
-0.1522896978347436
 10
247.1739398906335
 20
110.7902554422521
 10
242.0966208037295
 20
114.2975870401408
 42
0.1522896978347337
 10
240.3346977038053
 20
114.8469739785507
 10
236.4870340656095
 20
114.8469739785507
 10
236.4870340656095
 20
115.8469739785508
 10
240.3346977038053
 20
115.8469739785508
 42
-0.1522896978347337
 10
242.6649830940277
 20
115.1203654471053
 10
247.7423021809317
 20
111.6130338492167
 42
0.1522896978347222
 10
249.5042252808556
 20
111.0636469108067
 10
251.4870340656095
 20
111.0636469108066
  0
LWPOLYLINE
  5
C50
330
14
100
AcDbEntity
  8
Object
100
AcDbPolyline
 90
       12
 70
     0
 43
0.0
 10
251.4870340656095
 20
114.2636469108068
 10
249.5042252808561
 20
114.2636469108066
 42
-0.1522896978347436
 10
247.1739398906335
 20
114.9902554422521
 10
242.0966208037295
 20
118.4975870401408
 42
0.1522896978347337
 10
240.3346977038053
 20
119.0469739785507
 10
236.4870340656095
 20
119.0469739785506
 10
236.4870340656095
 20
120.0469739785506
 10
240.3346977038053
 20
120.0469739785507
 42
-0.1522896978347337
 10
242.6649830940277
 20
119.3203654471052
 10
247.7423021809317
 20
115.8130338492166
 42
0.1522896978347222
 10
249.5042252808556
 20
115.2636469108066
 10
251.4870340656095
 20
115.2636469108066
  0
SPLINE
  5
C51
330
14
100
AcDbEntity
  8
Object
100
AcDbSpline
210
0.0
220
0.0
230
1.0
 70
     8
 71
     3
 72
    11
 73
     7
 74
     5
 42
0.000000001
 43
0.0000000001
 44
0.0000000001
 40
0.0
 40
0.0
 40
0.0
 40
0.0
 40
1.542927412420994
 40
3.085854824841987
 40
4.634806746372595
 40
6.171715740244275
 40
6.171715740244275
 40
6.171715740244275
 40
6.171715740244275
 10
131.0115394465597
 20
115.1879566040468
 30
0.0
 10
131.3615715836137
 20
115.6463393966896
 30
0.0
 10
132.0616358577217
 20
116.5631049819751
 30
0.0
 10
131.0097865656954
 20
117.9391517335095
 30
0.0
 10
129.9616215159552
 20
119.3169796793656
 30
0.0
 10
130.6624785280969
 20
120.2321548212875
 30
0.0
 10
131.0115394465597
 20
120.6879566040468
 30
0.0
 11
131.0115394465597
 21
115.1879566040468
 31
0.0
 11
131.7115394465598
 21
116.5629566040468
 31
0.0
 11
131.0115394465597
 21
117.9379566040468
 31
0.0
 11
130.3115394465597
 21
119.3197134767322
 31
0.0
 11
131.0115394465597
 21
120.6879566040468
 31
0.0
  0
SPLINE
  5
C52
330
14
100
AcDbEntity
  8
Object
100
AcDbSpline
210
0.0
220
0.0
230
1.0
 70
     8
 71
     3
 72
    11
 73
     7
 74
     5
 42
0.000000001
 43
0.0000000001
 44
0.0000000001
 40
0.0
 40
0.0
 40
0.0
 40
0.0
 40
1.542927412420994
 40
3.085854824841987
 40
4.634806746372595
 40
6.171715740244275
 40
6.171715740244275
 40
6.171715740244275
 40
6.171715740244275
 10
132.0115394465597
 20
115.1879566040468
 30
0.0
 10
132.3615715836137
 20
115.6463393966896
 30
0.0
 10
133.0616358577217
 20
116.5631049819751
 30
0.0
 10
132.0097865656954
 20
117.9391517335095
 30
0.0
 10
130.9616215159552
 20
119.3169796793656
 30
0.0
 10
131.662478528097
 20
120.2321548212875
 30
0.0
 10
132.0115394465597
 20
120.6879566040468
 30
0.0
 11
132.0115394465597
 21
115.1879566040468
 31
0.0
 11
132.7115394465598
 21
116.5629566040468
 31
0.0
 11
132.0115394465597
 21
117.9379566040468
 31
0.0
 11
131.3115394465597
 21
119.3197134767322
 31
0.0
 11
132.0115394465597
 21
120.6879566040468
 31
0.0
  0
SPLINE
  5
C53
330
14
100
AcDbEntity
  8
Object
100
AcDbSpline
210
0.0
220
0.0
230
1.0
 70
     8
 71
     3
 72
    11
 73
     7
 74
     5
 42
0.000000001
 43
0.0000000001
 44
0.0000000001
 40
0.0
 40
0.0
 40
0.0
 40
0.0
 40
1.160096978705201
 40
2.301860964824858
 40
3.448326833087602
 40
4.585392686036972
 40
4.585392686036972
 40
4.585392686036972
 40
4.585392686036972
 10
98.60176303621611
 20
134.8129701409053
 30
0.0
 10
98.87491181850484
 20
135.1371297713345
 30
0.0
 10
99.41689281757753
 20
135.780326343133
 30
0.0
 10
98.86144968125308
 20
136.9077882079816
 30
0.0
 10
98.3055557627021
 20
138.0317469366636
 30
0.0
 10
98.84846683817881
 20
138.6654674445702
 30
0.0
 10
99.11880494619723
 20
138.981023363133
 30
0.0
 11
98.60176303621611
 21
134.8129701409053
 31
0.0
 11
99.18937115915801
 21
135.813240951163
 31
0.0
 11
98.86151504337332
 21
136.9069206882627
 31
0.0
 11
98.53429110035873
 21
138.0056965881665
 31
0.0
 11
99.11880494619723
 21
138.981023363133
 31
0.0
  0
SPLINE
  5
C54
330
14
100
AcDbEntity
  8
Object
100
AcDbSpline
210
0.0
220
0.0
230
1.0
 70
     8
 71
     3
 72
    11
 73
     7
 74
     5
 42
0.000000001
 43
0.0000000001
 44
0.0000000001
 40
0.0
 40
0.0
 40
0.0
 40
0.0
 40
1.160096978704988
 40
2.301860964824579
 40
3.448326833087215
 40
4.585392686036831
 40
4.585392686036831
 40
4.585392686036831
 40
4.585392686036831
 10
99.59415666055602
 20
134.6898649242432
 30
0.0
 10
99.86730544284462
 20
135.0140245546724
 30
0.0
 10
100.4092864419171
 20
135.6572211264709
 30
0.0
 10
99.85384330559303
 20
136.7846829913193
 30
0.0
 10
99.29794938704202
 20
137.9086417200014
 30
0.0
 10
99.84086046251863
 20
138.5423622279081
 30
0.0
 10
100.1111985705371
 20
138.857918146471
 30
0.0
 11
99.59415666055602
 21
134.6898649242432
 31
0.0
 11
100.1817647834977
 21
135.6901357345008
 31
0.0
 11
99.85390866771323
 21
136.7838154716005
 31
0.0
 11
99.52668472469864
 21
137.8825913715042
 31
0.0
 11
100.1111985705371
 21
138.857918146471
 31
0.0
  0
LINE
  5
C55
330
14
100
AcDbEntity
  8
Object
 48
0.5
100
AcDbLine
 10
186.4870340656095
 20
128.8177866663801
 30
0.0
 11
186.4870340656095
 21
114.1761612907214
 31
0.0
  0
INSERT
  5
C56
330
14
100
AcDbEntity
  8
Object
100
AcDbBlockReference
  2
A$C30917
 10
95.41608668031861
 20
117.9379566040468
 30
0.0
 41
1.32
 42
1.2
 43
1.2
 50
90.0
  0
LWPOLYLINE
  5
C57
330
14
100
AcDbEntity
  8
Object
100
AcDbPolyline
 90
       12
 70
     0
 43
0.0
 10
52.28327367083855
 20
124.4379566040468
 10
55.83727700271564
 20
124.4379566040468
 42
-0.098106308073208
 10
57.74364440549905
 20
124.0602680740372
 10
66.74809769599418
 20
120.3465857866506
 42
0.0981063080732064
 10
67.5487720051631
 20
120.1879566040468
 10
72.28327367083855
 20
120.1879566040468
 10
72.28327367083855
 20
119.1879566040466
 10
67.74689149118583
 20
119.1879566040466
 42
-0.0981063080732064
 10
66.18367022090322
 20
119.4976611986547
 10
57.54552491947655
 20
123.0602680740372
 42
0.098106308073209
 10
55.63915751669313
 20
123.4379566040468
 10
52.28327367083855
 20
123.4379566040468
  0
LWPOLYLINE
  5
C58
330
14
100
AcDbEntity
  8
Object
100
AcDbPolyline
 90
       12
 70
     0
 43
0.0
 10
52.28327367083855
 20
120.4379566040468
 10
60.36528459478953
 20
120.4379566040468
 42
-0.0798681705389538
 10
61.93240173330994
 20
120.186023987115
 10
66.74809769599418
 20
118.5965857866509
 42
0.0981063080732064
 10
67.54877200516333
 20
118.4379566040468
 10
72.28327367083878
 20
118.4379566040468
 10
72.28327367083878
 20
117.4379566040468
 10
67.74689149118583
 20
117.4379566040468
 42
-0.0981063080732064
 10
66.18367022090322
 20
117.7476611986548
 10
61.25016644619816
 20
119.2272196466871
 42
0.0729703956007119
 10
59.81386581318364
 20
119.4379566040468
 10
52.28327367083855
 20
119.4379566040468
  0
LWPOLYLINE
  5
C59
330
14
100
AcDbEntity
  8
Object
100
AcDbPolyline
 90
       12
 70
     0
 43
0.0
 10
52.28327367083855
 20
111.4379566040469
 10
55.83727700271564
 20
111.4379566040469
 42
0.098106308073208
 10
57.74364440549905
 20
111.8156451340565
 10
66.74809769599418
 20
115.529327421443
 42
-0.0981063080732064
 10
67.5487720051631
 20
115.6879566040468
 10
72.28327367083855
 20
115.6879566040468
 10
72.28327367083855
 20
116.6879566040468
 10
67.74689149118583
 20
116.6879566040468
 42
0.0981063080732064
 10
66.18367022090322
 20
116.3782520094391
 10
57.54552491947655
 20
112.8156451340565
 42
-0.098106308073209
 10
55.63915751669313
 20
112.4379566040469
 10
52.28327367083855
 20
112.4379566040469
  0
LWPOLYLINE
  5
C5A
330
14
100
AcDbEntity
  8
Object
100
AcDbPolyline
 90
        8
 70
     0
 43
0.0
 10
52.28327367083855
 20
115.4379566040468
 10
60.36528459478953
 20
115.4379566040468
 42
0.0798681705389538
 10
61.93240173330994
 20
115.6898892209787
 10
66.74809769599418
 20
117.2793274214429
 42
-0.0981063080732064
 10
67.54877200516333
 20
117.4379566040468
 10
72.28327367083878
 20
117.4379566040468
 10
72.28327367083878
 20
118.4379566040468
 10
67.74689149118583
 20
118.4379566040468
  0
LWPOLYLINE
  5
C5B
330
14
100
AcDbEntity
  8
Object
100
AcDbPolyline
 90
        4
 70
     0
 43
0.0
 10
65.54914097870986
 20
117.9379566040468
 10
61.25016644619816
 20
116.6486935614063
 42
-0.0729703956007119
 10
59.81386581318364
 20
116.4379566040468
 10
52.28327367083855
 20
116.4379566040468
  0
LINE
  5
C5C
330
14
100
AcDbEntity
  8
Object
100
AcDbLine
 10
186.4870340656095
 20
127.7280144573729
 30
0.0
 11
100.1111985705371
 21
138.8579181464709
 31
0.0
  0
LINE
  5
C5D
330
14
100
AcDbEntity
  8
Object
100
AcDbLine
 10
98.60233953819412
 20
134.8176175222493
 30
0.0
 11
71.15546327699806
 21
138.3542674151599
 31
0.0
  0
LINE
  5
C5E
330
14
100
AcDbEntity
  8
Object
100
AcDbLine
 10
27.47343306233998
 20
145.8890893866866
 30
0.0
 11
27.62115932233465
 21
147.0799617358946
 31
0.0
  0
LINE
  5
C5F
330
14
100
AcDbEntity
  8
Object
100
AcDbLine
 10
27.32570680234531
 20
144.6982170374787
 30
0.0
 11
27.47343306233998
 21
145.8890893866866
 31
0.0
  0
LINE
  5
C60
330
14
100
AcDbEntity
  8
Object
100
AcDbLine
 10
25.63063404636378
 20
145.2784188061166
 30
0.0
 11
25.69218665469489
 21
145.7746156182866
 31
0.0
  0
LINE
  5
C61
330
14
100
AcDbEntity
  8
Object
100
AcDbLine
 10
25.77625320827624
 20
146.4523051107103
 30
0.0
 11
25.83780581660758
 21
146.9485019228804
 31
0.0
  0
LINE
  5
C62
330
14
100
AcDbEntity
  8
Object
100
AcDbLine
 10
52.28327367083855
 20
142.8114589701318
 30
0.0
 11
27.47343306233998
 21
145.8890893866865
 31
0.0
  0
LINE
  5
C63
330
14
100
AcDbEntity
  8
Object
100
AcDbLine
 10
52.430999930833
 20
144.0023313193398
 30
0.0
 11
27.62115932233465
 21
147.0799617358946
 31
0.0
  0
LINE
  5
C64
330
14
100
AcDbEntity
  8
Object
100
AcDbLine
 10
52.13554741084388
 20
141.620586620924
 30
0.0
 11
27.32570680234531
 21
144.6982170374787
 31
0.0
  0
LINE
  5
C65
330
14
100
AcDbEntity
  8
Object
100
AcDbLine
 10
27.43245333459018
 20
145.5587376627819
 30
0.0
 11
25.69218665469489
 21
145.7746156182866
 31
0.0
  0
LINE
  5
C66
330
14
100
AcDbEntity
  8
Object
100
AcDbLine
 10
27.40167703042485
 20
145.3106392566967
 30
0.0
 11
25.66141035052934
 21
145.5265172122016
 31
0.0
  0
LINE
  5
C67
330
14
100
AcDbEntity
  8
Object
100
AcDbLine
 10
27.37090072625907
 20
145.062540850612
 30
0.0
 11
25.63063404636378
 21
145.2784188061166
 31
0.0
  0
LINE
  5
C68
330
14
100
AcDbEntity
  8
Object
100
AcDbLine
 10
27.57807249650287
 20
146.7326239673756
 30
0.0
 11
25.83780581660758
 21
146.9485019228804
 31
0.0
  0
LINE
  5
C69
330
14
100
AcDbEntity
  8
Object
100
AcDbLine
 10
27.51651988817176
 20
146.2364271552054
 30
0.0
 11
25.77625320827624
 21
146.4523051107103
 31
0.0
  0
LINE
  5
C6A
330
14
100
AcDbEntity
  8
Object
100
AcDbLine
 10
27.54729619233731
 20
146.4845255612906
 30
0.0
 11
25.8070295124418
 21
146.7004035167953
 31
0.0
  0
DIMENSION
  5
C6B
330
14
100
AcDbEntity
  8
Dims
100
AcDbDimension
280
     0
  2
*D5
 10
27.32948142973839
 20
158.9734136869098
 30
0.0
 11
39.26707514612685
 21
157.4925697709096
 31
0.0
 70
   160
  1
（100）
 71
     5
 42
26.21999531846764
 73
     0
 74
     0
 75
     0
 52
-270.0
  3
STANDARD
100
AcDbAlignedDimension
 13
53.3500376140087
 23
155.7455954823484
 33
0.0
 14
25.63063404636378
 24
145.2784188061166
 34
0.0
 50
172.9286524323327
100
AcDbRotatedDimension
  0
LINE
  5
C6D
330
14
100
AcDbEntity
  8
Object
100
AcDbLine
 10
27.47343306233998
 20
145.8890893866866
 30
0.0
 11
27.62115932233465
 21
147.0799617358946
 31
0.0
  0
LINE
  5
C6E
330
14
100
AcDbEntity
  8
Object
100
AcDbLine
 10
99.11938723196855
 20
138.9857173696304
 30
0.0
 11
71.67251097077227
 21
142.522367262541
 31
0.0
  0
LINE
  5
C6F
330
14
100
AcDbEntity
  8
Object
100
AcDbLine
 10
186.4870340656095
 20
123.4933381266296
 30
0.0
 11
99.59415666055602
 21
134.6898649242432
 31
0.0
  0
LEADER
  5
C71
330
14
100
AcDbEntity
  8
0
100
AcDbLeader
  3
STANDARD
 74
     0
 76
     3
 10
195.4745974216005
 20
113.1761612907214
 30
0.0
 10
198.2370037688374
 20
104.4394618614068
 30
0.0
 10
200.9229941652993
 20
104.4394618614068
 30
0.0
213
-271.2009715660537
223
1.25
233
0.0
1001
ACAD
1000
DSTYLE
1002
{
1070
    41
1040
3.0
1070
   147
1040
0.625
1070
    77
1070
     0
1002
}
  0
LINE
  5
C72
330
14
100
AcDbEntity
  8
Object
100
AcDbLine
 10
186.4870340656095
 20
120.6879566040468
 30
0.0
 11
132.0115394465597
 21
120.6879566040468
 31
0.0
  0
LINE
  5
C73
330
14
100
AcDbEntity
  8
Object
100
AcDbLine
 10
186.4870340656095
 20
115.1879566040467
 30
0.0
 11
132.0589431160689
 21
115.1879566040468
 31
0.0
  0
INSERT
  5
C74
330
14
100
AcDbEntity
  8
Object
100
AcDbBlockReference
  2
A$C30917
 10
71.41398712388516
 20
140.4383173388504
 30
0.0
 50
82.92865243233305
  0
LINE
  5
C75
330
14
100
AcDbEntity
  8
Object
100
AcDbLine
 10
50.88327367083869
 20
119.9379566042468
 30
0.0
 11
50.88327367083869
 21
121.7379566040467
 31
0.0
  0
LINE
  5
C76
330
14
100
AcDbEntity
  8
Object
100
AcDbLine
 10
50.88327367083869
 20
121.7379566040467
 30
0.0
 11
52.28327367083855
 21
121.7379566040467
 31
0.0
  0
LINE
  5
C77
330
14
100
AcDbEntity
  8
Object
100
AcDbLine
 10
52.28327367083855
 20
114.1379566040467
 30
0.0
 11
52.28327367083855
 21
121.7379566040467
 31
0.0
  0
LINE
  5
C78
330
14
100
AcDbEntity
  8
Object
100
AcDbLine
 10
50.88327367083869
 20
114.1379566040467
 30
0.0
 11
50.88327367083869
 21
115.9379566036468
 31
0.0
  0
LINE
  5
C79
330
14
100
AcDbEntity
  8
Object
100
AcDbLine
 10
50.88327367083869
 20
115.9379566036468
 30
0.0
 11
50.88327367083869
 21
119.9379566042468
 31
0.0
  0
LINE
  5
C7A
330
14
100
AcDbEntity
  8
Object
100
AcDbLine
 10
50.88327367083869
 20
114.1379566040467
 30
0.0
 11
52.28327367083855
 21
114.1379566040467
 31
0.0
  0
LINE
  5
C7B
330
14
100
AcDbEntity
  8
Object
100
AcDbLine
 10
44.4832736746387
 20
119.9379566046468
 30
0.0
 11
44.4832736746387
 21
115.9379566030468
 31
0.0
  0
LINE
  5
C7C
330
14
100
AcDbEntity
  8
Object
100
AcDbLine
 10
44.4832736746387
 20
119.9379566046468
 30
0.0
 11
50.88327367083869
 21
119.9379566042468
 31
0.0
  0
LINE
  5
C7D
330
14
100
AcDbEntity
  8
Object
100
AcDbLine
 10
50.88327367083869
 20
115.9379566036468
 30
0.0
 11
44.4832736746387
 21
115.9379566030468
 31
0.0
  0
LINE
  5
C7E
330
14
100
AcDbEntity
  8
Object
100
AcDbLine
 10
36.28327367083855
 20
121.7379566040467
 30
0.0
 11
36.28327367083855
 21
114.1379566040467
 31
0.0
  0
LINE
  5
C7F
330
14
100
AcDbEntity
  8
Object
100
AcDbLine
 10
36.28327367083855
 20
121.7379566040467
 30
0.0
 11
50.88327367083869
 21
121.7379566040467
 31
0.0
  0
LINE
  5
C80
330
14
100
AcDbEntity
  8
Object
100
AcDbLine
 10
36.28327367083855
 20
114.1379566040467
 30
0.0
 11
50.88327367083869
 21
114.1379566040467
 31
0.0
  0
LINE
  5
C81
330
14
100
AcDbEntity
  8
Object
100
AcDbLine
 10
52.28327367083855
 20
110.7379566040468
 30
0.0
 11
47.43353140883849
 21
110.7379566040468
 31
0.0
  0
LINE
  5
C82
330
14
100
AcDbEntity
  8
Object
100
AcDbLine
 10
52.28327367083855
 20
110.7379566040468
 30
0.0
 11
52.28327367043838
 21
109.5379566040467
 31
0.0
  0
LINE
  5
C83
330
14
100
AcDbEntity
  8
Object
100
AcDbLine
 10
52.28327367043838
 20
109.5379566040467
 30
0.0
 11
47.4335314116386
 21
109.5379566040467
 31
0.0
  0
LINE
  5
C84
330
14
100
AcDbEntity
  8
Object
100
AcDbLine
 10
47.4335314116386
 20
109.5379566040467
 30
0.0
 11
47.43353140883849
 21
110.7379566040468
 31
0.0
  0
LINE
  5
C85
330
14
100
AcDbEntity
  8
Object
100
AcDbLine
 10
44.4832736708386
 20
110.7379566040468
 30
0.0
 11
44.48327367063851
 21
109.5379566040467
 31
0.0
  0
LINE
  5
C86
330
14
100
AcDbEntity
  8
Object
100
AcDbLine
 10
47.43353140883849
 20
110.7379566040468
 30
0.0
 11
44.4832736708386
 21
110.7379566040468
 31
0.0
  0
LINE
  5
C87
330
14
100
AcDbEntity
  8
Object
100
AcDbLine
 10
47.4335314116386
 20
109.5379566040467
 30
0.0
 11
44.48327367063851
 21
109.5379566040467
 31
0.0
  0
LINE
  5
C88
330
14
100
AcDbEntity
  8
Object
100
AcDbLine
 10
44.4832736708386
 20
125.1379566040467
 30
0.0
 11
44.4832736708386
 21
126.3379566040468
 31
0.0
  0
LINE
  5
C89
330
14
100
AcDbEntity
  8
Object
100
AcDbLine
 10
47.43353140923867
 20
125.1379566040467
 30
0.0
 11
47.43353141183846
 21
126.3379566040468
 31
0.0
  0
LINE
  5
C8A
330
14
100
AcDbEntity
  8
Object
100
AcDbLine
 10
44.4832736708386
 20
126.3379566040468
 30
0.0
 11
47.43353141183846
 21
126.3379566040468
 31
0.0
  0
LINE
  5
C8B
330
14
100
AcDbEntity
  8
Object
100
AcDbLine
 10
44.4832736708386
 20
125.1379566040467
 30
0.0
 11
47.43353140923867
 21
125.1379566040467
 31
0.0
  0
LINE
  5
C8C
330
14
100
AcDbEntity
  8
Object
100
AcDbLine
 10
52.28327367083855
 20
126.3379566040468
 30
0.0
 11
52.28327367083855
 21
125.1379566040467
 31
0.0
  0
LINE
  5
C8D
330
14
100
AcDbEntity
  8
Object
100
AcDbLine
 10
47.43353141183846
 20
126.3379566040468
 30
0.0
 11
52.28327367083855
 21
126.3379566040468
 31
0.0
  0
LINE
  5
C8E
330
14
100
AcDbEntity
  8
Object
100
AcDbLine
 10
47.43353140923867
 20
125.1379566040467
 30
0.0
 11
52.28327367083855
 21
125.1379566040467
 31
0.0
  0
LINE
  5
C8F
330
14
100
AcDbEntity
  8
Object
100
AcDbLine
 10
36.28327367083855
 20
126.3379566040468
 30
0.0
 11
36.28327367083855
 21
125.1379566058468
 31
0.0
  0
LINE
  5
C90
330
14
100
AcDbEntity
  8
Object
100
AcDbLine
 10
36.28327367083855
 20
126.3379566040468
 30
0.0
 11
44.4832736708386
 21
126.3379566040468
 31
0.0
  0
LINE
  5
C91
330
14
100
AcDbEntity
  8
Object
100
AcDbLine
 10
36.28327367083855
 20
125.1379566058468
 30
0.0
 11
44.4832736708386
 21
125.1379566040467
 31
0.0
  0
LINE
  5
C92
330
14
100
AcDbEntity
  8
Object
100
AcDbLine
 10
36.28327367083855
 20
110.7379566022468
 30
0.0
 11
36.28327367083855
 21
109.5379566040467
 31
0.0
  0
LINE
  5
C93
330
14
100
AcDbEntity
  8
Object
100
AcDbLine
 10
44.4832736708386
 20
110.7379566040468
 30
0.0
 11
36.28327367083855
 21
110.7379566022468
 31
0.0
  0
LINE
  5
C94
330
14
100
AcDbEntity
  8
Object
100
AcDbLine
 10
44.48327367063851
 20
109.5379566040467
 30
0.0
 11
36.28327367083855
 21
109.5379566040467
 31
0.0
  0
LINE
  5
C95
330
14
100
AcDbEntity
  8
Object
100
AcDbLine
 10
50.88327367083869
 20
127.9379566040468
 30
0.0
 11
52.28327367083855
 21
127.9379566040468
 31
0.0
  0
LINE
  5
C96
330
14
100
AcDbEntity
  8
Object
100
AcDbLine
 10
50.88327367083869
 20
127.9379566040468
 30
0.0
 11
50.88327367083869
 21
126.3379566040468
 31
0.0
  0
LINE
  5
C97
330
14
100
AcDbEntity
  8
Object
100
AcDbLine
 10
52.28327367083855
 20
126.3379566040468
 30
0.0
 11
52.28327367083855
 21
127.9379566040468
 31
0.0
  0
LINE
  5
C98
330
14
100
AcDbEntity
  8
Object
100
AcDbLine
 10
50.88327367083869
 20
107.9379566040468
 30
0.0
 11
52.28327367083855
 21
107.9379566040468
 31
0.0
  0
LINE
  5
C99
330
14
100
AcDbEntity
  8
Object
100
AcDbLine
 10
50.88327367043851
 20
109.5379566040467
 30
0.0
 11
50.88327367083869
 21
107.9379566040468
 31
0.0
  0
LINE
  5
C9A
330
14
100
AcDbEntity
  8
Object
100
AcDbLine
 10
52.28327367083855
 20
107.9379566040468
 30
0.0
 11
52.28327367043838
 21
109.5379566040467
 31
0.0
  0
LINE
  5
CAF
330
14
100
AcDbEntity
  8
Object
100
AcDbLine
 10
52.28327367083855
 20
110.7379566036468
 30
0.0
 11
52.28327367083855
 21
114.1379566040467
 31
0.0
  0
LINE
  5
CB0
330
14
100
AcDbEntity
  8
Object
100
AcDbLine
 10
52.28327367083855
 20
121.7379566040467
 30
0.0
 11
52.28327367083855
 21
125.1379566046468
 31
0.0
  0
LINE
  5
CB1
330
14
100
AcDbEntity
  8
Object
100
AcDbLine
 10
36.28327367083855
 20
125.1379566082468
 30
0.0
 11
36.28327367083855
 21
121.7379566040467
 31
0.0
  0
LINE
  5
CB2
330
14
100
AcDbEntity
  8
Object
100
AcDbLine
 10
36.28327367083855
 20
114.1379566040467
 30
0.0
 11
36.28327367083855
 21
110.7379566000468
 31
0.0
  0
LINE
  5
CB6
330
14
100
AcDbEntity
  8
Object
100
AcDbLine
 10
21.85898616665268
 20
125.1379566083467
 30
0.0
 11
24.05898616545277
 21
125.1379566059468
 31
0.0
  0
LINE
  5
CB7
330
14
100
AcDbEntity
  8
Object
100
AcDbLine
 10
21.85898616665268
 20
125.1379566083467
 30
0.0
 11
21.85898616665257
 21
110.7379566001468
 31
0.0
  0
LINE
  5
CB8
330
14
100
AcDbEntity
  8
Object
100
AcDbLine
 10
24.05898616545277
 20
110.7379566023468
 30
0.0
 11
21.85898616665257
 21
110.7379566001468
 31
0.0
  0
LINE
  5
CB9
330
14
100
AcDbEntity
  8
Object
100
AcDbLine
 10
24.05898616545277
 20
110.7379566023468
 30
0.0
 11
24.05898616625267
 21
109.5379566041468
 31
0.0
  0
LINE
  5
CBA
330
14
100
AcDbEntity
  8
Object
100
AcDbLine
 10
24.05898616625267
 20
109.5379566041468
 30
0.0
 11
16.45898616505268
 21
109.5379566041468
 31
0.0
  0
LINE
  5
CBB
330
14
100
AcDbEntity
  8
Object
100
AcDbLine
 10
16.45898616505268
 20
109.5379566041468
 30
0.0
 11
16.45898616545274
 21
126.3379566041467
 31
0.0
  0
LINE
  5
CBC
330
14
100
AcDbEntity
  8
Object
100
AcDbLine
 10
16.45898616545274
 20
126.3379566041467
 30
0.0
 11
24.05898616665273
 21
126.3379566041467
 31
0.0
  0
LINE
  5
CBD
330
14
100
AcDbEntity
  8
Object
100
AcDbLine
 10
24.05898616665273
 20
126.3379566041467
 30
0.0
 11
24.05898616545277
 21
125.1379566059468
 31
0.0
  0
LINE
  5
CBE
330
14
100
AcDbEntity
  8
Object
100
AcDbLine
 10
18.65898616545267
 20
111.3308980643468
 30
0.0
 11
19.85898616565258
 21
111.3308980643468
 31
0.0
  0
LINE
  5
CBF
330
14
100
AcDbEntity
  8
Object
100
AcDbLine
 10
19.85898616565258
 20
111.3308980643468
 30
0.0
 11
19.85898616565258
 21
112.5379566069468
 31
0.0
  0
LINE
  5
CC0
330
14
100
AcDbEntity
  8
Object
100
AcDbLine
 10
19.85898616565258
 20
112.5379566069468
 30
0.0
 11
18.65898616545267
 21
112.5379566065468
 31
0.0
  0
LINE
  5
CC1
330
14
100
AcDbEntity
  8
Object
100
AcDbLine
 10
18.65898616545267
 20
112.5379566065468
 30
0.0
 11
18.65898616545267
 21
111.3308980643468
 31
0.0
  0
LINE
  5
CC2
330
14
100
AcDbEntity
  8
Object
100
AcDbLine
 10
18.65898616545267
 20
115.3308980639467
 30
0.0
 11
19.85898616565269
 21
115.3308980639467
 31
0.0
  0
LINE
  5
CC3
330
14
100
AcDbEntity
  8
Object
100
AcDbLine
 10
19.85898616565269
 20
115.3308980639467
 30
0.0
 11
19.85898616565269
 21
116.5379566065468
 31
0.0
  0
LINE
  5
CC4
330
14
100
AcDbEntity
  8
Object
100
AcDbLine
 10
19.85898616565269
 20
116.5379566065468
 30
0.0
 11
18.65898616545267
 21
116.5379566061468
 31
0.0
  0
LINE
  5
CC5
330
14
100
AcDbEntity
  8
Object
100
AcDbLine
 10
18.65898616545267
 20
116.5379566061468
 30
0.0
 11
18.65898616545267
 21
115.3308980639467
 31
0.0
  0
LINE
  5
CC6
330
14
100
AcDbEntity
  8
Object
100
AcDbLine
 10
18.65898616545267
 20
119.3308980635468
 30
0.0
 11
19.85898616565269
 21
119.3308980635468
 31
0.0
  0
LINE
  5
CC7
330
14
100
AcDbEntity
  8
Object
100
AcDbLine
 10
19.85898616565269
 20
119.3308980635468
 30
0.0
 11
19.85898616565269
 21
120.5379566051468
 31
0.0
  0
LINE
  5
CC8
330
14
100
AcDbEntity
  8
Object
100
AcDbLine
 10
19.85898616565269
 20
120.5379566051468
 30
0.0
 11
18.65898616545267
 21
120.5379566051468
 31
0.0
  0
LINE
  5
CC9
330
14
100
AcDbEntity
  8
Object
100
AcDbLine
 10
18.65898616545267
 20
120.5379566051468
 30
0.0
 11
18.65898616545267
 21
119.3308980635468
 31
0.0
  0
LINE
  5
CCA
330
14
100
AcDbEntity
  8
Object
100
AcDbLine
 10
18.65898616545267
 20
123.3308980621467
 30
0.0
 11
19.85898616565269
 21
123.3308980621467
 31
0.0
  0
LINE
  5
CCB
330
14
100
AcDbEntity
  8
Object
100
AcDbLine
 10
19.85898616565269
 20
123.3308980621467
 30
0.0
 11
19.85898616565269
 21
124.5379566047468
 31
0.0
  0
LINE
  5
CCC
330
14
100
AcDbEntity
  8
Object
100
AcDbLine
 10
19.85898616565269
 20
124.5379566047468
 30
0.0
 11
18.65898616545267
 21
124.5379566047468
 31
0.0
  0
LINE
  5
CCD
330
14
100
AcDbEntity
  8
Object
100
AcDbLine
 10
18.65898616545267
 20
124.5379566047468
 30
0.0
 11
18.65898616545267
 21
123.3308980621467
 31
0.0
  0
LINE
  5
CCE
330
14
100
AcDbEntity
  8
Object
100
AcDbLine
 10
25.65898616685273
 20
121.7379566041468
 30
0.0
 11
25.65898616625269
 21
114.1379566041468
 31
0.0
  0
LINE
  5
CCF
330
14
100
AcDbEntity
  8
Object
100
AcDbLine
 10
22.85898616545272
 20
114.1379566041468
 30
0.0
 11
25.65898616625269
 21
114.1379566041468
 31
0.0
  0
LINE
  5
CD0
330
14
100
AcDbEntity
  8
Object
100
AcDbLine
 10
22.85898616505277
 20
121.7379566041468
 30
0.0
 11
25.65898616685273
 21
121.7379566041468
 31
0.0
  0
LINE
  5
CD1
330
14
100
AcDbEntity
  8
Object
100
AcDbLine
 10
22.85898616505277
 20
121.7379566041468
 30
0.0
 11
22.85898616545272
 21
114.1379566041468
 31
0.0
  0
LINE
  5
CD2
330
14
100
AcDbEntity
  8
Object
100
AcDbLine
 10
16.25898616585276
 20
125.9379566037468
 30
0.0
 11
16.45898616545274
 21
125.9379566035468
 31
0.0
  0
LINE
  5
CD3
330
14
100
AcDbEntity
  8
Object
100
AcDbLine
 10
16.45898616505268
 20
109.9379566043468
 30
0.0
 11
16.25898616585276
 21
109.9379566041468
 31
0.0
  0
LINE
  5
CD4
330
14
100
AcDbEntity
  8
Object
100
AcDbLine
 10
16.25898616585276
 20
125.9379566037468
 30
0.0
 11
16.25898616585276
 21
109.9379566041468
 31
0.0
  0
LINE
  5
CD5
330
14
100
AcDbEntity
  8
Object
100
AcDbLine
 10
22.85898616625273
 20
119.9379566047466
 30
0.0
 11
21.85898616585267
 21
119.9379566047466
 31
0.0
  0
LINE
  5
CD6
330
14
100
AcDbEntity
  8
Object
100
AcDbLine
 10
21.85898616585267
 20
121.7379566047468
 30
0.0
 11
22.85898616505277
 21
121.7379566041468
 31
0.0
  0
LINE
  5
CD7
330
14
100
AcDbEntity
  8
Object
100
AcDbLine
 10
21.85898616585267
 20
115.9379566035468
 30
0.0
 11
22.85898616605276
 21
115.9379566037468
 31
0.0
  0
LINE
  5
CD8
330
14
100
AcDbEntity
  8
Object
100
AcDbLine
 10
21.85898616585267
 20
114.1379566035468
 30
0.0
 11
22.85898616505277
 21
114.1379566041468
 31
0.0
  0
LINE
  5
CD9
330
14
100
AcDbEntity
  8
Object
100
AcDbLine
 10
25.65898616585262
 20
110.7379566041468
 30
0.0
 11
25.65898616585262
 21
109.5379566041468
 31
0.0
  0
LINE
  5
CDA
330
14
100
AcDbEntity
  8
Object
100
AcDbLine
 10
25.65898616585262
 20
110.7379566041468
 30
0.0
 11
24.05898616545277
 21
110.7379566041468
 31
0.0
  0
LINE
  5
CDB
330
14
100
AcDbEntity
  8
Object
100
AcDbLine
 10
25.65898616585262
 20
109.5379566041468
 30
0.0
 11
24.05898616625267
 21
109.5379566041468
 31
0.0
  0
LINE
  5
CDC
330
14
100
AcDbEntity
  8
Object
100
AcDbLine
 10
25.65898616585274
 20
125.1379566041468
 30
0.0
 11
25.65898616585274
 21
126.3379566041467
 31
0.0
  0
LINE
  5
CDD
330
14
100
AcDbEntity
  8
Object
100
AcDbLine
 10
24.05898616545277
 20
125.1379566041468
 30
0.0
 11
25.65898616585274
 21
125.1379566041468
 31
0.0
  0
LINE
  5
CDE
330
14
100
AcDbEntity
  8
Object
100
AcDbLine
 10
24.05898616625267
 20
126.3379566041467
 30
0.0
 11
25.65898616585274
 21
126.3379566041467
 31
0.0
  0
LINE
  5
CDF
330
14
100
AcDbEntity
  8
Object
100
AcDbLine
 10
25.65898616585274
 20
119.9379566047466
 30
0.0
 11
26.45898616565272
 21
119.9379566043467
 31
0.0
  0
LINE
  5
CE0
330
14
100
AcDbEntity
  8
Object
100
AcDbLine
 10
26.45898616565272
 20
115.9379566037468
 30
0.0
 11
26.45898616565272
 21
119.9379566043467
 31
0.0
  0
LINE
  5
CE1
330
14
100
AcDbEntity
  8
Object
100
AcDbLine
 10
26.45898616565272
 20
115.9379566037468
 30
0.0
 11
25.65898616585274
 21
115.9379566031468
 31
0.0
  0
LINE
  5
CE2
330
14
100
AcDbEntity
  8
Object
100
AcDbLine
 10
14.85898616585267
 20
126.3379566041467
 30
0.0
 11
14.85898616585267
 21
109.5379566041468
 31
0.0
  0
LINE
  5
CE3
330
14
100
AcDbEntity
  8
Object
100
AcDbLine
 10
14.85898616585267
 20
126.3379566041467
 30
0.0
 11
16.45898616545274
 21
126.3379566041467
 31
0.0
  0
LINE
  5
CE4
330
14
100
AcDbEntity
  8
Object
100
AcDbLine
 10
14.85898616585267
 20
109.5379566041468
 30
0.0
 11
16.45898616505268
 21
109.5379566041468
 31
0.0
  0
LINE
  5
CE5
330
14
100
AcDbEntity
  8
Object
100
AcDbLine
 10
22.85898616585267
 20
107.9379566041468
 30
0.0
 11
14.85898616585267
 21
107.9379566041468
 31
0.0
  0
LINE
  5
CE6
330
14
100
AcDbEntity
  8
Object
100
AcDbLine
 10
22.85898616645271
 20
109.5379566041468
 30
0.0
 11
22.85898616585267
 21
107.9379566041468
 31
0.0
  0
LINE
  5
CE7
330
14
100
AcDbEntity
  8
Object
100
AcDbLine
 10
14.85898616585267
 20
107.9379566041468
 30
0.0
 11
14.85898616585267
 21
109.5379566041468
 31
0.0
  0
LINE
  5
CE8
330
14
100
AcDbEntity
  8
Object
100
AcDbLine
 10
22.85898616585267
 20
127.9379566041467
 30
0.0
 11
22.85898616725272
 21
126.3379566041467
 31
0.0
  0
LINE
  5
CE9
330
14
100
AcDbEntity
  8
Object
100
AcDbLine
 10
14.85898616585267
 20
127.9379566041467
 30
0.0
 11
22.85898616585267
 21
127.9379566041467
 31
0.0
  0
LINE
  5
CEA
330
14
100
AcDbEntity
  8
Object
100
AcDbLine
 10
14.85898616585267
 20
126.3379566041467
 30
0.0
 11
14.85898616585267
 21
127.9379566041467
 31
0.0
  0
LINE
  5
CEB
330
14
100
AcDbEntity
  8
Object
100
AcDbLine
 10
26.45898616565272
 20
119.9379566043467
 30
0.0
 11
26.45898616585269
 21
121.7379566041468
 31
0.0
  0
LINE
  5
CEC
330
14
100
AcDbEntity
  8
Object
100
AcDbLine
 10
25.65898616625269
 20
121.7379566041468
 30
0.0
 11
26.45898616585269
 21
121.7379566041468
 31
0.0
  0
LINE
  5
CED
330
14
100
AcDbEntity
  8
Object
100
AcDbLine
 10
26.45898616585269
 20
114.1379566041468
 30
0.0
 11
26.45898616565272
 21
115.9379566037468
 31
0.0
  0
LINE
  5
CEE
330
14
100
AcDbEntity
  8
Object
100
AcDbLine
 10
25.65898616625269
 20
114.1379566041468
 30
0.0
 11
26.45898616585269
 21
114.1379566041468
 31
0.0
  0
LINE
  5
CEF
330
14
100
AcDbEntity
  8
Object
100
AcDbLine
 10
95.4160866803185
 20
120.6879566040468
 30
0.0
 11
131.0115394465597
 21
120.6879566040468
 31
0.0
  0
LINE
  5
CF0
330
14
100
AcDbEntity
  8
Object
100
AcDbLine
 10
95.41608668031873
 20
115.1879566040472
 30
0.0
 11
131.0115394465597
 21
115.1879566040472
 31
0.0
  0
DIMENSION
  5
CF1
330
14
100
AcDbEntity
  8
Dims
100
AcDbDimension
280
     0
  2
*D7
 10
52.28327367083867
 20
95.00777253536086
 30
0.0
 11
44.28327367083867
 21
97.13277253536086
 31
0.0
 70
    32
  1
8
 71
     5
 42
16.0
 73
     0
 74
     0
 75
     0
  3
STANDARD
100
AcDbAlignedDimension
 13
36.28327367083867
 23
109.5379566040467
 33
0.0
 14
52.28327367083867
 24
107.9379566040468
 34
0.0
100
AcDbRotatedDimension
  0
DIMENSION
  5
CF2
330
14
100
AcDbEntity
  8
Dims
100
AcDbDimension
280
     0
  2
*D8
 10
14.85898616585267
 20
95.00777253536086
 30
0.0
 11
20.65898616585274
 21
97.13277253536086
 31
0.0
 70
    32
  1
5.8
 71
     5
 42
11.60000000000014
 73
     0
 74
     1
 75
     1
  3
STANDARD
100
AcDbAlignedDimension
 13
26.45898616585281
 23
114.1379566041468
 33
0.0
 14
14.85898616585267
 24
107.9379566041468
 34
0.0
100
AcDbRotatedDimension
  0
DIMENSION
  5
CF9
330
14
100
AcDbEntity
  8
Dims
100
AcDbDimension
280
     0
  2
*D9
 10
257.1870340656095
 20
95.00777253536086
 30
0.0
 11
254.5679864465619
 21
95.00777253536086
 31
0.0
 70
   160
 71
     5
 42
5.700000000000017
 73
     0
 74
     0
 75
     0
  3
STANDARD
100
AcDbAlignedDimension
 13
251.4870340656095
 23
108.2761612907214
 33
0.0
 14
257.1870340656095
 24
108.7761612907214
 34
0.0
100
AcDbRotatedDimension
1001
ACAD
1000
DSTYLE
1002
{
1070
   140
1040
2.5
1002
}
  0
DIMENSION
  5
CFA
330
14
100
AcDbEntity
  8
Dims
100
AcDbDimension
280
     0
  2
*D10
 10
278.0834387601436
 20
95.00777253536086
 30
0.0
 11
288.5179625696674
 21
95.00777253536086
 31
0.0
 70
   160
 71
     5
 42
3.869999999999948
 73
     0
 74
     0
 75
     0
  3
STANDARD
100
AcDbAlignedDimension
 13
274.2134387601437
 23
110.4261612907215
 33
0.0
 14
278.0834387601436
 24
108.2761612907214
 34
0.0
100
AcDbRotatedDimension
1001
ACAD
1000
DSTYLE
1002
{
1070
   140
1040
2.5
1002
}
  0
DIMENSION
  5
CFB
330
14
100
AcDbEntity
  8
Dims
100
AcDbDimension
280
     0
  2
*D11
 10
284.0507061012032
 20
108.2761612907214
 30
0.0
 11
284.0507061012032
 21
121.1761612907214
 31
0.0
 70
   160
 71
     5
 42
25.80000000000011
 73
     0
 74
     0
 75
     0
  3
STANDARD
100
AcDbAlignedDimension
 13
278.0834387601436
 23
134.0761612907215
 33
0.0
 14
278.0834387601436
 24
108.2761612907214
 34
0.0
 50
90.0
100
AcDbRotatedDimension
1001
ACAD
1000
DSTYLE
1002
{
1070
   140
1040
2.5
1002
}
  0
DIMENSION
  5
CFC
330
14
100
AcDbEntity
  8
Dims
100
AcDbDimension
280
     0
  2
*D12
 10
8.693578408404036
 20
107.9379566041468
 30
0.0
 11
8.693578408404036
 21
117.9379566041467
 31
0.0
 70
   160
  1
10
 71
     5
 42
19.9999999999999
 73
     0
 74
     0
 75
     0
  3
STANDARD
100
AcDbAlignedDimension
 13
14.85898616585267
 23
127.9379566041467
 33
0.0
 14
14.85898616585267
 24
107.9379566041468
 34
0.0
 50
90.0
100
AcDbRotatedDimension
  0
LINE
  5
CFE
330
14
100
AcDbEntity
  8
Dims
100
AcDbLine
 10
72.292756985985
 20
142.445426502127
 30
0.0
 11
80.96713179578015
 21
141.3693809047169
 31
0.0
  0
LINE
  5
CFF
330
14
100
AcDbEntity
  8
Dims
100
AcDbLine
 10
71.77570929221056
 20
138.2773266547459
 30
0.0
 11
80.45008410200572
 21
137.201281057336
 31
0.0
  0
LWPOLYLINE
  5
DB7
330
14
100
AcDbEntity
  8
Defpoints
100
AcDbPolyline
 90
        4
 70
     1
 43
0.0
 10
0.0
 20
0.0
 10
0.0
 20
209.9999999999998
 10
297.0
 20
209.9999999999998
 10
297.0
 20
0.0
  0
MTEXT
  5
DDF
330
14
100
AcDbEntity
  8
Object
100
AcDbMText
 10
201.891022781973
 20
105.6326681704546
 30
0.0
 40
2.0
 41
49.21411832662869
 46
5.333333333333333
 71
     1
 72
     1
  1
{（断面楕円形22Ｘ12）\P（ELLIPTICAL CROSS SECTION）}
 73
     1
 44
1.0
1001
ACAD
1000
ACAD_MTEXT_DEFINED_HEIGHT_BEGIN
1070
    46
1040
5.333333333333333
1000
ACAD_MTEXT_DEFINED_HEIGHT_END
  0
LINE
  5
E12
330
14
100
AcDbEntity
  8
Object
100
AcDbLine
 10
52.52948410416288
 20
144.7962462188117
 30
0.0
 11
53.30267930341679
 21
154.3849771964317
 31
0.0
  0
DIMENSION
  5
E14
330
14
100
AcDbEntity
  8
Object
100
AcDbDimension
280
     0
  2
*D15
 10
53.3500376140087
 20
155.7455954823484
 30
0.0
 11
152.4530854322034
 21
152.296168874048
 31
0.0
 70
   161
  1
2000±20
 71
     5
 42
198.3261216358694
 73
     0
 74
     0
 75
     0
  3
STANDARD
100
AcDbAlignedDimension
 13
251.4870340656095
 23
146.8615022267762
 33
0.0
 14
53.28093842922024
 24
153.760355443377
 34
0.0
  0
LINE
  5
E21
330
14
100
AcDbEntity
  8
Object
100
AcDbLine
 10
251.4870340656095
 20
134.3969739785507
 30
0.0
 11
251.5087749398061
 21
147.4861239798309
 31
0.0
  0
TEXT
  5
E4F
330
14
100
AcDbEntity
  8
Object
100
AcDbText
 10
48.35368591346426
 20
112.7362034272904
 30
0.0
 40
2.0
  1
1
 50
90.0
 41
0.8
  7
Roman
 71
     6
100
AcDbText
  0
TEXT
  5
E7D
330
14
100
AcDbEntity
  8
Object
100
AcDbText
 10
48.35368591346426
 20
123.7362034276903
 30
0.0
 40
2.0
  1
4
 50
90.0
 41
0.8
  7
Roman
 71
     6
100
AcDbText
  0
LEADER
  5
E7E
330
14
100
AcDbEntity
  8
Object
100
AcDbLeader
  3
STANDARD
 73
     0
 74
     0
 40
3.0
 41
13.64285714285714
 76
     3
 10
143.2991163180733
 20
133.2929663019219
 30
0.0
 10
148.3371508227516
 20
138.5111868513695
 30
0.0
 10
151.2534997466242
 20
138.5111868513695
 30
0.0
340
E7F
213
0.0
223
1.5
233
0.0
1001
ACAD
1000
DSTYLE
1002
{
1070
    77
1070
     0
1002
}
  0
MTEXT
  5
E7F
102
{ACAD_REACTORS
330
E7E
102
}
330
14
100
AcDbEntity
  8
Object
100
AcDbMText
 10
151.8784997466242
 20
137.0111868513695
 30
0.0
 40
3.0
 41
0.0
 46
3.0
 71
     7
 72
     1
  1
{（Φ4.4）}
 73
     1
 44
1.0
1001
ACAD
1000
ACAD_MTEXT_DEFINED_HEIGHT_BEGIN
1070
    46
1040
3.0
1000
ACAD_MTEXT_DEFINED_HEIGHT_END
  0
MTEXT
  5
EAE
102
{ACAD_REACTORS
330
EAF
102
}
330
14
100
AcDbEntity
  8
Object
100
AcDbMText
 10
112.175942009241
 20
124.4061771534944
 30
0.0
 40
3.0
 41
0.0
 46
3.0
 71
     7
 72
     1
  1
{（Φ5.2）}
 73
     1
 44
1.0
1001
ACAD
1000
ACAD_MTEXT_DEFINED_HEIGHT_BEGIN
1070
    46
1040
3.0
1000
ACAD_MTEXT_DEFINED_HEIGHT_END
  0
LEADER
  5
EAF
330
14
100
AcDbEntity
  8
Object
100
AcDbLeader
  3
STANDARD
 73
     0
 74
     0
 40
3.0
 41
13.64285714285714
 76
     3
 10
103.59655858069
 20
120.6879566040468
 30
0.0
 10
108.6345930853683
 20
125.9061771534944
 30
0.0
 10
111.550942009241
 20
125.9061771534944
 30
0.0
340
EAE
213
0.0
223
1.5
233
0.0
1001
ACAD
1000
DSTYLE
1002
{
1070
    77
1070
     0
1002
}
  0
LINE
  5
EE0
330
14
100
AcDbEntity
  8
Object
 48
0.5
100
AcDbLine
 10
251.4870340656104
 20
112.0652613750448
 30
0.0
 11
249.5779853900861
 21
112.0652613750448
 31
0.0
  0
LINE
  5
EE1
330
14
100
AcDbEntity
  8
Object
 48
0.5
100
AcDbLine
 10
251.4870340656095
 20
113.0636469108065
 30
0.0
 11
249.8787020947003
 21
113.0636469108065
 31
0.0
  0
ENDSEC
  0
SECTION
  2
OBJECTS
  0
DICTIONARY
  5
7
330
0
100
AcDbDictionary
281
     1
  3
ACAD_DETAILVIEWSTYLE
350
897
  3
ACAD_GROUP
350
29
  3
ACAD_IMAGE_VARS
350
8B2
  3
ACAD_LAYOUT
350
19
  3
ACAD_MATERIAL
350
9
  3
ACAD_MLEADERSTYLE
350
896
  3
ACAD_MLINESTYLE
350
24
  3
ACAD_PLOTSETTINGS
350
2A
  3
ACAD_PLOTSTYLENAME
350
6
  3
ACAD_SCALELIST
350
31
  3
ACAD_SECTIONVIEWSTYLE
350
898
  3
ACAD_TABLESTYLE
350
895
  3
ACAD_VISUALSTYLE
350
2B
  3
AcadDim
350
E80
  3
ACDB_RECOMPOSE_DATA
350
EEC
  3
AcDbVariableDictionary
350
893
  3
APPDATA
350
8B1
  0
SUN
  5
2F
330
2D
100
AcDbSun
 90
        1
290
     0
 63
     7
421
 16777215
 40
1.0
291
     1
 91
  2455826
 92
 54000000
292
     0
 70
     2
 71
   256
280
     1
  0
DICTIONARY
  5
3
330
2
100
AcDbDictionary
280
     1
281
     1
  3
ACAD_LAYERSTATES
360
4
  3
ACLYDICTIONARY
360
DEF
  0
DICTIONARY
  5
897
102
{ACAD_REACTORS
330
7
102
}
330
7
100
AcDbDictionary
281
     1
  0
DICTIONARY
  5
29
102
{ACAD_REACTORS
330
7
102
}
330
7
100
AcDbDictionary
281
     1
  0
RASTERVARIABLES
  5
8B2
102
{ACAD_REACTORS
330
7
102
}
330
7
100
AcDbRasterVariables
 90
        0
 70
     1
 71
     1
 72
     0
  0
DICTIONARY
  5
19
102
{ACAD_REACTORS
330
7
102
}
330
7
100
AcDbDictionary
281
     1
  3
Model
350
18
  3
ﾚｲｱｳﾄ1
350
1D
  0
DICTIONARY
  5
9
102
{ACAD_REACTORS
330
7
102
}
330
7
100
AcDbDictionary
281
     1
  3
ByBlock
350
55
  3
ByLayer
350
54
  3
Global
350
8
  0
DICTIONARY
  5
896
102
{ACAD_REACTORS
330
7
102
}
330
7
100
AcDbDictionary
281
     1
  0
DICTIONARY
  5
24
102
{ACAD_REACTORS
330
7
102
}
330
7
100
AcDbDictionary
281
     1
  3
STANDARD
350
23
  0
DICTIONARY
  5
2A
102
{ACAD_REACTORS
330
7
102
}
330
7
100
AcDbDictionary
281
     1
  0
ACDBDICTIONARYWDFLT
  5
6
102
{ACAD_REACTORS
330
7
102
}
330
7
100
AcDbDictionary
281
     1
  3
Normal
350
5
100
AcDbDictionaryWithDefault
340
5
  0
DICTIONARY
  5
31
102
{ACAD_REACTORS
330
7
102
}
330
7
100
AcDbDictionary
281
     1
  3
*A1
350
53
  0
DICTIONARY
  5
898
102
{ACAD_REACTORS
330
7
102
}
330
7
100
AcDbDictionary
281
     1
  0
DICTIONARY
  5
895
102
{ACAD_REACTORS
330
7
102
}
330
7
100
AcDbDictionary
281
     1
  3
Standard
350
8B0
  0
DICTIONARY
  5
2B
102
{ACAD_REACTORS
330
7
102
}
330
7
100
AcDbDictionary
281
     1
  3
2dWireframe
350
2E
  3
Basic
350
89F
  3
Brighten
350
8A3
  3
ColorChange
350
8A7
  3
Conceptual
350
8A1
  3
Dim
350
8A2
  3
EdgeColorOff
350
8AA
  3
Facepattern
350
8A6
  3
Flat
350
899
  3
FlatWithEdges
350
89A
  3
Gouraud
350
89B
  3
GouraudWithEdges
350
89C
  3
Hidden
350
89E
  3
JitterOff
350
8A8
  3
Linepattern
350
8A5
  3
OverhangOff
350
8A9
  3
Realistic
350
8A0
  3
Shaded
350
8AF
  3
Shaded with edges
350
8AE
  3
Shades of Gray
350
8AB
  3
Sketchy
350
8AC
  3
Thicken
350
8A4
  3
Wireframe
350
89D
  3
X-Ray
350
8AD
  0
XRECORD
  5
E80
102
{ACAD_REACTORS
330
7
102
}
330
7
100
AcDbXrecord
280
     1
340
E7F
 72
     0
 71
     0
 70
     0
 69
     0
 68
     1
 67
     3
 66
     0
 65
     0
 64
     0
 63
     3
 62
     1
 61
     0
 60
     0
 40
0.0
  0
XRECORD
  5
EEC
102
{ACAD_REACTORS
330
7
102
}
330
7
100
AcDbXrecord
280
     1
 90
        1
330
8B0
  0
DICTIONARY
  5
893
102
{ACAD_REACTORS
330
7
102
}
330
7
100
AcDbDictionary
281
     1
  3
CANNOSCALE
350
894
  3
CTABLESTYLE
350
8BA
  0
DICTIONARY
  5
8B1
102
{ACAD_REACTORS
330
7
102
}
330
7
100
AcDbDictionary
281
     1
  0
DICTIONARY
  5
4
102
{ACAD_REACTORS
330
3
102
}
330
3
100
AcDbDictionary
281
     1
  3
ARGON_LAYERP_1
350
8B3
  3
ARGON_LAYERP_10
350
DD9
  3
ARGON_LAYERP_11
350
DDA
  3
ARGON_LAYERP_12
350
DE5
  3
ARGON_LAYERP_13
350
DE8
  3
ARGON_LAYERP_14
350
DEB
  3
ARGON_LAYERP_15
350
DEE
  3
ARGON_LAYERP_16
350
DF0
  3
ARGON_LAYERP_17
350
DF1
  3
ARGON_LAYERP_18
350
EE8
  3
ARGON_LAYERP_19
350
EE9
  3
ARGON_LAYERP_2
350
8BB
  3
ARGON_LAYERP_3
350
DC2
  3
ARGON_LAYERP_4
350
DC3
  3
ARGON_LAYERP_5
350
DC5
  3
ARGON_LAYERP_6
350
DC7
  3
ARGON_LAYERP_7
350
DC8
  3
ARGON_LAYERP_8
350
DCF
  3
ARGON_LAYERP_9
350
DD1
  0
DICTIONARY
  5
DEF
102
{ACAD_REACTORS
330
3
102
}
330
3
100
AcDbDictionary
281
     1
1001
ACAD
1000
<All
  0
LAYOUT
  5
18
102
{ACAD_REACTORS
330
19
330
19
102
}
330
19
100
AcDbPlotSettings
  1
A3
  2
クセロPDF2
  4
A3
  6

 40
3.174999952316284
 41
3.174999952316284
 42
3.17498779296875
 43
3.17498779296875
 44
296.9683227539062
 45
419.9889831542969
 46
0.0
 47
0.0
 48
38.30102136395271
 49
-109.7071201641455
140
448.3010213639527
141
177.2928798358545
142
1.0
143
0.9912024846559412
 70
 11952
 72
     1
 73
     1
 74
     4
  7
monochrome.ctb
 75
     0
 76
     0
 77
     2
 78
   300
147
1.008875598558566
148
-195.7763636619891
149
-1.38318931108941
100
AcDbLayout
  1
Model
 70
     1
 71
     0
 10
0.0
 20
0.0
 11
12.0
 21
9.0
 12
0.0
 22
0.0
 32
0.0
 14
0.0
 24
0.0
 34
0.0
 15
297.0
 25
209.9999999999998
 35
0.0
146
0.0
 13
0.0
 23
0.0
 33
0.0
 16
1.0
 26
0.0
 36
0.0
 17
0.0
 27
1.0
 37
0.0
 76
     0
330
14
331
2D
  0
LAYOUT
  5
1D
102
{ACAD_REACTORS
330
19
330
19
102
}
330
19
100
AcDbPlotSettings
  1

  2
EPSON LP-1600
  4

  6

 40
0.0
 41
0.0
 42
0.0
 43
0.0
 44
0.0
 45
0.0
 46
0.0
 47
0.0
 48
0.0
 49
0.0
140
0.0
141
0.0
142
1.0
143
1.0
 70
   688
 72
     0
 73
     0
 74
     5
  7
monochrome.ctb
 75
    16
 76
     0
 77
     2
 78
   300
147
1.0
148
0.0
149
0.0
100
AcDbLayout
  1
ﾚｲｱｳﾄ1
 70
     1
 71
     1
 10
0.0
 20
0.0
 11
420.0
 21
297.0
 12
0.0
 22
0.0
 32
0.0
 14
1.000000000000000E+20
 24
1.000000000000000E+20
 34
1.000000000000000E+20
 15
-1.000000000000000E+20
 25
-1.000000000000000E+20
 35
-1.000000000000000E+20
146
0.0
 13
0.0
 23
0.0
 33
0.0
 16
1.0
 26
0.0
 36
0.0
 17
0.0
 27
1.0
 37
0.0
 76
     0
330
1A
  0
MATERIAL
  5
55
102
{ACAD_REACTORS
330
9
102
}
330
9
100
AcDbMaterial
  1
ByBlock
 72
     1
 94
      127
  0
MATERIAL
  5
54
102
{ACAD_REACTORS
330
9
102
}
330
9
100
AcDbMaterial
  1
ByLayer
 72
     1
 94
      127
  0
MATERIAL
  5
8
102
{ACAD_REACTORS
330
9
102
}
330
9
100
AcDbMaterial
  1
Global
 72
     1
 94
      127
  0
MLINESTYLE
  5
23
102
{ACAD_REACTORS
330
24
102
}
330
24
100
AcDbMlineStyle
  2
STANDARD
 70
     0
  3

 62
   256
 51
90.0
 52
90.0
 71
     2
 49
0.5
 62
   256
  6
BYLAYER
 49
-0.5
 62
   256
  6
BYLAYER
  0
ACDBPLACEHOLDER
  5
5
102
{ACAD_REACTORS
330
6
102
}
330
6
  0
SCALE
  5
53
102
{ACAD_REACTORS
330
31
102
}
330
31
100
AcDbScale
 70
     0
300
1:1
140
1.0
141
1.0
290
     1
  0
TABLESTYLE
  5
8B0
102
{ACAD_REACTORS
330
895
102
}
102
{ACAD_XDICTIONARY
360
EEA
102
}
330
895
100
AcDbTableStyle
  3
Standard
 70
     0
 71
     0
 40
0.06
 41
0.06
280
     0
281
     0
  7
STANDARD
140
4.5
170
     2
 62
     0
 63
   257
283
     0
 90
        4
 91
        0
  1

274
    -2
284
     1
 64
     0
275
    -2
285
     1
 65
     0
276
    -2
286
     1
 66
     0
277
    -2
287
     1
 67
     0
278
    -2
288
     1
 68
     0
279
    -2
289
     1
 69
     0
  7
STANDARD
140
6.0
170
     5
 62
     0
 63
   257
283
     0
 90
        4
 91
        0
  1

274
    -2
284
     1
 64
     0
275
    -2
285
     1
 65
     0
276
    -2
286
     1
 66
     0
277
    -2
287
     1
 67
     0
278
    -2
288
     1
 68
     0
279
    -2
289
     1
 69
     0
  7
STANDARD
140
4.5
170
     5
 62
     0
 63
   257
283
     0
 90
        4
 91
        0
  1

274
    -2
284
     1
 64
     0
275
    -2
285
     1
 65
     0
276
    -2
286
     1
 66
     0
277
    -2
287
     1
 67
     0
278
    -2
288
     1
 68
     0
279
    -2
289
     1
 69
     0
  0
VISUALSTYLE
  5
2E
102
{ACAD_REACTORS
330
2B
102
}
330
2B
100
AcDbVisualStyle
  2
2dWireframe
 70
     4
177
     2
291
     0
 71
     0
176
     1
 72
     2
176
     1
 73
     0
176
     1
 90
        0
176
     1
 40
0.6
176
     1
 41
30.0
176
     1
 62
     5
 63
     7
421
 16777215
176
     1
 74
     1
176
     1
 91
        4
176
     1
 64
     7
176
     1
 65
   257
176
     1
 75
     1
176
     1
175
     1
176
     1
 42
1.0
176
     1
 92
        0
176
     1
 66
   257
176
     1
 43
1.0
176
     1
 76
     1
176
     1
 77
     6
176
     1
 78
     2
176
     1
 67
     7
176
     1
 79
     5
176
     1
170
     0
176
     1
171
     0
176
     1
290
     0
176
     1
 93
        1
176
     1
 44
0.0
176
     1
173
     0
176
     1
  0
VISUALSTYLE
  5
89F
102
{ACAD_REACTORS
330
2B
102
}
330
2B
100
AcDbVisualStyle
  2
Basic
 70
     7
177
     2
291
     1
 71
     1
176
     1
 72
     0
176
     1
 73
     1
176
     1
 90
        0
176
     1
 40
0.6
176
     1
 41
30.0
176
     1
 62
     5
 63
     7
421
 16777215
176
     1
 74
     0
176
     1
 91
        4
176
     1
 64
     7
176
     1
 65
   257
176
     1
 75
     1
176
     1
175
     1
176
     1
 42
1.0
176
     1
 92
        8
176
     1
 66
     7
176
     1
 43
1.0
176
     1
 76
     1
176
     1
 77
     6
176
     1
 78
     2
176
     1
 67
     7
176
     1
 79
     5
176
     1
170
     0
176
     1
171
     0
176
     1
290
     0
176
     1
 93
        1
176
     1
 44
0.0
176
     1
173
     0
176
     1
  0
VISUALSTYLE
  5
8A3
102
{ACAD_REACTORS
330
2B
102
}
330
2B
100
AcDbVisualStyle
  2
Brighten
 70
    12
177
     2
291
     1
 71
     2
176
     1
 72
     2
176
     1
 73
     0
176
     1
 90
        0
176
     1
 40
0.6
176
     1
 41
30.0
176
     1
 62
     5
 63
     7
421
 16777215
176
     1
 74
     1
176
     1
 91
        4
176
     1
 64
     7
176
     1
 65
   257
176
     1
 75
     1
176
     1
175
     1
176
     1
 42
1.0
176
     1
 92
        8
176
     1
 66
     7
176
     1
 43
1.0
176
     1
 76
     1
176
     1
 77
     6
176
     1
 78
     2
176
     1
 67
     7
176
     1
 79
     5
176
     1
170
     0
176
     1
171
     0
176
     1
290
     0
176
     1
 93
        1
176
     1
 44
50.0
176
     1
173
     0
176
     1
  0
VISUALSTYLE
  5
8A7
102
{ACAD_REACTORS
330
2B
102
}
330
2B
100
AcDbVisualStyle
  2
ColorChange
 70
    16
177
     2
291
     1
 71
     2
176
     1
 72
     2
176
     1
 73
     3
176
     1
 90
        0
176
     1
 40
0.6
176
     1
 41
30.0
176
     1
 62
     5
 63
     8
421
  8421504
176
     1
 74
     1
176
     1
 91
        4
176
     1
 64
     7
176
     1
 65
   257
176
     1
 75
     1
176
     1
175
     1
176
     1
 42
1.0
176
     1
 92
        8
176
     1
 66
     8
424
  8421504
176
     1
 43
1.0
176
     1
 76
     1
176
     1
 77
     6
176
     1
 78
     2
176
     1
 67
     7
176
     1
 79
     5
176
     1
170
     0
176
     1
171
     0
176
     1
290
     0
176
     1
 93
        1
176
     1
 44
0.0
176
     1
173
     0
176
     1
  0
VISUALSTYLE
  5
8A1
102
{ACAD_REACTORS
330
2B
102
}
330
2B
100
AcDbVisualStyle
  2
Conceptual
 70
     9
177
     2
291
     0
 71
     3
176
     1
 72
     2
176
     1
 73
     0
176
     1
 90
        0
176
     1
 40
0.6
176
     1
 41
30.0
176
     1
 62
     5
 63
     7
421
 16777215
176
     1
 74
     2
176
     1
 91
        2
176
     1
 64
     7
176
     1
 65
   257
176
     1
 75
     1
176
     1
175
     1
176
     1
 42
179.0
176
     1
 92
        8
176
     1
 66
     7
176
     1
 43
1.0
176
     1
 76
     1
176
     1
 77
     6
176
     1
 78
     2
176
     1
 67
     7
176
     1
 79
     3
176
     1
170
     0
176
     1
171
     0
176
     1
290
     0
176
     1
 93
        1
176
     1
 44
0.0
176
     1
173
     0
176
     1
  0
VISUALSTYLE
  5
8A2
102
{ACAD_REACTORS
330
2B
102
}
330
2B
100
AcDbVisualStyle
  2
Dim
 70
    11
177
     2
291
     1
 71
     2
176
     1
 72
     2
176
     1
 73
     0
176
     1
 90
        0
176
     1
 40
0.6
176
     1
 41
30.0
176
     1
 62
     5
 63
     7
421
 16777215
176
     1
 74
     1
176
     1
 91
        4
176
     1
 64
     7
176
     1
 65
   257
176
     1
 75
     1
176
     1
175
     1
176
     1
 42
1.0
176
     1
 92
        8
176
     1
 66
     7
176
     1
 43
1.0
176
     1
 76
     1
176
     1
 77
     6
176
     1
 78
     2
176
     1
 67
     7
176
     1
 79
     5
176
     1
170
     0
176
     1
171
     0
176
     1
290
     0
176
     1
 93
        1
176
     1
 44
-50.0
176
     1
173
     0
176
     1
  0
VISUALSTYLE
  5
8AA
102
{ACAD_REACTORS
330
2B
102
}
330
2B
100
AcDbVisualStyle
  2
EdgeColorOff
 70
    22
177
     2
291
     1
 71
     2
176
     0
 72
     2
176
     0
 73
     0
176
     0
 90
        0
176
     0
 40
0.6
176
     0
 41
30.0
176
     0
 62
     5
 63
     7
421
 16777215
176
     0
 74
     1
176
     0
 91
        4
176
     0
 64
     7
176
     0
 65
   257
176
     0
 75
     1
176
     0
175
     1
176
     0
 42
1.0
176
     0
 92
        8
176
     2
 66
     7
176
     0
 43
1.0
176
     0
 76
     1
176
     0
 77
     6
176
     0
 78
     2
176
     0
 67
     7
176
     0
 79
     5
176
     0
170
     0
176
     0
171
     0
176
     0
290
     0
176
     0
 93
        1
176
     0
 44
0.0
176
     0
173
     0
176
     0
  0
VISUALSTYLE
  5
8A6
102
{ACAD_REACTORS
330
2B
102
}
330
2B
100
AcDbVisualStyle
  2
Facepattern
 70
    15
177
     2
291
     1
 71
     2
176
     1
 72
     2
176
     1
 73
     0
176
     1
 90
        0
176
     1
 40
0.6
176
     1
 41
30.0
176
     1
 62
     5
 63
     7
421
 16777215
176
     1
 74
     1
176
     1
 91
        4
176
     1
 64
     7
176
     1
 65
   257
176
     1
 75
     1
176
     1
175
     1
176
     1
 42
1.0
176
     1
 92
        8
176
     1
 66
     7
176
     1
 43
1.0
176
     1
 76
     1
176
     1
 77
     6
176
     1
 78
     2
176
     1
 67
     7
176
     1
 79
     5
176
     1
170
     0
176
     1
171
     0
176
     1
290
     0
176
     1
 93
        1
176
     1
 44
0.0
176
     1
173
     0
176
     1
  0
VISUALSTYLE
  5
899
102
{ACAD_REACTORS
330
2B
102
}
330
2B
100
AcDbVisualStyle
  2
Flat
 70
     0
177
     2
291
     1
 71
     2
176
     1
 72
     1
176
     1
 73
     1
176
     1
 90
        2
176
     1
 40
0.6
176
     1
 41
30.0
176
     1
 62
     5
 63
     7
421
 16777215
176
     1
 74
     0
176
     1
 91
        0
176
     1
 64
     7
176
     1
 65
   257
176
     1
 75
     1
176
     1
175
     1
176
     1
 42
1.0
176
     1
 92
        8
176
     1
 66
     7
176
     1
 43
1.0
176
     1
 76
     1
176
     1
 77
     6
176
     1
 78
     2
176
     1
 67
     7
176
     1
 79
     5
176
     1
170
     0
176
     1
171
     0
176
     1
290
     0
176
     1
 93
       13
176
     1
 44
0.0
176
     1
173
     0
176
     1
  0
VISUALSTYLE
  5
89A
102
{ACAD_REACTORS
330
2B
102
}
330
2B
100
AcDbVisualStyle
  2
FlatWithEdges
 70
     1
177
     2
291
     1
 71
     2
176
     1
 72
     1
176
     1
 73
     1
176
     1
 90
        2
176
     1
 40
0.6
176
     1
 41
30.0
176
     1
 62
     5
 63
     7
421
 16777215
176
     1
 74
     1
176
     1
 91
        0
176
     1
 64
     7
176
     1
 65
   257
176
     1
 75
     1
176
     1
175
     1
176
     1
 42
1.0
176
     1
 92
        0
176
     1
 66
   257
176
     1
 43
1.0
176
     1
 76
     1
176
     1
 77
     6
176
     1
 78
     2
176
     1
 67
     7
176
     1
 79
     5
176
     1
170
     0
176
     1
171
     0
176
     1
290
     0
176
     1
 93
       13
176
     1
 44
0.0
176
     1
173
     0
176
     1
  0
VISUALSTYLE
  5
89B
102
{ACAD_REACTORS
330
2B
102
}
330
2B
100
AcDbVisualStyle
  2
Gouraud
 70
     2
177
     2
291
     1
 71
     2
176
     1
 72
     2
176
     1
 73
     1
176
     1
 90
        2
176
     1
 40
0.6
176
     1
 41
30.0
176
     1
 62
     5
 63
     7
421
 16777215
176
     1
 74
     0
176
     1
 91
        0
176
     1
 64
     7
176
     1
 65
   257
176
     1
 75
     1
176
     1
175
     1
176
     1
 42
1.0
176
     1
 92
        0
176
     1
 66
     7
176
     1
 43
1.0
176
     1
 76
     1
176
     1
 77
     6
176
     1
 78
     2
176
     1
 67
     7
176
     1
 79
     5
176
     1
170
     0
176
     1
171
     0
176
     1
290
     0
176
     1
 93
       13
176
     1
 44
0.0
176
     1
173
     0
176
     1
  0
VISUALSTYLE
  5
89C
102
{ACAD_REACTORS
330
2B
102
}
330
2B
100
AcDbVisualStyle
  2
GouraudWithEdges
 70
     3
177
     2
291
     1
 71
     2
176
     1
 72
     2
176
     1
 73
     1
176
     1
 90
        2
176
     1
 40
0.6
176
     1
 41
30.0
176
     1
 62
     5
 63
     7
421
 16777215
176
     1
 74
     1
176
     1
 91
        0
176
     1
 64
     7
176
     1
 65
   257
176
     1
 75
     1
176
     1
175
     1
176
     1
 42
1.0
176
     1
 92
        0
176
     1
 66
   257
176
     1
 43
1.0
176
     1
 76
     1
176
     1
 77
     6
176
     1
 78
     2
176
     1
 67
     7
176
     1
 79
     5
176
     1
170
     0
176
     1
171
     0
176
     1
290
     0
176
     1
 93
       13
176
     1
 44
0.0
176
     1
173
     0
176
     1
  0
VISUALSTYLE
  5
89E
102
{ACAD_REACTORS
330
2B
102
}
330
2B
100
AcDbVisualStyle
  2
Hidden
 70
     6
177
     2
291
     0
 71
     1
176
     1
 72
     2
176
     1
 73
     2
176
     1
 90
        0
176
     1
 40
0.6
176
     1
 41
30.0
176
     1
 62
     5
 63
     7
421
 16777215
176
     1
 74
     2
176
     1
 91
        2
176
     1
 64
     7
176
     1
 65
   257
176
     1
 75
     2
176
     1
175
     1
176
     1
 42
40.0
176
     1
 92
        0
176
     1
 66
   257
176
     1
 43
1.0
176
     1
 76
     1
176
     1
 77
     6
176
     1
 78
     2
176
     1
 67
     7
176
     1
 79
     3
176
     1
170
     0
176
     1
171
     0
176
     1
290
     0
176
     1
 93
        1
176
     1
 44
0.0
176
     1
173
     0
176
     1
  0
VISUALSTYLE
  5
8A8
102
{ACAD_REACTORS
330
2B
102
}
330
2B
100
AcDbVisualStyle
  2
JitterOff
 70
    20
177
     2
291
     1
 71
     2
176
     0
 72
     2
176
     0
 73
     0
176
     0
 90
        0
176
     0
 40
0.6
176
     0
 41
30.0
176
     0
 62
     5
 63
     7
421
 16777215
176
     0
 74
     1
176
     0
 91
        4
176
     0
 64
     7
176
     0
 65
   257
176
     0
 75
     1
176
     0
175
     1
176
     0
 42
1.0
176
     0
 92
       10
176
     2
 66
     7
176
     0
 43
1.0
176
     0
 76
     1
176
     0
 77
     6
176
     0
 78
     2
176
     0
 67
     7
176
     0
 79
     5
176
     0
170
     0
176
     0
171
     0
176
     0
290
     0
176
     0
 93
        1
176
     0
 44
0.0
176
     0
173
     0
176
     0
  0
VISUALSTYLE
  5
8A5
102
{ACAD_REACTORS
330
2B
102
}
330
2B
100
AcDbVisualStyle
  2
Linepattern
 70
    14
177
     2
291
     1
 71
     2
176
     1
 72
     2
176
     1
 73
     0
176
     1
 90
        0
176
     1
 40
0.6
176
     1
 41
30.0
176
     1
 62
     5
 63
     7
421
 16777215
176
     1
 74
     1
176
     1
 91
        4
176
     1
 64
     7
176
     1
 65
   257
176
     1
 75
     7
176
     1
175
     7
176
     1
 42
1.0
176
     1
 92
        8
176
     1
 66
     7
176
     1
 43
1.0
176
     1
 76
     1
176
     1
 77
     6
176
     1
 78
     2
176
     1
 67
     7
176
     1
 79
     5
176
     1
170
     0
176
     1
171
     0
176
     1
290
     0
176
     1
 93
        1
176
     1
 44
0.0
176
     1
173
     0
176
     1
  0
VISUALSTYLE
  5
8A9
102
{ACAD_REACTORS
330
2B
102
}
330
2B
100
AcDbVisualStyle
  2
OverhangOff
 70
    21
177
     2
291
     1
 71
     2
176
     0
 72
     2
176
     0
 73
     0
176
     0
 90
        0
176
     0
 40
0.6
176
     0
 41
30.0
176
     0
 62
     5
 63
     7
421
 16777215
176
     0
 74
     1
176
     0
 91
        4
176
     0
 64
     7
176
     0
 65
   257
176
     0
 75
     1
176
     0
175
     1
176
     0
 42
1.0
176
     0
 92
        9
176
     2
 66
     7
176
     0
 43
1.0
176
     0
 76
     1
176
     0
 77
     6
176
     0
 78
     2
176
     0
 67
     7
176
     0
 79
     5
176
     0
170
     0
176
     0
171
     0
176
     0
290
     0
176
     0
 93
        1
176
     0
 44
0.0
176
     0
173
     0
176
     0
  0
VISUALSTYLE
  5
8A0
102
{ACAD_REACTORS
330
2B
102
}
330
2B
100
AcDbVisualStyle
  2
Realistic
 70
     8
177
     2
291
     0
 71
     2
176
     1
 72
     3
176
     1
 73
     0
176
     1
 90
        2
176
     1
 40
0.6
176
     1
 41
30.0
176
     1
 62
     5
 63
     7
421
 16777215
176
     1
 74
     0
176
     1
 91
        0
176
     1
 64
     7
176
     1
 65
   257
176
     1
 75
     1
176
     1
175
     1
176
     1
 42
1.0
176
     1
 92
        8
176
     1
 66
   257
176
     1
 43
1.0
176
     1
 76
     1
176
     1
 77
     6
176
     1
 78
     2
176
     1
 67
     7
176
     1
 79
     3
176
     1
170
     0
176
     1
171
     0
176
     1
290
     0
176
     1
 93
       13
176
     1
 44
0.0
176
     1
173
     0
176
     1
  0
VISUALSTYLE
  5
8AF
102
{ACAD_REACTORS
330
2B
102
}
330
2B
100
AcDbVisualStyle
  2
Shaded
 70
    27
177
     2
291
     0
 71
     2
176
     1
 72
     2
176
     1
 73
     1
176
     1
 90
        2
176
     1
 40
0.6
176
     1
 41
30.0
176
     1
 62
     5
 63
     7
421
 16777215
176
     1
 74
     0
176
     1
 91
        4
176
     1
 64
     7
176
     1
 65
   257
176
     1
 75
     1
176
     1
175
     1
176
     1
 42
1.0
176
     1
 92
        8
176
     1
 66
   257
176
     1
 43
1.0
176
     1
 76
     1
176
     1
 77
     6
176
     1
 78
     2
176
     1
 67
     8
425
  7895160
176
     1
 79
     3
176
     1
170
     0
176
     1
171
     0
176
     1
290
     0
176
     1
 93
        5
176
     1
 44
0.0
176
     1
173
     0
176
     1
  0
VISUALSTYLE
  5
8AE
102
{ACAD_REACTORS
330
2B
102
}
330
2B
100
AcDbVisualStyle
  2
Shaded with edges
 70
    26
177
     2
291
     0
 71
     2
176
     1
 72
     2
176
     1
 73
     1
176
     1
 90
        2
176
     1
 40
0.6
176
     1
 41
30.0
176
     1
 62
     5
 63
     7
421
 16777215
176
     1
 74
     1
176
     1
 91
       10
176
     1
 64
     7
176
     1
 65
   257
176
     1
 75
     2
176
     1
175
     1
176
     1
 42
1.0
176
     1
 92
        8
176
     1
 66
   257
176
     1
 43
1.0
176
     1
 76
     1
176
     1
 77
     6
176
     1
 78
     2
176
     1
 67
     7
176
     1
 79
     3
176
     1
170
     0
176
     1
171
     0
176
     1
290
     0
176
     1
 93
        5
176
     1
 44
0.0
176
     1
173
     0
176
     1
  0
VISUALSTYLE
  5
8AB
102
{ACAD_REACTORS
330
2B
102
}
330
2B
100
AcDbVisualStyle
  2
Shades of Gray
 70
    23
177
     2
291
     0
 71
     2
176
     1
 72
     2
176
     1
 73
     3
176
     1
 90
        0
176
     1
 40
0.6
176
     1
 41
30.0
176
     1
 62
     5
 63
     7
421
 16777215
176
     1
 74
     2
176
     1
 91
        2
176
     1
 64
     7
176
     1
 65
     7
176
     1
 75
     1
176
     1
175
     1
176
     1
 42
40.0
176
     1
 92
        8
176
     1
 66
     7
176
     1
 43
1.0
176
     1
 76
     1
176
     1
 77
     6
176
     1
 78
     2
176
     1
 67
     7
176
     1
 79
     3
176
     1
170
     0
176
     1
171
     0
176
     1
290
     0
176
     1
 93
        1
176
     1
 44
0.0
176
     1
173
     0
176
     1
  0
VISUALSTYLE
  5
8AC
102
{ACAD_REACTORS
330
2B
102
}
330
2B
100
AcDbVisualStyle
  2
Sketchy
 70
    24
177
     2
291
     0
 71
     1
176
     1
 72
     2
176
     1
 73
     2
176
     1
 90
        0
176
     1
 40
0.6
176
     1
 41
30.0
176
     1
 62
     5
 63
     7
421
 16777215
176
     1
 74
     2
176
     1
 91
        2
176
     1
 64
     7
176
     1
 65
     7
176
     1
 75
     1
176
     1
175
     1
176
     1
 42
40.0
176
     1
 92
       11
176
     1
 66
     7
176
     1
 43
1.0
176
     1
 76
     1
176
     1
 77
     6
176
     1
 78
     2
176
     1
 67
     7
176
     1
 79
     6
176
     1
170
     0
176
     1
171
     0
176
     1
290
     0
176
     1
 93
        1
176
     1
 44
0.0
176
     1
173
     0
176
     1
  0
VISUALSTYLE
  5
8A4
102
{ACAD_REACTORS
330
2B
102
}
330
2B
100
AcDbVisualStyle
  2
Thicken
 70
    13
177
     2
291
     1
 71
     2
176
     1
 72
     2
176
     1
 73
     0
176
     1
 90
        0
176
     1
 40
0.6
176
     1
 41
30.0
176
     1
 62
     5
 63
     7
421
 16777215
176
     1
 74
     1
176
     1
 91
        4
176
     1
 64
     7
176
     1
 65
   257
176
     1
 75
     1
176
     1
175
     1
176
     1
 42
1.0
176
     1
 92
       12
176
     1
 66
     7
176
     1
 43
1.0
176
     1
 76
     1
176
     1
 77
     6
176
     1
 78
     2
176
     1
 67
     7
176
     1
 79
     5
176
     1
170
     0
176
     1
171
     0
176
     1
290
     0
176
     1
 93
        1
176
     1
 44
0.0
176
     1
173
     0
176
     1
  0
VISUALSTYLE
  5
89D
102
{ACAD_REACTORS
330
2B
102
}
330
2B
100
AcDbVisualStyle
  2
Wireframe
 70
     5
177
     2
291
     0
 71
     0
176
     1
 72
     2
176
     1
 73
     0
176
     1
 90
        0
176
     1
 40
0.6
176
     1
 41
30.0
176
     1
 62
     5
 63
     7
421
 16777215
176
     1
 74
     1
176
     1
 91
        4
176
     1
 64
     7
176
     1
 65
   257
176
     1
 75
     1
176
     1
175
     1
176
     1
 42
1.0
176
     1
 92
        0
176
     1
 66
   257
176
     1
 43
1.0
176
     1
 76
     1
176
     1
 77
     6
176
     1
 78
     2
176
     1
 67
     7
176
     1
 79
     3
176
     1
170
     0
176
     1
171
     0
176
     1
290
     0
176
     1
 93
        1
176
     1
 44
0.0
176
     1
173
     0
176
     1
  0
VISUALSTYLE
  5
8AD
102
{ACAD_REACTORS
330
2B
102
}
330
2B
100
AcDbVisualStyle
  2
X-Ray
 70
    25
177
     2
291
     0
 71
     2
176
     1
 72
     2
176
     1
 73
     1
176
     1
 90
        1
176
     1
 40
0.5
176
     1
 41
30.0
176
     1
 62
     5
 63
     7
421
 16777215
176
     1
 74
     1
176
     1
 91
        0
176
     1
 64
     7
176
     1
 65
   257
176
     1
 75
     1
176
     1
175
     1
176
     1
 42
1.0
176
     1
 92
        8
176
     1
 66
     7
176
     1
 43
1.0
176
     1
 76
     1
176
     1
 77
     6
176
     1
 78
     2
176
     1
 67
     7
176
     1
 79
     3
176
     1
170
     0
176
     1
171
     0
176
     1
290
     0
176
     1
 93
       13
176
     1
 44
0.0
176
     1
173
     0
176
     1
  0
DICTIONARYVAR
  5
894
102
{ACAD_REACTORS
330
893
102
}
330
893
100
DictionaryVariables
280
     0
  1
1:1
  0
DICTIONARYVAR
  5
8BA
102
{ACAD_REACTORS
330
893
102
}
330
893
100
DictionaryVariables
280
     0
  1
Standard
  0
XRECORD
  5
8B3
102
{ACAD_REACTORS
330
4
102
}
330
4
100
AcDbXrecord
280
     1
 91
     1023
301

290
     0
302
Dims
330
16
 90
        8
 62
     7
370
    -3
331
A
  1
Color_7
330
57
 90
        8
 62
     7
370
    -3
331
A
  1
Color_7
330
FE
 90
        0
 62
     2
370
    -3
331
A
  1
Color_2
330
0
 90
        8
 62
     1
370
    -3
331
0
  1
Color_1
330
1
 90
        8
 62
     6
370
    -3
331
A
  1
Color_6
330
0
 90
        8
 62
     3
370
    -3
331
A
  1
Color_3
  0
XRECORD
  5
DD9
102
{ACAD_REACTORS
330
4
102
}
330
4
100
AcDbXrecord
280
     1
 91
     1023
301

290
     0
302
Object
330
16
 90
        8
 62
     7
370
    -3
331
A
  1
Color_7
330
57
 90
        8
 62
     7
370
    -3
331
A
  1
Color_7
330
FE
 90
        1
 62
     2
370
    -3
331
A
  1
Color_2
330
1
 90
        8
 62
     6
370
    -3
331
A
  1
Color_6
  0
XRECORD
  5
DDA
102
{ACAD_REACTORS
330
4
102
}
330
4
100
AcDbXrecord
280
     1
 91
     1023
301

290
     0
302
Object
330
16
 90
        8
 62
     7
370
    -3
331
A
  1
Color_7
330
57
 90
        8
 62
     7
370
    -3
331
A
  1
Color_7
330
FE
 90
        0
 62
     2
370
    -3
331
A
  1
Color_2
330
1
 90
        8
 62
     6
370
    -3
331
A
  1
Color_6
  0
XRECORD
  5
DE5
102
{ACAD_REACTORS
330
4
102
}
330
4
100
AcDbXrecord
280
     1
 91
     1023
301

290
     0
302
Object
330
16
 90
        8
 62
     7
370
    -3
331
A
  1
Color_7
330
57
 90
        8
 62
     7
370
    -3
331
A
  1
Color_7
330
FE
 90
        1
 62
     2
370
    -3
331
A
  1
Color_2
330
1
 90
        8
 62
     6
370
    -3
331
A
  1
Color_6
  0
XRECORD
  5
DE8
102
{ACAD_REACTORS
330
4
102
}
330
4
100
AcDbXrecord
280
     1
 91
     1023
301

290
     0
302
Object
330
16
 90
        8
 62
     7
370
    -3
331
A
  1
Color_7
330
57
 90
        8
 62
     7
370
    -3
331
A
  1
Color_7
330
FE
 90
        1
 62
     2
370
    -3
331
A
  1
Color_2
330
1
 90
        8
 62
   194
370
    -3
331
A
  1
Color_194
  0
XRECORD
  5
DEB
102
{ACAD_REACTORS
330
4
102
}
330
4
100
AcDbXrecord
280
     1
 91
     1023
301

290
     0
302
Object
330
16
 90
        8
 62
     7
370
    -3
331
A
  1
Color_7
330
57
 90
        8
 62
     7
370
    -3
331
A
  1
Color_7
330
FE
 90
        1
 62
     2
370
    -3
331
A
  1
Color_2
330
1
 90
        8
 62
   251
370
    -3
331
A
  1
Color_251
  0
XRECORD
  5
DEE
102
{ACAD_REACTORS
330
4
102
}
330
4
100
AcDbXrecord
280
     1
 91
     1023
301

290
     0
302
Object
330
16
 90
        8
 62
     7
370
    -3
331
A
  1
Color_7
330
57
 90
        8
 62
     7
370
    -3
331
A
  1
Color_7
330
FE
 90
        1
 62
     2
370
    -3
331
A
  1
Color_2
330
1
 90
        8
 62
   250
370
    -3
331
A
  1
Color_250
  0
XRECORD
  5
DF0
102
{ACAD_REACTORS
330
4
102
}
330
4
100
AcDbXrecord
280
     1
 91
     1023
301

290
     0
302
Object
330
16
 90
        8
 62
     7
370
    -3
331
A
  1
Color_7
330
57
 90
        8
 62
     7
370
    -3
331
A
  1
Color_7
330
FE
 90
        1
 62
     2
370
    -3
331
A
  1
Color_2
330
1
 90
        8
 62
     7
370
    -3
331
A
  1
Color_7
  0
XRECORD
  5
DF1
102
{ACAD_REACTORS
330
4
102
}
330
4
100
AcDbXrecord
280
     1
 91
     1023
301

290
     0
302
Object
330
16
 90
        8
 62
     7
370
    -3
331
A
  1
Color_7
330
57
 90
        8
 62
     7
370
    -3
331
A
  1
Color_7
330
FE
 90
        0
 62
     2
370
    -3
331
A
  1
Color_2
330
1
 90
        8
 62
     7
370
    -3
331
A
  1
Color_7
  0
XRECORD
  5
EE8
102
{ACAD_REACTORS
330
4
102
}
330
4
100
AcDbXrecord
280
     1
 91
     1023
301

290
     0
302
Object
330
16
 90
        8
 62
     7
370
    -3
331
A
  1
Color_7
330
57
 90
        8
 62
     7
370
    -3
331
A
  1
Color_7
330
FE
 90
        1
 62
     2
370
    -3
331
A
  1
Color_2
330
1
 90
        8
 62
     7
370
    -3
331
A
  1
Color_7
  0
XRECORD
  5
EE9
102
{ACAD_REACTORS
330
4
102
}
330
4
100
AcDbXrecord
280
     1
 91
     1023
301

290
     0
302
Object
330
16
 90
        8
 62
     7
370
    -3
331
A
  1
Color_7
330
57
 90
        8
 62
     7
370
    -3
331
A
  1
Color_7
330
FE
 90
        0
 62
     2
370
    -3
331
A
  1
Color_2
330
1
 90
        8
 62
     7
370
    -3
331
A
  1
Color_7
  0
XRECORD
  5
8BB
102
{ACAD_REACTORS
330
4
102
}
330
4
100
AcDbXrecord
280
     1
 91
     1023
301

290
     0
302
Defpoints
330
16
 90
        8
 62
     7
370
    -3
331
A
  1
Color_7
330
57
 90
        8
 62
     7
370
    -3
331
A
  1
Color_7
330
FE
 90
        0
 62
     2
370
    -3
331
A
  1
Color_2
330
0
 90
        8
 62
     1
370
    -3
331
0
  1
Color_1
330
1
 90
        8
 62
     6
370
    -3
331
A
  1
Color_6
330
0
 90
        8
 62
     3
370
    -3
331
A
  1
Color_3
  0
XRECORD
  5
DC2
102
{ACAD_REACTORS
330
4
102
}
330
4
100
AcDbXrecord
280
     1
 91
     1023
301

290
     0
302
Object
330
16
 90
        8
 62
     7
370
    -3
331
A
  1
Color_7
330
57
 90
        8
 62
     7
370
    -3
331
A
  1
Color_7
330
FE
 90
        0
 62
     2
370
    -3
331
A
  1
Color_2
330
1
 90
        8
 62
     6
370
    -3
331
A
  1
Color_6
330
0
 90
        8
 62
     3
370
    -3
331
A
  1
Color_3
  0
XRECORD
  5
DC3
102
{ACAD_REACTORS
330
4
102
}
330
4
100
AcDbXrecord
280
     1
 91
     1023
301

290
     0
302
Object
330
16
 90
        8
 62
     7
370
    -3
331
A
  1
Color_7
330
57
 90
        8
 62
     7
370
    -3
331
A
  1
Color_7
330
FE
 90
        1
 62
     2
370
    -3
331
A
  1
Color_2
330
1
 90
        8
 62
     6
370
    -3
331
A
  1
Color_6
330
0
 90
        8
 62
     3
370
    -3
331
A
  1
Color_3
  0
XRECORD
  5
DC5
102
{ACAD_REACTORS
330
4
102
}
330
4
100
AcDbXrecord
280
     1
 91
     1023
301

290
     0
302
Object
330
16
 90
        8
 62
     7
370
    -3
331
A
  1
Color_7
330
57
 90
        8
 62
     7
370
    -3
331
A
  1
Color_7
330
FE
 90
        0
 62
     2
370
    -3
331
A
  1
Color_2
330
1
 90
        8
 62
     6
370
    -3
331
A
  1
Color_6
330
0
 90
        8
 62
     3
370
    -3
331
A
  1
Color_3
  0
XRECORD
  5
DC7
102
{ACAD_REACTORS
330
4
102
}
330
4
100
AcDbXrecord
280
     1
 91
     1023
301

290
     0
302
Object
330
16
 90
        8
 62
     7
370
    -3
331
A
  1
Color_7
330
57
 90
        8
 62
     7
370
    -3
331
A
  1
Color_7
330
FE
 90
        0
 62
     2
370
    -3
331
A
  1
Color_2
330
1
 90
        8
 62
   251
370
    -3
331
A
  1
Color_251
330
0
 90
        8
 62
     3
370
    -3
331
A
  1
Color_3
  0
XRECORD
  5
DC8
102
{ACAD_REACTORS
330
4
102
}
330
4
100
AcDbXrecord
280
     1
 91
     1023
301

290
     0
302
Object
330
16
 90
        8
 62
     7
370
    -3
331
A
  1
Color_7
330
57
 90
        8
 62
     7
370
    -3
331
A
  1
Color_7
330
FE
 90
        0
 62
     2
370
    -3
331
A
  1
Color_2
330
1
 90
        9
 62
   251
370
    -3
331
A
  1
Color_251
330
0
 90
        8
 62
     3
370
    -3
331
A
  1
Color_3
  0
XRECORD
  5
DCF
102
{ACAD_REACTORS
330
4
102
}
330
4
100
AcDbXrecord
280
     1
 91
     1023
301

290
     0
302
Object
330
16
 90
        8
 62
     7
370
    -3
331
A
  1
Color_7
330
57
 90
        8
 62
     7
370
    -3
331
A
  1
Color_7
330
FE
 90
        0
 62
     2
370
    -3
331
A
  1
Color_2
330
1
 90
        8
 62
   251
370
    -3
331
A
  1
Color_251
330
0
 90
        8
 62
     3
370
    -3
331
A
  1
Color_3
  0
XRECORD
  5
DD1
102
{ACAD_REACTORS
330
4
102
}
330
4
100
AcDbXrecord
280
     1
 91
     1023
301

290
     0
302
Object
330
16
 90
        8
 62
     7
370
    -3
331
A
  1
Color_7
330
57
 90
        8
 62
     7
370
    -3
331
A
  1
Color_7
330
FE
 90
        1
 62
     2
370
    -3
331
A
  1
Color_2
330
1
 90
        8
 62
   251
370
    -3
331
A
  1
Color_251
330
0
 90
        8
 62
     3
370
    -3
331
A
  1
Color_3
  0
DICTIONARY
  5
EEA
330
8B0
100
AcDbDictionary
280
     1
281
     1
  3
ACAD_ROUNDTRIP_2008_TABLESTYLE_CELLSTYLEMAP
360
EEB
  0
CELLSTYLEMAP
  5
EEB
102
{ACAD_REACTORS
330
EEA
102
}
330
EEA
100
AcDbCellStyleMap
 90
        3
300
CELLSTYLE
  1
TABLEFORMAT_BEGIN
 90
        5
170
     1
 91
        0
 92
        0
 62
   257
 93
        1
300
CONTENTFORMAT
  1
CONTENTFORMAT_BEGIN
 90
        0
 91
        0
 92
        4
 93
        0
300

 40
0.0
140
1.0
 94
        5
 62
     0
340
E
144
6.0
309
CONTENTFORMAT_END
171
     1
301
MARGIN
  1
CELLMARGIN_BEGIN
 40
1.5
 40
1.5
 40
1.5
 40
1.5
 40
1.5
 40
1.5
309
CELLMARGIN_END
 94
        6
 95
        1
302
GRIDFORMAT
  1
GRIDFORMAT_BEGIN
 90
        0
 91
        1
 62
     0
 92
       -2
340
C
 93
        0
 40
0.045
309
GRIDFORMAT_END
 95
        2
302
GRIDFORMAT
  1
GRIDFORMAT_BEGIN
 90
        0
 91
        1
 62
     0
 92
       -2
340
C
 93
        0
 40
0.045
309
GRIDFORMAT_END
 95
        4
302
GRIDFORMAT
  1
GRIDFORMAT_BEGIN
 90
        0
 91
        1
 62
     0
 92
       -2
340
C
 93
        0
 40
0.045
309
GRIDFORMAT_END
 95
        8
302
GRIDFORMAT
  1
GRIDFORMAT_BEGIN
 90
        0
 91
        1
 62
     0
 92
       -2
340
C
 93
        0
 40
0.045
309
GRIDFORMAT_END
 95
       16
302
GRIDFORMAT
  1
GRIDFORMAT_BEGIN
 90
        0
 91
        1
 62
     0
 92
       -2
340
C
 93
        0
 40
0.045
309
GRIDFORMAT_END
 95
       32
302
GRIDFORMAT
  1
GRIDFORMAT_BEGIN
 90
        0
 91
        1
 62
     0
 92
       -2
340
C
 93
        0
 40
0.045
309
GRIDFORMAT_END
309
TABLEFORMAT_END
  1
CELLSTYLE_BEGIN
 90
        1
 91
        1
300
_TITLE
309
CELLSTYLE_END
300
CELLSTYLE
  1
TABLEFORMAT_BEGIN
 90
        5
170
     1
 91
        0
 92
        0
 62
   257
 93
        1
300
CONTENTFORMAT
  1
CONTENTFORMAT_BEGIN
 90
        0
 91
        0
 92
        4
 93
        0
300

 40
0.0
140
1.0
 94
        5
 62
     0
340
E
144
4.5
309
CONTENTFORMAT_END
171
     1
301
MARGIN
  1
CELLMARGIN_BEGIN
 40
1.5
 40
1.5
 40
1.5
 40
1.5
 40
1.5
 40
1.5
309
CELLMARGIN_END
 94
        6
 95
        1
302
GRIDFORMAT
  1
GRIDFORMAT_BEGIN
 90
        0
 91
        1
 62
     0
 92
       -2
340
C
 93
        0
 40
0.045
309
GRIDFORMAT_END
 95
        2
302
GRIDFORMAT
  1
GRIDFORMAT_BEGIN
 90
        0
 91
        1
 62
     0
 92
       -2
340
C
 93
        0
 40
0.045
309
GRIDFORMAT_END
 95
        4
302
GRIDFORMAT
  1
GRIDFORMAT_BEGIN
 90
        0
 91
        1
 62
     0
 92
       -2
340
C
 93
        0
 40
0.045
309
GRIDFORMAT_END
 95
        8
302
GRIDFORMAT
  1
GRIDFORMAT_BEGIN
 90
        0
 91
        1
 62
     0
 92
       -2
340
C
 93
        0
 40
0.045
309
GRIDFORMAT_END
 95
       16
302
GRIDFORMAT
  1
GRIDFORMAT_BEGIN
 90
        0
 91
        1
 62
     0
 92
       -2
340
C
 93
        0
 40
0.045
309
GRIDFORMAT_END
 95
       32
302
GRIDFORMAT
  1
GRIDFORMAT_BEGIN
 90
        0
 91
        1
 62
     0
 92
       -2
340
C
 93
        0
 40
0.045
309
GRIDFORMAT_END
309
TABLEFORMAT_END
  1
CELLSTYLE_BEGIN
 90
        2
 91
        1
300
_HEADER
309
CELLSTYLE_END
300
CELLSTYLE
  1
TABLEFORMAT_BEGIN
 90
        5
170
     1
 91
        0
 92
        0
 62
   257
 93
        1
300
CONTENTFORMAT
  1
CONTENTFORMAT_BEGIN
 90
        0
 91
        0
 92
        4
 93
        0
300

 40
0.0
140
1.0
 94
        2
 62
     0
340
E
144
4.5
309
CONTENTFORMAT_END
171
     1
301
MARGIN
  1
CELLMARGIN_BEGIN
 40
1.5
 40
1.5
 40
1.5
 40
1.5
 40
1.5
 40
1.5
309
CELLMARGIN_END
 94
        6
 95
        1
302
GRIDFORMAT
  1
GRIDFORMAT_BEGIN
 90
        0
 91
        1
 62
     0
 92
       -2
340
C
 93
        0
 40
0.045
309
GRIDFORMAT_END
 95
        2
302
GRIDFORMAT
  1
GRIDFORMAT_BEGIN
 90
        0
 91
        1
 62
     0
 92
       -2
340
C
 93
        0
 40
0.045
309
GRIDFORMAT_END
 95
        4
302
GRIDFORMAT
  1
GRIDFORMAT_BEGIN
 90
        0
 91
        1
 62
     0
 92
       -2
340
C
 93
        0
 40
0.045
309
GRIDFORMAT_END
 95
        8
302
GRIDFORMAT
  1
GRIDFORMAT_BEGIN
 90
        0
 91
        1
 62
     0
 92
       -2
340
C
 93
        0
 40
0.045
309
GRIDFORMAT_END
 95
       16
302
GRIDFORMAT
  1
GRIDFORMAT_BEGIN
 90
        0
 91
        1
 62
     0
 92
       -2
340
C
 93
        0
 40
0.045
309
GRIDFORMAT_END
 95
       32
302
GRIDFORMAT
  1
GRIDFORMAT_BEGIN
 90
        0
 91
        1
 62
     0
 92
       -2
340
C
 93
        0
 40
0.045
309
GRIDFORMAT_END
309
TABLEFORMAT_END
  1
CELLSTYLE_BEGIN
 90
        3
 91
        2
300
_DATA
309
CELLSTYLE_END
  0
ENDSEC
  0
EOF
