  0
SECTION
  2
HEADER
  9
$ACADVER
  1
AC1015
  9
$ACADMAINTVER
 70
    13
  9
$DWGCODEPAGE
  3
ANSI_932
  9
$INSBASE
 10
-233.0618634690527
 20
-1930.228566062714
 30
0.0
  9
$EXTMIN
 10
-119.9880389720753
 20
-2035.586267909276
 30
-0.0000000349181948
  9
$EXTMAX
 10
256.0621689881329
 20
-1739.643829711613
 30
0.0000000814935746
  9
$LIMMIN
 10
36.5367069936281
 20
113.324853577772
  9
$LIMMAX
 10
338.3638017977693
 20
295.4885977298598
  9
$ORTHOMODE
 70
     1
  9
$REGENMODE
 70
     1
  9
$FILLMODE
 70
     1
  9
$QTEXTMODE
 70
     0
  9
$MIRRTEXT
 70
     1
  9
$LTSCALE
 40
1.0
  9
$ATTMODE
 70
     1
  9
$TEXTSIZE
 40
3.5
  9
$TRACEWID
 40
0.5
  9
$TEXTSTYLE
  7
STANDARD
  9
$CLAYER
  8
text3
  9
$CELTYPE
  6
ByLayer
  9
$CECOLOR
 62
   256
  9
$CELTSCALE
 40
1.0
  9
$DISPSILH
 70
     0
  9
$DIMSCALE
 40
1.0
  9
$DIMASZ
 40
5.0
  9
$DIMEXO
 40
2.0
  9
$DIMDLI
 40
0.38
  9
$DIMRND
 40
0.0
  9
$DIMDLE
 40
0.0
  9
$DIMEXE
 40
0.18
  9
$DIMTP
 40
0.0
  9
$DIMTM
 40
0.0
  9
$DIMTXT
 40
4.0
  9
$DIMCEN
 40
1.0
  9
$DIMTSZ
 40
0.0
  9
$DIMTOL
 70
     0
  9
$DIMLIM
 70
     0
  9
$DIMTIH
 70
     0
  9
$DIMTOH
 70
     0
  9
$DIMSE1
 70
     0
  9
$DIMSE2
 70
     0
  9
$DIMTAD
 70
     1
  9
$DIMZIN
 70
     8
  9
$DIMBLK
  1

  9
$DIMASO
 70
     1
  9
$DIMSHO
 70
     1
  9
$DIMPOST
  1

  9
$DIMAPOST
  1

  9
$DIMALT
 70
     0
  9
$DIMALTD
 70
     2
  9
$DIMALTF
 40
25.4
  9
$DIMLFAC
 40
1.0
  9
$DIMTOFL
 70
     0
  9
$DIMTVP
 40
0.0
  9
$DIMTIX
 70
     0
  9
$DIMSOXD
 70
     0
  9
$DIMSAH
 70
     0
  9
$DIMBLK1
  1

  9
$DIMBLK2
  1

  9
$DIMSTYLE
  2
DMST_1
  9
$DIMCLRD
 70
     0
  9
$DIMCLRE
 70
     0
  9
$DIMCLRT
 70
     0
  9
$DIMTFAC
 40
1.0
  9
$DIMGAP
 40
1.5
  9
$DIMJUST
 70
     0
  9
$DIMSD1
 70
     0
  9
$DIMSD2
 70
     0
  9
$DIMTOLJ
 70
     1
  9
$DIMTZIN
 70
     0
  9
$DIMALTZ
 70
     0
  9
$DIMALTTZ
 70
     0
  9
$DIMUPT
 70
     0
  9
$DIMDEC
 70
     4
  9
$DIMTDEC
 70
     4
  9
$DIMALTU
 70
     2
  9
$DIMALTTD
 70
     2
  9
$DIMTXSTY
  7
STANDARD
  9
$DIMAUNIT
 70
     0
  9
$DIMADEC
 70
     2
  9
$DIMALTRND
 40
0.0
  9
$DIMAZIN
 70
     2
  9
$DIMDSEP
 70
    46
  9
$DIMATFIT
 70
     3
  9
$DIMFRAC
 70
     0
  9
$DIMLDRBLK
  1

  9
$DIMLUNIT
 70
     2
  9
$DIMLWD
 70
    -2
  9
$DIMLWE
 70
    -2
  9
$DIMTMOVE
 70
     0
  9
$LUNITS
 70
     2
  9
$LUPREC
 70
     4
  9
$SKETCHINC
 40
0.1
  9
$FILLETRAD
 40
5.0
  9
$AUNITS
 70
     0
  9
$AUPREC
 70
     0
  9
$MENU
  1
ACAD
  9
$ELEVATION
 40
0.0
  9
$PELEVATION
 40
0.0
  9
$THICKNESS
 40
0.0
  9
$LIMCHECK
 70
     0
  9
$CHAMFERA
 40
0.0
  9
$CHAMFERB
 40
0.0
  9
$CHAMFERC
 40
0.0
  9
$CHAMFERD
 40
0.0
  9
$SKPOLY
 70
     0
  9
$TDCREATE
 40
2453781.394197072
  9
$TDUCREATE
 40
2453781.019197072
  9
$TDUPDATE
 40
2454463.602191470
  9
$TDUUPDATE
 40
2454463.227191470
  9
$TDINDWG
 40
2.0380778935
  9
$TDUSRTIMER
 40
2.0380766319
  9
$USRTIMER
 70
     1
  9
$ANGBASE
 50
0.0
  9
$ANGDIR
 70
     0
  9
$PDMODE
 70
     0
  9
$PDSIZE
 40
0.0
  9
$PLINEWID
 40
0.0
  9
$SPLFRAME
 70
     0
  9
$SPLINETYPE
 70
     6
  9
$SPLINESEGS
 70
     8
  9
$HANDSEED
  5
E2A
  9
$SURFTAB1
 70
     6
  9
$SURFTAB2
 70
     6
  9
$SURFTYPE
 70
     6
  9
$SURFU
 70
     6
  9
$SURFV
 70
     6
  9
$UCSBASE
  2

  9
$UCSNAME
  2

  9
$UCSORG
 10
0.0
 20
0.0
 30
0.0
  9
$UCSXDIR
 10
1.0
 20
0.0
 30
0.0
  9
$UCSYDIR
 10
0.0
 20
1.0
 30
0.0
  9
$UCSORTHOREF
  2

  9
$UCSORTHOVIEW
 70
     0
  9
$UCSORGTOP
 10
0.0
 20
0.0
 30
0.0
  9
$UCSORGBOTTOM
 10
0.0
 20
0.0
 30
0.0
  9
$UCSORGLEFT
 10
0.0
 20
0.0
 30
0.0
  9
$UCSORGRIGHT
 10
0.0
 20
0.0
 30
0.0
  9
$UCSORGFRONT
 10
0.0
 20
0.0
 30
0.0
  9
$UCSORGBACK
 10
0.0
 20
0.0
 30
0.0
  9
$PUCSBASE
  2

  9
$PUCSNAME
  2

  9
$PUCSORG
 10
0.0
 20
0.0
 30
0.0
  9
$PUCSXDIR
 10
1.0
 20
0.0
 30
0.0
  9
$PUCSYDIR
 10
0.0
 20
1.0
 30
0.0
  9
$PUCSORTHOREF
  2

  9
$PUCSORTHOVIEW
 70
     0
  9
$PUCSORGTOP
 10
0.0
 20
0.0
 30
0.0
  9
$PUCSORGBOTTOM
 10
0.0
 20
0.0
 30
0.0
  9
$PUCSORGLEFT
 10
0.0
 20
0.0
 30
0.0
  9
$PUCSORGRIGHT
 10
0.0
 20
0.0
 30
0.0
  9
$PUCSORGFRONT
 10
0.0
 20
0.0
 30
0.0
  9
$PUCSORGBACK
 10
0.0
 20
0.0
 30
0.0
  9
$USERI1
 70
     0
  9
$USERI2
 70
     0
  9
$USERI3
 70
     0
  9
$USERI4
 70
     0
  9
$USERI5
 70
     0
  9
$USERR1
 40
0.0
  9
$USERR2
 40
0.0
  9
$USERR3
 40
0.0
  9
$USERR4
 40
0.0
  9
$USERR5
 40
0.0
  9
$WORLDVIEW
 70
     1
  9
$SHADEDGE
 70
     3
  9
$SHADEDIF
 70
    70
  9
$TILEMODE
 70
     1
  9
$MAXACTVP
 70
    64
  9
$PINSBASE
 10
0.0
 20
0.0
 30
0.0
  9
$PLIMCHECK
 70
     0
  9
$PEXTMIN
 10
1.000000000000000E+20
 20
1.000000000000000E+20
 30
1.000000000000000E+20
  9
$PEXTMAX
 10
-1.000000000000000E+20
 20
-1.000000000000000E+20
 30
-1.000000000000000E+20
  9
$PLIMMIN
 10
0.0
 20
0.0
  9
$PLIMMAX
 10
12.0
 20
9.0
  9
$UNITMODE
 70
     0
  9
$VISRETAIN
 70
     1
  9
$PLINEGEN
 70
     0
  9
$PSLTSCALE
 70
     1
  9
$TREEDEPTH
 70
  3020
  9
$CMLSTYLE
  2
Standard
  9
$CMLJUST
 70
     0
  9
$CMLSCALE
 40
1.0
  9
$PROXYGRAPHICS
 70
     1
  9
$MEASUREMENT
 70
     0
  9
$CELWEIGHT
370
    -1
  9
$ENDCAPS
280
     0
  9
$JOINSTYLE
280
     0
  9
$LWDISPLAY
290
     0
  9
$INSUNITS
 70
     0
  9
$HYPERLINKBASE
  1

  9
$STYLESHEET
  1
monochrome.ctb
  9
$XEDIT
290
     1
  9
$CEPSNTYPE
380
     0
  9
$PSTYLEMODE
290
     1
  9
$FINGERPRINTGUID
  2
{0E1C3B67-B1A7-47AE-8141-559CC396A0AE}
  9
$VERSIONGUID
  2
{482940DE-6DA3-4511-A5F7-37F84A726BBC}
  9
$EXTNAMES
290
     1
  9
$PSVPSCALE
 40
0.0
  9
$OLESTARTUP
290
     0
  0
ENDSEC
  0
SECTION
  2
CLASSES
  0
CLASS
  1
ACDBDICTIONARYWDFLT
  2
AcDbDictionaryWithDefault
  3
AutoCAD 2000
 90
        0
280
     0
281
     0
  0
CLASS
  1
ACDBPLACEHOLDER
  2
AcDbPlaceHolder
  3
AutoCAD 2000
 90
        0
280
     0
281
     0
  0
CLASS
  1
LAYOUT
  2
AcDbLayout
  3
AutoCAD 2000
 90
        0
280
     0
281
     0
  0
CLASS
  1
DICTIONARYVAR
  2
AcDbDictionaryVar
  3
AutoCAD 2000
 90
        0
280
     0
281
     0
  0
CLASS
  1
DIMASSOC
  2
AcDbDimAssoc
  3
"AcDbDimAssoc|Product Desc:     AcDim ARX App For Dimension|Company:          Autodesk, Inc.|WEB Address:      www.autodesk.com"
 90
    32768
280
     0
281
     0
  0
ENDSEC
  0
SECTION
  2
TABLES
  0
TABLE
  2
VPORT
  5
19
330
0
100
AcDbSymbolTable
 70
     2
  0
VPORT
  5
E29
330
19
100
AcDbSymbolTableRecord
100
AcDbViewportTableRecord
  2
*Active
 70
     0
 10
0.0
 20
0.0
 11
1.0
 21
1.0
 12
-88.3470984499063
 22
-1968.317458982969
 13
0.0
 23
0.0
 14
1.0
 24
1.0
 15
0.0
 25
0.0
 16
0.0
 26
0.0
 36
1.0
 17
0.0
 27
0.0
 37
0.0
 40
536.9561481296637
 41
2.44758064516129
 42
50.0
 43
0.0
 44
0.0
 50
0.0
 51
0.0
 71
     0
 72
   100
 73
     1
 74
     1
 75
     0
 76
     0
 77
     0
 78
     0
281
     0
 65
     1
110
0.0
120
0.0
130
0.0
111
1.0
121
0.0
131
0.0
112
0.0
122
1.0
132
0.0
 79
     0
146
0.0
  0
ENDTAB
  0
TABLE
  2
LTYPE
  5
14
330
0
100
AcDbSymbolTable
 70
     8
  0
LTYPE
  5
15
330
14
100
AcDbSymbolTableRecord
100
AcDbLinetypeTableRecord
  2
ByBlock
 70
     0
  3

 72
    65
 73
     0
 40
0.0
  0
LTYPE
  5
16
330
14
100
AcDbSymbolTableRecord
100
AcDbLinetypeTableRecord
  2
ByLayer
 70
     0
  3

 72
    65
 73
     0
 40
0.0
  0
LTYPE
  5
8
330
14
100
AcDbSymbolTableRecord
100
AcDbLinetypeTableRecord
  2
CONTINUOUS
 70
     0
  3
Solid line
 72
    65
 73
     0
 40
0.0
  0
LTYPE
  5
50
330
14
100
AcDbSymbolTableRecord
100
AcDbLinetypeTableRecord
  2
CENTER
 70
     0
  3
____ _ ____ _
 72
    65
 73
     4
 40
15.88563656863899
 49
9.928522855399382
 74
     0
 49
-1.985704571079876
 74
     0
 49
1.985704571079876
 74
     0
 49
-1.985704571079876
 74
     0
  0
LTYPE
  5
A6
330
14
100
AcDbSymbolTableRecord
100
AcDbLinetypeTableRecord
  2
HIDDEN
 70
     0
  3
_ _ _ _ _ _ _
 72
    65
 73
     2
 40
2.978556856619814
 49
1.985704571079876
 74
     0
 49
-0.9928522855399382
 74
     0
  0
LTYPE
  5
12E
330
14
100
AcDbSymbolTableRecord
100
AcDbLinetypeTableRecord
  2
DOT_CENTER
 70
     0
  3
Dot_Center
 72
    65
 73
     4
 40
14.0
 49
12.0
 74
     0
 49
-1.0
 74
     0
 49
0.0
 74
     0
 49
-1.0
 74
     0
  0
LTYPE
  5
57
330
14
100
AcDbSymbolTableRecord
100
AcDbLinetypeTableRecord
  2
BORDER
 70
     0
  3
__ __ . __ __ .
 72
    65
 73
     6
 40
13.89993199755913
 49
3.971409142159752
 74
     0
 49
-1.985704571079876
 74
     0
 49
3.971409142159752
 74
     0
 49
-1.985704571079876
 74
     0
 49
0.0
 74
     0
 49
-1.985704571079876
 74
     0
  0
LTYPE
  5
73
330
14
100
AcDbSymbolTableRecord
100
AcDbLinetypeTableRecord
  2
DASH_CENTER
 70
     0
  3
Dash_Center
 72
    65
 73
     4
 40
14.0
 49
11.0
 74
     0
 49
-1.0
 74
     0
 49
1.0
 74
     0
 49
-1.0
 74
     0
  0
LTYPE
  5
369
330
14
100
AcDbSymbolTableRecord
100
AcDbLinetypeTableRecord
  2
PHANTOM
 70
     0
  3
Phantom ______  __  __  ______  __  __  ______
 72
    65
 73
     6
 40
2.5
 49
1.25
 74
     0
 49
-0.25
 74
     0
 49
0.25
 74
     0
 49
-0.25
 74
     0
 49
0.25
 74
     0
 49
-0.25
 74
     0
  0
LTYPE
  5
5D9
330
14
100
AcDbSymbolTableRecord
100
AcDbLinetypeTableRecord
  2
DASHED
 70
     0
  3
__ __ __ __ __
 72
    65
 73
     2
 40
5.957113713239629
 49
3.971409142159752
 74
     0
 49
-1.985704571079876
 74
     0
  0
ENDTAB
  0
TABLE
  2
LAYER
  5
10
102
{ACAD_XDICTIONARY
360
77B
102
}
330
0
100
AcDbSymbolTable
 70
    14
  0
LAYER
  5
4
330
10
100
AcDbSymbolTableRecord
100
AcDbLayerTableRecord
  2
0
 70
     0
 62
     7
  6
CONTINUOUS
370
    -3
390
5
  0
LAYER
  5
44
330
10
100
AcDbSymbolTableRecord
100
AcDbLayerTableRecord
  2
1
 70
     0
 62
     7
  6
CONTINUOUS
370
    -3
390
5
  0
LAYER
  5
2E
330
10
100
AcDbSymbolTableRecord
100
AcDbLayerTableRecord
  2
Defpoints
 70
     0
 62
     7
  6
CONTINUOUS
290
     0
370
    -3
390
5
  0
LAYER
  5
4F
330
10
100
AcDbSymbolTableRecord
100
AcDbLayerTableRecord
  2
Center
 70
     0
 62
     1
  6
CONTINUOUS
370
    25
390
5
  0
LAYER
  5
41
330
10
100
AcDbSymbolTableRecord
100
AcDbLayerTableRecord
  2
Object
 70
     0
 62
     7
  6
CONTINUOUS
370
    25
390
5
  0
LAYER
  5
26D
330
10
100
AcDbSymbolTableRecord
100
AcDbLayerTableRecord
  2
Hidden
 70
     0
 62
     4
  6
CONTINUOUS
370
    25
390
5
  0
LAYER
  5
DF
330
10
100
AcDbSymbolTableRecord
100
AcDbLayerTableRecord
  2
Text
 70
     0
 62
     3
  6
CONTINUOUS
370
    -3
390
5
  0
LAYER
  5
56
330
10
100
AcDbSymbolTableRecord
100
AcDbLayerTableRecord
  2
Object2
 70
     0
 62
     3
  6
CONTINUOUS
370
    -3
390
5
  0
LAYER
  5
222
330
10
100
AcDbSymbolTableRecord
100
AcDbLayerTableRecord
  2
DIM
 70
     0
 62
     6
  6
CONTINUOUS
370
    -3
390
5
  0
LAYER
  5
A5
330
10
100
AcDbSymbolTableRecord
100
AcDbLayerTableRecord
  2
HIDDEN-1
 70
     0
 62
     7
  6
HIDDEN
370
    -3
390
5
  0
LAYER
  5
23
330
10
100
AcDbSymbolTableRecord
100
AcDbLayerTableRecord
  2
text3
 70
     0
 62
     2
  6
CONTINUOUS
370
    -3
390
5
  0
LAYER
  5
20A
330
10
100
AcDbSymbolTableRecord
100
AcDbLayerTableRecord
  2
画層1
 70
     0
 62
     7
  6
CONTINUOUS
370
    -3
390
5
  0
LAYER
  5
9F
330
10
100
AcDbSymbolTableRecord
100
AcDbLayerTableRecord
  2
object-1
 70
     0
 62
     7
  6
CONTINUOUS
370
    -3
390
5
  0
LAYER
  5
694
330
10
100
AcDbSymbolTableRecord
100
AcDbLayerTableRecord
  2
Dims
 70
     0
 62
     6
  6
CONTINUOUS
370
    25
390
5
  0
ENDTAB
  0
TABLE
  2
STYLE
  5
11
330
0
100
AcDbSymbolTable
 70
     3
  0
STYLE
  5
12
330
11
100
AcDbSymbolTableRecord
100
AcDbTextStyleTableRecord
  2
STANDARD
 70
     0
 40
0.0
 41
1.0
 50
0.0
 71
     0
 42
3.5
  3
txt.shx
  4
bigfont.shx
  0
STYLE
  5
53
330
11
100
AcDbSymbolTableRecord
100
AcDbTextStyleTableRecord
  2
Roman
 70
     0
 40
0.0
 41
1.0
 50
0.0
 71
     0
 42
4.0
  3
romans.shx
  4
bigfont.shx
  0
STYLE
  5
77A
330
11
100
AcDbSymbolTableRecord
100
AcDbTextStyleTableRecord
  2
GDT
 70
     0
 40
0.0
 41
1.0
 50
0.0
 71
     0
 42
4.0
  3
gdt.shx
  4
bigfont.shx
  0
ENDTAB
  0
TABLE
  2
VIEW
  5
17
330
0
100
AcDbSymbolTable
 70
     0
  0
ENDTAB
  0
TABLE
  2
UCS
  5
18
330
0
100
AcDbSymbolTable
 70
     0
  0
ENDTAB
  0
TABLE
  2
APPID
  5
1B
330
0
100
AcDbSymbolTable
 70
     1
  0
APPID
  5
1C
330
1B
100
AcDbSymbolTableRecord
100
AcDbRegAppTableRecord
  2
ACAD
 70
     0
  0
ENDTAB
  0
TABLE
  2
DIMSTYLE
  5
1D
330
0
100
AcDbSymbolTable
 70
     2
100
AcDbDimStyleTable
 71
     1
340
1E
  0
DIMSTYLE
105
1E
102
{ACAD_REACTORS
330
13F
330
1EB
330
33
330
25
330
109
330
FB
330
159
330
384
330
385
330
389
330
38A
330
A1A
330
AAE
330
AD0
330
C48
330
C50
330
CA5
102
}
330
1D
100
AcDbSymbolTableRecord
100
AcDbDimStyleTableRecord
  2
DMST_1
 70
     0
 41
3.5
 42
1.0
 43
7.0
 44
1.5
 47
0.1
 48
0.1
 71
     1
 73
     0
 74
     0
 77
     1
 78
     9
140
3.5
141
0.0
146
0.7
176
     2
177
     2
178
     2
279
     2
340
12
  0
DIMSTYLE
105
478
102
{ACAD_REACTORS
330
C3C
330
C43
330
C44
330
C49
330
C4D
330
C4E
330
C4F
330
C84
330
C85
330
CA6
330
CA7
102
}
330
1D
100
AcDbSymbolTableRecord
100
AcDbDimStyleTableRecord
  2
Standard
 70
     0
 41
2.0
 42
1.0
 73
     0
 74
     0
 77
     1
 78
     8
 79
     2
140
1.5
141
1.0
147
0.5
179
     2
271
     3
272
     3
340
12
  0
ENDTAB
  0
TABLE
  2
BLOCK_RECORD
  5
1
330
0
100
AcDbSymbolTable
 70
    52
  0
BLOCK_RECORD
  5
2
330
1
100
AcDbSymbolTableRecord
100
AcDbBlockTableRecord
  2
*Model_Space
340
A
  0
BLOCK_RECORD
  5
C
330
1
100
AcDbSymbolTableRecord
100
AcDbBlockTableRecord
  2
*Paper_Space
340
F
  0
BLOCK_RECORD
  5
140
330
1
100
AcDbSymbolTableRecord
100
AcDbBlockTableRecord
  2
*D0
340
0
  0
BLOCK_RECORD
  5
1EC
330
1
100
AcDbSymbolTableRecord
100
AcDbBlockTableRecord
  2
*D3
340
0
  0
BLOCK_RECORD
  5
34
330
1
100
AcDbSymbolTableRecord
100
AcDbBlockTableRecord
  2
*D6
340
0
  0
BLOCK_RECORD
  5
26
330
1
100
AcDbSymbolTableRecord
100
AcDbBlockTableRecord
  2
*D7
340
0
  0
BLOCK_RECORD
  5
FC
330
1
100
AcDbSymbolTableRecord
100
AcDbBlockTableRecord
  2
*D8
340
0
  0
BLOCK_RECORD
  5
38C
330
1
100
AcDbSymbolTableRecord
100
AcDbBlockTableRecord
  2
*D9
340
0
  0
BLOCK_RECORD
  5
398
330
1
100
AcDbSymbolTableRecord
100
AcDbBlockTableRecord
  2
*D10
340
0
  0
BLOCK_RECORD
  5
3B0
330
1
100
AcDbSymbolTableRecord
100
AcDbBlockTableRecord
  2
*D11
340
0
  0
BLOCK_RECORD
  5
3BC
330
1
100
AcDbSymbolTableRecord
100
AcDbBlockTableRecord
  2
*D12
340
0
  0
BLOCK_RECORD
  5
438
330
1
100
AcDbSymbolTableRecord
100
AcDbBlockTableRecord
  2
*D14
340
0
  0
BLOCK_RECORD
  5
4D8
330
1
100
AcDbSymbolTableRecord
100
AcDbBlockTableRecord
  2
C223PP001-A-20-soku1
340
0
310
2800000020000000200000000100080000000000000400000000000000000000000000000000000000000000000080000080000000808000800000008000800080800000C0C0C000C0DCC000F0CAA6000020400000206000002080000020A0000020C0000020E00000400000004020000040400000406000004080000040A0
310
000040C0000040E00000600000006020000060400000606000006080000060A0000060C0000060E00000800000008020000080400000806000008080000080A0000080C0000080E00000A0000000A0200000A0400000A0600000A0800000A0A00000A0C00000A0E00000C0000000C0200000C0400000C0600000C0800000C0
310
A00000C0C00000C0E00000E0000000E0200000E0400000E0600000E0800000E0A00000E0C00000E0E00040000000400020004000400040006000400080004000A0004000C0004000E00040200000402020004020400040206000402080004020A0004020C0004020E000404000004040200040404000404060004040800040
310
40A0004040C0004040E00040600000406020004060400040606000406080004060A0004060C0004060E00040800000408020004080400040806000408080004080A0004080C0004080E00040A0000040A0200040A0400040A0600040A0800040A0A00040A0C00040A0E00040C0000040C0200040C0400040C0600040C08000
310
40C0A00040C0C00040C0E00040E0000040E0200040E0400040E0600040E0800040E0A00040E0C00040E0E00080000000800020008000400080006000800080008000A0008000C0008000E00080200000802020008020400080206000802080008020A0008020C0008020E00080400000804020008040400080406000804080
310
008040A0008040C0008040E00080600000806020008060400080606000806080008060A0008060C0008060E00080800000808020008080400080806000808080008080A0008080C0008080E00080A0000080A0200080A0400080A0600080A0800080A0A00080A0C00080A0E00080C0000080C0200080C0400080C0600080C0
310
800080C0A00080C0C00080C0E00080E0000080E0200080E0400080E0600080E0800080E0A00080E0C00080E0E000C0000000C0002000C0004000C0006000C0008000C000A000C000C000C000E000C0200000C0202000C0204000C0206000C0208000C020A000C020C000C020E000C0400000C0402000C0404000C0406000C0
310
408000C040A000C040C000C040E000C0600000C0602000C0604000C0606000C0608000C060A000C060C000C060E000C0800000C0802000C0804000C0806000C0808000C080A000C080C000C080E000C0A00000C0A02000C0A04000C0A06000C0A08000C0A0A000C0A0C000C0A0E000C0C00000C0C02000C0C04000C0C06000
310
C0C08000C0C0A000F0FBFF00A4A0A000808080000000FF0000FF000000FFFF00FF000000FF00FF00FFFF0000FFFFFF000000000000000000000000000000000000000000000000000000000000000000000000000000000000000000FFFFFF00000000000000000000000000000000000000000000000000000000F9FEFEFE
310
FEFEFEFEF9000000000000000000000000000000000000000000000000FFFEFEFEFEFEFE00000000000000000000000000000000000000000000000000FFFE00FEFEFEFE00000000000000000000000000000000000000000000000000FFFE000000FEFE00000000000000000000000000000000000000000000000000FFFE
310
000000FEFE00000000000000000000000000000000000000000000000000FFFE000000FEFE00000000000000000000000000000000000000000000000000FFFE000000FEFE00000000000000000000000000000000000000000000000000FFFE000000FEFE00000000000000000000000000000000000000000000000000FF
310
FE000000FEFE00000000000000000000000000000000000000000000000000FFFE000000FEFE00000000000000000000000000000000000000000000000000FFFE000000FEFE00000000000000000000000000000000000000000000000000FFFE000000FEFE00000000000000000000000000000000000000000000000000
310
FFFE000000FEFE0000000000000000000000000000000000000000000000F9F9F9F9F9F9F9F9F9F9F9F900000000000000000000000000000000000000000000FFFE000000FEFE00000000000000000000000000000000000000000000000000FFFE000000FEFE000000000000000000000000000000000000000000000000
310
00FFFE000000FEFE00000000000000000000000000000000000000000000000000FFFE000000FEFE00000000000000000000000000000000000000000000000000FFFE000000FEFE00000000000000000000000000000000000000000000000000FFFE000000FEFE0000000000000000000000000000000000000000000000
310
0000FFFE000000FEFE00000000000000000000000000000000000000000000000000FFFE000000FEFE00000000000000000000000000000000000000000000000000FFFE000000FEFE00000000000000000000000000000000000000000000000000FFFE000000FEFE00000000000000000000000000000000000000000000
310
000000FFFE00FEFEFEFE00000000000000000000000000000000000000000000000000FFFAFAFAF9F9FE000000000000000000000000000000000000000000000000F9F9FEFEFAFEFEFEF9000000000000000000000000000000000000000000000000FEFEFEFEFEFEFE000000000000000000000000000000000000000000
310
00000000FFFFFFFF000000000000000000000000000000000000000000000000000000000000000000000000000000000000000000000000
  0
BLOCK_RECORD
  5
675
330
1
100
AcDbSymbolTableRecord
100
AcDbBlockTableRecord
  2
CB3-30-soku1
340
0
310
2800000020000000200000000100080000000000000400000000000000000000000000000000000000000000000080000080000000808000800000008000800080800000C0C0C000C0DCC000F0CAA6000020400000206000002080000020A0000020C0000020E00000400000004020000040400000406000004080000040A0
310
000040C0000040E00000600000006020000060400000606000006080000060A0000060C0000060E00000800000008020000080400000806000008080000080A0000080C0000080E00000A0000000A0200000A0400000A0600000A0800000A0A00000A0C00000A0E00000C0000000C0200000C0400000C0600000C0800000C0
310
A00000C0C00000C0E00000E0000000E0200000E0400000E0600000E0800000E0A00000E0C00000E0E00040000000400020004000400040006000400080004000A0004000C0004000E00040200000402020004020400040206000402080004020A0004020C0004020E000404000004040200040404000404060004040800040
310
40A0004040C0004040E00040600000406020004060400040606000406080004060A0004060C0004060E00040800000408020004080400040806000408080004080A0004080C0004080E00040A0000040A0200040A0400040A0600040A0800040A0A00040A0C00040A0E00040C0000040C0200040C0400040C0600040C08000
310
40C0A00040C0C00040C0E00040E0000040E0200040E0400040E0600040E0800040E0A00040E0C00040E0E00080000000800020008000400080006000800080008000A0008000C0008000E00080200000802020008020400080206000802080008020A0008020C0008020E00080400000804020008040400080406000804080
310
008040A0008040C0008040E00080600000806020008060400080606000806080008060A0008060C0008060E00080800000808020008080400080806000808080008080A0008080C0008080E00080A0000080A0200080A0400080A0600080A0800080A0A00080A0C00080A0E00080C0000080C0200080C0400080C0600080C0
310
800080C0A00080C0C00080C0E00080E0000080E0200080E0400080E0600080E0800080E0A00080E0C00080E0E000C0000000C0002000C0004000C0006000C0008000C000A000C000C000C000E000C0200000C0202000C0204000C0206000C0208000C020A000C020C000C020E000C0400000C0402000C0404000C0406000C0
310
408000C040A000C040C000C040E000C0600000C0602000C0604000C0606000C0608000C060A000C060C000C060E000C0800000C0802000C0804000C0806000C0808000C080A000C080C000C080E000C0A00000C0A02000C0A04000C0A06000C0A08000C0A0A000C0A0C000C0A0E000C0C00000C0C02000C0C04000C0C06000
310
C0C08000C0C0A000F0FBFF00A4A0A000808080000000FF0000FF000000FFFF00FF000000FF00FF00FFFF0000FFFFFF0000000000000000000000000000000000000000000000000000000000000000000000000000000000000000000000000000000000000000000000000000000000000000000000000000000000000000
310
00000000000000000000000000000000000000000000000000000000000000000000000000000000000000000000000000000000000000000000000000000000000000000000000000000000000000000000000000000000000000000000000000000000000000000000000000000000000000000000000000000000000000
310
00000000000000000000000000000000000000000000000000000000000000000000000000000000000000000000000000000000000000000000000000000000000000000000000000000000000000000000000000000000000000000000000000000000000000000000000000000000000000000000000000000000000000
310
00000000000000000000000000000000000000000000000000000000000000000000000000000000000000000000000000000000000000000000000000000000000000000000000000000000000000000000000000000000000000000000000000000000000000000000000000FFFFFFFF000000FFFFFAFAFAFAFAFAFAFAFA
310
FAFAFAFAFAFAFAFAFAFAFFFAFFFAFA00FAFA000000FFFFF9F9F9F9F9F9F9F9F9F9F9F9F9F9F9F9F9F9F9F9F9F9F9FFFAFAFAF90000FFFF0000000000000000000000000000000000000000000000FFFAFAFA000000FFFFFAFAFAFAFAFAFAFAFAFAFAFAFAFAFAFAFAFAFAFAFAFAFAFA00FAFA00000000000000000000000000
310
000000000000000000000000000000FFFFFFFF000000000000000000000000000000000000000000000000000000000000000000000000000000000000000000000000000000000000000000000000000000000000000000000000000000000000000000000000000000000000000000000000000000000000000000000000
310
00000000000000000000000000000000000000000000000000000000000000000000000000000000000000000000000000000000000000000000000000000000000000000000000000000000000000000000000000000000000000000000000000000000000000000000000000000000000000000000000000000000000000
310
00000000000000000000000000000000000000000000000000000000000000000000000000000000000000000000000000000000000000000000000000000000000000000000000000000000000000000000000000000000000000000000000000000000000000000000000000000000000000000000000000000000000000
310
0000000000000000000000000000000000000000000000000000000000000000000000000000000000000000000000000000000000000000
  0
BLOCK_RECORD
  5
71E
330
1
100
AcDbSymbolTableRecord
100
AcDbBlockTableRecord
  2
1-178128-4-jo1
340
0
310
2800000020000000200000000100080000000000000400000000000000000000000000000000000000000000000080000080000000808000800000008000800080800000C0C0C000C0DCC000F0CAA6000020400000206000002080000020A0000020C0000020E00000400000004020000040400000406000004080000040A0
310
000040C0000040E00000600000006020000060400000606000006080000060A0000060C0000060E00000800000008020000080400000806000008080000080A0000080C0000080E00000A0000000A0200000A0400000A0600000A0800000A0A00000A0C00000A0E00000C0000000C0200000C0400000C0600000C0800000C0
310
A00000C0C00000C0E00000E0000000E0200000E0400000E0600000E0800000E0A00000E0C00000E0E00040000000400020004000400040006000400080004000A0004000C0004000E00040200000402020004020400040206000402080004020A0004020C0004020E000404000004040200040404000404060004040800040
310
40A0004040C0004040E00040600000406020004060400040606000406080004060A0004060C0004060E00040800000408020004080400040806000408080004080A0004080C0004080E00040A0000040A0200040A0400040A0600040A0800040A0A00040A0C00040A0E00040C0000040C0200040C0400040C0600040C08000
310
40C0A00040C0C00040C0E00040E0000040E0200040E0400040E0600040E0800040E0A00040E0C00040E0E00080000000800020008000400080006000800080008000A0008000C0008000E00080200000802020008020400080206000802080008020A0008020C0008020E00080400000804020008040400080406000804080
310
008040A0008040C0008040E00080600000806020008060400080606000806080008060A0008060C0008060E00080800000808020008080400080806000808080008080A0008080C0008080E00080A0000080A0200080A0400080A0600080A0800080A0A00080A0C00080A0E00080C0000080C0200080C0400080C0600080C0
310
800080C0A00080C0C00080C0E00080E0000080E0200080E0400080E0600080E0800080E0A00080E0C00080E0E000C0000000C0002000C0004000C0006000C0008000C000A000C000C000C000E000C0200000C0202000C0204000C0206000C0208000C020A000C020C000C020E000C0400000C0402000C0404000C0406000C0
310
408000C040A000C040C000C040E000C0600000C0602000C0604000C0606000C0608000C060A000C060C000C060E000C0800000C0802000C0804000C0806000C0808000C080A000C080C000C080E000C0A00000C0A02000C0A04000C0A06000C0A08000C0A0A000C0A0C000C0A0E000C0C00000C0C02000C0C04000C0C06000
310
C0C08000C0C0A000F0FBFF00A4A0A000808080000000FF0000FF000000FFFF00FF000000FF00FF00FFFF0000FFFFFF0000000000000000000000000000000000000000000000000000000000000000000000000000000000000000000000000000000000000000000000000000000000000000000000000000000000000000
310
0000000000000000000000000000000000000000000000000000000000000000000000000000000000000000000000000000000000000000000000000000000000000000000000000000000000000000000000000000000000000000000000000000000000000000000000000000000000000000000000FFFFFFFFFFFFFFF9
310
FFFFFFFFFFFFFFFFFFFFFFFF000000000000000000000000FF0000F9FFFFFFF9FFFFF9FFF9FFFF00F90000FF000000000000000000000000FF0000F9FFFFFFF9FFFFF9FFF9FFFF00F90000FF000000000000000000000000FF0000F9FFFFFFF9FFFFF9FFF9FFFF00F90000FF000000000000000000000000FF0000F9FFFFFF
310
F9FFFFF9FFF9FFFF00F90000FF000000000000000000000000FF0000F9FFFFFFF9FFFFF9FFF9FFFF00F90000FF000000000000000000000000FF0000F9FFFFFFF9FFFFF9FFF9FFFF00F90000FF000000000000000000000000FF0000F9FFFFFFF9FFFFF9FFF9FFFF00F90000FF000000000000000000000000FF0000F9FFFF
310
FFF9FFFFF9FFF9FFFF00F90000FF000000000000000000000000FF0000F9FFFFFFF9FFFFF9FFF9FFFF00F90000FF0000000000000000000000FFFF0000F9FFFFFFF9FFFFFFFFF9FFFF00F90000FFFF00000000000000000000FFFF0000F9FF00FFF9FF00F9FFF9FFFF00F9FAFFFAFF00000000000000000000FFFF0000F9FF
310
00FFF9FF00F9FFF9FFFF00F9FAFFFAFF000000000000000000FFFFFFFFFFF9FFFFFFF9FFFFF9FFF9FFFFFFF9FAFAFAFFFF00000000000000FF00FFFAFAFAFAFAFA00000000F90000000000FAFAFAFAFF00FF00000000FFFFFA00FFFA00FFFFFFFA00000000F90000000000FFFFFFFAFF00FAFFFF0000FFFAFAFFFFFFFAFAFA
310
FAFA00000000F90000000000FAFAFAFFFFFFFAFAFF0000FFFAFAFF00FF0000FFFA0000FAFA00F9FFFF0000FAFF0000FF00FFFAFAFF0000FFFFFFFF00FF0000FFFF0000FAFA00F9FFFF0000FAFF0000FF00FFFFFFFF0000000000FFFFFFFFFFFFFFFFFFFFFFFFF9FFFFFFFFFFFFFFFFFFFFFF00000000000000000000000000
310
00000000000000000000000000000000000000000000000000000000000000000000000000000000000000000000000000000000000000000000000000000000000000000000000000000000000000000000000000000000000000000000000000000000000000000000000000000000000000000000000000000000000000
310
0000000000000000000000000000000000000000000000000000000000000000000000000000000000000000000000000000000000000000
102
{BLKREFS
331
95E
102
}
  0
BLOCK_RECORD
  5
93E
330
1
100
AcDbSymbolTableRecord
100
AcDbBlockTableRecord
  2
*D18
340
0
  0
BLOCK_RECORD
  5
A1B
330
1
100
AcDbSymbolTableRecord
100
AcDbBlockTableRecord
  2
*D19
340
0
  0
BLOCK_RECORD
  5
AAF
330
1
100
AcDbSymbolTableRecord
100
AcDbBlockTableRecord
  2
*D20
340
0
  0
BLOCK_RECORD
  5
AD1
330
1
100
AcDbSymbolTableRecord
100
AcDbBlockTableRecord
  2
*D21
340
0
  0
BLOCK_RECORD
  5
CCD
330
1
100
AcDbSymbolTableRecord
100
AcDbBlockTableRecord
  2
*D36
340
0
  0
BLOCK_RECORD
  5
CDA
330
1
100
AcDbSymbolTableRecord
100
AcDbBlockTableRecord
  2
*D37
340
0
  0
BLOCK_RECORD
  5
CE6
330
1
100
AcDbSymbolTableRecord
100
AcDbBlockTableRecord
  2
*D38
340
0
  0
BLOCK_RECORD
  5
CF2
330
1
100
AcDbSymbolTableRecord
100
AcDbBlockTableRecord
  2
*D39
340
0
  0
BLOCK_RECORD
  5
CFF
330
1
100
AcDbSymbolTableRecord
100
AcDbBlockTableRecord
  2
*D40
340
0
  0
BLOCK_RECORD
  5
D0C
330
1
100
AcDbSymbolTableRecord
100
AcDbBlockTableRecord
  2
*D41
340
0
  0
BLOCK_RECORD
  5
D19
330
1
100
AcDbSymbolTableRecord
100
AcDbBlockTableRecord
  2
*D42
340
0
  0
BLOCK_RECORD
  5
D25
330
1
100
AcDbSymbolTableRecord
100
AcDbBlockTableRecord
  2
*D43
340
0
  0
BLOCK_RECORD
  5
D31
330
1
100
AcDbSymbolTableRecord
100
AcDbBlockTableRecord
  2
*D44
340
0
  0
BLOCK_RECORD
  5
D3E
330
1
100
AcDbSymbolTableRecord
100
AcDbBlockTableRecord
  2
*D45
340
0
  0
BLOCK_RECORD
  5
D4A
330
1
100
AcDbSymbolTableRecord
100
AcDbBlockTableRecord
  2
*D46
340
0
  0
BLOCK_RECORD
  5
D56
330
1
100
AcDbSymbolTableRecord
100
AcDbBlockTableRecord
  2
*D47
340
0
  0
BLOCK_RECORD
  5
D63
330
1
100
AcDbSymbolTableRecord
100
AcDbBlockTableRecord
  2
*D48
340
0
  0
BLOCK_RECORD
  5
D70
330
1
100
AcDbSymbolTableRecord
100
AcDbBlockTableRecord
  2
*D49
340
0
  0
ENDTAB
  0
ENDSEC
  0
SECTION
  2
BLOCKS
  0
BLOCK
  5
3
330
2
100
AcDbEntity
  8
0
100
AcDbBlockBegin
  2
*Model_Space
 70
     0
 10
0.0
 20
0.0
 30
0.0
  3
*Model_Space
  1

  0
ENDBLK
  5
9
330
2
100
AcDbEntity
  8
0
100
AcDbBlockEnd
  0
BLOCK
  5
D
330
C
100
AcDbEntity
 67
     1
  8
0
100
AcDbBlockBegin
  2
*Paper_Space
 70
     0
 10
0.0
 20
0.0
 30
0.0
  3
*Paper_Space
  1

  0
ENDBLK
  5
E
330
C
100
AcDbEntity
 67
     1
  8
0
100
AcDbBlockEnd
  0
BLOCK
  5
14A
330
140
100
AcDbEntity
  8
0
100
AcDbBlockBegin
  2
*D0
 70
     1
 10
0.0
 20
0.0
 30
0.0
  3
*D0
  1

  0
LINE
  5
141
330
140
100
AcDbEntity
  8
text3
 62
     0
370
    -2
100
AcDbLine
 10
29.66229541787049
 20
-1830.433959511521
 30
0.0
 11
-16.44463184846092
 21
-1830.433959511521
 31
0.0
  0
LINE
  5
142
330
140
100
AcDbEntity
  8
text3
 62
     0
370
    -2
100
AcDbLine
 10
29.66229541787049
 20
-1880.43395951152
 30
0.0
 11
-16.44463184846093
 21
-1880.43395951152
 31
0.0
  0
LINE
  5
143
330
140
100
AcDbEntity
  8
text3
 62
     0
370
    -2
100
AcDbLine
 10
-11.44463184846091
 20
-1835.43395951152
 30
0.0
 11
-11.44463184846092
 21
-1875.433959511521
 31
0.0
  0
SOLID
  5
144
330
140
100
AcDbEntity
  8
text3
 62
     0
100
AcDbTrace
 10
-12.27796518179425
 20
-1835.43395951152
 30
0.0
 11
-10.61129851512758
 21
-1835.43395951152
 31
0.0
 12
-11.44463184846091
 22
-1830.433959511521
 32
0.0
 13
-11.44463184846091
 23
-1830.433959511521
 33
0.0
  0
SOLID
  5
145
330
140
100
AcDbEntity
  8
text3
 62
     0
100
AcDbTrace
 10
-12.27796518179426
 20
-1875.433959511521
 30
0.0
 11
-10.61129851512758
 21
-1875.433959511521
 31
0.0
 12
-11.44463184846092
 22
-1880.43395951152
 32
0.0
 13
-11.44463184846092
 23
-1880.43395951152
 33
0.0
  0
MTEXT
  5
146
330
140
100
AcDbEntity
  8
text3
 62
     0
100
AcDbMText
 10
-14.94463184846063
 20
-1855.43395951152
 30
0.0
 40
4.0
 41
0.0
 71
     5
 72
     1
  1
\A1;Φ50h7
 11
0.0000000000000001
 21
1.0
 31
0.0
 73
     1
 44
1.0
  0
POINT
  5
147
330
140
100
AcDbEntity
  8
Defpoints
 62
     0
100
AcDbPoint
 10
32.66229541787049
 20
-1830.433959511521
 30
0.0
  0
POINT
  5
148
330
140
100
AcDbEntity
  8
Defpoints
 62
     0
100
AcDbPoint
 10
32.66229541787049
 20
-1880.43395951152
 30
0.0
  0
POINT
  5
149
330
140
100
AcDbEntity
  8
Defpoints
 62
     0
100
AcDbPoint
 10
-11.44463184846092
 20
-1880.43395951152
 30
0.0
  0
ENDBLK
  5
14B
330
140
100
AcDbEntity
  8
0
100
AcDbBlockEnd
  0
BLOCK
  5
1F7
330
1EC
100
AcDbEntity
  8
0
100
AcDbBlockBegin
  2
*D3
 70
     1
 10
0.0
 20
0.0
 30
0.0
  3
*D3
  1

  0
LINE
  5
1ED
330
1EC
100
AcDbEntity
  8
text3
 62
     0
370
    -2
100
AcDbLine
 10
41.16229541787049
 20
-1887.43395951152
 30
0.0
 11
41.16229541787049
 21
-1904.237549780424
 31
0.0
  0
LINE
  5
1EE
330
1EC
100
AcDbEntity
  8
text3
 62
     0
370
    -2
100
AcDbLine
 10
35.16229541787049
 20
-1887.43395951152
 30
0.0
 11
35.16229541787049
 21
-1904.237549780424
 31
0.0
  0
LINE
  5
1EF
330
1EC
100
AcDbEntity
  8
text3
 62
     0
370
    -2
100
AcDbLine
 10
30.16229541787049
 20
-1899.237549780424
 30
0.0
 11
25.16229541787049
 21
-1899.237549780424
 31
0.0
  0
LINE
  5
1F0
330
1EC
100
AcDbEntity
  8
text3
 62
     0
370
    -2
100
AcDbLine
 10
46.16229541787049
 20
-1899.237549780424
 30
0.0
 11
56.82896208453716
 21
-1899.237549780424
 31
0.0
  0
SOLID
  5
1F1
330
1EC
100
AcDbEntity
  8
text3
 62
     0
100
AcDbTrace
 10
30.16229541787049
 20
-1898.404216447091
 30
0.0
 11
30.16229541787049
 21
-1900.070883113756
 31
0.0
 12
35.16229541787049
 22
-1899.237549780424
 32
0.0
 13
35.16229541787049
 23
-1899.237549780424
 33
0.0
  0
SOLID
  5
1F2
330
1EC
100
AcDbEntity
  8
text3
 62
     0
100
AcDbTrace
 10
46.16229541787049
 20
-1898.404216447091
 30
0.0
 11
46.16229541787049
 21
-1900.070883113756
 31
0.0
 12
41.16229541787049
 22
-1899.237549780424
 32
0.0
 13
41.16229541787049
 23
-1899.237549780424
 33
0.0
  0
MTEXT
  5
1F3
330
1EC
100
AcDbEntity
  8
text3
 62
     0
100
AcDbMText
 10
53.99562875120382
 20
-1895.737549780424
 30
0.0
 40
4.0
 41
0.0
 71
     5
 72
     1
  1
\A1;6
 73
     1
 44
1.0
  0
POINT
  5
1F4
330
1EC
100
AcDbEntity
  8
Defpoints
 62
     0
100
AcDbPoint
 10
41.16229541787049
 20
-1885.43395951152
 30
0.0
  0
POINT
  5
1F5
330
1EC
100
AcDbEntity
  8
Defpoints
 62
     0
100
AcDbPoint
 10
35.16229541787049
 20
-1885.43395951152
 30
0.0
  0
POINT
  5
1F6
330
1EC
100
AcDbEntity
  8
Defpoints
 62
     0
100
AcDbPoint
 10
35.16229541787049
 20
-1899.237549780424
 30
0.0
  0
ENDBLK
  5
1F8
330
1EC
100
AcDbEntity
  8
0
100
AcDbBlockEnd
  0
BLOCK
  5
3E
330
34
100
AcDbEntity
  8
0
100
AcDbBlockBegin
  2
*D6
 70
     1
 10
0.0
 20
0.0
 30
0.0
  3
*D6
  1

  0
LINE
  5
35
330
34
100
AcDbEntity
  8
text3
 62
     0
370
    -2
100
AcDbLine
 10
-92.8307685160213
 20
-1771.633959511521
 30
0.0
 11
-92.8307685160213
 21
-1750.374406521724
 31
0.0
  0
LINE
  5
36
330
34
100
AcDbEntity
  8
text3
 62
     0
370
    -2
100
AcDbLine
 10
-25.83076851602129
 20
-1771.633959511521
 30
0.0
 11
-25.83076851602129
 21
-1750.374406521724
 31
0.0
  0
LINE
  5
37
330
34
100
AcDbEntity
  8
text3
 62
     0
370
    -2
100
AcDbLine
 10
-87.8307685160213
 20
-1755.374406521724
 30
0.0
 11
-30.83076851602129
 21
-1755.374406521724
 31
0.0
  0
SOLID
  5
38
330
34
100
AcDbEntity
  8
text3
 62
     0
100
AcDbTrace
 10
-87.8307685160213
 20
-1754.541073188391
 30
0.0
 11
-87.8307685160213
 21
-1756.207739855057
 31
0.0
 12
-92.8307685160213
 22
-1755.374406521724
 32
0.0
 13
-92.8307685160213
 23
-1755.374406521724
 33
0.0
  0
SOLID
  5
39
330
34
100
AcDbEntity
  8
text3
 62
     0
100
AcDbTrace
 10
-30.83076851602129
 20
-1754.541073188391
 30
0.0
 11
-30.83076851602129
 21
-1756.207739855057
 31
0.0
 12
-25.83076851602129
 22
-1755.374406521724
 32
0.0
 13
-25.83076851602129
 23
-1755.374406521724
 33
0.0
  0
MTEXT
  5
3A
330
34
100
AcDbEntity
  8
text3
 62
     0
100
AcDbMText
 10
-59.33076851602129
 20
-1751.874406521724
 30
0.0
 40
4.0
 41
0.0
 71
     5
 72
     1
  1
\A1;67±1
 73
     1
 44
1.0
  0
POINT
  5
3B
330
34
100
AcDbEntity
  8
Defpoints
 62
     0
100
AcDbPoint
 10
-92.8307685160213
 20
-1773.633959511521
 30
0.0
  0
POINT
  5
3C
330
34
100
AcDbEntity
  8
Defpoints
 62
     0
100
AcDbPoint
 10
-25.83076851602129
 20
-1773.633959511521
 30
0.0
  0
POINT
  5
3D
330
34
100
AcDbEntity
  8
Defpoints
 62
     0
100
AcDbPoint
 10
-25.83076851602129
 20
-1755.374406521724
 30
0.0
  0
ENDBLK
  5
3F
330
34
100
AcDbEntity
  8
0
100
AcDbBlockEnd
  0
BLOCK
  5
31
330
26
100
AcDbEntity
  8
0
100
AcDbBlockBegin
  2
*D7
 70
     1
 10
0.0
 20
0.0
 30
0.0
  3
*D7
  1

  0
LINE
  5
27
330
26
100
AcDbEntity
  8
text3
 62
     0
370
    -2
100
AcDbLine
 10
-89.33076851602086
 20
-1885.43395951152
 30
0.0
 11
-89.33076851602086
 21
-1905.993536957871
 31
0.0
  0
LINE
  5
28
330
26
100
AcDbEntity
  8
text3
 62
     0
370
    -2
100
AcDbLine
 10
-29.33076851602061
 20
-1885.43395951152
 30
0.0
 11
-29.33076851602061
 21
-1905.993536957871
 31
0.0
  0
LINE
  5
29
330
26
100
AcDbEntity
  8
text3
 62
     0
370
    -2
100
AcDbLine
 10
-84.33076851602084
 20
-1900.993536957872
 30
0.0
 11
-34.3307685160206
 21
-1900.993536957872
 31
0.0
  0
SOLID
  5
2A
330
26
100
AcDbEntity
  8
text3
 62
     0
100
AcDbTrace
 10
-84.33076851602084
 20
-1900.160203624538
 30
0.0
 11
-84.33076851602084
 21
-1901.826870291205
 31
0.0
 12
-89.33076851602086
 22
-1900.993536957872
 32
0.0
 13
-89.33076851602086
 23
-1900.993536957872
 33
0.0
  0
SOLID
  5
2B
330
26
100
AcDbEntity
  8
text3
 62
     0
100
AcDbTrace
 10
-34.3307685160206
 20
-1900.160203624538
 30
0.0
 11
-34.3307685160206
 21
-1901.826870291205
 31
0.0
 12
-29.33076851602061
 22
-1900.993536957872
 32
0.0
 13
-29.33076851602061
 23
-1900.993536957872
 33
0.0
  0
MTEXT
  5
2C
330
26
100
AcDbEntity
  8
text3
 62
     0
100
AcDbMText
 10
-59.33076851602073
 20
-1897.493536957871
 30
0.0
 40
4.0
 41
0.0
 71
     5
 72
     1
  1
\A1;\U+25A160
 73
     1
 44
1.0
  0
POINT
  5
2D
330
26
100
AcDbEntity
  8
Defpoints
 62
     0
100
AcDbPoint
 10
-89.33076851602086
 20
-1882.43395951152
 30
0.0
  0
POINT
  5
2F
330
26
100
AcDbEntity
  8
Defpoints
 62
     0
100
AcDbPoint
 10
-29.33076851602061
 20
-1882.43395951152
 30
0.0
  0
POINT
  5
30
330
26
100
AcDbEntity
  8
Defpoints
 62
     0
100
AcDbPoint
 10
-29.33076851602061
 20
-1900.993536957872
 30
0.0
  0
ENDBLK
  5
32
330
26
100
AcDbEntity
  8
0
100
AcDbBlockEnd
  0
BLOCK
  5
107
330
FC
100
AcDbEntity
  8
0
100
AcDbBlockBegin
  2
*D8
 70
     1
 10
0.0
 20
0.0
 30
0.0
  3
*D8
  1

  0
LINE
  5
FD
330
FC
100
AcDbEntity
  8
text3
 62
     0
370
    -2
100
AcDbLine
 10
35.16229541787065
 20
-1887.43395951152
 30
0.0
 11
35.16229541787135
 21
-1896.533695891079
 31
0.0
  0
LINE
  5
FE
330
FC
100
AcDbEntity
  8
text3
 62
     0
370
    -2
100
AcDbLine
 10
32.16229541787065
 20
-1887.433959511522
 30
0.0
 11
32.16229541787134
 21
-1896.53369589108
 31
0.0
  0
LINE
  5
FF
330
FC
100
AcDbEntity
  8
text3
 62
     0
370
    -2
100
AcDbLine
 10
40.16229541787097
 20
-1891.533695891079
 30
0.0
 11
45.16229541787097
 21
-1891.533695891079
 31
0.0
  0
LINE
  5
100
330
FC
100
AcDbEntity
  8
text3
 62
     0
370
    -2
100
AcDbLine
 10
27.16229541787096
 20
-1891.533695891079
 30
0.0
 11
16.4956287512043
 21
-1891.533695891081
 31
0.0
  0
SOLID
  5
101
330
FC
100
AcDbEntity
  8
text3
 62
     0
100
AcDbTrace
 10
40.16229541787089
 20
-1890.700362557746
 30
0.0
 11
40.16229541787103
 21
-1892.367029224413
 31
0.0
 12
35.16229541787096
 22
-1891.533695891079
 32
0.0
 13
35.16229541787096
 23
-1891.533695891079
 33
0.0
  0
SOLID
  5
102
330
FC
100
AcDbEntity
  8
text3
 62
     0
100
AcDbTrace
 10
27.1622954178709
 20
-1890.700362557747
 30
0.0
 11
27.16229541787102
 21
-1892.367029224413
 31
0.0
 12
32.16229541787095
 22
-1891.533695891079
 32
0.0
 13
32.16229541787095
 23
-1891.533695891079
 33
0.0
  0
MTEXT
  5
103
330
FC
100
AcDbEntity
  8
text3
 62
     0
100
AcDbMText
 10
19.32896208453735
 20
-1888.033695891081
 30
0.0
 40
4.0
 41
0.0
 71
     5
 72
     1
  1
\A1;3
 73
     1
 44
1.0
  0
POINT
  5
104
330
FC
100
AcDbEntity
  8
Defpoints
 62
     0
100
AcDbPoint
 10
35.16229541787049
 20
-1885.43395951152
 30
0.0
  0
POINT
  5
105
330
FC
100
AcDbEntity
  8
Defpoints
 62
     0
100
AcDbPoint
 10
32.16229541787049
 20
-1885.43395951152
 30
0.0
  0
POINT
  5
106
330
FC
100
AcDbEntity
  8
Defpoints
 62
     0
100
AcDbPoint
 10
32.16229541787095
 20
-1891.533695891079
 30
0.0
  0
ENDBLK
  5
108
330
FC
100
AcDbEntity
  8
0
100
AcDbBlockEnd
  0
BLOCK
  5
396
330
38C
100
AcDbEntity
  8
0
100
AcDbBlockBegin
  2
*D9
 70
     1
 10
0.0
 20
0.0
 30
0.0
  3
*D9
  1

  0
LINE
  5
6E8
330
38C
100
AcDbEntity
  8
text3
 62
     0
370
    -2
100
AcDbLine
 10
90.06229541787012
 20
-1771.633959511519
 30
0.0
 11
90.06229541787012
 21
-1746.24731929189
 31
0.0
  0
LINE
  5
6E9
330
38C
100
AcDbEntity
  8
text3
 62
     0
370
    -2
100
AcDbLine
 10
176.5622954178716
 20
-1771.633959511522
 30
0.0
 11
176.5622954178716
 21
-1746.24731929189
 31
0.0
  0
LINE
  5
6EA
330
38C
100
AcDbEntity
  8
text3
 62
     0
370
    -2
100
AcDbLine
 10
95.06229541787012
 20
-1751.24731929189
 30
0.0
 11
171.5622954178716
 21
-1751.24731929189
 31
0.0
  0
SOLID
  5
6EB
330
38C
100
AcDbEntity
  8
text3
 62
     0
100
AcDbTrace
 10
95.06229541787012
 20
-1750.413985958557
 30
0.0
 11
95.06229541787012
 21
-1752.080652625224
 31
0.0
 12
90.06229541787012
 22
-1751.24731929189
 32
0.0
 13
90.06229541787012
 23
-1751.24731929189
 33
0.0
  0
SOLID
  5
6EC
330
38C
100
AcDbEntity
  8
text3
 62
     0
100
AcDbTrace
 10
171.5622954178716
 20
-1750.413985958557
 30
0.0
 11
171.5622954178716
 21
-1752.080652625224
 31
0.0
 12
176.5622954178716
 22
-1751.24731929189
 32
0.0
 13
176.5622954178716
 23
-1751.24731929189
 33
0.0
  0
MTEXT
  5
6ED
330
38C
100
AcDbEntity
  8
text3
 62
     0
100
AcDbMText
 10
123.1622954178706
 20
-1747.74731929189
 30
0.0
 40
4.0
 41
0.0
 71
     5
 72
     1
  1
\A1;86.5±1
 73
     1
 44
1.0
  0
POINT
  5
6EE
330
38C
100
AcDbEntity
  8
Defpoints
 62
     0
100
AcDbPoint
 10
90.06229541787012
 20
-1773.633959511519
 30
0.0
  0
POINT
  5
6EF
330
38C
100
AcDbEntity
  8
Defpoints
 62
     0
100
AcDbPoint
 10
176.5622954178716
 20
-1773.633959511522
 30
0.0
  0
POINT
  5
6F0
330
38C
100
AcDbEntity
  8
Defpoints
 62
     0
100
AcDbPoint
 10
176.5622954178716
 20
-1751.24731929189
 30
0.0
  0
ENDBLK
  5
397
330
38C
100
AcDbEntity
  8
0
100
AcDbBlockEnd
  0
BLOCK
  5
3A2
330
398
100
AcDbEntity
  8
0
100
AcDbBlockBegin
  2
*D10
 70
     1
 10
0.0
 20
0.0
 30
0.0
  3
*D10
  1

  0
LINE
  5
6F1
330
398
100
AcDbEntity
  8
text3
 62
     0
370
    -2
100
AcDbLine
 10
115.1622954178694
 20
-1887.43395951152
 30
0.0
 11
115.1622954178694
 21
-1908.52021813069
 31
0.0
  0
LINE
  5
6F2
330
398
100
AcDbEntity
  8
text3
 62
     0
370
    -2
100
AcDbLine
 10
176.5622954178705
 20
-1887.43395951152
 30
0.0
 11
176.5622954178705
 21
-1908.52021813069
 31
0.0
  0
LINE
  5
6F3
330
398
100
AcDbEntity
  8
text3
 62
     0
370
    -2
100
AcDbLine
 10
120.1622954178694
 20
-1903.520218130691
 30
0.0
 11
171.5622954178705
 21
-1903.520218130691
 31
0.0
  0
SOLID
  5
6F4
330
398
100
AcDbEntity
  8
text3
 62
     0
100
AcDbTrace
 10
120.1622954178694
 20
-1902.686884797357
 30
0.0
 11
120.1622954178694
 21
-1904.353551464024
 31
0.0
 12
115.1622954178694
 22
-1903.520218130691
 32
0.0
 13
115.1622954178694
 23
-1903.520218130691
 33
0.0
  0
SOLID
  5
6F5
330
398
100
AcDbEntity
  8
text3
 62
     0
100
AcDbTrace
 10
171.5622954178705
 20
-1902.686884797357
 30
0.0
 11
171.5622954178705
 21
-1904.353551464024
 31
0.0
 12
176.5622954178705
 22
-1903.520218130691
 32
0.0
 13
176.5622954178705
 23
-1903.520218130691
 33
0.0
  0
MTEXT
  5
6F6
330
398
100
AcDbEntity
  8
text3
 62
     0
100
AcDbMText
 10
145.7122954178698
 20
-1900.020218130691
 30
0.0
 40
4.0
 41
0.0
 71
     5
 72
     1
  1
\A1;61.4±1
 73
     1
 44
1.0
  0
POINT
  5
6F7
330
398
100
AcDbEntity
  8
Defpoints
 62
     0
100
AcDbPoint
 10
115.1622954178694
 20
-1885.43395951152
 30
0.0
  0
POINT
  5
6F8
330
398
100
AcDbEntity
  8
Defpoints
 62
     0
100
AcDbPoint
 10
176.5622954178705
 20
-1885.43395951152
 30
0.0
  0
POINT
  5
6F9
330
398
100
AcDbEntity
  8
Defpoints
 62
     0
100
AcDbPoint
 10
176.5622954178705
 20
-1903.520218130691
 30
0.0
  0
ENDBLK
  5
3A3
330
398
100
AcDbEntity
  8
0
100
AcDbBlockEnd
  0
BLOCK
  5
3BA
330
3B0
100
AcDbEntity
  8
0
100
AcDbBlockBegin
  2
*D11
 70
     1
 10
0.0
 20
0.0
 30
0.0
  3
*D11
  1

  0
LINE
  5
66C
330
3B0
100
AcDbEntity
  8
text3
 62
     0
370
    -2
100
AcDbLine
 10
178.5622954178838
 20
-1773.633959511519
 30
0.0
 11
189.7812970242848
 21
-1773.633959511519
 31
0.0
  0
LINE
  5
66D
330
3B0
100
AcDbEntity
  8
text3
 62
     0
370
    -2
100
AcDbLine
 10
178.562295417883
 20
-1880.633959511519
 30
0.0
 11
189.7812970242847
 21
-1880.633959511519
 31
0.0
  0
LINE
  5
66E
330
3B0
100
AcDbEntity
  8
text3
 62
     0
370
    -2
100
AcDbLine
 10
184.7812970242848
 20
-1778.633959511519
 30
0.0
 11
184.7812970242847
 21
-1875.63395951152
 31
0.0
  0
SOLID
  5
66F
330
3B0
100
AcDbEntity
  8
text3
 62
     0
100
AcDbTrace
 10
183.9479636909514
 20
-1778.633959511519
 30
0.0
 11
185.6146303576181
 21
-1778.633959511519
 31
0.0
 12
184.7812970242848
 22
-1773.633959511519
 32
0.0
 13
184.7812970242848
 23
-1773.633959511519
 33
0.0
  0
SOLID
  5
670
330
3B0
100
AcDbEntity
  8
text3
 62
     0
100
AcDbTrace
 10
183.9479636909514
 20
-1875.63395951152
 30
0.0
 11
185.6146303576181
 21
-1875.63395951152
 31
0.0
 12
184.7812970242847
 22
-1880.633959511519
 32
0.0
 13
184.7812970242847
 23
-1880.633959511519
 33
0.0
  0
MTEXT
  5
671
330
3B0
100
AcDbEntity
  8
text3
 62
     0
100
AcDbMText
 10
181.281297024285
 20
-1827.133959511519
 30
0.0
 40
4.0
 41
0.0
 71
     5
 72
     1
  1
\A1;107±1
 11
0.0000000000000001
 21
1.0
 31
0.0
 73
     1
 44
1.0
  0
POINT
  5
672
330
3B0
100
AcDbEntity
  8
Defpoints
 62
     0
100
AcDbPoint
 10
176.5622954178837
 20
-1773.633959511519
 30
0.0
  0
POINT
  5
673
330
3B0
100
AcDbEntity
  8
Defpoints
 62
     0
100
AcDbPoint
 10
176.562295417883
 20
-1880.633959511519
 30
0.0
  0
POINT
  5
674
330
3B0
100
AcDbEntity
  8
Defpoints
 62
     0
100
AcDbPoint
 10
184.7812970242847
 20
-1880.633959511519
 30
0.0
  0
ENDBLK
  5
3BB
330
3B0
100
AcDbEntity
  8
0
100
AcDbBlockEnd
  0
BLOCK
  5
3C6
330
3BC
100
AcDbEntity
  8
0
100
AcDbBlockBegin
  2
*D12
 70
     1
 10
0.0
 20
0.0
 30
0.0
  3
*D12
  1

  0
LINE
  5
663
330
3BC
100
AcDbEntity
  8
text3
 62
     0
370
    -2
100
AcDbLine
 10
182.7280614056209
 20
-1885.43395951152
 30
0.0
 11
197.876978915744
 21
-1885.43395951152
 31
0.0
  0
LINE
  5
664
330
3BC
100
AcDbEntity
  8
text3
 62
     0
370
    -2
100
AcDbLine
 10
182.7280614056209
 20
-1773.633959511519
 30
0.0
 11
197.876978915744
 21
-1773.633959511519
 31
0.0
  0
LINE
  5
665
330
3BC
100
AcDbEntity
  8
text3
 62
     0
370
    -2
100
AcDbLine
 10
192.876978915744
 20
-1880.43395951152
 30
0.0
 11
192.876978915744
 21
-1778.633959511519
 31
0.0
  0
SOLID
  5
666
330
3BC
100
AcDbEntity
  8
text3
 62
     0
100
AcDbTrace
 10
192.0436455824106
 20
-1880.43395951152
 30
0.0
 11
193.7103122490773
 21
-1880.43395951152
 31
0.0
 12
192.876978915744
 22
-1885.43395951152
 32
0.0
 13
192.876978915744
 23
-1885.43395951152
 33
0.0
  0
SOLID
  5
667
330
3BC
100
AcDbEntity
  8
text3
 62
     0
100
AcDbTrace
 10
192.0436455824107
 20
-1778.633959511519
 30
0.0
 11
193.7103122490773
 21
-1778.633959511519
 31
0.0
 12
192.876978915744
 22
-1773.633959511519
 32
0.0
 13
192.876978915744
 23
-1773.633959511519
 33
0.0
  0
MTEXT
  5
668
330
3BC
100
AcDbEntity
  8
text3
 62
     0
100
AcDbMText
 10
189.3769789157443
 20
-1829.533959511521
 30
0.0
 40
4.0
 41
0.0
 71
     5
 72
     1
  1
\A1;112±1
 11
0.0000000000000001
 21
1.0
 31
0.0
 73
     1
 44
1.0
  0
POINT
  5
669
330
3BC
100
AcDbEntity
  8
Defpoints
 62
     0
100
AcDbPoint
 10
180.7280614056209
 20
-1885.43395951152
 30
0.0
  0
POINT
  5
66A
330
3BC
100
AcDbEntity
  8
Defpoints
 62
     0
100
AcDbPoint
 10
180.7280614056209
 20
-1773.633959511519
 30
0.0
  0
POINT
  5
66B
330
3BC
100
AcDbEntity
  8
Defpoints
 62
     0
100
AcDbPoint
 10
192.876978915744
 20
-1773.633959511519
 30
0.0
  0
ENDBLK
  5
3C7
330
3BC
100
AcDbEntity
  8
0
100
AcDbBlockEnd
  0
BLOCK
  5
442
330
438
100
AcDbEntity
  8
0
100
AcDbBlockBegin
  2
*D14
 70
     1
 10
0.0
 20
0.0
 30
0.0
  3
*D14
  1

  0
LINE
  5
439
330
438
100
AcDbEntity
  8
text3
 62
     0
370
    -2
100
AcDbLine
 10
35.16229541787049
 20
-1887.43395951152
 30
0.0
 11
35.16229541787049
 21
-1916.911319065588
 31
0.0
  0
LINE
  5
43A
330
438
100
AcDbEntity
  8
text3
 62
     0
370
    -2
100
AcDbLine
 10
5.162295417870494
 20
-1887.43395951152
 30
0.0
 11
5.162295417870494
 21
-1916.911319065588
 31
0.0
  0
LINE
  5
43B
330
438
100
AcDbEntity
  8
text3
 62
     0
370
    -2
100
AcDbLine
 10
30.16229541787049
 20
-1916.731319065587
 30
0.0
 11
10.16229541787049
 21
-1916.731319065587
 31
0.0
  0
SOLID
  5
43C
330
438
100
AcDbEntity
  8
text3
 62
     0
100
AcDbTrace
 10
30.16229541787049
 20
-1915.897985732255
 30
0.0
 11
30.16229541787049
 21
-1917.564652398921
 31
0.0
 12
35.16229541787049
 22
-1916.731319065587
 32
0.0
 13
35.16229541787049
 23
-1916.731319065587
 33
0.0
  0
SOLID
  5
43D
330
438
100
AcDbEntity
  8
text3
 62
     0
100
AcDbTrace
 10
10.16229541787049
 20
-1915.897985732255
 30
0.0
 11
10.16229541787049
 21
-1917.564652398921
 31
0.0
 12
5.162295417870494
 22
-1916.731319065587
 32
0.0
 13
5.162295417870494
 23
-1916.731319065587
 33
0.0
  0
MTEXT
  5
43E
330
438
100
AcDbEntity
  8
text3
 62
     0
100
AcDbMText
 10
20.16229541787049
 20
-1913.231319065587
 30
0.0
 40
4.0
 41
0.0
 71
     5
 72
     1
  1
\A1;30±1
 73
     1
 44
1.0
  0
POINT
  5
43F
330
438
100
AcDbEntity
  8
Defpoints
 62
     0
100
AcDbPoint
 10
35.16229541787049
 20
-1885.43395951152
 30
0.0
  0
POINT
  5
440
330
438
100
AcDbEntity
  8
Defpoints
 62
     0
100
AcDbPoint
 10
5.162295417870494
 20
-1885.43395951152
 30
0.0
  0
POINT
  5
441
330
438
100
AcDbEntity
  8
Defpoints
 62
     0
100
AcDbPoint
 10
5.162295417870494
 20
-1916.731319065587
 30
0.0
  0
ENDBLK
  5
443
330
438
100
AcDbEntity
  8
0
100
AcDbBlockEnd
  0
BLOCK
  5
5AD
330
4D8
100
AcDbEntity
  8
0
100
AcDbBlockBegin
  2
C223PP001-A-20-soku1
 70
     0
 10
0.0
 20
0.0
 30
0.0
  3
C223PP001-A-20-soku1
  1

  0
LINE
  5
4D9
330
4D8
100
AcDbEntity
  8
Object
100
AcDbLine
 10
22.79999999999972
 20
-52.6106758880793
 30
0.0
 11
22.80000000000063
 21
52.61067588807941
 31
0.0
  0
LINE
  5
4DA
330
4D8
100
AcDbEntity
  8
Object
100
AcDbLine
 10
0.0000000000004547
 20
53.50000000000012
 30
0.0
 11
0.0000000000009095
 21
-53.49999999999955
 31
0.0
  0
LINE
  5
4DB
330
4D8
100
AcDbEntity
  8
Hidden
100
AcDbLine
 10
1.0
 20
-52.20519082106512
 30
0.0
 11
0.9999999999995452
 21
51.90519082106544
 31
0.0
  0
LINE
  5
4DC
330
4D8
100
AcDbEntity
  8
Object
100
AcDbLine
 10
0.0000000000004547
 20
-53.49999999999955
 30
0.0
 11
-0.0000000000004547
 21
53.50000000000045
 31
0.0
  0
LINE
  5
4DD
330
4D8
100
AcDbEntity
  8
Hidden
  6
HIDDEN
100
AcDbLine
 10
19.79999999999563
 20
-49.30346054737668
 30
0.0
 11
19.80000000000655
 21
50.90346054737636
 31
0.0
  0
LINE
  5
4DE
330
4D8
100
AcDbEntity
  8
Hidden
  6
HIDDEN
100
AcDbLine
 10
16.80000000000018
 20
-49.70519082106569
 30
0.0
 11
16.80000000000109
 21
49.70519082106534
 31
0.0
  0
LINE
  5
4DF
330
4D8
100
AcDbEntity
  8
Center
 48
5.0
100
AcDbLine
 10
26.06288606596535
 20
-49.50000000000034
 30
0.0
 11
-5.801443265899251
 21
-49.50000000000028
 31
0.0
  0
LINE
  5
4E0
330
4D8
100
AcDbEntity
  8
Hidden
100
AcDbLine
 10
19.80000000000018
 20
-51.90516862581609
 30
0.0
 11
19.79999999999972
 21
-47.09483137418454
 31
0.0
  0
ARC
  5
4E1
330
4D8
100
AcDbEntity
  8
Hidden
  6
Continuous
100
AcDbCircle
 10
22.59999999999899
 20
-49.7489046474077
 30
0.0
 40
0.2
100
AcDbArc
 50
0.0
 51
89.0000000000243
  0
LINE
  5
4E2
330
4D8
100
AcDbEntity
  8
Hidden
100
AcDbLine
 10
19.60000000000491
 20
-51.10000000000031
 30
0.0
 11
19.60000000000536
 21
-47.90000000000032
 31
0.0
  0
LINE
  5
4E3
330
4D8
100
AcDbEntity
  8
Hidden
  6
Continuous
100
AcDbLine
 10
1.200000000003001
 20
-51.10000000000031
 30
0.0
 11
1.200000000004365
 21
-47.90000000000032
 31
0.0
  0
LINE
  5
4E4
330
4D8
100
AcDbEntity
  8
Hidden
  6
HIDDEN
100
AcDbLine
 10
10.59999999999854
 20
-42.90303058148947
 30
0.0
 11
10.60000000000218
 21
-49.81341222362039
 31
0.0
  0
LINE
  5
4E5
330
4D8
100
AcDbEntity
  8
Hidden
  6
HIDDEN
100
AcDbLine
 10
22.60523538966117
 20
-52.17345767389764
 30
0.0
 11
19.99476461033827
 21
-52.10510009081116
 31
0.0
  0
LINE
  5
4E6
330
4D8
100
AcDbEntity
  8
Object
100
AcDbLine
 10
0.0000000000004547
 20
-53.49999999999955
 30
0.0
 11
22.30872620321815
 21
-53.1105997356575
 31
0.0
  0
POINT
  5
4E7
330
4D8
100
AcDbEntity
  8
Hidden
100
AcDbPoint
 10
19.79999999999972
 20
-52.10000000000047
 30
0.0
  0
POINT
  5
4E8
330
4D8
100
AcDbEntity
  8
Text
100
AcDbPoint
 10
10.60000000000218
 20
-50.10822140255527
 30
0.0
  0
POINT
  5
4E9
330
4D8
100
AcDbEntity
  8
Text
100
AcDbPoint
 10
16.80000000000018
 20
-50.00000000000046
 30
0.0
  0
POINT
  5
4EA
330
4D8
100
AcDbEntity
  8
Text
100
AcDbPoint
 10
16.80000000000018
 20
-50.00000000000046
 30
0.0
  0
LINE
  5
4EB
330
4D8
100
AcDbEntity
  8
Hidden
  6
Continuous
100
AcDbLine
 10
19.60000000000536
 20
-51.10000000000042
 30
0.0
 11
19.80000000000472
 21
-51.30000000000041
 31
0.0
  0
ARC
  5
4EC
330
4D8
100
AcDbEntity
  8
Hidden
  6
Continuous
100
AcDbCircle
 10
20.0
 20
-51.90516862581609
 30
0.0
 40
0.2
100
AcDbArc
 50
180.0
 51
268.4999999999582
  0
ARC
  5
4ED
330
4D8
100
AcDbEntity
  8
Object
100
AcDbCircle
 10
0.3000000000010914
 20
-53.19471778210789
 30
0.0
 40
0.3
100
AcDbArc
 50
180.0
 51
270.9999999999757
  0
LINE
  5
4EE
330
4D8
100
AcDbEntity
  8
Hidden
100
AcDbLine
 10
0.2947642780704882
 20
-52.51230993531567
 30
0.0
 11
0.7052357219317856
 21
-52.50514512961195
 31
0.0
  0
ARC
  5
4EF
330
4D8
100
AcDbEntity
  8
Hidden
100
AcDbCircle
 10
0.3000000000015461
 20
-52.81226424386272
 30
0.0
 40
0.3
100
AcDbArc
 50
90.99999999997569
 51
180.0
  0
ARC
  5
4F0
330
4D8
100
AcDbEntity
  8
Hidden
100
AcDbCircle
 10
0.7000000000007276
 20
-52.20519082106512
 30
0.0
 40
0.3
100
AcDbArc
 50
270.9999999999757
 51
0.0
  0
POINT
  5
4F1
330
4D8
100
AcDbEntity
  8
Object2
100
AcDbPoint
 10
1.000000000000454
 20
-52.49999999999977
 30
0.0
  0
POINT
  5
4F2
330
4D8
100
AcDbEntity
  8
Object2
100
AcDbPoint
 10
0.0000000000004547
 20
-52.51745506492795
 30
0.0
  0
POINT
  5
4F3
330
4D8
100
AcDbEntity
  8
Text
100
AcDbPoint
 10
1.000000000000454
 20
-50.27579002586617
 30
0.0
  0
LINE
  5
4F4
330
4D8
100
AcDbEntity
  8
Hidden
  6
Continuous
100
AcDbLine
 10
1.20000000000391
 20
-51.10000000000036
 30
0.0
 11
1.000000000004092
 21
-51.30000000000035
 31
0.0
  0
POINT
  5
4F5
330
4D8
100
AcDbEntity
  8
Text
  6
Continuous
100
AcDbPoint
 10
0.0000000000004547
 20
-50.29324509079447
 30
0.0
  0
LINE
  5
4F6
330
4D8
100
AcDbEntity
  8
Hidden
100
AcDbLine
 10
19.60000000000536
 20
-51.10000000000036
 30
0.0
 11
1.20000000000391
 21
-51.10000000000031
 31
0.0
  0
ARC
  5
4F7
330
4D8
100
AcDbEntity
  8
Hidden
  6
HIDDEN
100
AcDbCircle
 10
10.30000000000154
 20
-49.81341222362061
 30
0.0
 40
0.3
100
AcDbArc
 50
270.9999999999757
 51
0.0000000000325689
  0
ARC
  5
4F8
330
4D8
100
AcDbEntity
  8
Hidden
  6
HIDDEN
100
AcDbCircle
 10
16.5
 20
-49.70519082106569
 30
0.0
 40
0.3
100
AcDbArc
 50
270.9999999999757
 51
0.0
  0
ARC
  5
4F9
330
4D8
100
AcDbEntity
  8
Hidden
  6
HIDDEN
100
AcDbCircle
 10
1.300000000000181
 20
-50.57059920480106
 30
0.0
 40
0.3
100
AcDbArc
 50
90.99999999997569
 51
180.0
  0
ARC
  5
4FA
330
4D8
100
AcDbEntity
  8
Hidden
  6
HIDDEN
100
AcDbCircle
 10
0.3000000000015461
 20
-50.58805426972913
 30
0.0
 40
0.3
100
AcDbArc
 50
90.99999999997569
 51
180.0
  0
LINE
  5
4FB
330
4D8
100
AcDbEntity
  8
Hidden
  6
HIDDEN
100
AcDbLine
 10
0.2947642780704882
 20
-50.28809996118218
 30
0.0
 11
16.50523572193105
 21
-50.00514512961263
 31
0.0
  0
ARC
  5
4FC
330
4D8
100
AcDbEntity
  8
Object
100
AcDbCircle
 10
22.29999999999972
 20
-52.6106758880793
 30
0.0
 40
0.5
100
AcDbArc
 50
271.0000000000017
 51
0.0
  0
POINT
  5
4FD
330
4D8
100
AcDbEntity
  8
Hidden
100
AcDbPoint
 10
22.80000000000018
 20
-52.76246599057788
 30
0.0
  0
ARC
  5
4FE
330
4D8
100
AcDbEntity
  8
Hidden
  6
Continuous
100
AcDbCircle
 10
22.59999999999945
 20
-52.37338913889278
 30
0.0
 40
0.2
100
AcDbArc
 50
0.0
 51
88.49999999995819
  0
LINE
  5
4FF
330
4D8
100
AcDbEntity
  8
Hidden
  6
HIDDEN
100
AcDbLine
 10
22.60523538966026
 20
-46.8265423261036
 30
0.0
 11
19.99476461033873
 21
-46.89489990918946
 31
0.0
  0
LINE
  5
500
330
4D8
100
AcDbEntity
  8
Hidden
  6
HIDDEN
100
AcDbLine
 10
22.60349048128637
 20
-49.54893510837644
 30
0.0
 11
19.99650951870808
 21
-49.503430086408
 31
0.0
  0
LINE
  5
501
330
4D8
100
AcDbEntity
  8
Text
  6
HIDDEN
100
AcDbLine
 10
10.89476427806812
 20
-42.60307627294241
 30
0.0
 11
16.50523572193196
 21
-42.50514512961183
 31
0.0
  0
ARC
  5
502
330
4D8
100
AcDbEntity
  8
Object2
100
AcDbCircle
 10
10.89999999999872
 20
-42.90303058148924
 30
0.0
 40
0.3
100
AcDbArc
 50
90.99999999997569
 51
180.0000000000195
  0
POINT
  5
503
330
4D8
100
AcDbEntity
  8
Object2
100
AcDbPoint
 10
10.59999999999854
 20
-42.60822140255458
 30
0.0
  0
POINT
  5
504
330
4D8
100
AcDbEntity
  8
Text
100
AcDbPoint
 10
10.59999999999854
 20
-42.60822140255458
 30
0.0
  0
POINT
  5
505
330
4D8
100
AcDbEntity
  8
Text
100
AcDbPoint
 10
16.79999999999972
 20
-42.49999999999954
 30
0.0
  0
ARC
  5
506
330
4D8
100
AcDbEntity
  8
Object2
100
AcDbCircle
 10
16.50000000000045
 20
-42.20519082106489
 30
0.0
 40
0.3
100
AcDbArc
 50
270.9999999999757
 51
0.0
  0
POINT
  5
507
330
4D8
100
AcDbEntity
  8
Object2
100
AcDbPoint
 10
16.80000000000018
 20
-42.49999999999954
 30
0.0
  0
POINT
  5
508
330
4D8
100
AcDbEntity
  8
Text
100
AcDbPoint
 10
16.79999999999972
 20
-42.49999999999954
 30
0.0
  0
LINE
  5
509
330
4D8
100
AcDbEntity
  8
Hidden
  6
HIDDEN
100
AcDbLine
 10
10.89476427806767
 20
-42.60307627294241
 30
0.0
 11
16.50523572193151
 21
-42.50514512961195
 31
0.0
  0
ARC
  5
50A
330
4D8
100
AcDbEntity
  8
Hidden
  6
HIDDEN
100
AcDbCircle
 10
10.89999999999918
 20
-42.90303058148936
 30
0.0
 40
0.3
100
AcDbArc
 50
90.99999999997569
 51
180.0000000000325
  0
ARC
  5
50B
330
4D8
100
AcDbEntity
  8
Hidden
  6
HIDDEN
100
AcDbCircle
 10
16.5000000000009
 20
-42.20519082106489
 30
0.0
 40
0.3
100
AcDbArc
 50
270.9999999999757
 51
0.0
  0
LINE
  5
50C
330
4D8
100
AcDbEntity
  8
Hidden
  6
Continuous
100
AcDbLine
 10
13.65000000000418
 20
-48.75000000000011
 30
0.0
 11
14.100000000004
 21
-48.30000000000018
 31
0.0
  0
LINE
  5
50D
330
4D8
100
AcDbEntity
  8
Hidden
  6
Continuous
100
AcDbLine
 10
15.55000000000473
 20
-47.50000000000011
 30
0.0
 11
15.10000000000445
 21
-48.30000000000018
 31
0.0
  0
LINE
  5
50E
330
4D8
100
AcDbEntity
  8
Hidden
  6
Continuous
100
AcDbLine
 10
13.65000000000418
 20
-46.25000000000011
 30
0.0
 11
14.100000000004
 21
-46.70000000000004
 31
0.0
  0
LINE
  5
50F
330
4D8
100
AcDbEntity
  8
Hidden
  6
Continuous
100
AcDbLine
 10
15.55000000000473
 20
-47.50000000000011
 30
0.0
 11
15.10000000000445
 21
-46.70000000000004
 31
0.0
  0
LINE
  5
510
330
4D8
100
AcDbEntity
  8
Hidden
  6
Continuous
100
AcDbLine
 10
15.10000000000445
 20
-48.30000000000018
 30
0.0
 11
15.10000000000445
 21
-46.70000000000135
 31
0.0
  0
LINE
  5
511
330
4D8
100
AcDbEntity
  8
Hidden
  6
Continuous
100
AcDbLine
 10
14.100000000004
 20
-48.3000000000003
 30
0.0
 11
14.100000000004
 21
-46.69999999999953
 31
0.0
  0
LINE
  5
512
330
4D8
100
AcDbEntity
  8
Hidden
  6
Continuous
100
AcDbLine
 10
13.65000000000418
 20
-48.75000000000011
 30
0.0
 11
13.65000000000418
 21
-46.24999999999971
 31
0.0
  0
LINE
  5
513
330
4D8
100
AcDbEntity
  8
Hidden
  6
Continuous
100
AcDbLine
 10
10.60000000000081
 20
-48.75000000000011
 30
0.0
 11
11.05000000000063
 21
-48.30000000000018
 31
0.0
  0
LINE
  5
514
330
4D8
100
AcDbEntity
  8
Hidden
  6
Continuous
100
AcDbLine
 10
10.60000000000081
 20
-46.25000000000011
 30
0.0
 11
11.05000000000063
 21
-46.70000000000004
 31
0.0
  0
LINE
  5
515
330
4D8
100
AcDbEntity
  8
Hidden
  6
Continuous
100
AcDbLine
 10
11.05000000000063
 20
-48.3000000000003
 30
0.0
 11
11.05000000000063
 21
-46.69999999999953
 31
0.0
  0
LINE
  5
516
330
4D8
100
AcDbEntity
  8
Hidden
  6
Continuous
100
AcDbLine
 10
10.60000000000081
 20
-48.30000000000007
 30
0.0
 11
15.10000000000445
 21
-48.30000000000018
 31
0.0
  0
LINE
  5
517
330
4D8
100
AcDbEntity
  8
Hidden
  6
Continuous
100
AcDbLine
 10
10.60000000000081
 20
-48.75000000000011
 30
0.0
 11
13.65000000000418
 21
-48.75000000000011
 31
0.0
  0
LINE
  5
518
330
4D8
100
AcDbEntity
  8
Hidden
  6
Continuous
100
AcDbLine
 10
10.60000000000081
 20
-46.25000000000011
 30
0.0
 11
13.65000000000418
 21
-46.25000000000011
 31
0.0
  0
LINE
  5
519
330
4D8
100
AcDbEntity
  8
Hidden
  6
Continuous
100
AcDbLine
 10
10.60000000000081
 20
-46.70000000000015
 30
0.0
 11
15.10000000000445
 21
-46.70000000000004
 31
0.0
  0
LINE
  5
51A
330
4D8
100
AcDbEntity
  8
Center
100
AcDbLine
 10
9.000000000000909
 20
-47.5
 30
0.0
 11
15.55000000000473
 21
-47.5
 31
0.0
  0
POINT
  5
51B
330
4D8
100
AcDbEntity
  8
Text
100
AcDbPoint
 10
10.59999999999945
 20
-44.60822140255641
 30
0.0
  0
POINT
  5
51C
330
4D8
100
AcDbEntity
  8
Text
100
AcDbPoint
 10
10.60000000000127
 20
-48.10822140255573
 30
0.0
  0
POINT
  5
51D
330
4D8
100
AcDbEntity
  8
Object2
100
AcDbPoint
 10
10.60000000000036
 20
-46.60822140255504
 30
0.0
  0
POINT
  5
51E
330
4D8
100
AcDbEntity
  8
Text
100
AcDbPoint
 10
16.80000000000018
 20
-44.50000000000159
 30
0.0
  0
POINT
  5
51F
330
4D8
100
AcDbEntity
  8
Text
100
AcDbPoint
 10
16.80000000000018
 20
-46.5
 30
0.0
  0
POINT
  5
520
330
4D8
100
AcDbEntity
  8
Text
100
AcDbPoint
 10
16.79999999999927
 20
-48.00000000000068
 30
0.0
  0
ARC
  5
521
330
4D8
100
AcDbEntity
  8
Object2
100
AcDbCircle
 10
16.5
 20
-46.20519082106534
 30
0.0
 40
0.3
100
AcDbArc
 50
270.9999999999757
 51
0.0
  0
POINT
  5
522
330
4D8
100
AcDbEntity
  8
Hidden
100
AcDbPoint
 10
19.79999999999972
 20
-46.90000000000032
 30
0.0
  0
POINT
  5
523
330
4D8
100
AcDbEntity
  8
Text
100
AcDbPoint
 10
16.80000000000018
 20
-44.50000000000159
 30
0.0
  0
POINT
  5
524
330
4D8
100
AcDbEntity
  8
Text
100
AcDbPoint
 10
16.80000000000018
 20
-48.00000000000068
 30
0.0
  0
POINT
  5
525
330
4D8
100
AcDbEntity
  8
Object2
100
AcDbPoint
 10
16.80000000000018
 20
-46.5
 30
0.0
  0
ARC
  5
526
330
4D8
100
AcDbEntity
  8
Hidden
  6
Continuous
100
AcDbCircle
 10
19.99999999999545
 20
-49.30346054737668
 30
0.0
 40
0.2
100
AcDbArc
 50
179.9999999999934
 51
268.9999999999982
  0
POINT
  5
527
330
4D8
100
AcDbEntity
  8
Hidden
  6
Continuous
100
AcDbPoint
 10
19.79999999999563
 20
-49.49999999999988
 30
0.0
  0
LINE
  5
528
330
4D8
100
AcDbEntity
  8
Hidden
  6
Continuous
100
AcDbLine
 10
19.60000000000491
 20
-47.90000000000032
 30
0.0
 11
19.80000000000427
 21
-47.70000000000038
 31
0.0
  0
ARC
  5
529
330
4D8
100
AcDbEntity
  8
Hidden
  6
Continuous
100
AcDbCircle
 10
20.00000000000045
 20
-47.09483137418454
 30
0.0
 40
0.2
100
AcDbArc
 50
91.5000000000418
 51
180.0
  0
ARC
  5
52A
330
4D8
100
AcDbEntity
  8
Object2
100
AcDbCircle
 10
1.300000000000181
 20
-47.0705992048006
 30
0.0
 40
0.3
100
AcDbArc
 50
90.99999999997569
 51
180.0
  0
POINT
  5
52B
330
4D8
100
AcDbEntity
  8
Object2
100
AcDbPoint
 10
1.000000000000454
 20
-46.77579002586594
 30
0.0
  0
LINE
  5
52C
330
4D8
100
AcDbEntity
  8
Hidden
  6
Continuous
100
AcDbLine
 10
1.200000000003456
 20
-47.90000000000032
 30
0.0
 11
1.000000000003637
 21
-47.70000000000033
 31
0.0
  0
LINE
  5
52D
330
4D8
100
AcDbEntity
  8
Object2
  6
HIDDEN
100
AcDbLine
 10
1.294764278069123
 20
-46.77064489625354
 30
0.0
 11
16.50523572193105
 21
-46.50514512961217
 31
0.0
  0
LINE
  5
52E
330
4D8
100
AcDbEntity
  8
Hidden
100
AcDbLine
 10
19.60000000000536
 20
-47.90000000000032
 30
0.0
 11
1.200000000003456
 21
-47.90000000000032
 31
0.0
  0
LINE
  5
52F
330
4D8
100
AcDbEntity
  8
Hidden
  6
HIDDEN
100
AcDbLine
 10
10.89476427807039
 20
-48.10307627294344
 30
0.0
 11
16.50523572193151
 21
-48.00514512961285
 31
0.0
  0
LINE
  5
530
330
4D8
100
AcDbEntity
  8
Hidden
  6
HIDDEN
100
AcDbLine
 10
10.89476427806812
 20
-44.60307627294423
 30
0.0
 11
16.50523572193151
 21
-44.50514512961376
 31
0.0
  0
ARC
  5
531
330
4D8
100
AcDbEntity
  8
Hidden
  6
HIDDEN
100
AcDbCircle
 10
10.89999999999918
 20
-44.90303058149106
 30
0.0
 40
0.3
100
AcDbArc
 50
90.99999999997569
 51
180.0000000000325
  0
ARC
  5
532
330
4D8
100
AcDbEntity
  8
Hidden
  6
HIDDEN
100
AcDbCircle
 10
10.90000000000145
 20
-48.40303058149038
 30
0.0
 40
0.3
100
AcDbArc
 50
90.99999999997569
 51
180.0000000000325
  0
ARC
  5
533
330
4D8
100
AcDbEntity
  8
Hidden
  6
HIDDEN
100
AcDbCircle
 10
10.29999999999927
 20
-46.31341222362038
 30
0.0
 40
0.3
100
AcDbArc
 50
270.9999999999757
 51
0.0000000000260551
  0
ARC
  5
534
330
4D8
100
AcDbEntity
  8
Hidden
  6
HIDDEN
100
AcDbCircle
 10
16.50000000000045
 20
-44.20519082106681
 30
0.0
 40
0.3
100
AcDbArc
 50
270.9999999999757
 51
0.0
  0
ARC
  5
535
330
4D8
100
AcDbEntity
  8
Hidden
  6
HIDDEN
100
AcDbCircle
 10
16.50000000000045
 20
-47.70519082106602
 30
0.0
 40
0.3
100
AcDbArc
 50
270.9999999999757
 51
0.0
  0
LINE
  5
536
330
4D8
100
AcDbEntity
  8
Hidden
  6
HIDDEN
100
AcDbLine
 10
10.5999999999999
 20
-46.31341222362016
 30
0.0
 11
10.59999999999854
 21
-42.90303058148947
 31
0.0
  0
POINT
  5
537
330
4D8
100
AcDbEntity
  8
Hidden
  6
Continuous
100
AcDbPoint
 10
22.79999999999972
 20
-49.55236519478456
 30
0.0
  0
ARC
  5
538
330
4D8
100
AcDbEntity
  8
Hidden
  6
Continuous
100
AcDbCircle
 10
22.59999999999854
 20
-46.62661086110847
 30
0.0
 40
0.2
100
AcDbArc
 50
271.5000000000417
 51
0.0
  0
LINE
  5
539
330
4D8
100
AcDbEntity
  8
Center
100
AcDbLine
 10
15.79999999999927
 20
-24.59800000000018
 30
0.0
 11
22.79999999999972
 21
-24.59800000000018
 31
0.0
  0
LINE
  5
53A
330
4D8
100
AcDbEntity
  8
Hidden
  6
HIDDEN
100
AcDbLine
 10
20.08953015099223
 20
-19.83788938433639
 30
0.0
 11
22.51046984901177
 21
-19.75334830718855
 31
0.0
  0
LINE
  5
53B
330
4D8
100
AcDbEntity
  8
Hidden
  6
HIDDEN
100
AcDbLine
 10
20.08953015099086
 20
-29.35811061566374
 30
0.0
 11
22.51046984901177
 21
-29.44265169281186
 31
0.0
  0
LINE
  5
53C
330
4D8
100
AcDbEntity
  8
Hidden
  6
Continuous
100
AcDbLine
 10
19.800000000002
 20
-29.15146054737693
 30
0.0
 11
19.80000000000291
 21
-20.04453945262332
 31
0.0
  0
POINT
  5
53D
330
4D8
100
AcDbEntity
  8
Hidden
  6
Continuous
100
AcDbPoint
 10
19.80000000000291
 20
-19.84800000000001
 30
0.0
  0
ARC
  5
53E
330
4D8
100
AcDbEntity
  8
Hidden
  6
Continuous
100
AcDbCircle
 10
20.10000000000309
 20
-20.13770663244201
 30
0.0
 40
0.3
100
AcDbArc
 50
92.00000000002971
 51
179.9999999999902
  0
POINT
  5
53F
330
4D8
100
AcDbEntity
  8
Hidden
  6
Continuous
100
AcDbPoint
 10
19.80000000000109
 20
-29.34800000000013
 30
0.0
  0
ARC
  5
540
330
4D8
100
AcDbEntity
  8
Hidden
  6
Continuous
100
AcDbCircle
 10
20.10000000000172
 20
-29.05829336755806
 30
0.0
 40
0.3
100
AcDbArc
 50
179.9999999999902
 51
267.9999999999703
  0
LINE
  5
541
330
4D8
100
AcDbEntity
  8
Hidden
100
AcDbLine
 10
16.80000000000109
 20
-26.45036519478492
 30
0.0
 11
19.80000000000245
 21
-26.39800000000025
 31
0.0
  0
LINE
  5
542
330
4D8
100
AcDbEntity
  8
Hidden
100
AcDbLine
 10
16.80000000000109
 20
-22.7456348052155
 30
0.0
 11
19.80000000000291
 21
-22.79800000000017
 31
0.0
  0
POINT
  5
543
330
4D8
100
AcDbEntity
  8
Hidden
  6
Continuous
100
AcDbPoint
 10
19.79999999999836
 20
-22.79800000000011
 30
0.0
  0
POINT
  5
544
330
4D8
100
AcDbEntity
  8
Hidden
  6
Continuous
100
AcDbPoint
 10
19.7999999999979
 20
-26.39800000000031
 30
0.0
  0
POINT
  5
545
330
4D8
100
AcDbEntity
  8
Hidden
  6
Continuous
100
AcDbPoint
 10
22.80000000000063
 20
-19.74323769152493
 30
0.0
  0
ARC
  5
546
330
4D8
100
AcDbEntity
  8
Hidden
  6
Continuous
100
AcDbCircle
 10
22.50000000000091
 20
-19.45353105908282
 30
0.0
 40
0.3
100
AcDbArc
 50
272.0000000000296
 51
0.0
  0
POINT
  5
547
330
4D8
100
AcDbEntity
  8
Hidden
  6
Continuous
100
AcDbPoint
 10
22.80000000000018
 20
-29.45276230847543
 30
0.0
  0
ARC
  5
548
330
4D8
100
AcDbEntity
  8
Hidden
  6
Continuous
100
AcDbCircle
 10
22.50000000000091
 20
-29.7424689409176
 30
0.0
 40
0.3
100
AcDbArc
 50
0.0
 51
87.99999999997028
  0
LINE
  5
549
330
4D8
100
AcDbEntity
  8
Center
 48
5.0
100
AcDbLine
 10
33.09999999999991
 20
0.0
 30
0.0
 11
-9.999999999999545
 21
0.0
 31
0.0
  0
LINE
  5
54A
330
4D8
100
AcDbEntity
  8
Center
 48
5.0
100
AcDbLine
 10
33.09999999999991
 20
0.0
 30
0.0
 11
-9.999999999999545
 21
0.0
 31
0.0
  0
LINE
  5
54B
330
4D8
100
AcDbEntity
  8
Hidden
  6
Continuous
100
AcDbLine
 10
19.800000000002
 20
5.848539452623072
 30
0.0
 11
19.80000000000291
 21
14.95546054737667
 31
0.0
  0
LINE
  5
54C
330
4D8
100
AcDbEntity
  8
Center
100
AcDbLine
 10
15.80000000000109
 20
10.40199999999981
 30
0.0
 11
22.80000000000109
 21
10.40199999999981
 31
0.0
  0
LINE
  5
54D
330
4D8
100
AcDbEntity
  8
Hidden
  6
HIDDEN
100
AcDbLine
 10
20.08953015099086
 20
5.641889384336252
 30
0.0
 11
22.51046984901177
 21
5.557348307188135
 31
0.0
  0
ARC
  5
54E
330
4D8
100
AcDbEntity
  8
Hidden
  6
Continuous
100
AcDbCircle
 10
20.10000000000172
 20
5.941706632441935
 30
0.0
 40
0.3
100
AcDbArc
 50
179.9999999999902
 51
267.9999999999703
  0
POINT
  5
54F
330
4D8
100
AcDbEntity
  8
Hidden
  6
Continuous
100
AcDbPoint
 10
19.80000000000109
 20
5.651999999999873
 30
0.0
  0
LINE
  5
550
330
4D8
100
AcDbEntity
  8
Hidden
100
AcDbLine
 10
16.80000000000063
 20
12.25436519478449
 30
0.0
 11
19.80000000000245
 21
12.20199999999982
 31
0.0
  0
LINE
  5
551
330
4D8
100
AcDbEntity
  8
Hidden
100
AcDbLine
 10
16.80000000000063
 20
8.549634805215077
 30
0.0
 11
19.800000000002
 21
8.601999999999748
 31
0.0
  0
POINT
  5
552
330
4D8
100
AcDbEntity
  8
Hidden
  6
Continuous
100
AcDbPoint
 10
19.80000000000245
 20
12.20199999999982
 30
0.0
  0
POINT
  5
553
330
4D8
100
AcDbEntity
  8
Hidden
  6
Continuous
100
AcDbPoint
 10
19.800000000002
 20
8.601999999999748
 30
0.0
  0
ARC
  5
554
330
4D8
100
AcDbEntity
  8
Hidden
  6
Continuous
100
AcDbCircle
 10
22.50000000000091
 20
5.257531059082396
 30
0.0
 40
0.3
100
AcDbArc
 50
0.0
 51
87.99999999997028
  0
POINT
  5
555
330
4D8
100
AcDbEntity
  8
Hidden
  6
Continuous
100
AcDbPoint
 10
22.80000000000018
 20
5.547237691524571
 30
0.0
  0
LINE
  5
556
330
4D8
100
AcDbEntity
  8
Hidden
  6
HIDDEN
100
AcDbLine
 10
20.08953015099223
 20
15.1621106156636
 30
0.0
 11
22.51046984901177
 21
15.24665169281144
 31
0.0
  0
ARC
  5
557
330
4D8
100
AcDbEntity
  8
Hidden
  6
Continuous
100
AcDbCircle
 10
20.10000000000309
 20
14.86229336755798
 30
0.0
 40
0.3
100
AcDbArc
 50
92.00000000002971
 51
179.9999999999902
  0
POINT
  5
558
330
4D8
100
AcDbEntity
  8
Hidden
  6
Continuous
100
AcDbPoint
 10
19.80000000000291
 20
15.15199999999998
 30
0.0
  0
ARC
  5
559
330
4D8
100
AcDbEntity
  8
Hidden
  6
Continuous
100
AcDbCircle
 10
22.50000000000091
 20
15.54646894091717
 30
0.0
 40
0.3
100
AcDbArc
 50
272.0000000000296
 51
0.0
  0
POINT
  5
55A
330
4D8
100
AcDbEntity
  8
Hidden
  6
Continuous
100
AcDbPoint
 10
22.80000000000063
 20
15.25676230847506
 30
0.0
  0
LINE
  5
55B
330
4D8
100
AcDbEntity
  8
Center
 48
5.0
100
AcDbLine
 10
26.06288606596535
 20
47.99999999999942
 30
0.0
 11
-5.801443265899251
 21
47.99999999999949
 31
0.0
  0
LINE
  5
55C
330
4D8
100
AcDbEntity
  8
Hidden
  6
HIDDEN
100
AcDbLine
 10
10.60000000000218
 20
49.81341222361994
 30
0.0
 11
10.59999999999445
 21
43.10822140255504
 31
0.0
  0
LINE
  5
55D
330
4D8
100
AcDbEntity
  8
Hidden
  6
Continuous
100
AcDbLine
 10
11.04999999999699
 20
44.70000000000007
 30
0.0
 11
11.04999999999699
 21
46.30000000000083
 31
0.0
  0
LINE
  5
55E
330
4D8
100
AcDbEntity
  8
Hidden
  6
Continuous
100
AcDbLine
 10
14.10000000000036
 20
44.70000000000007
 30
0.0
 11
14.10000000000036
 21
46.30000000000083
 31
0.0
  0
LINE
  5
55F
330
4D8
100
AcDbEntity
  8
Hidden
  6
Continuous
100
AcDbLine
 10
15.10000000000081
 20
44.70000000000019
 30
0.0
 11
15.10000000000081
 21
46.29999999999902
 31
0.0
  0
LINE
  5
560
330
4D8
100
AcDbEntity
  8
Hidden
  6
Continuous
100
AcDbLine
 10
15.55000000000109
 20
45.50000000000025
 30
0.0
 11
15.10000000000081
 21
46.30000000000032
 31
0.0
  0
LINE
  5
561
330
4D8
100
AcDbEntity
  8
Hidden
  6
Continuous
100
AcDbLine
 10
13.65000000000054
 20
44.25000000000025
 30
0.0
 11
13.65000000000054
 21
46.75000000000065
 31
0.0
  0
LINE
  5
562
330
4D8
100
AcDbEntity
  8
Hidden
100
AcDbLine
 10
19.80000000000063
 20
45.19313775496118
 30
0.0
 11
19.80000000000063
 21
50.80686224503825
 31
0.0
  0
LINE
  5
563
330
4D8
100
AcDbEntity
  8
Hidden
  6
HIDDEN
100
AcDbLine
 10
22.60697989934078
 20
44.90197810196639
 30
0.0
 11
19.99302010066003
 21
44.99325958955739
 31
0.0
  0
POINT
  5
564
330
4D8
100
AcDbEntity
  8
Hidden
100
AcDbPoint
 10
19.80000000000063
 20
44.99999999999966
 30
0.0
  0
ARC
  5
565
330
4D8
100
AcDbEntity
  8
Hidden
100
AcDbCircle
 10
20.00000000000091
 20
45.19313775496118
 30
0.0
 40
0.2
100
AcDbArc
 50
180.0
 51
267.9999999999963
  0
ARC
  5
566
330
4D8
100
AcDbEntity
  8
Object2
100
AcDbCircle
 10
16.5000000000009
 20
44.70519082106534
 30
0.0
 40
0.3
100
AcDbArc
 50
0.0
 51
89.0000000000243
  0
POINT
  5
567
330
4D8
100
AcDbEntity
  8
Object2
100
AcDbPoint
 10
16.80000000000109
 20
45.0
 30
0.0
  0
POINT
  5
568
330
4D8
100
AcDbEntity
  8
Text
100
AcDbPoint
 10
16.80000000000109
 20
43.0
 30
0.0
  0
ARC
  5
569
330
4D8
100
AcDbEntity
  8
Object2
100
AcDbCircle
 10
1.300000000000181
 20
45.57059920480059
 30
0.0
 40
0.3
100
AcDbArc
 50
180.0
 51
269.0000000000242
  0
POINT
  5
56A
330
4D8
100
AcDbEntity
  8
Object2
100
AcDbPoint
 10
1.0
 20
45.27579002586594
 30
0.0
  0
LINE
  5
56B
330
4D8
100
AcDbEntity
  8
Object2
  6
HIDDEN
100
AcDbLine
 10
1.294764278069123
 20
45.27064489625376
 30
0.0
 11
16.50523572193196
 21
45.00514512961228
 31
0.0
  0
LINE
  5
56C
330
4D8
100
AcDbEntity
  8
Hidden
  6
HIDDEN
100
AcDbLine
 10
10.89476427806539
 20
43.10307627294287
 30
0.0
 11
16.50523572193196
 21
43.00514512961228
 31
0.0
  0
ARC
  5
56D
330
4D8
100
AcDbEntity
  8
Hidden
  6
HIDDEN
100
AcDbCircle
 10
10.89999999999645
 20
43.4030305814897
 30
0.0
 40
0.3
100
AcDbArc
 50
179.9999999999413
 51
269.0000000000242
  0
ARC
  5
56E
330
4D8
100
AcDbEntity
  8
Hidden
  6
HIDDEN
100
AcDbCircle
 10
16.5000000000009
 20
42.70519082106534
 30
0.0
 40
0.3
100
AcDbArc
 50
0.0
 51
89.0000000000243
  0
POINT
  5
56F
330
4D8
100
AcDbEntity
  8
Object2
100
AcDbPoint
 10
10.59999999999627
 20
39.1082214025547
 30
0.0
  0
POINT
  5
570
330
4D8
100
AcDbEntity
  8
Object2
100
AcDbPoint
 10
16.80000000000109
 20
38.99999999999966
 30
0.0
  0
LINE
  5
571
330
4D8
100
AcDbEntity
  8
Hidden
  6
HIDDEN
100
AcDbLine
 10
10.89476427806494
 20
39.10307627294253
 30
0.0
 11
16.50523572193242
 21
39.00514512961183
 31
0.0
  0
ARC
  5
572
330
4D8
100
AcDbEntity
  8
Hidden
  6
HIDDEN
100
AcDbCircle
 10
10.89999999999599
 20
39.40303058148936
 30
0.0
 40
0.3
100
AcDbArc
 50
179.9999999999934
 51
269.0000000000242
  0
ARC
  5
573
330
4D8
100
AcDbEntity
  8
Hidden
  6
HIDDEN
100
AcDbCircle
 10
16.50000000000136
 20
38.70519082106488
 30
0.0
 40
0.3
100
AcDbArc
 50
0.0
 51
89.0000000000243
  0
LINE
  5
574
330
4D8
100
AcDbEntity
  8
Hidden
  6
HIDDEN
100
AcDbLine
 10
10.59999999999627
 20
44.81341222362039
 30
0.0
 11
10.59999999999627
 21
39.40303058148936
 31
0.0
  0
LINE
  5
575
330
4D8
100
AcDbEntity
  8
Hidden
  6
Continuous
100
AcDbLine
 10
10.59999999999718
 20
44.25000000000025
 30
0.0
 11
11.04999999999699
 21
44.70000000000019
 31
0.0
  0
LINE
  5
576
330
4D8
100
AcDbEntity
  8
Hidden
  6
Continuous
100
AcDbLine
 10
10.59999999999718
 20
44.25000000000025
 30
0.0
 11
13.65000000000054
 21
44.25000000000025
 31
0.0
  0
LINE
  5
577
330
4D8
100
AcDbEntity
  8
Hidden
  6
Continuous
100
AcDbLine
 10
10.59999999999718
 20
44.70000000000029
 30
0.0
 11
15.10000000000081
 21
44.70000000000019
 31
0.0
  0
LINE
  5
578
330
4D8
100
AcDbEntity
  8
Hidden
  6
Continuous
100
AcDbLine
 10
13.65000000000054
 20
44.25000000000025
 30
0.0
 11
14.10000000000036
 21
44.70000000000019
 31
0.0
  0
LINE
  5
579
330
4D8
100
AcDbEntity
  8
Hidden
  6
Continuous
100
AcDbLine
 10
15.55000000000109
 20
45.50000000000025
 30
0.0
 11
15.10000000000081
 21
44.70000000000019
 31
0.0
  0
LINE
  5
57A
330
4D8
100
AcDbEntity
  8
Center
100
AcDbLine
 10
15.55000000000154
 20
45.50000000000046
 30
0.0
 11
9.000000000000454
 21
45.50000000000034
 31
0.0
  0
ARC
  5
57B
330
4D8
100
AcDbEntity
  8
Object2
100
AcDbCircle
 10
10.29999999999654
 20
44.81341222362039
 30
0.0
 40
0.3
100
AcDbArc
 50
359.9999999999934
 51
89.0000000000243
  0
POINT
  5
57C
330
4D8
100
AcDbEntity
  8
Object2
100
AcDbPoint
 10
10.59999999999672
 20
45.10822140255505
 30
0.0
  0
POINT
  5
57D
330
4D8
100
AcDbEntity
  8
Text
100
AcDbPoint
 10
10.59999999999445
 20
43.10822140255504
 30
0.0
  0
ARC
  5
57E
330
4D8
100
AcDbEntity
  8
Hidden
100
AcDbCircle
 10
22.60000000000036
 20
44.7020999365626
 30
0.0
 40
0.2
100
AcDbArc
 50
0.0
 51
87.99999999999633
  0
LINE
  5
57F
330
4D8
100
AcDbEntity
  8
Hidden
  6
HIDDEN
100
AcDbLine
 10
22.60697989934078
 20
51.09802189803247
 30
0.0
 11
19.99302010066003
 21
51.00674041044204
 31
0.0
  0
LINE
  5
580
330
4D8
100
AcDbEntity
  8
Hidden
  6
HIDDEN
100
AcDbLine
 10
22.60349048128728
 20
51.14893510837584
 30
0.0
 11
19.99650951871899
 21
51.10343008640763
 31
0.0
  0
LINE
  5
581
330
4D8
100
AcDbEntity
  8
Object
100
AcDbLine
 10
0.0000000000004547
 20
53.49999999999988
 30
0.0
 11
22.30872620321906
 21
53.11059973565761
 31
0.0
  0
POINT
  5
582
330
4D8
100
AcDbEntity
  8
Text
100
AcDbPoint
 10
16.80000000000109
 20
47.99999999999386
 30
0.0
  0
POINT
  5
583
330
4D8
100
AcDbEntity
  8
Text
100
AcDbPoint
 10
10.60000000000172
 20
50.10822140255505
 30
0.0
  0
POINT
  5
584
330
4D8
100
AcDbEntity
  8
Hidden
100
AcDbPoint
 10
19.80000000000063
 20
50.99999999999965
 30
0.0
  0
ARC
  5
585
330
4D8
100
AcDbEntity
  8
Hidden
100
AcDbCircle
 10
20.00000000000045
 20
50.80686224503825
 30
0.0
 40
0.2
100
AcDbArc
 50
92.00000000000366
 51
180.0
  0
POINT
  5
586
330
4D8
100
AcDbEntity
  8
Text
100
AcDbPoint
 10
16.80000000000063
 20
50.0
 30
0.0
  0
ARC
  5
587
330
4D8
100
AcDbEntity
  8
Hidden
  6
Continuous
100
AcDbCircle
 10
20.00000000000636
 20
50.90346054737636
 30
0.0
 40
0.2
100
AcDbArc
 50
91.00000000000177
 51
179.9999999999934
  0
POINT
  5
588
330
4D8
100
AcDbEntity
  8
Hidden
  6
Continuous
100
AcDbPoint
 10
19.80000000000609
 20
51.09999999999946
 30
0.0
  0
LINE
  5
589
330
4D8
100
AcDbEntity
  8
Hidden
  6
Continuous
100
AcDbLine
 10
19.60000000000627
 20
46.39999999999941
 30
0.0
 11
19.80000000000563
 21
46.19999999999942
 31
0.0
  0
LINE
  5
58A
330
4D8
100
AcDbEntity
  8
Hidden
  6
Continuous
100
AcDbLine
 10
19.60000000000627
 20
49.59999999999943
 30
0.0
 11
19.80000000000563
 21
49.79999999999941
 31
0.0
  0
LINE
  5
58B
330
4D8
100
AcDbEntity
  8
Hidden
100
AcDbLine
 10
19.60000000000627
 20
46.39999999999938
 30
0.0
 11
19.60000000000627
 21
49.59999999999936
 31
0.0
  0
LINE
  5
58C
330
4D8
100
AcDbEntity
  8
DIM
100
AcDbLine
 10
0.0
 20
53.50000000000068
 30
0.0
 11
-0.0000000000004547
 21
52.34422489778911
 31
0.0
  0
ARC
  5
58D
330
4D8
100
AcDbEntity
  8
Hidden
100
AcDbCircle
 10
0.3000000000001819
 20
52.51226424386306
 30
0.0
 40
0.3
100
AcDbArc
 50
180.0
 51
269.0000000000242
  0
ARC
  5
58E
330
4D8
100
AcDbEntity
  8
Hidden
100
AcDbCircle
 10
0.7000000000002729
 20
51.90519082106544
 30
0.0
 40
0.3
100
AcDbArc
 50
0.0
 51
89.0000000000243
  0
ARC
  5
58F
330
4D8
100
AcDbEntity
  8
Object
100
AcDbCircle
 10
0.3000000000001819
 20
53.19471778210822
 30
0.0
 40
0.3
100
AcDbArc
 50
89.0000000000243
 51
180.0
  0
LINE
  5
590
330
4D8
100
AcDbEntity
  8
Hidden
100
AcDbLine
 10
0.294764278069124
 20
52.21230993531611
 30
0.0
 11
0.7052357219313308
 21
52.20514512961227
 31
0.0
  0
POINT
  5
591
330
4D8
100
AcDbEntity
  8
Text
100
AcDbPoint
 10
1.000000000000454
 20
50.27579002586595
 30
0.0
  0
POINT
  5
592
330
4D8
100
AcDbEntity
  8
Hidden
100
AcDbPoint
 10
1.000000000000454
 20
52.2000000000001
 30
0.0
  0
POINT
  5
593
330
4D8
100
AcDbEntity
  8
Hidden
100
AcDbPoint
 10
0.0000000000004547
 20
52.2174550649284
 30
0.0
  0
POINT
  5
594
330
4D8
100
AcDbEntity
  8
Text
100
AcDbPoint
 10
-0.0006091729810578
 20
51.70002127278957
 30
0.0
  0
LINE
  5
595
330
4D8
100
AcDbEntity
  8
Hidden
  6
Continuous
100
AcDbLine
 10
1.20000000000482
 20
46.39999999999946
 30
0.0
 11
1.000000000005002
 21
46.19999999999947
 31
0.0
  0
LINE
  5
596
330
4D8
100
AcDbEntity
  8
Hidden
  6
Continuous
100
AcDbLine
 10
1.20000000000482
 20
49.59999999999945
 30
0.0
 11
1.000000000005002
 21
49.79999999999944
 31
0.0
  0
LINE
  5
597
330
4D8
100
AcDbEntity
  8
Hidden
  6
Continuous
100
AcDbLine
 10
1.200000000004365
 20
46.39999999999955
 30
0.0
 11
1.20000000000482
 21
49.59999999999943
 31
0.0
  0
POINT
  5
598
330
4D8
100
AcDbEntity
  8
Text
  6
Continuous
100
AcDbPoint
 10
-0.0000000000004547
 20
50.2932450907941
 30
0.0
  0
LINE
  5
599
330
4D8
100
AcDbEntity
  8
Hidden
100
AcDbLine
 10
19.60000000000627
 20
46.39999999999946
 30
0.0
 11
1.20000000000482
 21
46.39999999999949
 31
0.0
  0
LINE
  5
59A
330
4D8
100
AcDbEntity
  8
Hidden
100
AcDbLine
 10
19.60000000000673
 20
49.59999999999943
 30
0.0
 11
1.20000000000482
 21
49.59999999999943
 31
0.0
  0
LINE
  5
59B
330
4D8
100
AcDbEntity
  8
Hidden
  6
HIDDEN
100
AcDbLine
 10
10.89476427806857
 20
48.10307627293673
 30
0.0
 11
16.50523572193242
 21
48.00514512960615
 31
0.0
  0
ARC
  5
59C
330
4D8
100
AcDbEntity
  8
Hidden
  6
HIDDEN
100
AcDbCircle
 10
10.89999999999963
 20
48.40303058148356
 30
0.0
 40
0.3
100
AcDbArc
 50
179.9999999999413
 51
269.0000000000242
  0
ARC
  5
59D
330
4D8
100
AcDbEntity
  8
Hidden
  6
HIDDEN
100
AcDbCircle
 10
16.50000000000136
 20
47.7051908210592
 30
0.0
 40
0.3
100
AcDbArc
 50
0.0
 51
89.0000000000243
  0
ARC
  5
59E
330
4D8
100
AcDbEntity
  8
Hidden
  6
HIDDEN
100
AcDbCircle
 10
10.30000000000063
 20
49.81341222362027
 30
0.0
 40
0.3
100
AcDbArc
 50
359.9999999999413
 51
89.0000000000243
  0
ARC
  5
59F
330
4D8
100
AcDbEntity
  8
Hidden
  6
HIDDEN
100
AcDbCircle
 10
16.5000000000009
 20
49.70519082106534
 30
0.0
 40
0.3
100
AcDbArc
 50
0.0
 51
89.0000000000243
  0
ARC
  5
5A0
330
4D8
100
AcDbEntity
  8
Hidden
  6
HIDDEN
100
AcDbCircle
 10
1.300000000000636
 20
50.5705992048006
 30
0.0
 40
0.3
100
AcDbArc
 50
180.0000000000065
 51
269.0000000000242
  0
ARC
  5
5A1
330
4D8
100
AcDbEntity
  8
Hidden
  6
HIDDEN
100
AcDbCircle
 10
0.2999999999997271
 20
50.58805426972878
 30
0.0
 40
0.3
100
AcDbArc
 50
180.0
 51
269.0000000000242
  0
LINE
  5
5A2
330
4D8
100
AcDbEntity
  8
Hidden
  6
HIDDEN
100
AcDbLine
 10
0.2947642780686692
 20
50.28809996118193
 30
0.0
 11
16.50523572193196
 21
50.00514512961217
 31
0.0
  0
LINE
  5
5A3
330
4D8
100
AcDbEntity
  8
Hidden
  6
Continuous
100
AcDbLine
 10
13.65000000000054
 20
46.75000000000025
 30
0.0
 11
14.10000000000036
 21
46.30000000000032
 31
0.0
  0
LINE
  5
5A4
330
4D8
100
AcDbEntity
  8
Hidden
  6
Continuous
100
AcDbLine
 10
10.59999999999718
 20
46.30000000000021
 30
0.0
 11
15.10000000000081
 21
46.30000000000032
 31
0.0
  0
LINE
  5
5A5
330
4D8
100
AcDbEntity
  8
Hidden
  6
Continuous
100
AcDbLine
 10
10.59999999999718
 20
46.75000000000025
 30
0.0
 11
13.65000000000054
 21
46.75000000000025
 31
0.0
  0
LINE
  5
5A6
330
4D8
100
AcDbEntity
  8
Hidden
  6
Continuous
100
AcDbLine
 10
10.59999999999718
 20
46.75000000000025
 30
0.0
 11
11.04999999999699
 21
46.30000000000032
 31
0.0
  0
POINT
  5
5A7
330
4D8
100
AcDbEntity
  8
Text
100
AcDbPoint
 10
10.59999999999945
 20
48.10822140254891
 30
0.0
  0
POINT
  5
5A8
330
4D8
100
AcDbEntity
  8
Hidden
100
AcDbPoint
 10
22.80000000000063
 20
51.26246599057754
 30
0.0
  0
ARC
  5
5A9
330
4D8
100
AcDbEntity
  8
Hidden
100
AcDbCircle
 10
22.60000000000036
 20
51.29790006343625
 30
0.0
 40
0.2
100
AcDbArc
 50
272.0000000000036
 51
0.0
  0
ARC
  5
5AA
330
4D8
100
AcDbEntity
  8
Object
100
AcDbCircle
 10
22.30000000000063
 20
52.61067588807941
 30
0.0
 40
0.5
100
AcDbArc
 50
0.0
 51
88.99999999999824
  0
ARC
  5
5AB
330
4D8
100
AcDbEntity
  8
Hidden
  6
Continuous
100
AcDbCircle
 10
22.5999999999999
 20
51.34890464740715
 30
0.0
 40
0.2
100
AcDbArc
 50
270.9999999999757
 51
0.0
  0
POINT
  5
5AC
330
4D8
100
AcDbEntity
  8
Hidden
  6
Continuous
100
AcDbPoint
 10
22.80000000000063
 20
51.15236519478401
 30
0.0
  0
ENDBLK
  5
5AE
330
4D8
100
AcDbEntity
  8
0
100
AcDbBlockEnd
  0
BLOCK
  5
692
330
675
100
AcDbEntity
  8
0
100
AcDbBlockBegin
  2
CB3-30-soku1
 70
     0
 10
0.0
 20
0.0
 30
0.0
  3
CB3-30-soku1
  1

  0
LINE
  5
676
330
675
100
AcDbEntity
  8
Center
  6
CENTER
 62
     1
100
AcDbLine
 10
4.0
 20
0.0
 30
0.0
 11
-30.0
 21
0.0000000000000142
 31
0.0
  0
LINE
  5
677
330
675
100
AcDbEntity
  8
0
  6
Continuous
 62
     7
100
AcDbLine
 10
0.0
 20
1.5
 30
0.0
 11
-29.75
 21
1.500000000000014
 31
0.0
  0
LINE
  5
678
330
675
100
AcDbEntity
  8
0
  6
Continuous
 62
     3
100
AcDbLine
 10
-0.4999999599999683
 20
1.25
 30
0.0
 11
-29.75000003000014
 21
1.250000000000028
 31
0.0
  0
LINE
  5
679
330
675
100
AcDbEntity
  8
0
  6
Continuous
 62
     7
100
AcDbLine
 10
0.0
 20
-1.500000000000014
 30
0.0
 11
-29.75
 21
-1.500000000000042
 31
0.0
  0
LINE
  5
67A
330
675
100
AcDbEntity
  8
0
  6
Continuous
 62
     3
100
AcDbLine
 10
-0.5
 20
-1.249999959999982
 30
0.0
 11
-29.75000003000014
 21
-1.249999959999982
 31
0.0
  0
LINE
  5
67B
330
675
100
AcDbEntity
  8
0
  6
Continuous
 62
     7
100
AcDbLine
 10
-30.0
 20
-1.250000000000042
 30
0.0
 11
-30.0
 21
1.250000000000014
 31
0.0
  0
LINE
  5
67C
330
675
100
AcDbEntity
  8
0
  6
Continuous
 62
     7
100
AcDbLine
 10
-29.75
 20
-1.500000000000042
 30
0.0
 11
-30.0
 21
-1.250000000000042
 31
0.0
  0
LINE
  5
67D
330
675
100
AcDbEntity
  8
0
  6
Continuous
 62
     7
100
AcDbLine
 10
-29.75
 20
1.500000000000014
 30
0.0
 11
-30.0
 21
1.250000000000014
 31
0.0
  0
LINE
  5
67E
330
675
100
AcDbEntity
  8
0
  6
Continuous
 62
     7
100
AcDbLine
 10
-29.75
 20
-1.500000000000042
 30
0.0
 11
-29.75
 21
1.500000000000028
 31
0.0
  0
LINE
  5
67F
330
675
100
AcDbEntity
  8
0
100
AcDbLine
 10
-5.25
 20
-1.249999959999982
 30
0.0
 11
-5.250100000000202
 21
-1.249999959999982
 31
0.0
  0
LINE
  5
680
330
675
100
AcDbEntity
  8
0
  6
Continuous
 62
     7
100
AcDbLine
 10
-0.5
 20
-1.500000000000014
 30
0.0
 11
-0.5
 21
1.5
 31
0.0
  0
LINE
  5
681
330
675
100
AcDbEntity
  8
0
  6
Continuous
 62
     7
100
AcDbLine
 10
0.0
 20
-2.749999999999943
 30
0.0
 11
0.0
 21
2.75
 31
0.0
  0
LINE
  5
682
330
675
100
AcDbEntity
  8
0
  6
Continuous
 62
     7
100
AcDbLine
 10
2.699999999999818
 20
-2.749999999999943
 30
0.0
 11
2.699999999999818
 21
2.750000000000056
 31
0.0
  0
LINE
  5
683
330
675
100
AcDbEntity
  8
0
  6
DASHED
 62
     3
100
AcDbLine
 10
1.699999800000114
 20
-1.443375700000004
 30
0.0
 11
1.699999800000114
 21
1.443375700000032
 31
0.0
  0
LINE
  5
684
330
675
100
AcDbEntity
  8
0
  6
Continuous
 62
     7
100
AcDbLine
 10
3.0
 20
-2.449999999999931
 30
0.0
 11
3.0
 21
2.450000000000031
 31
0.0
  0
LINE
  5
685
330
675
100
AcDbEntity
  8
0
  6
DASHED
 62
     3
100
AcDbLine
 10
1.699999800000114
 20
-1.443375599999995
 30
0.0
 11
0.8666665999999167
 21
0.0000000928813364
 31
0.0
  0
LINE
  5
686
330
675
100
AcDbEntity
  8
0
100
AcDbLine
 10
2.699999999999818
 20
2.75
 30
0.0
 11
3.0
 21
2.450000000000031
 31
0.0
  0
LINE
  5
687
330
675
100
AcDbEntity
  8
0
  6
DASHED
 62
     3
100
AcDbLine
 10
3.0
 20
1.443375700000032
 30
0.0
 11
1.699999800000114
 21
1.443375700000032
 31
0.0
  0
LINE
  5
688
330
675
100
AcDbEntity
  8
0
  6
DASHED
 62
     3
100
AcDbLine
 10
3.0
 20
0.7216878500000093
 30
0.0
 11
1.699999800000114
 21
0.7216878500000093
 31
0.0
  0
LINE
  5
689
330
675
100
AcDbEntity
  8
0
 62
     3
100
AcDbLine
 10
-0.5
 20
1.25
 30
0.0
 11
-0.0669872981079607
 21
1.500000000000056
 31
0.0
  0
LINE
  5
68A
330
675
100
AcDbEntity
  8
0
  6
DASHED
 62
     3
100
AcDbLine
 10
1.699999800000114
 20
1.44337560000001
 30
0.0
 11
0.8666665999999167
 21
-0.0000000928813648
 31
0.0
  0
LINE
  5
68B
330
675
100
AcDbEntity
  8
0
  6
Continuous
 62
     7
100
AcDbLine
 10
2.699999999999818
 20
2.750000000000056
 30
0.0
 11
0.0
 21
2.75
 31
0.0
  0
LINE
  5
68C
330
675
100
AcDbEntity
  8
0
100
AcDbLine
 10
2.699999999999818
 20
-2.749999999999943
 30
0.0
 11
3.0
 21
-2.449999999999931
 31
0.0
  0
LINE
  5
68D
330
675
100
AcDbEntity
  8
0
  6
DASHED
 62
     3
100
AcDbLine
 10
3.0
 20
-0.7216878499999524
 30
0.0
 11
1.699999800000114
 21
-0.7216878499999524
 31
0.0
  0
LINE
  5
68E
330
675
100
AcDbEntity
  8
0
  6
DASHED
 62
     3
100
AcDbLine
 10
3.0
 20
-1.443375700000004
 30
0.0
 11
1.699999800000114
 21
-1.443375700000004
 31
0.0
  0
LINE
  5
68F
330
675
100
AcDbEntity
  8
0
 62
     3
100
AcDbLine
 10
-0.5
 20
-1.249999959999982
 30
0.0
 11
-0.0669872288258375
 21
-1.500000000000014
 31
0.0
  0
LINE
  5
690
330
675
100
AcDbEntity
  8
0
  6
Continuous
 62
     7
100
AcDbLine
 10
2.699999999999818
 20
-2.749999999999943
 30
0.0
 11
0.0
 21
-2.749999999999943
 31
0.0
  0
LINE
  5
691
330
675
100
AcDbEntity
  8
0
100
AcDbLine
 10
-2.875
 20
-1.249999959999982
 30
0.0
 11
-2.875
 21
-1.250099959999985
 31
0.0
  0
ENDBLK
  5
693
330
675
100
AcDbEntity
  8
0
100
AcDbBlockEnd
  0
BLOCK
  5
778
330
71E
100
AcDbEntity
  8
0
100
AcDbBlockBegin
  2
1-178128-4-jo1
 70
     0
 10
0.0
 20
0.0
 30
0.0
  3
1-178128-4-jo1
  1

  0
LINE
  5
71F
330
71E
100
AcDbEntity
  8
Object
100
AcDbLine
 10
-4.579999999999927
 20
-22.79999999999995
 30
0.0
 11
-0.5
 21
-22.79999999999995
 31
0.0
  0
LINE
  5
720
330
71E
100
AcDbEntity
  8
Object
100
AcDbLine
 10
-12.16000000000008
 20
-6.5
 30
0.0
 11
12.15999999999985
 21
-6.5
 31
0.0
  0
LINE
  5
721
330
71E
100
AcDbEntity
  8
Object
100
AcDbLine
 10
-14.46000000000003
 20
0.0000000000000568
 30
0.0
 11
14.46000000000003
 21
-0.0000000000000568
 31
0.0
  0
LINE
  5
722
330
71E
100
AcDbEntity
  8
Object
100
AcDbLine
 10
-5.579999999999927
 20
-10.29999999999995
 30
0.0
 11
-5.579999999999927
 21
-22.80000000000001
 31
0.0
  0
LINE
  5
723
330
71E
100
AcDbEntity
  8
Object
100
AcDbLine
 10
-4.579999999999927
 20
-10.29999999999995
 30
0.0
 11
-4.579999999999927
 21
-22.80000000000001
 31
0.0
  0
LINE
  5
724
330
71E
100
AcDbEntity
  8
Object
100
AcDbLine
 10
-6.36999999999989
 20
-6.499999999999943
 30
0.0
 11
-6.36999999999989
 21
-22.79999999999995
 31
0.0
  0
LINE
  5
725
330
71E
100
AcDbEntity
  8
Center
100
AcDbLine
 10
-7.61999999999989
 20
-6.499999999999943
 30
0.0
 11
-7.61999999999989
 21
-22.79999999999995
 31
0.0
  0
LINE
  5
726
330
71E
100
AcDbEntity
  8
Object
100
AcDbLine
 10
-3.789999999999963
 20
-6.5
 30
0.0
 11
-3.789999999999963
 21
-22.79999999999995
 31
0.0
  0
LINE
  5
727
330
71E
100
AcDbEntity
  8
Object
100
AcDbLine
 10
-12.16000000000008
 20
0.0000000000000568
 30
0.0
 11
-12.16000000000008
 21
-22.79999999999995
 31
0.0
  0
LINE
  5
728
330
71E
100
AcDbEntity
  8
Object
100
AcDbLine
 10
-12.16000000000008
 20
-22.79999999999995
 30
0.0
 11
-5.579999999999927
 21
-22.79999999999995
 31
0.0
  0
TEXT
  5
729
330
71E
100
AcDbEntity
  8
Object
100
AcDbText
 10
-6.876163952245633
 20
-3.85990293482564
 30
0.0
 40
1.0
  1
AMP
 50
180.0
  7
GDT
100
AcDbText
  0
LINE
  5
72A
330
71E
100
AcDbEntity
  8
Text
  6
HIDDEN
 48
0.1
100
AcDbLine
 10
-11.16000000000008
 20
-3.5
 30
0.0
 11
-11.16000000000008
 21
-5.499999999999943
 31
0.0
  0
LINE
  5
72B
330
71E
100
AcDbEntity
  8
Text
  6
HIDDEN
 48
0.1
100
AcDbLine
 10
-5.160000000000081
 20
-3.5
 30
0.0
 11
-5.160000000000081
 21
-5.5
 31
0.0
  0
LINE
  5
72C
330
71E
100
AcDbEntity
  8
Text
  6
HIDDEN
 48
0.2
100
AcDbLine
 10
-15.88999999999987
 20
-0.9999999999998863
 30
0.0
 11
-15.88999999999987
 21
-5.074688351406507
 31
0.0
  0
LINE
  5
72D
330
71E
100
AcDbEntity
  8
Text
  6
HIDDEN
 48
0.2
100
AcDbLine
 10
-16.38999999999987
 20
-0.9999999999998863
 30
0.0
 11
-16.38999999999987
 21
-5.074688351406507
 31
0.0
  0
LINE
  5
72E
330
71E
100
AcDbEntity
  8
Object
100
AcDbLine
 10
-12.66000000000008
 20
-3.0
 30
0.0
 11
-12.66000000000031
 21
-9.5
 31
0.0
  0
LINE
  5
72F
330
71E
100
AcDbEntity
  8
Object
100
AcDbLine
 10
-17.38999999999987
 20
-1.499999999999886
 30
0.0
 11
-17.38999999999987
 21
-4.204150096994339
 31
0.0
  0
LINE
  5
730
330
71E
100
AcDbEntity
  8
Object
100
AcDbLine
 10
-12.16000000000008
 20
-13.5
 30
0.0
 11
-13.16000000000008
 21
-10.0
 31
0.0
  0
LINE
  5
731
330
71E
100
AcDbEntity
  8
Object
100
AcDbLine
 10
-12.66000000000008
 20
-9.5
 30
0.0
 11
-12.16000000000008
 21
-13.5
 31
0.0
  0
LINE
  5
732
330
71E
100
AcDbEntity
  8
Object
100
AcDbLine
 10
-5.579999999999927
 20
-10.29999999999995
 30
0.0
 11
-4.579999999999927
 21
-10.29999999999995
 31
0.0
  0
ARC
  5
733
330
71E
100
AcDbEntity
  8
Object
100
AcDbCircle
 10
-16.88999999999987
 20
-4.204150096994339
 30
0.0
 40
0.5
100
AcDbArc
 50
180.0
 51
240.8494098705589
  0
LINE
  5
734
330
71E
100
AcDbEntity
  8
Text
  6
HIDDEN
 48
0.1
100
AcDbLine
 10
-11.16000000000008
 20
-5.5
 30
0.0
 11
-5.160000000000081
 21
-5.5
 31
0.0
  0
ARC
  5
735
330
71E
100
AcDbEntity
  8
Object
100
AcDbCircle
 10
-27.92601118199945
 20
-23.99081533531295
 30
0.0
 40
22.15624999999976
100
AcDbArc
 50
46.44773132824702
 51
60.84940987055894
  0
LINE
  5
736
330
71E
100
AcDbEntity
  8
Object
100
AcDbLine
 10
-13.16000000000008
 20
-9.5
 30
0.0
 11
-13.16000000000008
 21
-10.00000000000022
 31
0.0
  0
LINE
  5
737
330
71E
100
AcDbEntity
  8
Object
100
AcDbLine
 10
-13.16000000000008
 20
-9.5
 30
0.0
 11
-12.66000000000031
 21
-9.5
 31
0.0
  0
ARC
  5
738
330
71E
100
AcDbEntity
  8
Object
100
AcDbCircle
 10
-16.88999999999987
 20
-1.499999999999886
 30
0.0
 40
0.5
100
AcDbArc
 50
90.0
 51
180.0
  0
LINE
  5
739
330
71E
100
AcDbEntity
  8
Text
  6
HIDDEN
 48
0.1
100
AcDbLine
 10
-8.61999999999989
 20
-0.5
 30
0.0
 11
-6.61999999999989
 21
-0.5
 31
0.0
  0
LINE
  5
73A
330
71E
100
AcDbEntity
  8
Text
  6
HIDDEN
 48
0.1
100
AcDbLine
 10
-8.61999999999989
 20
-2.5
 30
0.0
 11
-6.61999999999989
 21
-2.5
 31
0.0
  0
LINE
  5
73B
330
71E
100
AcDbEntity
  8
Text
  6
HIDDEN
 48
0.1
100
AcDbLine
 10
-6.61999999999989
 20
-0.5
 30
0.0
 11
-6.61999999999989
 21
-2.5
 31
0.0
  0
LINE
  5
73C
330
71E
100
AcDbEntity
  8
Text
  6
HIDDEN
 48
0.1
100
AcDbLine
 10
-8.61999999999989
 20
-0.5
 30
0.0
 11
-8.61999999999989
 21
-2.5
 31
0.0
  0
TEXT
  5
73D
330
71E
100
AcDbEntity
  8
Object
100
AcDbText
 10
-7.064293675741055
 20
-1.088265929947908
 30
0.0
 40
1.0
  1
4
 50
180.0
  7
GDT
100
AcDbText
  0
LINE
  5
73E
330
71E
100
AcDbEntity
  8
Text
  6
HIDDEN
 48
0.1
100
AcDbLine
 10
-11.16000000000008
 20
-3.5
 30
0.0
 11
-5.160000000000309
 21
-3.5
 31
0.0
  0
LINE
  5
73F
330
71E
100
AcDbEntity
  8
Object
100
AcDbLine
 10
-14.46000000000003
 20
0.0
 30
0.0
 11
-14.46000000000003
 21
-3.0
 31
0.0
  0
LINE
  5
740
330
71E
100
AcDbEntity
  8
Object
100
AcDbLine
 10
-16.88999999999987
 20
-0.9999999999998863
 30
0.0
 11
-14.46000000000003
 21
-0.9999999999998863
 31
0.0
  0
LINE
  5
741
330
71E
100
AcDbEntity
  8
Object
100
AcDbLine
 10
-14.46000000000003
 20
-3.0
 30
0.0
 11
-12.16000000000008
 21
-3.0
 31
0.0
  0
LINE
  5
742
330
71E
100
AcDbEntity
  8
Object
100
AcDbLine
 10
5.579999999999927
 20
-6.5
 30
0.0
 11
5.579999999999927
 21
-22.80000000000001
 31
0.0
  0
LINE
  5
743
330
71E
100
AcDbEntity
  8
Object
100
AcDbLine
 10
4.579999999999927
 20
-6.5
 30
0.0
 11
4.579999999999927
 21
-22.80000000000001
 31
0.0
  0
LINE
  5
744
330
71E
100
AcDbEntity
  8
Center
100
AcDbLine
 10
7.620000000000118
 20
-6.5
 30
0.0
 11
7.61999999999989
 21
-22.80000000000001
 31
0.0
  0
LINE
  5
745
330
71E
100
AcDbEntity
  8
Object
100
AcDbLine
 10
1.289999999999963
 20
-6.5
 30
0.0
 11
1.289999999999963
 21
-22.79999999999995
 31
0.0
  0
LINE
  5
746
330
71E
100
AcDbEntity
  8
Object
100
AcDbLine
 10
-1.289999999999963
 20
-6.5
 30
0.0
 11
-1.289999999999963
 21
-22.79999999999995
 31
0.0
  0
LINE
  5
747
330
71E
100
AcDbEntity
  8
Center
100
AcDbLine
 10
-2.539999999999963
 20
-6.5
 30
0.0
 11
-2.539999999999963
 21
-22.79999999999995
 31
0.0
  0
LINE
  5
748
330
71E
100
AcDbEntity
  8
Center
100
AcDbLine
 10
2.539999999999963
 20
-6.5
 30
0.0
 11
2.539999999999963
 21
-22.79999999999995
 31
0.0
  0
LINE
  5
749
330
71E
100
AcDbEntity
  8
Object
100
AcDbLine
 10
0.5
 20
-10.29999999999995
 30
0.0
 11
0.5
 21
-22.79999999999995
 31
0.0
  0
LINE
  5
74A
330
71E
100
AcDbEntity
  8
Object
100
AcDbLine
 10
-0.5
 20
-10.29999999999995
 30
0.0
 11
-0.5
 21
-22.79999999999995
 31
0.0
  0
LINE
  5
74B
330
71E
100
AcDbEntity
  8
Center
100
AcDbLine
 10
0.0
 20
0.0
 30
0.0
 11
0.0
 21
-22.79999999999995
 31
0.0
  0
LINE
  5
74C
330
71E
100
AcDbEntity
  8
Object
100
AcDbLine
 10
12.15999999999985
 20
-0.0000000000000568
 30
0.0
 11
12.15999999999985
 21
-22.79999999999995
 31
0.0
  0
LINE
  5
74D
330
71E
100
AcDbEntity
  8
Object
100
AcDbLine
 10
5.579999999999927
 20
-22.80000000000001
 30
0.0
 11
12.15999999999985
 21
-22.79999999999995
 31
0.0
  0
LINE
  5
74E
330
71E
100
AcDbEntity
  8
Object
100
AcDbLine
 10
0.5
 20
-22.79999999999995
 30
0.0
 11
4.579999999999927
 21
-22.80000000000001
 31
0.0
  0
LINE
  5
74F
330
71E
100
AcDbEntity
  8
Object
100
AcDbLine
 10
17.38999999999987
 20
-1.499999999999886
 30
0.0
 11
17.38999999999987
 21
-4.204150096994339
 31
0.0
  0
LINE
  5
750
330
71E
100
AcDbEntity
  8
Text
  6
HIDDEN
 48
0.2
100
AcDbLine
 10
16.38999999999987
 20
-0.9999999999998863
 30
0.0
 11
16.38999999999987
 21
-5.074688351406507
 31
0.0
  0
LINE
  5
751
330
71E
100
AcDbEntity
  8
Text
  6
HIDDEN
 48
0.2
100
AcDbLine
 10
15.88999999999987
 20
-0.9999999999998863
 30
0.0
 11
15.88999999999987
 21
-5.074688351406507
 31
0.0
  0
LINE
  5
752
330
71E
100
AcDbEntity
  8
Object
100
AcDbLine
 10
12.65999999999985
 20
-3.0
 30
0.0
 11
12.66000000000008
 21
-9.5
 31
0.0
  0
LINE
  5
753
330
71E
100
AcDbEntity
  8
Text
  6
HIDDEN
 48
0.1
100
AcDbLine
 10
8.159999999999854
 20
-3.5
 30
0.0
 11
8.159999999999854
 21
-5.499999999999943
 31
0.0
  0
LINE
  5
754
330
71E
100
AcDbEntity
  8
Text
  6
HIDDEN
 48
0.1
100
AcDbLine
 10
11.15999999999985
 20
-3.5
 30
0.0
 11
11.15999999999985
 21
-5.499999999999943
 31
0.0
  0
LINE
  5
755
330
71E
100
AcDbEntity
  8
Object
100
AcDbLine
 10
12.15999999999985
 20
-13.5
 30
0.0
 11
13.16000000000008
 21
-10.0
 31
0.0
  0
LINE
  5
756
330
71E
100
AcDbEntity
  8
Object
100
AcDbLine
 10
12.66000000000008
 20
-9.5
 30
0.0
 11
12.15999999999985
 21
-13.5
 31
0.0
  0
LINE
  5
757
330
71E
100
AcDbEntity
  8
Object
100
AcDbLine
 10
5.579999999999927
 20
-10.29999999999995
 30
0.0
 11
4.579999999999927
 21
-10.29999999999995
 31
0.0
  0
LINE
  5
758
330
71E
100
AcDbEntity
  8
Object
100
AcDbLine
 10
-0.5
 20
-10.29999999999995
 30
0.0
 11
0.5
 21
-10.29999999999995
 31
0.0
  0
LINE
  5
759
330
71E
100
AcDbEntity
  8
Text
  6
HIDDEN
 48
0.1
100
AcDbLine
 10
9.159999999999854
 20
-9.5
 30
0.0
 11
11.15999999999985
 21
-9.5
 31
0.0
  0
LINE
  5
75A
330
71E
100
AcDbEntity
  8
Text
  6
HIDDEN
 48
0.1
100
AcDbLine
 10
9.159999999999854
 20
-7.499999999999943
 30
0.0
 11
11.15999999999985
 21
-7.5
 31
0.0
  0
TEXT
  5
75B
330
71E
100
AcDbEntity
  8
Object
100
AcDbText
 10
11.23469542004477
 20
-4.107628057664555
 30
0.0
 40
1.0
  1
D-3
 50
180.0
  7
GDT
100
AcDbText
  0
LINE
  5
75C
330
71E
100
AcDbEntity
  8
Text
  6
HIDDEN
 48
0.1
100
AcDbLine
 10
8.160000000000081
 20
-5.499999999999943
 30
0.0
 11
11.15999999999985
 21
-5.5
 31
0.0
  0
LINE
  5
75D
330
71E
100
AcDbEntity
  8
Text
  6
HIDDEN
 48
0.1
100
AcDbLine
 10
9.159999999999854
 20
-7.499999999999943
 30
0.0
 11
9.159999999999854
 21
-9.499999999999943
 31
0.0
  0
TEXT
  5
75E
330
71E
100
AcDbEntity
  8
Object
100
AcDbText
 10
10.71570632425891
 20
-8.088265929947851
 30
0.0
 40
1.0
  1
X
 50
180.0
  7
GDT
100
AcDbText
  0
LINE
  5
75F
330
71E
100
AcDbEntity
  8
Text
  6
HIDDEN
 48
0.1
100
AcDbLine
 10
11.15999999999985
 20
-7.5
 30
0.0
 11
11.15999999999985
 21
-9.5
 31
0.0
  0
ARC
  5
760
330
71E
100
AcDbEntity
  8
Object
100
AcDbCircle
 10
16.88999999999987
 20
-4.204150096994339
 30
0.0
 40
0.5
100
AcDbArc
 50
299.150590129441
 51
0.0
  0
LINE
  5
761
330
71E
100
AcDbEntity
  8
Object
100
AcDbLine
 10
13.16000000000008
 20
-9.5
 30
0.0
 11
13.15999999999985
 21
-10.00000000000022
 31
0.0
  0
LINE
  5
762
330
71E
100
AcDbEntity
  8
Object
100
AcDbLine
 10
13.16000000000008
 20
-9.5
 30
0.0
 11
12.66000000000008
 21
-9.5
 31
0.0
  0
ARC
  5
763
330
71E
100
AcDbEntity
  8
Object
100
AcDbCircle
 10
27.92601118199923
 20
-23.99081533531295
 30
0.0
 40
22.15624999999976
100
AcDbArc
 50
119.150590129441
 51
133.5522686717529
  0
LINE
  5
764
330
71E
100
AcDbEntity
  8
Text
  6
HIDDEN
 48
0.1
100
AcDbLine
 10
8.159999999999854
 20
-3.499999999999943
 30
0.0
 11
11.15999999999985
 21
-3.5
 31
0.0
  0
LINE
  5
765
330
71E
100
AcDbEntity
  8
Text
  6
HIDDEN
 48
0.1
100
AcDbLine
 10
-3.539999999999963
 20
-0.5
 30
0.0
 11
-1.539999999999963
 21
-0.5
 31
0.0
  0
LINE
  5
766
330
71E
100
AcDbEntity
  8
Text
  6
HIDDEN
 48
0.1
100
AcDbLine
 10
-3.539999999999963
 20
-2.5
 30
0.0
 11
-1.539999999999963
 21
-2.5
 31
0.0
  0
TEXT
  5
767
330
71E
100
AcDbEntity
  8
Object
100
AcDbText
 10
-1.9842936757409
 20
-1.088265929947908
 30
0.0
 40
1.0
  1
3
 50
180.0
  7
GDT
100
AcDbText
  0
LINE
  5
768
330
71E
100
AcDbEntity
  8
Text
  6
HIDDEN
 48
0.1
100
AcDbLine
 10
-3.539999999999963
 20
-0.5
 30
0.0
 11
-3.539999999999963
 21
-2.5
 31
0.0
  0
LINE
  5
769
330
71E
100
AcDbEntity
  8
Text
  6
HIDDEN
 48
0.1
100
AcDbLine
 10
-1.539999999999963
 20
-0.5
 30
0.0
 11
-1.539999999999963
 21
-2.5
 31
0.0
  0
LINE
  5
76A
330
71E
100
AcDbEntity
  8
Text
  6
HIDDEN
 48
0.1
100
AcDbLine
 10
1.539999999999963
 20
-0.5
 30
0.0
 11
3.539999999999963
 21
-0.5
 31
0.0
  0
LINE
  5
76B
330
71E
100
AcDbEntity
  8
Text
  6
HIDDEN
 48
0.1
100
AcDbLine
 10
1.539999999999963
 20
-2.5
 30
0.0
 11
3.539999999999963
 21
-2.500000000000056
 31
0.0
  0
LINE
  5
76C
330
71E
100
AcDbEntity
  8
Text
  6
HIDDEN
 48
0.1
100
AcDbLine
 10
3.539999999999963
 20
-0.5
 30
0.0
 11
3.539999999999963
 21
-2.5
 31
0.0
  0
LINE
  5
76D
330
71E
100
AcDbEntity
  8
Text
  6
HIDDEN
 48
0.1
100
AcDbLine
 10
1.539999999999963
 20
-0.5
 30
0.0
 11
1.539999999999963
 21
-2.5
 31
0.0
  0
TEXT
  5
76E
330
71E
100
AcDbEntity
  8
Object
100
AcDbText
 10
3.095706324259026
 20
-1.088265929947965
 30
0.0
 40
1.0
  1
2
 50
180.0
  7
GDT
100
AcDbText
  0
LINE
  5
76F
330
71E
100
AcDbEntity
  8
Text
  6
HIDDEN
 48
0.1
100
AcDbLine
 10
6.620000000000118
 20
-2.500000000000056
 30
0.0
 11
8.620000000000118
 21
-2.500000000000113
 31
0.0
  0
LINE
  5
770
330
71E
100
AcDbEntity
  8
Text
  6
HIDDEN
 48
0.1
100
AcDbLine
 10
6.620000000000118
 20
-0.5
 30
0.0
 11
8.620000000000118
 21
-0.5000000000000569
 31
0.0
  0
LINE
  5
771
330
71E
100
AcDbEntity
  8
Text
  6
HIDDEN
 48
0.1
100
AcDbLine
 10
6.620000000000118
 20
-0.5
 30
0.0
 11
6.620000000000118
 21
-2.5
 31
0.0
  0
LINE
  5
772
330
71E
100
AcDbEntity
  8
Text
  6
HIDDEN
 48
0.1
100
AcDbLine
 10
8.620000000000118
 20
-0.5000000000000569
 30
0.0
 11
8.620000000000118
 21
-2.500000000000056
 31
0.0
  0
TEXT
  5
773
330
71E
100
AcDbEntity
  8
Object
100
AcDbText
 10
8.175706324258953
 20
-1.088265929947965
 30
0.0
 40
1.0
  1
1
 50
180.0
  7
GDT
100
AcDbText
  0
LINE
  5
774
330
71E
100
AcDbEntity
  8
Object
100
AcDbLine
 10
16.88999999999987
 20
-0.9999999999998863
 30
0.0
 11
14.46000000000003
 21
-0.9999999999998863
 31
0.0
  0
LINE
  5
775
330
71E
100
AcDbEntity
  8
Object
100
AcDbLine
 10
14.46000000000003
 20
-3.0
 30
0.0
 11
12.15999999999985
 21
-3.0
 31
0.0
  0
LINE
  5
776
330
71E
100
AcDbEntity
  8
Object
100
AcDbLine
 10
14.46000000000003
 20
0.0
 30
0.0
 11
14.46000000000003
 21
-3.0
 31
0.0
  0
ARC
  5
777
330
71E
100
AcDbEntity
  8
Object
100
AcDbCircle
 10
16.88999999999987
 20
-1.499999999999886
 30
0.0
 40
0.5
100
AcDbArc
 50
0.0
 51
90.0
  0
ENDBLK
  5
779
330
71E
100
AcDbEntity
  8
0
100
AcDbBlockEnd
  0
BLOCK
  5
949
330
93E
100
AcDbEntity
  8
0
100
AcDbBlockBegin
  2
*D18
 70
     1
 10
0.0
 20
0.0
 30
0.0
  3
*D18
  1

  0
LINE
  5
93F
330
93E
100
AcDbEntity
  8
text3
 62
     0
370
    -2
100
AcDbLine
 10
3.662295417870495
 20
-1862.433959511521
 30
0.0
 11
-7.777001227823645
 21
-1862.433959511521
 31
0.0
  0
LINE
  5
940
330
93E
100
AcDbEntity
  8
text3
 62
     0
370
    -2
100
AcDbLine
 10
3.662295417870682
 20
-1848.43395951152
 30
0.0
 11
-7.777001227823642
 21
-1848.43395951152
 31
0.0
  0
LINE
  5
941
330
93E
100
AcDbEntity
  8
text3
 62
     0
370
    -2
100
AcDbLine
 10
-2.777001227823643
 20
-1853.43395951152
 30
0.0
 11
-2.777001227823644
 21
-1857.433959511521
 31
0.0
  0
LINE
  5
942
330
93E
100
AcDbEntity
  8
text3
 62
     0
370
    -2
100
AcDbLine
 10
-2.777001227823645
 20
-1862.433959511521
 30
0.0
 11
-2.777001227823654
 21
-1902.032511592675
 31
0.0
  0
SOLID
  5
943
330
93E
100
AcDbEntity
  8
text3
 62
     0
100
AcDbTrace
 10
-3.610334561156977
 20
-1853.43395951152
 30
0.0
 11
-1.94366789449031
 21
-1853.43395951152
 31
0.0
 12
-2.777001227823642
 22
-1848.43395951152
 32
0.0
 13
-2.777001227823642
 23
-1848.43395951152
 33
0.0
  0
SOLID
  5
944
330
93E
100
AcDbEntity
  8
text3
 62
     0
100
AcDbTrace
 10
-3.610334561156978
 20
-1857.433959511521
 30
0.0
 11
-1.943667894490311
 21
-1857.433959511521
 31
0.0
 12
-2.777001227823645
 22
-1862.433959511521
 32
0.0
 13
-2.777001227823645
 23
-1862.433959511521
 33
0.0
  0
MTEXT
  5
945
330
93E
100
AcDbEntity
  8
text3
 62
     0
100
AcDbMText
 10
-6.277001227823348
 20
-1891.599178259341
 30
0.0
 40
4.0
 41
0.0
 71
     5
 72
     1
  1
\A1;Φ14h6
 11
0.0000000000000001
 21
1.0
 31
0.0
 73
     1
 44
1.0
  0
POINT
  5
946
330
93E
100
AcDbEntity
  8
Defpoints
 62
     0
100
AcDbPoint
 10
5.662295417870494
 20
-1862.433959511521
 30
0.0
  0
POINT
  5
947
330
93E
100
AcDbEntity
  8
Defpoints
 62
     0
100
AcDbPoint
 10
5.662295417870682
 20
-1848.43395951152
 30
0.0
  0
POINT
  5
948
330
93E
100
AcDbEntity
  8
Defpoints
 62
     0
100
AcDbPoint
 10
-2.777001227823642
 20
-1848.43395951152
 30
0.0
  0
ENDBLK
  5
94A
330
93E
100
AcDbEntity
  8
0
100
AcDbBlockEnd
  0
BLOCK
  5
A25
330
A1B
100
AcDbEntity
  8
0
100
AcDbBlockBegin
  2
*D19
 70
     1
 10
0.0
 20
0.0
 30
0.0
  3
*D19
  1

  0
LINE
  5
A30
330
A1B
100
AcDbEntity
  8
text3
 62
     0
370
    -2
100
AcDbLine
 10
15.68355792906453
 20
-1812.483959511521
 30
0.0
 11
15.68355792906453
 21
-1820.719452001867
 31
0.0
  0
LINE
  5
A31
330
A1B
100
AcDbEntity
  8
text3
 62
     0
370
    -2
100
AcDbLine
 10
90.06229541787012
 20
-1812.483959511521
 30
0.0
 11
90.06229541787012
 21
-1820.719452001867
 31
0.0
  0
LINE
  5
A32
330
A1B
100
AcDbEntity
  8
text3
 62
     0
370
    -2
100
AcDbLine
 10
20.68355792906453
 20
-1815.719452001867
 30
0.0
 11
85.06229541787012
 21
-1815.719452001867
 31
0.0
  0
SOLID
  5
A33
330
A1B
100
AcDbEntity
  8
text3
 62
     0
100
AcDbTrace
 10
20.68355792906453
 20
-1814.886118668534
 30
0.0
 11
20.68355792906453
 21
-1816.5527853352
 31
0.0
 12
15.68355792906453
 22
-1815.719452001867
 32
0.0
 13
15.68355792906453
 23
-1815.719452001867
 33
0.0
  0
SOLID
  5
A34
330
A1B
100
AcDbEntity
  8
text3
 62
     0
100
AcDbTrace
 10
85.06229541787012
 20
-1814.886118668534
 30
0.0
 11
85.06229541787012
 21
-1816.5527853352
 31
0.0
 12
90.06229541787012
 22
-1815.719452001867
 32
0.0
 13
90.06229541787012
 23
-1815.719452001867
 33
0.0
  0
MTEXT
  5
A35
330
A1B
100
AcDbEntity
  8
text3
 62
     0
100
AcDbMText
 10
52.87292667346733
 20
-1812.219452001867
 30
0.0
 40
4.0
 41
0.0
 71
     5
 72
     1
  1
\A1;300±50
 73
     1
 44
1.0
  0
POINT
  5
A36
330
A1B
100
AcDbEntity
  8
Defpoints
 62
     0
100
AcDbPoint
 10
15.68355792906453
 20
-1810.483959511521
 30
0.0
  0
POINT
  5
A37
330
A1B
100
AcDbEntity
  8
Defpoints
 62
     0
100
AcDbPoint
 10
90.06229541787012
 20
-1810.483959511521
 30
0.0
  0
POINT
  5
A38
330
A1B
100
AcDbEntity
  8
Defpoints
 62
     0
100
AcDbPoint
 10
90.06229541787012
 20
-1815.719452001867
 30
0.0
  0
ENDBLK
  5
A26
330
A1B
100
AcDbEntity
  8
0
100
AcDbBlockEnd
  0
BLOCK
  5
ABA
330
AAF
100
AcDbEntity
  8
0
100
AcDbBlockBegin
  2
*D20
 70
     1
 10
0.0
 20
0.0
 30
0.0
  3
*D20
  1

  0
LINE
  5
AC6
330
AAF
100
AcDbEntity
  8
text3
 62
     0
370
    -2
100
AcDbLine
 10
112.1622954178705
 20
-1887.43395951152
 30
0.0
 11
112.1622954178705
 21
-1903.700218130691
 31
0.0
  0
LINE
  5
AC7
330
AAF
100
AcDbEntity
  8
text3
 62
     0
370
    -2
100
AcDbLine
 10
115.1622954178694
 20
-1887.43395951152
 30
0.0
 11
115.1622954178694
 21
-1903.700218130691
 31
0.0
  0
LINE
  5
AC8
330
AAF
100
AcDbEntity
  8
text3
 62
     0
370
    -2
100
AcDbLine
 10
120.1622954178694
 20
-1903.520218130691
 30
0.0
 11
125.1622954178694
 21
-1903.520218130691
 31
0.0
  0
LINE
  5
AC9
330
AAF
100
AcDbEntity
  8
text3
 62
     0
370
    -2
100
AcDbLine
 10
107.1622954178705
 20
-1903.520218130691
 30
0.0
 11
96.49562875120382
 21
-1903.520218130691
 31
0.0
  0
SOLID
  5
ACA
330
AAF
100
AcDbEntity
  8
text3
 62
     0
100
AcDbTrace
 10
120.1622954178694
 20
-1902.686884797357
 30
0.0
 11
120.1622954178694
 21
-1904.353551464024
 31
0.0
 12
115.1622954178694
 22
-1903.520218130691
 32
0.0
 13
115.1622954178694
 23
-1903.520218130691
 33
0.0
  0
SOLID
  5
ACB
330
AAF
100
AcDbEntity
  8
text3
 62
     0
100
AcDbTrace
 10
107.1622954178705
 20
-1902.686884797357
 30
0.0
 11
107.1622954178705
 21
-1904.353551464024
 31
0.0
 12
112.1622954178705
 22
-1903.520218130691
 32
0.0
 13
112.1622954178705
 23
-1903.520218130691
 33
0.0
  0
MTEXT
  5
ACC
330
AAF
100
AcDbEntity
  8
text3
 62
     0
100
AcDbMText
 10
99.32896208453717
 20
-1900.020218130691
 30
0.0
 40
4.0
 41
0.0
 71
     5
 72
     1
  1
\A1;3
 73
     1
 44
1.0
  0
POINT
  5
ACD
330
AAF
100
AcDbEntity
  8
Defpoints
 62
     0
100
AcDbPoint
 10
112.1622954178705
 20
-1885.43395951152
 30
0.0
  0
POINT
  5
ACE
330
AAF
100
AcDbEntity
  8
Defpoints
 62
     0
100
AcDbPoint
 10
115.1622954178694
 20
-1885.43395951152
 30
0.0
  0
POINT
  5
ACF
330
AAF
100
AcDbEntity
  8
Defpoints
 62
     0
100
AcDbPoint
 10
115.1622954178694
 20
-1903.520218130691
 30
0.0
  0
ENDBLK
  5
ABB
330
AAF
100
AcDbEntity
  8
0
100
AcDbBlockEnd
  0
BLOCK
  5
ADB
330
AD1
100
AcDbEntity
  8
0
100
AcDbBlockBegin
  2
*D21
 70
     1
 10
0.0
 20
0.0
 30
0.0
  3
*D21
  1

  0
LINE
  5
AE6
330
AD1
100
AcDbEntity
  8
text3
 62
     0
370
    -2
100
AcDbLine
 10
35.16229541787004
 20
-1857.433959511521
 30
0.0
 11
35.16229541787003
 21
-1916.911319065588
 31
0.0
  0
LINE
  5
AE7
330
AD1
100
AcDbEntity
  8
text3
 62
     0
370
    -2
100
AcDbLine
 10
176.5622954178716
 20
-1857.433959511521
 30
0.0
 11
176.5622954178716
 21
-1916.911319065588
 31
0.0
  0
LINE
  5
AE8
330
AD1
100
AcDbEntity
  8
text3
 62
     0
370
    -2
100
AcDbLine
 10
40.16229541787003
 20
-1916.731319065587
 30
0.0
 11
171.5622954178716
 21
-1916.731319065587
 31
0.0
  0
SOLID
  5
AE9
330
AD1
100
AcDbEntity
  8
text3
 62
     0
100
AcDbTrace
 10
40.16229541787003
 20
-1915.897985732254
 30
0.0
 11
40.16229541787003
 21
-1917.564652398921
 31
0.0
 12
35.16229541787003
 22
-1916.731319065587
 32
0.0
 13
35.16229541787003
 23
-1916.731319065587
 33
0.0
  0
SOLID
  5
AEA
330
AD1
100
AcDbEntity
  8
text3
 62
     0
100
AcDbTrace
 10
171.5622954178716
 20
-1915.897985732254
 30
0.0
 11
171.5622954178716
 21
-1917.564652398921
 31
0.0
 12
176.5622954178716
 22
-1916.731319065587
 32
0.0
 13
176.5622954178716
 23
-1916.731319065587
 33
0.0
  0
MTEXT
  5
AEB
330
AD1
100
AcDbEntity
  8
text3
 62
     0
100
AcDbMText
 10
105.8622954178708
 20
-1913.231319065587
 30
0.0
 40
4.0
 41
0.0
 71
     5
 72
     1
  1
\A1;141.4±1
 73
     1
 44
1.0
  0
POINT
  5
AEC
330
AD1
100
AcDbEntity
  8
Defpoints
 62
     0
100
AcDbPoint
 10
35.16229541787004
 20
-1855.43395951152
 30
0.0
  0
POINT
  5
AED
330
AD1
100
AcDbEntity
  8
Defpoints
 62
     0
100
AcDbPoint
 10
176.5622954178716
 20
-1855.43395951152
 30
0.0
  0
POINT
  5
AEE
330
AD1
100
AcDbEntity
  8
Defpoints
 62
     0
100
AcDbPoint
 10
176.5622954178716
 20
-1916.731319065587
 30
0.0
  0
ENDBLK
  5
ADC
330
AD1
100
AcDbEntity
  8
0
100
AcDbBlockEnd
  0
BLOCK
  5
CD8
330
CCD
100
AcDbEntity
  8
0
100
AcDbBlockBegin
  2
*D36
 70
     1
 10
0.0
 20
0.0
 30
0.0
  3
*D36
  1

  0
LINE
  5
D7D
330
CCD
100
AcDbEntity
  8
text3
 62
     0
370
    -2
100
AcDbLine
 10
-92.48433787969759
 20
-1995.10362031766
 30
0.0
 11
-92.48433787969759
 21
-2019.498398603736
 31
0.0
  0
LINE
  5
D7E
330
CCD
100
AcDbEntity
  8
text3
 62
     0
370
    -2
100
AcDbLine
 10
-103.4843378796975
 20
-1995.10362031766
 30
0.0
 11
-103.4843378796975
 21
-2019.498398603736
 31
0.0
  0
LINE
  5
D7F
330
CCD
100
AcDbEntity
  8
text3
 62
     0
370
    -2
100
AcDbLine
 10
-87.48433787969759
 20
-2014.498398603736
 30
0.0
 11
-82.48433787969759
 21
-2014.498398603736
 31
0.0
  0
LINE
  5
D80
330
CCD
100
AcDbEntity
  8
text3
 62
     0
370
    -2
100
AcDbLine
 10
-108.4843378796976
 20
-2014.498398603736
 30
0.0
 11
-113.4843378796975
 21
-2014.498398603736
 31
0.0
  0
SOLID
  5
D81
330
CCD
100
AcDbEntity
  8
text3
 62
     0
100
AcDbTrace
 10
-87.48433787969759
 20
-2013.665065270403
 30
0.0
 11
-87.48433787969759
 21
-2015.331731937069
 31
0.0
 12
-92.48433787969759
 22
-2014.498398603736
 32
0.0
 13
-92.48433787969759
 23
-2014.498398603736
 33
0.0
  0
SOLID
  5
D82
330
CCD
100
AcDbEntity
  8
text3
 62
     0
100
AcDbTrace
 10
-108.4843378796976
 20
-2013.665065270403
 30
0.0
 11
-108.4843378796976
 21
-2015.331731937069
 31
0.0
 12
-103.4843378796975
 22
-2014.498398603736
 32
0.0
 13
-103.4843378796975
 23
-2014.498398603736
 33
0.0
  0
MTEXT
  5
D83
330
CCD
100
AcDbEntity
  8
text3
 62
     0
100
AcDbMText
 10
-97.98433787969759
 20
-2010.998398603736
 30
0.0
 40
4.0
 41
0.0
 71
     5
 72
     1
  1
\A1;11
 73
     1
 44
1.0
  0
POINT
  5
D84
330
CCD
100
AcDbEntity
  8
Defpoints
 62
     0
100
AcDbPoint
 10
-92.48433787969759
 20
-1993.10362031766
 30
0.0
  0
POINT
  5
D85
330
CCD
100
AcDbEntity
  8
Defpoints
 62
     0
100
AcDbPoint
 10
-103.4843378796975
 20
-1993.10362031766
 30
0.0
  0
POINT
  5
D86
330
CCD
100
AcDbEntity
  8
Defpoints
 62
     0
100
AcDbPoint
 10
-103.4843378796975
 20
-2014.498398603736
 30
0.0
  0
ENDBLK
  5
CD9
330
CCD
100
AcDbEntity
  8
0
100
AcDbBlockEnd
  0
BLOCK
  5
CE4
330
CDA
100
AcDbEntity
  8
0
100
AcDbBlockBegin
  2
*D37
 70
     1
 10
0.0
 20
0.0
 30
0.0
  3
*D37
  1

  0
LINE
  5
D87
330
CDA
100
AcDbEntity
  8
text3
 62
     0
370
    -2
100
AcDbLine
 10
145.8053353353794
 20
-1984.10362031766
 30
0.0
 11
145.8053353353794
 21
-1971.888545209783
 31
0.0
  0
LINE
  5
D88
330
CDA
100
AcDbEntity
  8
text3
 62
     0
370
    -2
100
AcDbLine
 10
165.8053353353794
 20
-1984.10362031766
 30
0.0
 11
165.8053353353794
 21
-1971.888545209783
 31
0.0
  0
LINE
  5
D89
330
CDA
100
AcDbEntity
  8
text3
 62
     0
370
    -2
100
AcDbLine
 10
150.8053353353794
 20
-1976.888545209783
 30
0.0
 11
160.8053353353794
 21
-1976.888545209783
 31
0.0
  0
SOLID
  5
D8A
330
CDA
100
AcDbEntity
  8
text3
 62
     0
100
AcDbTrace
 10
150.8053353353794
 20
-1976.05521187645
 30
0.0
 11
150.8053353353794
 21
-1977.721878543116
 31
0.0
 12
145.8053353353794
 22
-1976.888545209783
 32
0.0
 13
145.8053353353794
 23
-1976.888545209783
 33
0.0
  0
SOLID
  5
D8B
330
CDA
100
AcDbEntity
  8
text3
 62
     0
100
AcDbTrace
 10
160.8053353353794
 20
-1976.05521187645
 30
0.0
 11
160.8053353353794
 21
-1977.721878543116
 31
0.0
 12
165.8053353353794
 22
-1976.888545209783
 32
0.0
 13
165.8053353353794
 23
-1976.888545209783
 33
0.0
  0
MTEXT
  5
D8C
330
CDA
100
AcDbEntity
  8
text3
 62
     0
100
AcDbMText
 10
155.8053353353794
 20
-1973.388545209783
 30
0.0
 40
4.0
 41
0.0
 71
     5
 72
     1
  1
\A1;20
 73
     1
 44
1.0
  0
POINT
  5
D8D
330
CDA
100
AcDbEntity
  8
Defpoints
 62
     0
100
AcDbPoint
 10
145.8053353353794
 20
-1986.10362031766
 30
0.0
  0
POINT
  5
D8E
330
CDA
100
AcDbEntity
  8
Defpoints
 62
     0
100
AcDbPoint
 10
165.8053353353794
 20
-1986.10362031766
 30
0.0
  0
POINT
  5
D8F
330
CDA
100
AcDbEntity
  8
Defpoints
 62
     0
100
AcDbPoint
 10
165.8053353353794
 20
-1976.888545209783
 30
0.0
  0
ENDBLK
  5
CE5
330
CDA
100
AcDbEntity
  8
0
100
AcDbBlockEnd
  0
BLOCK
  5
CF0
330
CE6
100
AcDbEntity
  8
0
100
AcDbBlockBegin
  2
*D38
 70
     1
 10
0.0
 20
0.0
 30
0.0
  3
*D38
  1

  0
LINE
  5
D90
330
CE6
100
AcDbEntity
  8
text3
 62
     0
370
    -2
100
AcDbLine
 10
145.8053353353794
 20
-1985.678469602562
 30
0.0
 11
145.8053353353794
 21
-1952.309585876013
 31
0.0
  0
LINE
  5
D91
330
CE6
100
AcDbEntity
  8
text3
 62
     0
370
    -2
100
AcDbLine
 10
175.8053353353794
 20
-1985.678469602562
 30
0.0
 11
175.8053353353794
 21
-1952.309585876013
 31
0.0
  0
LINE
  5
D92
330
CE6
100
AcDbEntity
  8
text3
 62
     0
370
    -2
100
AcDbLine
 10
150.8053353353794
 20
-1957.309585876013
 30
0.0
 11
170.8053353353794
 21
-1957.309585876013
 31
0.0
  0
SOLID
  5
D93
330
CE6
100
AcDbEntity
  8
text3
 62
     0
100
AcDbTrace
 10
150.8053353353794
 20
-1956.47625254268
 30
0.0
 11
150.8053353353794
 21
-1958.142919209346
 31
0.0
 12
145.8053353353794
 22
-1957.309585876013
 32
0.0
 13
145.8053353353794
 23
-1957.309585876013
 33
0.0
  0
SOLID
  5
D94
330
CE6
100
AcDbEntity
  8
text3
 62
     0
100
AcDbTrace
 10
170.8053353353794
 20
-1956.47625254268
 30
0.0
 11
170.8053353353794
 21
-1958.142919209346
 31
0.0
 12
175.8053353353794
 22
-1957.309585876013
 32
0.0
 13
175.8053353353794
 23
-1957.309585876013
 33
0.0
  0
MTEXT
  5
D95
330
CE6
100
AcDbEntity
  8
text3
 62
     0
100
AcDbMText
 10
160.8053353353794
 20
-1953.809585876013
 30
0.0
 40
4.0
 41
0.0
 71
     5
 72
     1
  1
\A1;30±1
 73
     1
 44
1.0
  0
POINT
  5
D96
330
CE6
100
AcDbEntity
  8
Defpoints
 62
     0
100
AcDbPoint
 10
145.8053353353794
 20
-1987.678469602562
 30
0.0
  0
POINT
  5
D97
330
CE6
100
AcDbEntity
  8
Defpoints
 62
     0
100
AcDbPoint
 10
175.8053353353794
 20
-1987.678469602562
 30
0.0
  0
POINT
  5
D98
330
CE6
100
AcDbEntity
  8
Defpoints
 62
     0
100
AcDbPoint
 10
175.8053353353794
 20
-1957.309585876013
 30
0.0
  0
ENDBLK
  5
CF1
330
CE6
100
AcDbEntity
  8
0
100
AcDbBlockEnd
  0
BLOCK
  5
CFD
330
CF2
100
AcDbEntity
  8
0
100
AcDbBlockBegin
  2
*D39
 70
     1
 10
0.0
 20
0.0
 30
0.0
  3
*D39
  1

  0
LINE
  5
D99
330
CF2
100
AcDbEntity
  8
text3
 62
     0
370
    -2
100
AcDbLine
 10
37.2699983249978
 20
-1986.10362031766
 30
0.0
 11
25.24512963116697
 21
-1986.10362031766
 31
0.0
  0
LINE
  5
D9A
330
CF2
100
AcDbEntity
  8
text3
 62
     0
370
    -2
100
AcDbLine
 10
37.2699983249978
 20
-2000.10362031766
 30
0.0
 11
25.24512963116696
 21
-2000.10362031766
 31
0.0
  0
LINE
  5
D9B
330
CF2
100
AcDbEntity
  8
text3
 62
     0
370
    -2
100
AcDbLine
 10
30.24512963116696
 20
-1995.10362031766
 30
0.0
 11
30.24512963116697
 21
-1991.10362031766
 31
0.0
  0
LINE
  5
D9C
330
CF2
100
AcDbEntity
  8
text3
 62
     0
370
    -2
100
AcDbLine
 10
30.24512963116697
 20
-1986.10362031766
 30
0.0
 11
30.24512963116697
 21
-1960.236953650993
 31
0.0
  0
SOLID
  5
D9D
330
CF2
100
AcDbEntity
  8
text3
 62
     0
100
AcDbTrace
 10
29.41179629783363
 20
-1995.10362031766
 30
0.0
 11
31.07846296450029
 21
-1995.10362031766
 31
0.0
 12
30.24512963116696
 22
-2000.10362031766
 32
0.0
 13
30.24512963116696
 23
-2000.10362031766
 33
0.0
  0
SOLID
  5
D9E
330
CF2
100
AcDbEntity
  8
text3
 62
     0
100
AcDbTrace
 10
29.41179629783363
 20
-1991.10362031766
 30
0.0
 11
31.0784629645003
 21
-1991.10362031766
 31
0.0
 12
30.24512963116697
 22
-1986.10362031766
 32
0.0
 13
30.24512963116697
 23
-1986.10362031766
 33
0.0
  0
MTEXT
  5
D9F
330
CF2
100
AcDbEntity
  8
text3
 62
     0
100
AcDbMText
 10
26.74512963116729
 20
-1970.670286984327
 30
0.0
 40
4.0
 41
0.0
 71
     5
 72
     1
  1
\A1;Φ14h6
 11
0.0000000000000001
 21
1.0
 31
0.0
 73
     1
 44
1.0
  0
POINT
  5
DA0
330
CF2
100
AcDbEntity
  8
Defpoints
 62
     0
100
AcDbPoint
 10
39.2699983249978
 20
-1986.10362031766
 30
0.0
  0
POINT
  5
DA1
330
CF2
100
AcDbEntity
  8
Defpoints
 62
     0
100
AcDbPoint
 10
39.2699983249978
 20
-2000.10362031766
 30
0.0
  0
POINT
  5
DA2
330
CF2
100
AcDbEntity
  8
Defpoints
 62
     0
100
AcDbPoint
 10
30.24512963116696
 20
-2000.10362031766
 30
0.0
  0
ENDBLK
  5
CFE
330
CF2
100
AcDbEntity
  8
0
100
AcDbBlockEnd
  0
BLOCK
  5
D0A
330
CFF
100
AcDbEntity
  8
0
100
AcDbBlockBegin
  2
*D40
 70
     1
 10
0.0
 20
0.0
 30
0.0
  3
*D40
  1

  0
LINE
  5
DA3
330
CFF
100
AcDbEntity
  8
text3
 62
     0
370
    -2
100
AcDbLine
 10
4.090897509822184
 20
-1995.10362031766
 30
0.0
 11
4.090897509822182
 21
-2015.977682892536
 31
0.0
  0
LINE
  5
DA4
330
CFF
100
AcDbEntity
  8
text3
 62
     0
370
    -2
100
AcDbLine
 10
17.09089750982218
 20
-1995.10362031766
 30
0.0
 11
17.09089750982218
 21
-2015.977682892536
 31
0.0
  0
LINE
  5
DA5
330
CFF
100
AcDbEntity
  8
text3
 62
     0
370
    -2
100
AcDbLine
 10
9.090897509822184
 20
-2010.977682892536
 30
0.0
 11
12.09089750982218
 21
-2010.977682892536
 31
0.0
  0
LINE
  5
DA6
330
CFF
100
AcDbEntity
  8
text3
 62
     0
370
    -2
100
AcDbLine
 10
17.09089750982218
 20
-2010.977682892536
 30
0.0
 11
41.46423084315552
 21
-2010.977682892536
 31
0.0
  0
SOLID
  5
DA7
330
CFF
100
AcDbEntity
  8
text3
 62
     0
100
AcDbTrace
 10
9.090897509822184
 20
-2010.144349559202
 30
0.0
 11
9.090897509822184
 21
-2011.811016225869
 31
0.0
 12
4.090897509822183
 22
-2010.977682892536
 32
0.0
 13
4.090897509822183
 23
-2010.977682892536
 33
0.0
  0
SOLID
  5
DA8
330
CFF
100
AcDbEntity
  8
text3
 62
     0
100
AcDbTrace
 10
12.09089750982218
 20
-2010.144349559202
 30
0.0
 11
12.09089750982218
 21
-2011.811016225869
 31
0.0
 12
17.09089750982218
 22
-2010.977682892536
 32
0.0
 13
17.09089750982218
 23
-2010.977682892536
 33
0.0
  0
MTEXT
  5
DA9
330
CFF
100
AcDbEntity
  8
text3
 62
     0
100
AcDbMText
 10
31.77756417648885
 20
-2007.477682892536
 30
0.0
 40
4.0
 41
0.0
 71
     5
 72
     1
  1
\A1;13{\H3.200000;±0.2}
 73
     1
 44
1.0
  0
POINT
  5
DAA
330
CFF
100
AcDbEntity
  8
Defpoints
 62
     0
100
AcDbPoint
 10
4.090897509822184
 20
-1993.10362031766
 30
0.0
  0
POINT
  5
DAB
330
CFF
100
AcDbEntity
  8
Defpoints
 62
     0
100
AcDbPoint
 10
17.09089750982218
 20
-1993.10362031766
 30
0.0
  0
POINT
  5
DAC
330
CFF
100
AcDbEntity
  8
Defpoints
 62
     0
100
AcDbPoint
 10
17.09089750982218
 20
-2010.977682892536
 30
0.0
  0
ENDBLK
  5
D0B
330
CFF
100
AcDbEntity
  8
0
100
AcDbBlockEnd
  0
BLOCK
  5
D17
330
D0C
100
AcDbEntity
  8
0
100
AcDbBlockBegin
  2
*D41
 70
     1
 10
0.0
 20
0.0
 30
0.0
  3
*D41
  1

  0
LINE
  5
DAD
330
D0C
100
AcDbEntity
  8
text3
 62
     0
370
    -2
100
AcDbLine
 10
-87.94598946438657
 20
-1990.60362031766
 30
0.0
 11
-79.26612722073443
 21
-1990.60362031766
 31
0.0
  0
LINE
  5
DAE
330
D0C
100
AcDbEntity
  8
text3
 62
     0
370
    -2
100
AcDbLine
 10
-87.94598946438657
 20
-1995.60362031766
 30
0.0
 11
-79.26612722073443
 21
-1995.60362031766
 31
0.0
  0
LINE
  5
DAF
330
D0C
100
AcDbEntity
  8
text3
 62
     0
370
    -2
100
AcDbLine
 10
-84.26612722073443
 20
-2000.60362031766
 30
0.0
 11
-84.26612722073443
 21
-2005.60362031766
 31
0.0
  0
LINE
  5
DB0
330
D0C
100
AcDbEntity
  8
text3
 62
     0
370
    -2
100
AcDbLine
 10
-84.26612722073443
 20
-1985.60362031766
 30
0.0
 11
-84.26612722073443
 21
-1966.936953650993
 31
0.0
  0
SOLID
  5
DB1
330
D0C
100
AcDbEntity
  8
text3
 62
     0
100
AcDbTrace
 10
-85.09946055406777
 20
-2000.60362031766
 30
0.0
 11
-83.43279388740111
 21
-2000.60362031766
 31
0.0
 12
-84.26612722073443
 22
-1995.60362031766
 32
0.0
 13
-84.26612722073443
 23
-1995.60362031766
 33
0.0
  0
SOLID
  5
DB2
330
D0C
100
AcDbEntity
  8
text3
 62
     0
100
AcDbTrace
 10
-85.09946055406777
 20
-1985.60362031766
 30
0.0
 11
-83.43279388740111
 21
-1985.60362031766
 31
0.0
 12
-84.26612722073443
 22
-1990.60362031766
 32
0.0
 13
-84.26612722073443
 23
-1990.60362031766
 33
0.0
  0
MTEXT
  5
DB3
330
D0C
100
AcDbEntity
  8
text3
 62
     0
100
AcDbMText
 10
-87.76612722073412
 20
-1973.770286984327
 30
0.0
 40
4.0
 41
0.0
 71
     5
 72
     1
  1
\A1;5P9
 11
0.0000000000000001
 21
1.0
 31
0.0
 73
     1
 44
1.0
  0
POINT
  5
DB4
330
D0C
100
AcDbEntity
  8
Defpoints
 62
     0
100
AcDbPoint
 10
-89.94598946438657
 20
-1990.60362031766
 30
0.0
  0
POINT
  5
DB5
330
D0C
100
AcDbEntity
  8
Defpoints
 62
     0
100
AcDbPoint
 10
-89.94598946438657
 20
-1995.60362031766
 30
0.0
  0
POINT
  5
DB6
330
D0C
100
AcDbEntity
  8
Defpoints
 62
     0
100
AcDbPoint
 10
-84.26612722073443
 20
-1995.60362031766
 30
0.0
  0
ENDBLK
  5
D18
330
D0C
100
AcDbEntity
  8
0
100
AcDbBlockEnd
  0
BLOCK
  5
D23
330
D19
100
AcDbEntity
  8
0
100
AcDbBlockBegin
  2
*D42
 70
     1
 10
0.0
 20
0.0
 30
0.0
  3
*D42
  1

  0
LINE
  5
DB7
330
D19
100
AcDbEntity
  8
text3
 62
     0
370
    -2
100
AcDbLine
 10
-60.47179868863771
 20
-1984.60362031766
 30
0.0
 11
-60.47179868863771
 21
-1967.518925385177
 31
0.0
  0
LINE
  5
DB8
330
D19
100
AcDbEntity
  8
text3
 62
     0
370
    -2
100
AcDbLine
 10
-40.47179868863771
 20
-1984.60362031766
 30
0.0
 11
-40.47179868863771
 21
-1967.518925385177
 31
0.0
  0
LINE
  5
DB9
330
D19
100
AcDbEntity
  8
text3
 62
     0
370
    -2
100
AcDbLine
 10
-55.47179868863771
 20
-1972.518925385177
 30
0.0
 11
-45.47179868863771
 21
-1972.518925385177
 31
0.0
  0
SOLID
  5
DBA
330
D19
100
AcDbEntity
  8
text3
 62
     0
100
AcDbTrace
 10
-55.47179868863771
 20
-1971.685592051844
 30
0.0
 11
-55.47179868863771
 21
-1973.35225871851
 31
0.0
 12
-60.47179868863771
 22
-1972.518925385177
 32
0.0
 13
-60.47179868863771
 23
-1972.518925385177
 33
0.0
  0
SOLID
  5
DBB
330
D19
100
AcDbEntity
  8
text3
 62
     0
100
AcDbTrace
 10
-45.47179868863771
 20
-1971.685592051844
 30
0.0
 11
-45.47179868863771
 21
-1973.35225871851
 31
0.0
 12
-40.47179868863771
 22
-1972.518925385177
 32
0.0
 13
-40.47179868863771
 23
-1972.518925385177
 33
0.0
  0
MTEXT
  5
DBC
330
D19
100
AcDbEntity
  8
text3
 62
     0
100
AcDbMText
 10
-50.47179868863771
 20
-1969.018925385177
 30
0.0
 40
4.0
 41
0.0
 71
     5
 72
     1
  1
\A1;20
 73
     1
 44
1.0
  0
POINT
  5
DBD
330
D19
100
AcDbEntity
  8
Defpoints
 62
     0
100
AcDbPoint
 10
-60.47179868863771
 20
-1986.60362031766
 30
0.0
  0
POINT
  5
DBE
330
D19
100
AcDbEntity
  8
Defpoints
 62
     0
100
AcDbPoint
 10
-40.47179868863771
 20
-1986.60362031766
 30
0.0
  0
POINT
  5
DBF
330
D19
100
AcDbEntity
  8
Defpoints
 62
     0
100
AcDbPoint
 10
-40.47179868863771
 20
-1972.518925385177
 30
0.0
  0
ENDBLK
  5
D24
330
D19
100
AcDbEntity
  8
0
100
AcDbBlockEnd
  0
BLOCK
  5
D2F
330
D25
100
AcDbEntity
  8
0
100
AcDbBlockBegin
  2
*D43
 70
     1
 10
0.0
 20
0.0
 30
0.0
  3
*D43
  1

  0
LINE
  5
DC0
330
D25
100
AcDbEntity
  8
text3
 62
     0
370
    -2
100
AcDbLine
 10
-60.47179868863771
 20
-1984.60362031766
 30
0.0
 11
-60.47179868863771
 21
-1952.040655301484
 31
0.0
  0
LINE
  5
DC1
330
D25
100
AcDbEntity
  8
text3
 62
     0
370
    -2
100
AcDbLine
 10
-30.4717986886377
 20
-1984.60362031766
 30
0.0
 11
-30.4717986886377
 21
-1952.040655301484
 31
0.0
  0
LINE
  5
DC2
330
D25
100
AcDbEntity
  8
text3
 62
     0
370
    -2
100
AcDbLine
 10
-55.47179868863771
 20
-1957.040655301484
 30
0.0
 11
-35.4717986886377
 21
-1957.040655301484
 31
0.0
  0
SOLID
  5
DC3
330
D25
100
AcDbEntity
  8
text3
 62
     0
100
AcDbTrace
 10
-55.47179868863771
 20
-1956.207321968151
 30
0.0
 11
-55.47179868863771
 21
-1957.873988634817
 31
0.0
 12
-60.47179868863771
 22
-1957.040655301484
 32
0.0
 13
-60.47179868863771
 23
-1957.040655301484
 33
0.0
  0
SOLID
  5
DC4
330
D25
100
AcDbEntity
  8
text3
 62
     0
100
AcDbTrace
 10
-35.4717986886377
 20
-1956.207321968151
 30
0.0
 11
-35.4717986886377
 21
-1957.873988634817
 31
0.0
 12
-30.4717986886377
 22
-1957.040655301484
 32
0.0
 13
-30.4717986886377
 23
-1957.040655301484
 33
0.0
  0
MTEXT
  5
DC5
330
D25
100
AcDbEntity
  8
text3
 62
     0
100
AcDbMText
 10
-45.47179868863771
 20
-1953.540655301484
 30
0.0
 40
4.0
 41
0.0
 71
     5
 72
     1
  1
\A1;30±1
 73
     1
 44
1.0
  0
POINT
  5
DC6
330
D25
100
AcDbEntity
  8
Defpoints
 62
     0
100
AcDbPoint
 10
-60.47179868863771
 20
-1986.60362031766
 30
0.0
  0
POINT
  5
DC7
330
D25
100
AcDbEntity
  8
Defpoints
 62
     0
100
AcDbPoint
 10
-30.4717986886377
 20
-1986.60362031766
 30
0.0
  0
POINT
  5
DC8
330
D25
100
AcDbEntity
  8
Defpoints
 62
     0
100
AcDbPoint
 10
-30.4717986886377
 20
-1957.040655301484
 30
0.0
  0
ENDBLK
  5
D30
330
D25
100
AcDbEntity
  8
0
100
AcDbBlockEnd
  0
BLOCK
  5
D3C
330
D31
100
AcDbEntity
  8
0
100
AcDbBlockBegin
  2
*D44
 70
     1
 10
0.0
 20
0.0
 30
0.0
  3
*D44
  1

  0
LINE
  5
DC9
330
D31
100
AcDbEntity
  8
text3
 62
     0
370
    -2
100
AcDbLine
 10
-61.9717986886377
 20
-1986.10362031766
 30
0.0
 11
-74.15408408208962
 21
-1986.10362031766
 31
0.0
  0
LINE
  5
DCA
330
D31
100
AcDbEntity
  8
text3
 62
     0
370
    -2
100
AcDbLine
 10
-61.9717986886377
 20
-2000.10362031766
 30
0.0
 11
-74.15408408208962
 21
-2000.10362031766
 31
0.0
  0
LINE
  5
DCB
330
D31
100
AcDbEntity
  8
text3
 62
     0
370
    -2
100
AcDbLine
 10
-69.15408408208962
 20
-1995.10362031766
 30
0.0
 11
-69.15408408208962
 21
-1991.10362031766
 31
0.0
  0
LINE
  5
DCC
330
D31
100
AcDbEntity
  8
text3
 62
     0
370
    -2
100
AcDbLine
 10
-69.15408408208962
 20
-1986.10362031766
 30
0.0
 11
-69.15408408208962
 21
-1960.236953650993
 31
0.0
  0
SOLID
  5
DCD
330
D31
100
AcDbEntity
  8
text3
 62
     0
100
AcDbTrace
 10
-69.98741741542295
 20
-1995.10362031766
 30
0.0
 11
-68.32075074875629
 21
-1995.10362031766
 31
0.0
 12
-69.15408408208962
 22
-2000.10362031766
 32
0.0
 13
-69.15408408208962
 23
-2000.10362031766
 33
0.0
  0
SOLID
  5
DCE
330
D31
100
AcDbEntity
  8
text3
 62
     0
100
AcDbTrace
 10
-69.98741741542295
 20
-1991.10362031766
 30
0.0
 11
-68.32075074875629
 21
-1991.10362031766
 31
0.0
 12
-69.15408408208962
 22
-1986.10362031766
 32
0.0
 13
-69.15408408208962
 23
-1986.10362031766
 33
0.0
  0
MTEXT
  5
DCF
330
D31
100
AcDbEntity
  8
text3
 62
     0
100
AcDbMText
 10
-72.6540840820893
 20
-1970.670286984327
 30
0.0
 40
4.0
 41
0.0
 71
     5
 72
     1
  1
\A1;Φ14h6
 11
0.0000000000000001
 21
1.0
 31
0.0
 73
     1
 44
1.0
  0
POINT
  5
DD0
330
D31
100
AcDbEntity
  8
Defpoints
 62
     0
100
AcDbPoint
 10
-59.97179868863771
 20
-1986.10362031766
 30
0.0
  0
POINT
  5
DD1
330
D31
100
AcDbEntity
  8
Defpoints
 62
     0
100
AcDbPoint
 10
-59.97179868863771
 20
-2000.10362031766
 30
0.0
  0
POINT
  5
DD2
330
D31
100
AcDbEntity
  8
Defpoints
 62
     0
100
AcDbPoint
 10
-69.15408408208962
 20
-2000.10362031766
 30
0.0
  0
ENDBLK
  5
D3D
330
D31
100
AcDbEntity
  8
0
100
AcDbBlockEnd
  0
BLOCK
  5
D48
330
D3E
100
AcDbEntity
  8
0
100
AcDbBlockBegin
  2
*D45
 70
     1
 10
0.0
 20
0.0
 30
0.0
  3
*D45
  1

  0
LINE
  5
DD3
330
D3E
100
AcDbEntity
  8
text3
 62
     0
370
    -2
100
AcDbLine
 10
38.7699983249978
 20
-1984.60362031766
 30
0.0
 11
38.7699983249978
 21
-1967.518925385177
 31
0.0
  0
LINE
  5
DD4
330
D3E
100
AcDbEntity
  8
text3
 62
     0
370
    -2
100
AcDbLine
 10
58.7699983249978
 20
-1984.60362031766
 30
0.0
 11
58.7699983249978
 21
-1967.518925385177
 31
0.0
  0
LINE
  5
DD5
330
D3E
100
AcDbEntity
  8
text3
 62
     0
370
    -2
100
AcDbLine
 10
43.76999832499779
 20
-1972.518925385177
 30
0.0
 11
53.7699983249978
 21
-1972.518925385177
 31
0.0
  0
SOLID
  5
DD6
330
D3E
100
AcDbEntity
  8
text3
 62
     0
100
AcDbTrace
 10
43.76999832499779
 20
-1971.685592051844
 30
0.0
 11
43.76999832499779
 21
-1973.35225871851
 31
0.0
 12
38.7699983249978
 22
-1972.518925385177
 32
0.0
 13
38.7699983249978
 23
-1972.518925385177
 33
0.0
  0
SOLID
  5
DD7
330
D3E
100
AcDbEntity
  8
text3
 62
     0
100
AcDbTrace
 10
53.7699983249978
 20
-1971.685592051844
 30
0.0
 11
53.7699983249978
 21
-1973.35225871851
 31
0.0
 12
58.7699983249978
 22
-1972.518925385177
 32
0.0
 13
58.7699983249978
 23
-1972.518925385177
 33
0.0
  0
MTEXT
  5
DD8
330
D3E
100
AcDbEntity
  8
text3
 62
     0
100
AcDbMText
 10
48.7699983249978
 20
-1969.018925385177
 30
0.0
 40
4.0
 41
0.0
 71
     5
 72
     1
  1
\A1;20
 73
     1
 44
1.0
  0
POINT
  5
DD9
330
D3E
100
AcDbEntity
  8
Defpoints
 62
     0
100
AcDbPoint
 10
38.7699983249978
 20
-1986.60362031766
 30
0.0
  0
POINT
  5
DDA
330
D3E
100
AcDbEntity
  8
Defpoints
 62
     0
100
AcDbPoint
 10
58.7699983249978
 20
-1986.60362031766
 30
0.0
  0
POINT
  5
DDB
330
D3E
100
AcDbEntity
  8
Defpoints
 62
     0
100
AcDbPoint
 10
58.7699983249978
 20
-1972.518925385177
 30
0.0
  0
ENDBLK
  5
D49
330
D3E
100
AcDbEntity
  8
0
100
AcDbBlockEnd
  0
BLOCK
  5
D54
330
D4A
100
AcDbEntity
  8
0
100
AcDbBlockBegin
  2
*D46
 70
     1
 10
0.0
 20
0.0
 30
0.0
  3
*D46
  1

  0
LINE
  5
DDC
330
D4A
100
AcDbEntity
  8
text3
 62
     0
370
    -2
100
AcDbLine
 10
38.7699983249978
 20
-1984.60362031766
 30
0.0
 11
38.7699983249978
 21
-1952.040655301484
 31
0.0
  0
LINE
  5
DDD
330
D4A
100
AcDbEntity
  8
text3
 62
     0
370
    -2
100
AcDbLine
 10
68.7699983249978
 20
-1984.60362031766
 30
0.0
 11
68.7699983249978
 21
-1952.040655301484
 31
0.0
  0
LINE
  5
DDE
330
D4A
100
AcDbEntity
  8
text3
 62
     0
370
    -2
100
AcDbLine
 10
43.76999832499779
 20
-1957.040655301484
 30
0.0
 11
63.7699983249978
 21
-1957.040655301484
 31
0.0
  0
SOLID
  5
DDF
330
D4A
100
AcDbEntity
  8
text3
 62
     0
100
AcDbTrace
 10
43.76999832499779
 20
-1956.207321968151
 30
0.0
 11
43.76999832499779
 21
-1957.873988634817
 31
0.0
 12
38.7699983249978
 22
-1957.040655301484
 32
0.0
 13
38.7699983249978
 23
-1957.040655301484
 33
0.0
  0
SOLID
  5
DE0
330
D4A
100
AcDbEntity
  8
text3
 62
     0
100
AcDbTrace
 10
63.7699983249978
 20
-1956.207321968151
 30
0.0
 11
63.7699983249978
 21
-1957.873988634817
 31
0.0
 12
68.7699983249978
 22
-1957.040655301484
 32
0.0
 13
68.7699983249978
 23
-1957.040655301484
 33
0.0
  0
MTEXT
  5
DE1
330
D4A
100
AcDbEntity
  8
text3
 62
     0
100
AcDbMText
 10
53.7699983249978
 20
-1953.540655301484
 30
0.0
 40
4.0
 41
0.0
 71
     5
 72
     1
  1
\A1;30±1
 73
     1
 44
1.0
  0
POINT
  5
DE2
330
D4A
100
AcDbEntity
  8
Defpoints
 62
     0
100
AcDbPoint
 10
38.7699983249978
 20
-1986.60362031766
 30
0.0
  0
POINT
  5
DE3
330
D4A
100
AcDbEntity
  8
Defpoints
 62
     0
100
AcDbPoint
 10
68.7699983249978
 20
-1986.60362031766
 30
0.0
  0
POINT
  5
DE4
330
D4A
100
AcDbEntity
  8
Defpoints
 62
     0
100
AcDbPoint
 10
68.7699983249978
 20
-1957.040655301484
 30
0.0
  0
ENDBLK
  5
D55
330
D4A
100
AcDbEntity
  8
0
100
AcDbBlockEnd
  0
BLOCK
  5
D61
330
D56
100
AcDbEntity
  8
0
100
AcDbBlockBegin
  2
*D47
 70
     1
 10
0.0
 20
0.0
 30
0.0
  3
*D47
  1

  0
LINE
  5
DE5
330
D56
100
AcDbEntity
  8
text3
 62
     0
370
    -2
100
AcDbLine
 10
144.3053353353794
 20
-1986.10362031766
 30
0.0
 11
131.6408534288657
 21
-1986.10362031766
 31
0.0
  0
LINE
  5
DE6
330
D56
100
AcDbEntity
  8
text3
 62
     0
370
    -2
100
AcDbLine
 10
144.3053353353794
 20
-2000.10362031766
 30
0.0
 11
131.6408534288657
 21
-2000.10362031766
 31
0.0
  0
LINE
  5
DE7
330
D56
100
AcDbEntity
  8
text3
 62
     0
370
    -2
100
AcDbLine
 10
136.6408534288657
 20
-1995.10362031766
 30
0.0
 11
136.6408534288657
 21
-1991.10362031766
 31
0.0
  0
LINE
  5
DE8
330
D56
100
AcDbEntity
  8
text3
 62
     0
370
    -2
100
AcDbLine
 10
136.6408534288657
 20
-1986.10362031766
 30
0.0
 11
136.6408534288657
 21
-1960.236953650993
 31
0.0
  0
SOLID
  5
DE9
330
D56
100
AcDbEntity
  8
text3
 62
     0
100
AcDbTrace
 10
135.8075200955324
 20
-1995.10362031766
 30
0.0
 11
137.474186762199
 21
-1995.10362031766
 31
0.0
 12
136.6408534288657
 22
-2000.10362031766
 32
0.0
 13
136.6408534288657
 23
-2000.10362031766
 33
0.0
  0
SOLID
  5
DEA
330
D56
100
AcDbEntity
  8
text3
 62
     0
100
AcDbTrace
 10
135.8075200955324
 20
-1991.10362031766
 30
0.0
 11
137.474186762199
 21
-1991.10362031766
 31
0.0
 12
136.6408534288657
 22
-1986.10362031766
 32
0.0
 13
136.6408534288657
 23
-1986.10362031766
 33
0.0
  0
MTEXT
  5
DEB
330
D56
100
AcDbEntity
  8
text3
 62
     0
100
AcDbMText
 10
133.140853428866
 20
-1970.670286984327
 30
0.0
 40
4.0
 41
0.0
 71
     5
 72
     1
  1
\A1;Φ14h6
 11
0.0000000000000001
 21
1.0
 31
0.0
 73
     1
 44
1.0
  0
POINT
  5
DEC
330
D56
100
AcDbEntity
  8
Defpoints
 62
     0
100
AcDbPoint
 10
146.3053353353794
 20
-1986.10362031766
 30
0.0
  0
POINT
  5
DED
330
D56
100
AcDbEntity
  8
Defpoints
 62
     0
100
AcDbPoint
 10
146.3053353353794
 20
-2000.10362031766
 30
0.0
  0
POINT
  5
DEE
330
D56
100
AcDbEntity
  8
Defpoints
 62
     0
100
AcDbPoint
 10
136.6408534288657
 20
-2000.10362031766
 30
0.0
  0
ENDBLK
  5
D62
330
D56
100
AcDbEntity
  8
0
100
AcDbBlockEnd
  0
BLOCK
  5
D6E
330
D63
100
AcDbEntity
  8
0
100
AcDbBlockBegin
  2
*D48
 70
     1
 10
0.0
 20
0.0
 30
0.0
  3
*D48
  1

  0
LINE
  5
DEF
330
D63
100
AcDbEntity
  8
text3
 62
     0
370
    -2
100
AcDbLine
 10
111.7927961443193
 20
-2000.10362031766
 30
0.0
 11
128.9363679924332
 21
-2000.10362031766
 31
0.0
  0
LINE
  5
DF0
330
D63
100
AcDbEntity
  8
text3
 62
     0
370
    -2
100
AcDbLine
 10
111.7927961443193
 20
-1987.10362031766
 30
0.0
 11
128.9363679924332
 21
-1987.10362031766
 31
0.0
  0
LINE
  5
DF1
330
D63
100
AcDbEntity
  8
text3
 62
     0
370
    -2
100
AcDbLine
 10
123.9363679924332
 20
-1995.10362031766
 30
0.0
 11
123.9363679924332
 21
-1992.10362031766
 31
0.0
  0
LINE
  5
DF2
330
D63
100
AcDbEntity
  8
text3
 62
     0
370
    -2
100
AcDbLine
 10
123.9363679924332
 20
-1987.10362031766
 30
0.0
 11
123.9363679924332
 21
-1962.730286984326
 31
0.0
  0
SOLID
  5
DF3
330
D63
100
AcDbEntity
  8
text3
 62
     0
100
AcDbTrace
 10
123.1030346590999
 20
-1995.10362031766
 30
0.0
 11
124.7697013257665
 21
-1995.10362031766
 31
0.0
 12
123.9363679924332
 22
-2000.10362031766
 32
0.0
 13
123.9363679924332
 23
-2000.10362031766
 33
0.0
  0
SOLID
  5
DF4
330
D63
100
AcDbEntity
  8
text3
 62
     0
100
AcDbTrace
 10
123.1030346590999
 20
-1992.10362031766
 30
0.0
 11
124.7697013257665
 21
-1992.10362031766
 31
0.0
 12
123.9363679924332
 22
-1987.10362031766
 32
0.0
 13
123.9363679924332
 23
-1987.10362031766
 33
0.0
  0
MTEXT
  5
DF5
330
D63
100
AcDbEntity
  8
text3
 62
     0
100
AcDbMText
 10
120.4363679924335
 20
-1972.416953650993
 30
0.0
 40
4.0
 41
0.0
 71
     5
 72
     1
  1
\A1;13{\H3.200000;±0.2}
 11
0.0000000000000001
 21
1.0
 31
0.0
 73
     1
 44
1.0
  0
POINT
  5
DF6
330
D63
100
AcDbEntity
  8
Defpoints
 62
     0
100
AcDbPoint
 10
109.7927961443193
 20
-2000.10362031766
 30
0.0
  0
POINT
  5
DF7
330
D63
100
AcDbEntity
  8
Defpoints
 62
     0
100
AcDbPoint
 10
109.7927961443193
 20
-1987.10362031766
 30
0.0
  0
POINT
  5
DF8
330
D63
100
AcDbEntity
  8
Defpoints
 62
     0
100
AcDbPoint
 10
123.9363679924332
 20
-1987.10362031766
 30
0.0
  0
ENDBLK
  5
D6F
330
D63
100
AcDbEntity
  8
0
100
AcDbBlockEnd
  0
BLOCK
  5
D7B
330
D70
100
AcDbEntity
  8
0
100
AcDbBlockBegin
  2
*D49
 70
     1
 10
0.0
 20
0.0
 30
0.0
  3
*D49
  1

  0
LINE
  5
DF9
330
D70
100
AcDbEntity
  8
text3
 62
     0
370
    -2
100
AcDbLine
 10
102.7927961443193
 20
-1995.10362031766
 30
0.0
 11
102.7927961443193
 21
-2015.977682892536
 31
0.0
  0
LINE
  5
DFA
330
D70
100
AcDbEntity
  8
text3
 62
     0
370
    -2
100
AcDbLine
 10
115.7927961443193
 20
-1995.10362031766
 30
0.0
 11
115.7927961443193
 21
-2015.977682892536
 31
0.0
  0
LINE
  5
DFB
330
D70
100
AcDbEntity
  8
text3
 62
     0
370
    -2
100
AcDbLine
 10
107.7927961443193
 20
-2010.977682892536
 30
0.0
 11
110.7927961443193
 21
-2010.977682892536
 31
0.0
  0
LINE
  5
DFC
330
D70
100
AcDbEntity
  8
text3
 62
     0
370
    -2
100
AcDbLine
 10
115.7927961443193
 20
-2010.977682892536
 30
0.0
 11
140.1661294776527
 21
-2010.977682892536
 31
0.0
  0
SOLID
  5
DFD
330
D70
100
AcDbEntity
  8
text3
 62
     0
100
AcDbTrace
 10
107.7927961443193
 20
-2010.144349559202
 30
0.0
 11
107.7927961443193
 21
-2011.811016225869
 31
0.0
 12
102.7927961443193
 22
-2010.977682892536
 32
0.0
 13
102.7927961443193
 23
-2010.977682892536
 33
0.0
  0
SOLID
  5
DFE
330
D70
100
AcDbEntity
  8
text3
 62
     0
100
AcDbTrace
 10
110.7927961443193
 20
-2010.144349559202
 30
0.0
 11
110.7927961443193
 21
-2011.811016225869
 31
0.0
 12
115.7927961443193
 22
-2010.977682892536
 32
0.0
 13
115.7927961443193
 23
-2010.977682892536
 33
0.0
  0
MTEXT
  5
DFF
330
D70
100
AcDbEntity
  8
text3
 62
     0
100
AcDbMText
 10
130.479462810986
 20
-2007.477682892536
 30
0.0
 40
4.0
 41
0.0
 71
     5
 72
     1
  1
\A1;13{\H3.200000;±0.2}
 73
     1
 44
1.0
  0
POINT
  5
E00
330
D70
100
AcDbEntity
  8
Defpoints
 62
     0
100
AcDbPoint
 10
102.7927961443193
 20
-1993.10362031766
 30
0.0
  0
POINT
  5
E01
330
D70
100
AcDbEntity
  8
Defpoints
 62
     0
100
AcDbPoint
 10
115.7927961443193
 20
-1993.10362031766
 30
0.0
  0
POINT
  5
E02
330
D70
100
AcDbEntity
  8
Defpoints
 62
     0
100
AcDbPoint
 10
115.7927961443193
 20
-2010.977682892536
 30
0.0
  0
ENDBLK
  5
D7C
330
D70
100
AcDbEntity
  8
0
100
AcDbBlockEnd
  0
ENDSEC
  0
SECTION
  2
ENTITIES
  0
DIMENSION
  5
25
330
2
100
AcDbEntity
  8
text3
100
AcDbDimension
  2
*D7
 10
-29.33076851602061
 20
-1900.993536957872
 30
0.0
 11
-59.33076851602073
 21
-1897.493536957871
 31
0.0
  1
\U+25A1<>
 71
     5
 42
60.00000000000023
  3
DMST_1
100
AcDbAlignedDimension
 13
-89.33076851602086
 23
-1882.43395951152
 33
0.0
 14
-29.33076851602061
 24
-1882.43395951152
 34
0.0
100
AcDbRotatedDimension
1001
ACAD
1000
DSTYLE
1002
{
1070
    41
1040
5.0
1070
    42
1040
3.0
1070
    43
1040
0.38
1070
    44
1040
5.0
1070
    47
1040
0.0
1070
    48
1040
0.0
1070
    71
1070
     0
1070
    78
1070
     8
1070
    79
1070
     2
1070
   140
1040
4.0
1070
   141
1040
2.0
1070
   146
1040
1.0
1070
   147
1040
1.5
1070
   176
1070
     0
1070
   177
1070
     0
1070
   178
1070
     0
1070
   179
1070
     2
1070
   279
1070
     0
1002
}
  0
DIMENSION
  5
33
330
2
100
AcDbEntity
  8
text3
100
AcDbDimension
  2
*D6
 10
-25.83076851602129
 20
-1755.374406521724
 30
0.0
 11
-59.33076851602129
 21
-1751.874406521724
 31
0.0
 70
     1
  1
<>±1
 71
     5
 42
67.0
  3
DMST_1
100
AcDbAlignedDimension
 13
-92.8307685160213
 23
-1773.633959511521
 33
0.0
 14
-25.83076851602129
 24
-1773.633959511521
 34
0.0
1001
ACAD
1000
DSTYLE
1002
{
1070
    46
1040
0.0
1070
    41
1040
5.0
1070
    42
1040
2.0
1070
    43
1040
0.38
1070
    44
1040
5.0
1070
    47
1040
0.0
1070
    48
1040
0.0
1070
    71
1070
     0
1070
    78
1070
     8
1070
    79
1070
     2
1070
   140
1040
4.0
1070
   141
1040
1.0
1070
   146
1040
1.0
1070
   147
1040
1.5
1070
   176
1070
     0
1070
   177
1070
     0
1070
   178
1070
     0
1070
   179
1070
     2
1070
   279
1070
     0
1002
}
  0
ARC
  5
40
330
2
100
AcDbEntity
  8
Object
100
AcDbCircle
 10
-57.33076851602084
 20
-1795.633959511528
 30
0.0
 40
7.099999999999998
100
AcDbArc
 50
295.1220601866223
 51
0.0
  0
ARC
  5
42
330
2
100
AcDbEntity
  8
Object
100
AcDbCircle
 10
-57.33076851602084
 20
-1795.633959511528
 30
0.0
 40
7.0
100
AcDbArc
 50
270.0
 51
0.0
  0
CIRCLE
  5
46
330
2
100
AcDbEntity
  8
1
  6
Continuous
 62
     3
100
AcDbCircle
 10
-59.33076851602084
 20
-1855.43395951152
 30
0.0
 40
24.5
  0
CIRCLE
  5
47
330
2
100
AcDbEntity
  8
1
  6
Continuous
 62
     7
100
AcDbCircle
 10
-59.33076851602084
 20
-1855.43395951152
 30
0.0
 40
25.0
  0
LINE
  5
48
330
2
100
AcDbEntity
  8
1
  6
Continuous
 62
     7
100
AcDbLine
 10
-85.78828162666662
 20
-1885.43395951152
 30
0.0
 11
-32.87325540537505
 21
-1885.43395951152
 31
0.0
  0
LINE
  5
49
330
2
100
AcDbEntity
  8
Object
100
AcDbLine
 10
-42.33076851601946
 20
-1823.106655892194
 30
0.0
 11
-76.33076851601902
 21
-1823.106655892194
 31
0.0
  0
LINE
  5
4A
330
2
100
AcDbEntity
  8
1
  6
Continuous
 62
     7
100
AcDbLine
 10
-85.78828162666662
 20
-1825.433959511521
 30
0.0
 11
-32.87325540537505
 21
-1825.433959511521
 31
0.0
  0
LINE
  5
4B
330
2
100
AcDbEntity
  8
text3
100
AcDbLine
 10
-75.33076851602084
 20
-1802.633959511528
 30
0.0
 11
-43.33076851602084
 21
-1802.633959511528
 31
0.0
  0
CIRCLE
  5
4C
330
2
100
AcDbEntity
  8
1
  6
Continuous
 62
     7
100
AcDbCircle
 10
-59.33076851602084
 20
-1855.43395951152
 30
0.0
 40
7.0
  0
CIRCLE
  5
4D
330
2
100
AcDbEntity
  8
1
  6
Continuous
 62
     7
100
AcDbCircle
 10
-59.33076851602084
 20
-1855.43395951152
 30
0.0
 40
9.0
  0
LINE
  5
4E
330
2
100
AcDbEntity
  8
Center
  6
CENTER
100
AcDbLine
 10
-69.33076851602084
 20
-1855.43395951152
 30
0.0
 11
-49.33076851602084
 21
-1855.43395951152
 31
0.0
  0
LINE
  5
51
330
2
100
AcDbEntity
  8
Object
100
AcDbLine
 10
-82.23076851602092
 20
-1773.633959511522
 30
0.0
 11
-36.4307685160212
 21
-1773.633959511521
 31
0.0
  0
TEXT
  5
52
330
2
100
AcDbEntity
  8
text3
100
AcDbText
 10
-120.7232106771542
 20
-1743.750529645626
 30
0.0
 40
4.0
  1
60A40A
  7
Roman
100
AcDbText
  0
LINE
  5
54
330
2
100
AcDbEntity
  8
Object
100
AcDbLine
 10
-92.83076851602086
 20
-1854.767934107735
 30
0.0
 11
-92.83076851602086
 21
-1780.633959511521
 31
0.0
  0
LINE
  5
55
330
2
100
AcDbEntity
  8
Object2
  6
BORDER
 48
10.0
100
AcDbLine
 10
-88.83068710554757
 20
-1876.63395951152
 30
0.0
 11
-88.83068710554708
 21
-1828.233959511521
 31
0.0
  0
LINE
  5
58
330
2
100
AcDbEntity
  8
1
  6
Continuous
 62
     7
100
AcDbLine
 10
-89.33076851602086
 20
-1881.891472622167
 30
0.0
 11
-89.33076851602086
 21
-1828.976446400875
 31
0.0
  0
LINE
  5
59
330
2
100
AcDbEntity
  8
Object
100
AcDbLine
 10
-89.33076851602059
 20
-1880.633959511522
 30
0.0
 11
-89.83076851602083
 21
-1880.633959511521
 31
0.0
  0
LINE
  5
5A
330
2
100
AcDbEntity
  8
Object
100
AcDbLine
 10
-92.39332519839228
 20
-1858.381401494332
 30
0.0
 11
-92.39332519839228
 21
-1855.264005333964
 31
0.0
  0
POINT
  5
5B
330
2
100
AcDbEntity
  8
Object
100
AcDbPoint
 10
-92.83076851602086
 20
-1858.633959511521
 30
0.0
  0
POINT
  5
5C
330
2
100
AcDbEntity
  8
Object
100
AcDbPoint
 10
-92.8307685160213
 20
-1855.633959511521
 30
0.0
  0
LINE
  5
5D
330
2
100
AcDbEntity
  8
Object
100
AcDbLine
 10
-92.58076851602085
 20
-1858.489621944223
 30
0.0
 11
-92.39332519839228
 21
-1858.381401494332
 31
0.0
  0
ARC
  5
5E
330
2
100
AcDbEntity
  8
Object
100
AcDbCircle
 10
-92.33076851602085
 20
-1854.767934107735
 30
0.0
 40
0.5
100
AcDbArc
 50
180.0
 51
262.8126975029303
  0
ARC
  5
5F
330
2
100
AcDbEntity
  8
Object
100
AcDbCircle
 10
-92.33076851602085
 20
-1858.922634646116
 30
0.0
 40
0.5
100
AcDbArc
 50
119.9999999999951
 51
180.0
  0
ARC
  5
60
330
2
100
AcDbEntity
  8
Object
100
AcDbCircle
 10
-89.83076851602083
 20
-1877.633959511521
 30
0.0
 40
3.0
100
AcDbArc
 50
180.0
 51
270.0
  0
LINE
  5
61
330
2
100
AcDbEntity
  8
Object
100
AcDbLine
 10
-92.39332519839184
 20
-1872.381401494332
 30
0.0
 11
-92.39332519839228
 21
-1869.264005333964
 31
0.0
  0
POINT
  5
62
330
2
100
AcDbEntity
  8
Object
100
AcDbPoint
 10
-92.83076851602086
 20
-1872.633959511521
 30
0.0
  0
LINE
  5
63
330
2
100
AcDbEntity
  8
Object
100
AcDbLine
 10
-92.58076851602085
 20
-1872.489621944223
 30
0.0
 11
-92.39332519839184
 21
-1872.381401494332
 31
0.0
  0
ARC
  5
64
330
2
100
AcDbEntity
  8
Object
100
AcDbCircle
 10
-92.33076851602085
 20
-1872.922634646116
 30
0.0
 40
0.5
100
AcDbArc
 50
119.9999999999951
 51
180.0
  0
LINE
  5
65
330
2
100
AcDbEntity
  8
Object
100
AcDbLine
 10
-92.83076851602086
 20
-1877.633959511521
 30
0.0
 11
-92.83076851602086
 21
-1872.922634646116
 31
0.0
  0
LINE
  5
66
330
2
100
AcDbEntity
  8
Object
100
AcDbLine
 10
-92.83076851602086
 20
-1868.767934107736
 30
0.0
 11
-92.83076851602086
 21
-1865.922634646116
 31
0.0
  0
LINE
  5
67
330
2
100
AcDbEntity
  8
Object
100
AcDbLine
 10
-92.39332519839228
 20
-1865.381401494333
 30
0.0
 11
-92.39332519839228
 21
-1862.264005333964
 31
0.0
  0
POINT
  5
68
330
2
100
AcDbEntity
  8
Object
100
AcDbPoint
 10
-92.8307685160213
 20
-1869.633959511521
 30
0.0
  0
POINT
  5
69
330
2
100
AcDbEntity
  8
Object
100
AcDbPoint
 10
-92.83076851602086
 20
-1865.63395951152
 30
0.0
  0
POINT
  5
6A
330
2
100
AcDbEntity
  8
Object
100
AcDbPoint
 10
-92.8307685160213
 20
-1862.63395951152
 30
0.0
  0
LINE
  5
6B
330
2
100
AcDbEntity
  8
Object
100
AcDbLine
 10
-92.58076851602085
 20
-1865.489621944224
 30
0.0
 11
-92.39332519839184
 21
-1865.381401494333
 31
0.0
  0
ARC
  5
6C
330
2
100
AcDbEntity
  8
Object
100
AcDbCircle
 10
-92.33076851602085
 20
-1861.767934107737
 30
0.0
 40
0.5
100
AcDbArc
 50
180.0
 51
262.8126975029303
  0
ARC
  5
6D
330
2
100
AcDbEntity
  8
Object
100
AcDbCircle
 10
-92.33076851602085
 20
-1865.922634646116
 30
0.0
 40
0.5
100
AcDbArc
 50
119.9999999999951
 51
180.0
  0
ARC
  5
6E
330
2
100
AcDbEntity
  8
Object
100
AcDbCircle
 10
-92.33076851602085
 20
-1868.767934107736
 30
0.0
 40
0.5
100
AcDbArc
 50
180.0
 51
262.8126975029303
  0
LINE
  5
6F
330
2
100
AcDbEntity
  8
Object
100
AcDbLine
 10
-92.83076851602086
 20
-1861.767934107737
 30
0.0
 11
-92.83076851602086
 21
-1858.922634646116
 31
0.0
  0
ARC
  5
70
330
2
100
AcDbEntity
  8
1
  6
Continuous
 62
     7
100
AcDbCircle
 10
-59.33076851602084
 20
-1855.43395951152
 30
0.0
 40
40.0
100
AcDbArc
 50
221.409622109279
 51
228.5903778907194
  0
CIRCLE
  5
71
330
2
100
AcDbEntity
  8
1
  6
Continuous
 62
     7
100
AcDbCircle
 10
-84.07950585755008
 20
-1880.182696853051
 30
0.0
 40
2.75
  0
ARC
  5
72
330
2
100
AcDbEntity
  8
1
  6
DASH_CENTER
 62
     3
100
AcDbCircle
 10
-59.33076851602084
 20
-1855.43395951152
 30
0.0
 40
34.99999999999998
100
AcDbArc
 50
218.0765510851914
 51
231.9234489148056
  0
LINE
  5
74
330
2
100
AcDbEntity
  8
1
  6
DASH_CENTER
 62
     3
100
AcDbLine
 10
-81.0743020375072
 20
-1877.177493033006
 30
0.0
 11
-87.0847096775925
 21
-1883.187900673092
 31
0.0
  0
LINE
  5
76
330
2
100
AcDbEntity
  8
Center
  6
CENTER
100
AcDbLine
 10
-59.33076851602084
 20
-1845.433959511521
 30
0.0
 11
-59.33076851602084
 21
-1865.433959511521
 31
0.0
  0
ARC
  5
77
330
2
100
AcDbEntity
  8
Object
100
AcDbCircle
 10
-85.04549878404862
 20
-1781.17963867127
 30
0.0
 40
5.0
100
AcDbArc
 50
90.0
 51
180.0
  0
ARC
  5
78
330
2
100
AcDbEntity
  8
Object
100
AcDbCircle
 10
-85.83076851602085
 20
-1780.633959511521
 30
0.0
 40
7.0
100
AcDbArc
 50
90.0
 51
180.0
  0
ARC
  5
79
330
2
100
AcDbEntity
  8
Object
100
AcDbCircle
 10
-86.6607586631577
 20
-1818.633959511521
 30
0.0
 40
5.0
100
AcDbArc
 50
180.0
 51
270.0
  0
ARC
  5
7A
330
2
100
AcDbEntity
  8
Object
100
AcDbCircle
 10
-85.04549878404816
 20
-1817.963316662389
 30
0.0
 40
5.0
100
AcDbArc
 50
180.0
 51
270.0
  0
LINE
  5
7B
330
2
100
AcDbEntity
  8
Object
100
AcDbLine
 10
-92.7082843870836
 20
-1788.63395951152
 30
0.0
 11
-84.06833059549819
 21
-1788.63395951152
 31
0.0
  0
LINE
  5
7C
330
2
100
AcDbEntity
  8
Object
100
AcDbLine
 10
-92.7082843870836
 20
-1805.633959511521
 30
0.0
 11
-84.06833059549819
 21
-1805.633959511521
 31
0.0
  0
LINE
  5
7D
330
2
100
AcDbEntity
  8
Object
100
AcDbLine
 10
-90.04549878404864
 20
-1781.17963867127
 30
0.0
 11
-90.04549878404864
 21
-1788.63395951152
 31
0.0
  0
LINE
  5
7E
330
2
100
AcDbEntity
  8
Object
100
AcDbLine
 10
-92.7082843870836
 20
-1788.63395951152
 30
0.0
 11
-92.7082843870836
 21
-1805.633959511521
 31
0.0
  0
LINE
  5
7F
330
2
100
AcDbEntity
  8
Object
100
AcDbLine
 10
-91.71208968899202
 20
-1789.633959511521
 30
0.0
 11
-91.71208968899202
 21
-1804.633959511521
 31
0.0
  0
LINE
  5
80
330
2
100
AcDbEntity
  8
Object
100
AcDbLine
 10
-91.66075866315587
 20
-1805.633959511521
 30
0.0
 11
-91.66075866315587
 21
-1818.633959511521
 31
0.0
  0
LINE
  5
81
330
2
100
AcDbEntity
  8
Object
100
AcDbLine
 10
-90.04549878404864
 20
-1805.633959511521
 30
0.0
 11
-90.04549878404864
 21
-1817.963316662389
 31
0.0
  0
LINE
  5
82
330
2
100
AcDbEntity
  8
Object
100
AcDbLine
 10
-82.23076851602092
 20
-1773.633959511521
 30
0.0
 11
-82.23076851602092
 21
-1792.333959511527
 31
0.0
  0
LINE
  5
83
330
2
100
AcDbEntity
  8
Object
100
AcDbLine
 10
-82.33076851602083
 20
-1781.433959511521
 30
0.0
 11
-82.33076851602083
 21
-1795.633959511528
 31
0.0
  0
LINE
  5
84
330
2
100
AcDbEntity
  8
Object
100
AcDbLine
 10
-74.62366175133515
 20
-1798.926852731941
 30
0.0
 11
-71.62366173643352
 21
-1795.926852730615
 31
0.0
  0
LINE
  5
85
330
2
100
AcDbEntity
  8
Object
100
AcDbLine
 10
-72.50234139127599
 20
-1792.533959511527
 30
0.0
 11
-68.53076851602065
 21
-1792.533959511527
 31
0.0
  0
ARC
  5
86
330
2
100
AcDbEntity
  8
Object
100
AcDbCircle
 10
-75.33076851602173
 20
-1795.533959511528
 30
0.0
 40
6.0
100
AcDbArc
 50
32.57897039282417
 51
147.4210296071758
  0
ARC
  5
87
330
2
100
AcDbEntity
  8
Object
100
AcDbCircle
 10
-75.33076851602084
 20
-1795.633959511528
 30
0.0
 40
4.0
100
AcDbArc
 50
180.0
 51
0.0
  0
ARC
  5
88
330
2
100
AcDbEntity
  8
Object
100
AcDbCircle
 10
-75.33076851602084
 20
-1795.633959511528
 30
0.0
 40
6.0
100
AcDbArc
 50
150.0000000000006
 51
29.99999999999932
  0
ARC
  5
89
330
2
100
AcDbEntity
  8
Object
100
AcDbCircle
 10
-72.50234139127599
 20
-1792.033959511527
 30
0.0
 40
0.5
100
AcDbArc
 50
231.0575587310228
 51
270.0
  0
LINE
  5
8A
330
2
100
AcDbEntity
  8
Center
100
AcDbLine
 10
-75.33076851602173
 20
-1796.533959511527
 30
0.0
 11
-75.33076851602173
 21
-1794.533959511527
 31
0.0
  0
LINE
  5
8B
330
2
100
AcDbEntity
  8
Center
  6
Continuous
100
AcDbLine
 10
-75.33076851602084
 20
-1796.633959511527
 30
0.0
 11
-75.33076851602084
 21
-1794.633959511528
 31
0.0
  0
ARC
  5
8C
330
2
100
AcDbEntity
  8
Object
100
AcDbCircle
 10
-78.15919564076842
 20
-1792.033959511527
 30
0.0
 40
0.5
100
AcDbArc
 50
270.0
 51
308.9424412689771
  0
ARC
  5
8D
330
2
100
AcDbEntity
  8
Object
100
AcDbCircle
 10
-80.80799409107397
 20
-1792.033959511527
 30
0.0
 40
0.5
100
AcDbArc
 50
270.0
 51
327.4210296072029
  0
ARC
  5
8E
330
2
100
AcDbEntity
  8
Object
100
AcDbCircle
 10
-82.03076851602157
 20
-1792.333959511528
 30
0.0
 40
0.2
100
AcDbArc
 50
180.0
 51
270.0
  0
LINE
  5
8F
330
2
100
AcDbEntity
  8
Object
100
AcDbLine
 10
-82.03076851602109
 20
-1792.533959511527
 30
0.0
 11
-78.15919564076796
 21
-1792.533959511527
 31
0.0
  0
LINE
  5
90
330
2
100
AcDbEntity
  8
Object
100
AcDbLine
 10
-80.33076851601993
 20
-1792.633959511527
 30
0.0
 11
-81.83076851601994
 21
-1792.633959511527
 31
0.0
  0
ARC
  5
91
330
2
100
AcDbEntity
  8
Object
100
AcDbCircle
 10
-80.33076851601993
 20
-1793.633959511527
 30
0.0
 40
1.0
100
AcDbArc
 50
0.0
 51
90.0
  0
ARC
  5
92
330
2
100
AcDbEntity
  8
Object
100
AcDbCircle
 10
-81.83076851601994
 20
-1792.133959511528
 30
0.0
 40
0.5
100
AcDbArc
 50
180.0
 51
270.0
  0
LINE
  5
93
330
2
100
AcDbEntity
  8
Object
100
AcDbLine
 10
-79.33076851601993
 20
-1795.633959511528
 30
0.0
 11
-79.33076851601993
 21
-1793.633959511527
 31
0.0
  0
LINE
  5
94
330
2
100
AcDbEntity
  8
Object
100
AcDbLine
 10
-79.03787529880641
 20
-1795.926852730068
 30
0.0
 11
-76.03787531370847
 21
-1798.926852728741
 31
0.0
  0
ARC
  5
95
330
2
100
AcDbEntity
  8
Object
  6
Continuous
100
AcDbCircle
 10
-78.33076851601993
 20
-1795.219745950481
 30
0.0
 40
1.0
100
AcDbArc
 50
180.0
 51
224.9999998703524
  0
LINE
  5
96
330
2
100
AcDbEntity
  8
Object
100
AcDbLine
 10
-84.06833059549819
 20
-1788.63395951152
 30
0.0
 11
-84.06833059549819
 21
-1805.633959511521
 31
0.0
  0
ARC
  5
97
330
2
100
AcDbEntity
  8
Object
100
AcDbCircle
 10
-75.33076851602173
 20
-1795.533959511528
 30
0.0
 40
4.0
100
AcDbArc
 50
51.05755873102278
 51
128.9424412689772
  0
ARC
  5
98
330
2
100
AcDbEntity
  8
Object
100
AcDbCircle
 10
-75.330768530922
 20
-1798.219745949154
 30
0.0
 40
1.0
100
AcDbArc
 50
224.9999999999818
 51
315.0000000000181
  0
LINE
  5
99
330
2
100
AcDbEntity
  8
Center
  6
Continuous
100
AcDbLine
 10
-76.33076851602083
 20
-1795.633959511528
 30
0.0
 11
-74.33076851602084
 21
-1795.633959511528
 31
0.0
  0
ARC
  5
9A
330
2
100
AcDbEntity
  8
Object
100
AcDbCircle
 10
-75.33076851602084
 20
-1795.633959511528
 30
0.0
 40
7.0
100
AcDbArc
 50
180.0
 51
270.0
  0
LINE
  5
9B
330
2
100
AcDbEntity
  8
Object
100
AcDbLine
 10
-72.83076851602037
 20
-1823.933959511527
 30
0.0
 11
-72.83076851602061
 21
-1825.433959511521
 31
0.0
  0
ARC
  5
9C
330
2
100
AcDbEntity
  8
Object
100
AcDbCircle
 10
-77.3307685160204
 20
-1822.63395951152
 30
0.0
 40
1.0
100
AcDbArc
 50
270.0
 51
0.0
  0
ARC
  5
9D
330
2
100
AcDbEntity
  8
Object
100
AcDbCircle
 10
-77.33076851602084
 20
-1827.43395951152
 30
0.0
 40
3.5
100
AcDbArc
 50
90.0
 51
145.1500954209621
  0
LINE
  5
9E
330
2
100
AcDbEntity
  8
object-1
100
AcDbLine
 10
-76.33076851601993
 20
-1823.933959511528
 30
0.0
 11
-76.33076851601993
 21
-1822.63395951152
 31
0.0
  0
LINE
  5
A0
330
2
100
AcDbEntity
  8
Object
100
AcDbLine
 10
-72.83076851602037
 20
-1823.933959511527
 30
0.0
 11
-77.33076851602084
 21
-1823.933959511527
 31
0.0
  0
LINE
  5
A1
330
2
100
AcDbEntity
  8
Object
100
AcDbLine
 10
-89.04930408595749
 20
-1789.633959511521
 30
0.0
 11
-89.04930408595703
 21
-1804.633959511521
 31
0.0
  0
ARC
  5
A2
330
2
100
AcDbEntity
  8
1
  6
Continuous
 62
     7
100
AcDbCircle
 10
-59.33076851602084
 20
-1855.43395951152
 30
0.0
 40
40.00000000000006
100
AcDbArc
 50
131.4096221092804
 51
138.5903778907209
  0
LINE
  5
A3
330
2
100
AcDbEntity
  8
Object
100
AcDbLine
 10
-78.33076851601993
 20
-1822.96331666239
 30
0.0
 11
-85.04549878404816
 21
-1822.963316662389
 31
0.0
  0
LINE
  5
A4
330
2
100
AcDbEntity
  8
HIDDEN-1
  6
ByBlock
100
AcDbLine
 10
-77.3307685160204
 20
-1823.633959511521
 30
0.0
 11
-86.6607586631577
 21
-1823.633959511521
 31
0.0
  0
CIRCLE
  5
A7
330
2
100
AcDbEntity
  8
1
  6
Continuous
 62
     7
100
AcDbCircle
 10
-84.07950585755008
 20
-1830.685222169992
 30
0.0
 40
2.749999999999989
  0
ARC
  5
A8
330
2
100
AcDbEntity
  8
1
  6
DASH_CENTER
 62
     3
100
AcDbCircle
 10
-59.33076851602084
 20
-1855.43395951152
 30
0.0
 40
35.00000000000012
100
AcDbArc
 50
128.0765510851892
 51
141.9234489148084
  0
LINE
  5
A9
330
2
100
AcDbEntity
  8
1
  6
DASH_CENTER
 62
     3
100
AcDbLine
 10
-81.0743020375072
 20
-1833.690425990035
 30
0.0
 11
-87.0847096775925
 21
-1827.680018349949
 31
0.0
  0
ARC
  5
AA
330
2
100
AcDbEntity
  8
Object
100
AcDbCircle
 10
-54.18911290153993
 20
-1802.333959511528
 30
0.0
 40
0.3
100
AcDbArc
 50
115.1220601866222
 51
270.0
  0
LINE
  5
AB
330
2
100
AcDbEntity
  8
Object
100
AcDbLine
 10
-61.33076851602083
 20
-1802.633959511527
 30
0.0
 11
-57.33076851602084
 21
-1802.633959511527
 31
0.0
  0
ARC
  5
AC
330
2
100
AcDbEntity
  8
Object
100
AcDbCircle
 10
-64.47242413050172
 20
-1802.333959511528
 30
0.0
 40
0.3
100
AcDbArc
 50
270.0
 51
64.8779398133777
  0
ARC
  5
AD
330
2
100
AcDbEntity
  8
Object
 48
0.5
100
AcDbCircle
 10
-59.33076851602084
 20
-1800.133959511527
 30
0.0
 40
2.25
100
AcDbArc
 50
102.8395884069012
 51
137.1604115930991
  0
ARC
  5
AE
330
2
100
AcDbEntity
  8
Object
 48
0.5
100
AcDbCircle
 10
-59.33076851602084
 20
-1800.133959511527
 30
0.0
 40
2.25
100
AcDbArc
 50
162.8395884069011
 51
197.1604115930706
  0
ARC
  5
AF
330
2
100
AcDbEntity
  8
Object
 48
0.5
100
AcDbCircle
 10
-59.33076851602084
 20
-1800.133959511527
 30
0.0
 40
2.25
100
AcDbArc
 50
222.8395884069049
 51
257.1604115930865
  0
ARC
  5
B0
330
2
100
AcDbEntity
  8
Object
 48
0.5
100
AcDbCircle
 10
-59.33076851602084
 20
-1800.133959511527
 30
0.0
 40
2.25
100
AcDbArc
 50
282.8395884069011
 51
317.1604115930672
  0
ARC
  5
B1
330
2
100
AcDbEntity
  8
Object
 48
0.5
100
AcDbCircle
 10
-59.33076851602084
 20
-1800.133959511527
 30
0.0
 40
2.25
100
AcDbArc
 50
342.8395884069033
 51
17.16041159307065
  0
ARC
  5
B2
330
2
100
AcDbEntity
  8
Object
 48
0.5
100
AcDbCircle
 10
-55.97856424199711
 20
-1798.198563471541
 30
0.0
 40
1.75
100
AcDbArc
 50
193.3984504009938
 51
226.6015495990299
  0
ARC
  5
B3
330
2
100
AcDbEntity
  8
Object
 48
0.5
100
AcDbCircle
 10
-55.97856424199733
 20
-1802.069355551514
 30
0.0
 40
1.75
100
AcDbArc
 50
133.3984504009698
 51
166.6015495990062
  0
ARC
  5
B4
330
2
100
AcDbEntity
  8
Object
 48
0.5
100
AcDbCircle
 10
-59.33076851602129
 20
-1804.0047515915
 30
0.0
 40
1.75
100
AcDbArc
 50
73.39845040097052
 51
106.6015495990294
  0
ARC
  5
B5
330
2
100
AcDbEntity
  8
Object
 48
0.5
100
AcDbCircle
 10
-62.68297279004503
 20
-1802.069355551514
 30
0.0
 40
1.75
100
AcDbArc
 50
13.39845040099376
 51
46.60154959903003
  0
ARC
  5
B6
330
2
100
AcDbEntity
  8
Object
 48
0.5
100
AcDbCircle
 10
-62.68297279004503
 20
-1798.198563471541
 30
0.0
 40
1.75
100
AcDbArc
 50
313.3984504009698
 51
346.6015495990061
  0
ARC
  5
B7
330
2
100
AcDbEntity
  8
Object
 48
0.5
100
AcDbCircle
 10
-59.33076851602084
 20
-1796.263167431555
 30
0.0
 40
1.75
100
AcDbArc
 50
253.3984504009704
 51
286.6015495990294
  0
ARC
  5
B8
330
2
100
AcDbEntity
  8
Object
 48
0.5
100
AcDbCircle
 10
-59.33076851602084
 20
-1800.133959511527
 30
0.0
 40
2.25
100
AcDbArc
 50
42.83958840690946
 51
77.16041159309874
  0
CIRCLE
  5
B9
330
2
100
AcDbEntity
  8
Object
 48
0.5
100
AcDbCircle
 10
-59.33076851602084
 20
-1800.133959511527
 30
0.0
 40
2.649999999999999
  0
ARC
  5
BA
330
2
100
AcDbEntity
  8
1
  6
Continuous
 62
     7
100
AcDbCircle
 10
-60.97056131733517
 20
-1824.03064242349
 30
0.0
 40
0.5
100
AcDbArc
 50
270.0
 51
0.0
  0
ARC
  5
BB
330
2
100
AcDbEntity
  8
1
  6
Continuous
 62
     7
100
AcDbCircle
 10
-61.17056131733499
 20
-1824.03064242349
 30
0.0
 40
0.5
100
AcDbArc
 50
180.0
 51
270.0
  0
LINE
  5
BC
330
2
100
AcDbEntity
  8
1
  6
Continuous
 62
     7
100
AcDbLine
 10
-60.97056131733517
 20
-1824.53064242349
 30
0.0
 11
-61.17056131733499
 21
-1824.53064242349
 31
0.0
  0
LINE
  5
BD
330
2
100
AcDbEntity
  8
1
  6
Continuous
 62
     7
100
AcDbLine
 10
-61.67056131733499
 20
-1823.106655892194
 30
0.0
 11
-61.67056131733499
 21
-1824.03064242349
 31
0.0
  0
LINE
  5
BE
330
2
100
AcDbEntity
  8
1
  6
Continuous
 62
     7
100
AcDbLine
 10
-60.47056131733495
 20
-1823.106655892194
 30
0.0
 11
-60.47056131733517
 21
-1824.03064242349
 31
0.0
  0
LINE
  5
BF
330
2
100
AcDbEntity
  8
1
  6
Continuous
 62
     7
100
AcDbLine
 10
-59.72056131733517
 20
-1825.433959511521
 30
0.0
 11
-59.72056131733517
 21
-1823.106655892194
 31
0.0
  0
LINE
  5
C0
330
2
100
AcDbEntity
  8
1
  6
Continuous
 62
     7
100
AcDbLine
 10
-57.22056131733517
 20
-1825.433959511521
 30
0.0
 11
-57.22056131733517
 21
-1823.106655892194
 31
0.0
  0
LINE
  5
C1
330
2
100
AcDbEntity
  8
Object
100
AcDbLine
 10
-70.33076851602038
 20
-1792.633959511528
 30
0.0
 11
-68.35756343526407
 21
-1792.633959511528
 31
0.0
  0
LINE
  5
C2
330
2
100
AcDbEntity
  8
Object
100
AcDbLine
 10
-68.33076851602084
 20
-1792.733959511528
 30
0.0
 11
-68.33076851602084
 21
-1795.633959511527
 31
0.0
  0
ARC
  5
C3
330
2
100
AcDbEntity
  8
Object
100
AcDbCircle
 10
-69.85354294097044
 20
-1792.033959511527
 30
0.0
 40
0.5
100
AcDbArc
 50
212.5789703927968
 51
270.0
  0
ARC
  5
C4
330
2
100
AcDbEntity
  8
Object
100
AcDbCircle
 10
-68.53076851602065
 20
-1792.733959511528
 30
0.0
 40
0.2
100
AcDbArc
 50
0.0
 51
90.0
  0
ARC
  5
C5
330
2
100
AcDbEntity
  8
Object
100
AcDbCircle
 10
-70.33076851602038
 20
-1793.633959511528
 30
0.0
 40
1.0
100
AcDbArc
 50
90.0
 51
180.0
  0
LINE
  5
C6
330
2
100
AcDbEntity
  8
Object
100
AcDbLine
 10
-71.33076851601993
 20
-1795.633959511528
 30
0.0
 11
-71.33076851602037
 21
-1793.633959511528
 31
0.0
  0
LINE
  5
C7
330
2
100
AcDbEntity
  8
Object
100
AcDbLine
 10
-68.43076851602075
 20
-1792.633959511528
 30
0.0
 11
-68.43076851602075
 21
-1795.633959511528
 31
0.0
  0
ARC
  5
C8
330
2
100
AcDbEntity
  8
Object
  6
Continuous
100
AcDbCircle
 10
-72.3307685160204
 20
-1795.219745947829
 30
0.0
 40
1.0
100
AcDbArc
 50
314.9999998703518
 51
0.0
  0
LINE
  5
C9
330
2
100
AcDbEntity
  8
1
  6
Continuous
 62
     7
100
AcDbLine
 10
-67.23076851602048
 20
-1823.106655892195
 30
0.0
 11
-67.23076851602048
 21
-1825.433959511521
 31
0.0
  0
ARC
  5
CA
330
2
100
AcDbEntity
  8
Object
100
AcDbCircle
 10
-61.33076851602083
 20
-1795.633959511528
 30
0.0
 40
7.0
100
AcDbArc
 50
180.0
 51
270.0
  0
ARC
  5
CB
330
2
100
AcDbEntity
  8
Object
100
AcDbCircle
 10
-61.33076851602083
 20
-1795.633959511528
 30
0.0
 40
7.099999999999998
100
AcDbArc
 50
180.0
 51
244.8779398133777
  0
ARC
  5
CC
330
2
100
AcDbEntity
  8
Object
100
AcDbCircle
 10
-73.13076851602011
 20
-1773.833959511521
 30
0.0
 40
0.2
100
AcDbArc
 50
90.0
 51
180.0
  0
LINE
  5
CD
330
2
100
AcDbEntity
  8
Object
100
AcDbLine
 10
-73.33076851601949
 20
-1773.833959511519
 30
0.0
 11
-73.33076851601902
 21
-1774.508846146778
 31
0.0
  0
LINE
  5
CE
330
2
100
AcDbEntity
  8
Object
100
AcDbLine
 10
-78.53076851602111
 20
-1773.833959511521
 30
0.0
 11
-78.53076851602111
 21
-1781.633959511523
 31
0.0
  0
LINE
  5
CF
330
2
100
AcDbEntity
  8
Object
100
AcDbLine
 10
-78.73076851602093
 20
-1773.833959511521
 30
0.0
 11
-78.73076851602093
 21
-1781.633959511523
 31
0.0
  0
LINE
  5
D0
330
2
100
AcDbEntity
  8
Object
100
AcDbLine
 10
-82.33076851602175
 20
-1781.433959511521
 30
0.0
 11
-82.33076851602083
 21
-1773.633959511521
 31
0.0
  0
LINE
  5
D1
330
2
100
AcDbEntity
  8
Object
100
AcDbLine
 10
-82.23076851602092
 20
-1783.133959511522
 30
0.0
 11
-80.23076851602047
 21
-1783.133959511522
 31
0.0
  0
LINE
  5
D2
330
2
100
AcDbEntity
  8
Object
100
AcDbLine
 10
-82.23076851602092
 20
-1783.333959511522
 30
0.0
 11
-80.23076851602047
 21
-1783.333959511522
 31
0.0
  0
ARC
  5
D3
330
2
100
AcDbEntity
  8
Object
100
AcDbCircle
 10
-80.23076851602093
 20
-1781.633959511523
 30
0.0
 40
1.5
100
AcDbArc
 50
270.0
 51
0.0
  0
ARC
  5
D4
330
2
100
AcDbEntity
  8
Object
100
AcDbCircle
 10
-80.23076851602093
 20
-1781.633959511523
 30
0.0
 40
1.7
100
AcDbArc
 50
270.0
 51
0.0
  0
ARC
  5
D5
330
2
100
AcDbEntity
  8
Object
100
AcDbCircle
 10
-76.53076851601885
 20
-1773.833959511521
 30
0.0
 40
0.2
100
AcDbArc
 50
0.0
 51
90.0
  0
LINE
  5
D6
330
2
100
AcDbEntity
  8
Object
100
AcDbLine
 10
-76.33076851601856
 20
-1773.833959511519
 30
0.0
 11
-76.33076851601856
 21
-1774.508846146778
 31
0.0
  0
ARC
  5
D7
330
2
100
AcDbEntity
  8
Object
100
AcDbCircle
 10
-78.53076851602157
 20
-1773.833959511521
 30
0.0
 40
0.2
100
AcDbArc
 50
90.0
 51
180.0
  0
ARC
  5
D8
330
2
100
AcDbEntity
  8
Object
100
AcDbCircle
 10
-78.93076851602121
 20
-1773.933959511519
 30
0.0
 40
0.2
100
AcDbArc
 50
270.0
 51
0.0
  0
ARC
  5
D9
330
2
100
AcDbEntity
  8
Object
100
AcDbCircle
 10
-81.2307685160214
 20
-1775.133959511521
 30
0.0
 40
1.0
100
AcDbArc
 50
90.0
 51
180.0
  0
LINE
  5
DA
330
2
100
AcDbEntity
  8
Object
100
AcDbLine
 10
-78.93076851602121
 20
-1774.133959511521
 30
0.0
 11
-81.23076851602093
 21
-1774.133959511521
 31
0.0
  0
ARC
  5
DB
330
2
100
AcDbEntity
  8
Object
100
AcDbCircle
 10
-74.83076851601902
 20
-1766.001923417351
 30
0.0
 40
8.63815572471549
100
AcDbArc
 50
259.999999999995
 51
280.000000000005
  0
LINE
  5
DC
330
2
100
AcDbEntity
  8
Object
100
AcDbLine
 10
-82.33076851602083
 20
-1776.17963867127
 30
0.0
 11
-85.04549878404862
 21
-1776.17963867127
 31
0.0
  0
LINE
  5
DD
330
2
100
AcDbEntity
  8
Object
100
AcDbLine
 10
-82.33076851602083
 20
-1773.633959511521
 30
0.0
 11
-85.83076851602085
 21
-1773.633959511521
 31
0.0
  0
POINT
  5
DE
330
2
100
AcDbEntity
  8
Text
100
AcDbPoint
 10
-59.33076851602084
 20
-1773.633959511521
 30
0.0
  0
LINE
  5
E0
330
2
100
AcDbEntity
  8
Object
100
AcDbLine
 10
-70.33076851601811
 20
-1773.833959511519
 30
0.0
 11
-70.33076851601811
 21
-1774.508846146778
 31
0.0
  0
LINE
  5
E1
330
2
100
AcDbEntity
  8
Object
100
AcDbLine
 10
-67.33076851601902
 20
-1773.833959511519
 30
0.0
 11
-67.33076851601857
 21
-1774.508846146778
 31
0.0
  0
ARC
  5
E2
330
2
100
AcDbEntity
  8
Object
100
AcDbCircle
 10
-67.1307685160192
 20
-1773.833959511521
 30
0.0
 40
0.2
100
AcDbArc
 50
90.0
 51
180.0
  0
ARC
  5
E3
330
2
100
AcDbEntity
  8
Object
100
AcDbCircle
 10
-70.53076851601885
 20
-1773.833959511521
 30
0.0
 40
0.2
100
AcDbArc
 50
0.0
 51
90.0
  0
ARC
  5
E4
330
2
100
AcDbEntity
  8
Object
100
AcDbCircle
 10
-68.83076851601902
 20
-1766.001923417351
 30
0.0
 40
8.63815572471549
100
AcDbArc
 50
259.999999999995
 51
280.000000000005
  0
LINE
  5
F2
330
2
100
AcDbEntity
  8
Center
 48
10.0
100
AcDbLine
 10
90.06229541786945
 20
-1795.633959511522
 30
0.0
 11
75.24416330743981
 21
-1795.633959511522
 31
0.0
  0
LINE
  5
F3
330
2
100
AcDbEntity
  8
Object
 48
0.5
100
AcDbLine
 10
88.43161015645035
 20
-1802.327700608372
 30
0.0
 11
89.46229541786975
 21
-1802.327700608372
 31
0.0
  0
ARC
  5
F4
330
2
100
AcDbEntity
  8
Object
 48
0.5
100
AcDbCircle
 10
88.48820133857531
 20
-1801.230830059948
 30
0.0
 40
0.4330127018920962
100
AcDbArc
 50
90.0
 51
270.0
  0
LINE
  5
F5
330
2
100
AcDbEntity
  8
1
  6
Continuous
 62
     7
100
AcDbLine
 10
35.66229541787049
 20
-1885.43395951152
 30
0.0
 11
112.1622954178705
 21
-1885.43395951152
 31
0.0
  0
LINE
  5
F6
330
2
100
AcDbEntity
  8
1
  6
Continuous
 62
     7
100
AcDbLine
 10
41.16229541787049
 20
-1875.433959511521
 30
0.0
 11
112.1622954178705
 21
-1875.433959511521
 31
0.0
  0
LINE
  5
F7
330
2
100
AcDbEntity
  8
1
  6
Continuous
 62
     7
100
AcDbLine
 10
35.66229541787049
 20
-1825.433959511521
 30
0.0
 11
112.1622954178705
 21
-1825.433959511521
 31
0.0
  0
LINE
  5
F8
330
2
100
AcDbEntity
  8
1
  6
Continuous
 62
     7
100
AcDbLine
 10
112.1622954178709
 20
-1835.43395951152
 30
0.0
 11
41.16229541787049
 21
-1835.43395951152
 31
0.0
  0
LINE
  5
F9
330
2
100
AcDbEntity
  8
Object
 48
10.0
100
AcDbLine
 10
90.06229541787012
 20
-1799.633959511522
 30
0.0
 11
76.2441633074403
 21
-1799.633959511522
 31
0.0
  0
LINE
  5
FA
330
2
100
AcDbEntity
  8
Object
 48
10.0
100
AcDbLine
 10
90.0622954178706
 20
-1791.633959511521
 30
0.0
 11
76.2441633074403
 21
-1791.633959511521
 31
0.0
  0
DIMENSION
  5
FB
330
2
100
AcDbEntity
  8
text3
100
AcDbDimension
  2
*D8
 10
32.16229541787095
 20
-1891.533695891079
 30
0.0
 11
19.32896208453735
 21
-1888.033695891081
 31
0.0
 70
     1
 71
     5
 42
3.0
  3
DMST_1
100
AcDbAlignedDimension
 13
35.16229541787049
 23
-1885.43395951152
 33
0.0
 14
32.16229541787049
 24
-1885.43395951152
 34
0.0
1001
ACAD
1000
DSTYLE
1002
{
1070
    41
1040
5.0
1070
    42
1040
2.0
1070
    43
1040
0.38
1070
    44
1040
5.0
1070
    47
1040
0.0
1070
    48
1040
0.0
1070
    71
1070
     0
1070
    78
1070
     8
1070
    79
1070
     2
1070
   140
1040
4.0
1070
   141
1040
1.0
1070
   146
1040
1.0
1070
   147
1040
1.5
1070
   176
1070
     0
1070
   177
1070
     0
1070
   178
1070
     0
1070
   179
1070
     2
1070
   279
1070
     0
1002
}
  0
DIMENSION
  5
109
330
2
100
AcDbEntity
  8
text3
100
AcDbDimension
  2
*D14
 10
5.162295417870494
 20
-1916.731319065587
 30
0.0
 11
20.16229541787049
 21
-1913.231319065587
 31
0.0
 70
    33
  1
<>±1
 71
     5
 42
30.0
  3
DMST_1
100
AcDbAlignedDimension
 13
35.16229541787049
 23
-1885.43395951152
 33
0.0
 14
5.162295417870494
 24
-1885.43395951152
 34
0.0
1001
ACAD
1000
DSTYLE
1002
{
1070
    41
1040
5.0
1070
    42
1040
2.0
1070
    43
1040
0.38
1070
    44
1040
0.18
1070
    47
1040
0.0
1070
    48
1040
0.0
1070
    71
1070
     0
1070
    78
1070
     8
1070
    79
1070
     2
1070
   140
1040
4.0
1070
   141
1040
1.0
1070
   146
1040
1.0
1070
   147
1040
1.5
1070
   176
1070
     0
1070
   177
1070
     0
1070
   178
1070
     0
1070
   179
1070
     2
1070
   279
1070
     0
1002
}
  0
LINE
  5
128
330
2
100
AcDbEntity
  8
1
  6
Continuous
 62
     7
100
AcDbLine
 10
32.16229541787049
 20
-1862.433959511521
 30
0.0
 11
5.662295417870494
 21
-1862.433959511521
 31
0.0
  0
LINE
  5
12C
330
2
100
AcDbEntity
  8
Center
  6
CENTER
100
AcDbLine
 10
35.16229541787004
 20
-1855.43395951152
 30
0.0
 11
0.3302847954845447
 21
-1855.43395951152
 31
0.0
  0
DIMENSION
  5
13F
330
2
100
AcDbEntity
  8
text3
100
AcDbDimension
  2
*D0
 10
-11.44463184846092
 20
-1880.43395951152
 30
0.0
 11
-11.44463184846063
 21
-1855.43395951152
 31
0.0
 70
   129
  1
Φ<>h7
 71
     5
 42
50.0
  3
DMST_1
100
AcDbAlignedDimension
 13
32.66229541787049
 23
-1830.433959511521
 33
0.0
 14
32.66229541787049
 24
-1880.43395951152
 34
0.0
1001
ACAD
1000
DSTYLE
1002
{
1070
    41
1040
5.0
1070
    42
1040
3.0
1070
    43
1040
0.38
1070
    44
1040
5.0
1070
    47
1040
0.0
1070
    48
1040
0.0
1070
    71
1070
     0
1070
    78
1070
     8
1070
    79
1070
     2
1070
   140
1040
4.0
1070
   141
1040
2.0
1070
   146
1040
1.0
1070
   147
1040
1.5
1070
   176
1070
     0
1070
   177
1070
     0
1070
   178
1070
     0
1070
   179
1070
     2
1070
   279
1070
     0
1002
}
  0
DIMENSION
  5
159
330
2
100
AcDbEntity
  8
text3
100
AcDbDimension
  2
*D18
 10
-2.777001227823642
 20
-1848.43395951152
 30
0.0
 11
-2.777001227823348
 21
-1891.599178259341
 31
0.0
 70
   161
  1
Φ<>h6
 71
     5
 42
14.0
  3
DMST_1
100
AcDbAlignedDimension
 13
5.662295417870494
 23
-1862.433959511521
 33
0.0
 14
5.662295417870682
 24
-1848.43395951152
 34
0.0
1001
ACAD
1000
DSTYLE
1002
{
1070
    41
1040
5.0
1070
    42
1040
2.0
1070
    43
1040
0.38
1070
    44
1040
5.0
1070
    47
1040
0.0
1070
    48
1040
0.0
1070
    71
1070
     0
1070
    78
1070
     8
1070
    79
1070
     2
1070
   140
1040
4.0
1070
   141
1040
1.0
1070
   146
1040
1.0
1070
   147
1040
1.5
1070
   176
1070
     0
1070
   177
1070
     0
1070
   178
1070
     0
1070
   179
1070
     2
1070
   279
1070
     0
1002
}
  0
LINE
  5
167
330
2
100
AcDbEntity
  8
Object
100
AcDbLine
 10
-25.83076851601993
 20
-1854.767934107735
 30
0.0
 11
-25.83076851602084
 21
-1780.633959511521
 31
0.0
  0
TEXT
  5
168
330
2
100
AcDbEntity
  8
text3
100
AcDbText
 10
-13.41510712887372
 20
-1845.337218214421
 30
0.0
 40
2.304
  1
-0.025
 50
90.0
  7
Roman
100
AcDbText
  0
LINE
  5
169
330
2
100
AcDbEntity
  8
1
  6
Continuous
 62
     7
100
AcDbLine
 10
-29.33076851602084
 20
-1881.891472622167
 30
0.0
 11
-29.33076851602084
 21
-1828.976446400875
 31
0.0
  0
LINE
  5
16A
330
2
100
AcDbEntity
  8
Object2
  6
BORDER
 48
10.0
100
AcDbLine
 10
-29.83084992649321
 20
-1876.63395951152
 30
0.0
 11
-29.83084992649366
 21
-1828.233959511521
 31
0.0
  0
MTEXT
  5
16B
102
{ACAD_REACTORS
330
16D
102
}
330
2
100
AcDbEntity
  8
text3
100
AcDbMText
 10
-19.47126631546824
 20
-1908.417104975436
 30
0.0
 40
4.0
 41
0.0
 71
     1
 72
     1
  1
4-Φ5.5 \PPCD　70
 73
     1
 44
1.0
  0
TEXT
  5
16C
330
2
100
AcDbEntity
  8
text3
100
AcDbText
 10
-16.24201753271097
 20
-1842.510082593501
 30
0.0
 40
2.304
  1
0
 50
90.0
  7
Roman
100
AcDbText
  0
LEADER
  5
16D
330
2
100
AcDbEntity
  8
text3
100
AcDbLeader
  3
DMST_1
 73
     0
 40
10.66666666666666
 41
22.8
 76
     3
 10
-31.04649726855859
 20
-1886.287396041518
 30
0.0
 10
-25.47126631546825
 20
-1909.917104975436
 30
0.0
 10
-20.47126631546825
 20
-1909.917104975436
 30
0.0
340
16B
213
0.0
223
-1.5
233
0.0
1001
ACAD
1000
DSTYLE
1002
{
1070
    77
1070
     0
1070
    41
1040
5.0
1070
    42
1040
0.0625
1070
    43
1040
0.38
1070
    44
1040
0.18
1070
    47
1040
0.0
1070
    48
1040
0.0
1070
    71
1070
     0
1070
    78
1070
     8
1070
    79
1070
     2
1070
   140
1040
3.0
1070
   141
1040
2.0
1070
   146
1040
1.0
1070
   147
1040
1.0
1070
   176
1070
     0
1070
   177
1070
     0
1070
   178
1070
     0
1070
   179
1070
     2
1070
   279
1070
     0
1002
}
  0
CIRCLE
  5
16E
330
2
100
AcDbEntity
  8
1
  6
Continuous
 62
     7
100
AcDbCircle
 10
-34.58203117449157
 20
-1880.182696853051
 30
0.0
 40
2.75
  0
ARC
  5
16F
330
2
100
AcDbEntity
  8
1
  6
DASH_CENTER
 62
     3
100
AcDbCircle
 10
-59.33076851602084
 20
-1855.43395951152
 30
0.0
 40
34.99999999999998
100
AcDbArc
 50
308.0765510851942
 51
321.9234489148083
  0
LINE
  5
170
330
2
100
AcDbEntity
  8
1
  6
DASH_CENTER
 62
     3
100
AcDbLine
 10
-37.58723499453447
 20
-1877.177493033006
 30
0.0
 11
-31.57682735444871
 21
-1883.187900673092
 31
0.0
  0
ARC
  5
172
330
2
100
AcDbEntity
  8
Object
100
AcDbCircle
 10
-26.33076851601993
 20
-1858.922634646116
 30
0.0
 40
0.5
100
AcDbArc
 50
0.0
 51
60.00000000000483
  0
ARC
  5
173
330
2
100
AcDbEntity
  8
Object
100
AcDbCircle
 10
-26.33076851601993
 20
-1854.767934107735
 30
0.0
 40
0.5
100
AcDbArc
 50
277.1873024970693
 51
0.0
  0
LINE
  5
174
330
2
100
AcDbEntity
  8
Object
100
AcDbLine
 10
-26.08076851601992
 20
-1858.489621944223
 30
0.0
 11
-26.26821183364848
 21
-1858.381401494332
 31
0.0
  0
POINT
  5
175
330
2
100
AcDbEntity
  8
Object
100
AcDbPoint
 10
-25.83076851601946
 20
-1855.633959511521
 30
0.0
  0
POINT
  5
176
330
2
100
AcDbEntity
  8
Object
100
AcDbPoint
 10
-25.83076851601993
 20
-1858.633959511521
 30
0.0
  0
LINE
  5
177
330
2
100
AcDbEntity
  8
Object
100
AcDbLine
 10
-26.26821183364848
 20
-1858.381401494332
 30
0.0
 11
-26.26821183364848
 21
-1855.264005333964
 31
0.0
  0
ARC
  5
178
330
2
100
AcDbEntity
  8
Object
100
AcDbCircle
 10
-28.83076851601993
 20
-1877.633959511521
 30
0.0
 40
3.0
100
AcDbArc
 50
270.0
 51
0.0
  0
LINE
  5
179
330
2
100
AcDbEntity
  8
Object
100
AcDbLine
 10
-28.83076851601993
 20
-1880.633959511521
 30
0.0
 11
-29.33076851602084
 21
-1880.633959511521
 31
0.0
  0
LINE
  5
17A
330
2
100
AcDbEntity
  8
Object
100
AcDbLine
 10
-26.26821183364893
 20
-1872.381401494332
 30
0.0
 11
-26.26821183364848
 21
-1869.264005333964
 31
0.0
  0
ARC
  5
17B
330
2
100
AcDbEntity
  8
Object
100
AcDbCircle
 10
-26.33076851601993
 20
-1872.922634646116
 30
0.0
 40
0.5
100
AcDbArc
 50
0.0
 51
60.00000000000483
  0
LINE
  5
17C
330
2
100
AcDbEntity
  8
Object
100
AcDbLine
 10
-26.08076851601992
 20
-1872.489621944223
 30
0.0
 11
-26.26821183364893
 21
-1872.381401494332
 31
0.0
  0
POINT
  5
17D
330
2
100
AcDbEntity
  8
Object
100
AcDbPoint
 10
-25.83076851601993
 20
-1872.633959511521
 30
0.0
  0
LINE
  5
17E
330
2
100
AcDbEntity
  8
Object
100
AcDbLine
 10
-25.83076851601993
 20
-1877.633959511521
 30
0.0
 11
-25.83076851601993
 21
-1872.922634646116
 31
0.0
  0
ARC
  5
17F
330
2
100
AcDbEntity
  8
Object
100
AcDbCircle
 10
-26.33076851601993
 20
-1868.767934107736
 30
0.0
 40
0.5
100
AcDbArc
 50
277.1873024970693
 51
0.0
  0
ARC
  5
180
330
2
100
AcDbEntity
  8
Object
100
AcDbCircle
 10
-26.33076851601993
 20
-1865.922634646116
 30
0.0
 40
0.5
100
AcDbArc
 50
0.0
 51
60.00000000000483
  0
ARC
  5
181
330
2
100
AcDbEntity
  8
Object
100
AcDbCircle
 10
-26.33076851601993
 20
-1861.767934107737
 30
0.0
 40
0.5
100
AcDbArc
 50
277.1873024970693
 51
0.0
  0
LINE
  5
182
330
2
100
AcDbEntity
  8
Object
100
AcDbLine
 10
-26.08076851601992
 20
-1865.489621944224
 30
0.0
 11
-26.26821183364893
 21
-1865.381401494333
 31
0.0
  0
POINT
  5
183
330
2
100
AcDbEntity
  8
Object
100
AcDbPoint
 10
-25.83076851601946
 20
-1862.63395951152
 30
0.0
  0
POINT
  5
184
330
2
100
AcDbEntity
  8
Object
100
AcDbPoint
 10
-25.83076851601993
 20
-1865.63395951152
 30
0.0
  0
POINT
  5
185
330
2
100
AcDbEntity
  8
Object
100
AcDbPoint
 10
-25.83076851601946
 20
-1869.633959511521
 30
0.0
  0
LINE
  5
186
330
2
100
AcDbEntity
  8
Object
100
AcDbLine
 10
-26.26821183364848
 20
-1865.381401494333
 30
0.0
 11
-26.26821183364848
 21
-1862.264005333964
 31
0.0
  0
LINE
  5
187
330
2
100
AcDbEntity
  8
Object
100
AcDbLine
 10
-25.83076851601993
 20
-1868.767934107736
 30
0.0
 11
-25.83076851601993
 21
-1865.922634646116
 31
0.0
  0
LINE
  5
188
330
2
100
AcDbEntity
  8
Object
100
AcDbLine
 10
-25.83076851601993
 20
-1861.767934107737
 30
0.0
 11
-25.83076851601993
 21
-1858.922634646116
 31
0.0
  0
ARC
  5
189
330
2
100
AcDbEntity
  8
1
  6
Continuous
 62
     7
100
AcDbCircle
 10
-59.33076851602084
 20
-1855.43395951152
 30
0.0
 40
39.99999999999992
100
AcDbArc
 50
311.4096221092805
 51
318.590377890721
  0
LINE
  5
18A
330
2
100
AcDbEntity
  8
text3
100
AcDbLine
 10
5.162295417870494
 20
-1887.43395951152
 30
0.0
 11
5.162295417870494
 21
-1864.227263799607
 31
0.0
  0
LINE
  5
18B
330
2
100
AcDbEntity
  8
1
  6
Continuous
 62
     7
100
AcDbLine
 10
5.162295417870494
 20
-1848.93395951152
 30
0.0
 11
5.162295417870494
 21
-1855.43395951152
 31
0.0
  0
LINE
  5
18D
330
2
100
AcDbEntity
  8
1
  6
Continuous
 62
     7
100
AcDbLine
 10
5.662295417870494
 20
-1862.433959511521
 30
0.0
 11
5.162295417870494
 21
-1861.933959511521
 31
0.0
  0
LINE
  5
18E
330
2
100
AcDbEntity
  8
1
  6
Continuous
 62
     3
100
AcDbLine
 10
5.662295417870494
 20
-1848.43395951152
 30
0.0
 11
5.662295417870494
 21
-1862.433959511521
 31
0.0
  0
LINE
  5
18F
330
2
100
AcDbEntity
  8
1
  6
Continuous
 62
     7
100
AcDbLine
 10
5.162295417870494
 20
-1855.43395951152
 30
0.0
 11
5.162295417870494
 21
-1861.933959511521
 31
0.0
  0
LINE
  5
190
330
2
100
AcDbEntity
  8
Object
100
AcDbLine
 10
-28.61603824799214
 20
-1781.17963867127
 30
0.0
 11
-28.61603824799214
 21
-1788.63395951152
 31
0.0
  0
LINE
  5
191
330
2
100
AcDbEntity
  8
Object
100
AcDbLine
 10
-36.4307685160212
 20
-1773.633959511521
 30
0.0
 11
-36.4307685160212
 21
-1792.333959511527
 31
0.0
  0
LINE
  5
192
330
2
100
AcDbEntity
  8
Object
100
AcDbLine
 10
-36.33076851602128
 20
-1781.433959511521
 30
0.0
 11
-36.33076851602082
 21
-1795.633959511528
 31
0.0
  0
ARC
  5
193
330
2
100
AcDbEntity
  8
Object
100
AcDbCircle
 10
-36.83076851602038
 20
-1792.133959511527
 30
0.0
 40
0.5
100
AcDbArc
 50
270.0
 51
0.0
  0
ARC
  5
194
330
2
100
AcDbEntity
  8
Object
100
AcDbCircle
 10
-43.33076851602084
 20
-1795.633959511528
 30
0.0
 40
7.0
100
AcDbArc
 50
270.0
 51
0.0
  0
CIRCLE
  5
195
330
2
100
AcDbEntity
  8
1
  6
Continuous
 62
     7
100
AcDbCircle
 10
-34.58203117449157
 20
-1830.685222169992
 30
0.0
 40
2.75
  0
ARC
  5
196
330
2
100
AcDbEntity
  8
1
  6
DASH_CENTER
 62
     3
100
AcDbCircle
 10
-59.33076851602084
 20
-1855.43395951152
 30
0.0
 40
35.0000000000001
100
AcDbArc
 50
38.07655108519147
 51
51.92344891480574
  0
LINE
  5
197
330
2
100
AcDbEntity
  8
1
  6
DASH_CENTER
 62
     3
100
AcDbLine
 10
-37.58723499453447
 20
-1833.690425990035
 30
0.0
 11
-31.57682735444871
 21
-1827.680018349949
 31
0.0
  0
LINE
  5
198
330
2
100
AcDbEntity
  8
Object
100
AcDbLine
 10
-40.33076851601946
 20
-1822.963316662389
 30
0.0
 11
-33.61603824799215
 21
-1822.963316662389
 31
0.0
  0
LINE
  5
199
330
2
100
AcDbEntity
  8
HIDDEN-1
  6
ByBlock
100
AcDbLine
 10
-32.0007783688826
 20
-1823.633959511521
 30
0.0
 11
-41.33076851602083
 21
-1823.633959511521
 31
0.0
  0
ARC
  5
19A
330
2
100
AcDbEntity
  8
Object
100
AcDbCircle
 10
-37.85354294096861
 20
-1792.033959511527
 30
0.0
 40
0.5
100
AcDbArc
 50
212.5789703927968
 51
270.0
  0
ARC
  5
19B
330
2
100
AcDbEntity
  8
Object
100
AcDbCircle
 10
-36.63076851602102
 20
-1792.333959511528
 30
0.0
 40
0.2
100
AcDbArc
 50
270.0
 51
0.0
  0
LINE
  5
19C
330
2
100
AcDbEntity
  8
Object
100
AcDbLine
 10
-38.33076851602084
 20
-1792.633959511527
 30
0.0
 11
-36.83076851602038
 21
-1792.633959511527
 31
0.0
  0
LINE
  5
19D
330
2
100
AcDbEntity
  8
Center
100
AcDbLine
 10
-43.33076851601992
 20
-1796.533959511527
 30
0.0
 11
-43.33076851601992
 21
-1794.533959511527
 31
0.0
  0
ARC
  5
19E
330
2
100
AcDbEntity
  8
Object
100
AcDbCircle
 10
-46.15919564076569
 20
-1792.033959511527
 30
0.0
 40
0.5
100
AcDbArc
 50
270.0
 51
308.9424412689771
  0
ARC
  5
19F
330
2
100
AcDbEntity
  8
Object
100
AcDbCircle
 10
-43.33076851601992
 20
-1795.533959511528
 30
0.0
 40
4.0
100
AcDbArc
 50
51.05755873102278
 51
128.9424412689772
  0
ARC
  5
1A0
330
2
100
AcDbEntity
  8
Object
100
AcDbCircle
 10
-40.50234139127417
 20
-1792.033959511527
 30
0.0
 40
0.5
100
AcDbArc
 50
231.0575587310228
 51
270.0
  0
ARC
  5
1A1
330
2
100
AcDbEntity
  8
Object
100
AcDbCircle
 10
-43.33076851601992
 20
-1795.633959511528
 30
0.0
 40
4.0
100
AcDbArc
 50
180.0
 51
0.0
  0
ARC
  5
1A2
330
2
100
AcDbEntity
  8
Object
100
AcDbCircle
 10
-43.33076850111922
 20
-1798.219745949154
 30
0.0
 40
1.0
100
AcDbArc
 50
224.9999999999818
 51
315.0000000000181
  0
LINE
  5
1A3
330
2
100
AcDbEntity
  8
Object
100
AcDbLine
 10
-44.03787528230589
 20
-1798.926852730341
 30
0.0
 11
-47.03787529560769
 21
-1795.926852730615
 31
0.0
  0
LINE
  5
1A4
330
2
100
AcDbEntity
  8
Object
100
AcDbLine
 10
-47.33076851602084
 20
-1795.633959511528
 30
0.0
 11
-47.33076851602084
 21
-1793.633959511528
 31
0.0
  0
LINE
  5
1A5
330
2
100
AcDbEntity
  8
Object
100
AcDbLine
 10
-39.33076851602084
 20
-1795.633959511528
 30
0.0
 11
-39.33076851602084
 21
-1793.633959511527
 31
0.0
  0
LINE
  5
1A6
330
2
100
AcDbEntity
  8
Object
100
AcDbLine
 10
-39.62366173323436
 20
-1795.926852730066
 30
0.0
 11
-42.62366171993301
 21
-1798.926852730341
 31
0.0
  0
LINE
  5
1A7
330
2
100
AcDbEntity
  8
Center
  6
Continuous
100
AcDbLine
 10
-44.33076851601992
 20
-1795.633959511528
 30
0.0
 11
-42.33076851601992
 21
-1795.633959511528
 31
0.0
  0
LINE
  5
1A8
330
2
100
AcDbEntity
  8
Center
  6
Continuous
100
AcDbLine
 10
-43.33076851601992
 20
-1796.633959511527
 30
0.0
 11
-43.33076851601992
 21
-1794.633959511528
 31
0.0
  0
ARC
  5
1A9
330
2
100
AcDbEntity
  8
Object
  6
Continuous
100
AcDbCircle
 10
-46.33076851602083
 20
-1795.219745947829
 30
0.0
 40
1.0
100
AcDbArc
 50
180.0
 51
225.0000001296481
  0
ARC
  5
1AA
330
2
100
AcDbEntity
  8
Object
  6
Continuous
100
AcDbCircle
 10
-40.33076851602084
 20
-1795.21974595048
 30
0.0
 40
1.0
100
AcDbArc
 50
315.0000001296476
 51
0.0
  0
LINE
  5
1AB
330
2
100
AcDbEntity
  8
Object
100
AcDbLine
 10
-36.63076851602102
 20
-1792.533959511527
 30
0.0
 11
-40.50234139127371
 21
-1792.533959511527
 31
0.0
  0
ARC
  5
1AC
330
2
100
AcDbEntity
  8
Object
100
AcDbCircle
 10
-38.33076851602084
 20
-1793.633959511527
 30
0.0
 40
1.0
100
AcDbArc
 50
90.0
 51
180.0
  0
LINE
  5
1AD
330
2
100
AcDbEntity
  8
Object
100
AcDbLine
 10
-41.33076851602083
 20
-1823.933959511527
 30
0.0
 11
-45.83076851602084
 21
-1823.933959511527
 31
0.0
  0
ARC
  5
1AE
330
2
100
AcDbEntity
  8
Object
100
AcDbCircle
 10
-41.33076851602083
 20
-1822.63395951152
 30
0.0
 40
1.0
100
AcDbArc
 50
180.0
 51
270.0
  0
LINE
  5
1AF
330
2
100
AcDbEntity
  8
Object
100
AcDbLine
 10
-45.83076851602084
 20
-1823.933959511528
 30
0.0
 11
-45.83076851602084
 21
-1825.433959511522
 31
0.0
  0
LINE
  5
1B0
330
2
100
AcDbEntity
  8
object-1
100
AcDbLine
 10
-42.33076851601992
 20
-1823.933959511527
 30
0.0
 11
-42.33076851601946
 21
-1822.63395951152
 31
0.0
  0
ARC
  5
1B1
330
2
100
AcDbEntity
  8
Object
100
AcDbCircle
 10
-41.33076851602083
 20
-1827.43395951152
 30
0.0
 40
3.5
100
AcDbArc
 50
34.84990457903772
 51
90.0
  0
LINE
  5
1B2
330
2
100
AcDbEntity
  8
Object
100
AcDbLine
 10
-50.33076851602084
 20
-1795.633959511527
 30
0.0
 11
-50.33076851602084
 21
-1792.733959511528
 31
0.0
  0
ARC
  5
1B3
330
2
100
AcDbEntity
  8
Object
100
AcDbCircle
 10
-48.80799409107122
 20
-1792.033959511527
 30
0.0
 40
0.5
100
AcDbArc
 50
270.0
 51
327.4210296072029
  0
ARC
  5
1B4
330
2
100
AcDbEntity
  8
Object
100
AcDbCircle
 10
-50.13076851602102
 20
-1792.733959511528
 30
0.0
 40
0.2
100
AcDbArc
 50
90.0
 51
180.0
  0
LINE
  5
1B5
330
2
100
AcDbEntity
  8
Object
100
AcDbLine
 10
-50.23076851602093
 20
-1795.633959511528
 30
0.0
 11
-50.23076851602093
 21
-1792.633959511527
 31
0.0
  0
LINE
  5
1B6
330
2
100
AcDbEntity
  8
Object
100
AcDbLine
 10
-50.30397359677761
 20
-1792.633959511528
 30
0.0
 11
-48.33076851602084
 21
-1792.633959511528
 31
0.0
  0
LINE
  5
1B7
330
2
100
AcDbEntity
  8
1
  6
Continuous
 62
     7
100
AcDbLine
 10
-51.43076851602074
 20
-1825.433959511521
 30
0.0
 11
-51.43076851602053
 21
-1823.106655892195
 31
0.0
  0
ARC
  5
1B8
330
2
100
AcDbEntity
  8
Object
100
AcDbCircle
 10
-43.33076851601992
 20
-1795.533959511528
 30
0.0
 40
6.0
100
AcDbArc
 50
32.57897039282417
 51
147.4210296071758
  0
LINE
  5
1B9
330
2
100
AcDbEntity
  8
Object
100
AcDbLine
 10
-46.15919564076569
 20
-1792.533959511527
 30
0.0
 11
-50.13076851602102
 21
-1792.533959511528
 31
0.0
  0
ARC
  5
1BA
330
2
100
AcDbEntity
  8
Object
100
AcDbCircle
 10
-48.33076851602084
 20
-1793.633959511528
 30
0.0
 40
1.0
100
AcDbArc
 50
0.0
 51
90.0
  0
ARC
  5
1BB
330
2
100
AcDbEntity
  8
Object
100
AcDbCircle
 10
-43.33076851601992
 20
-1795.633959511528
 30
0.0
 40
6.0
100
AcDbArc
 50
150.0000000000006
 51
29.99999999999932
  0
LINE
  5
1BC
330
2
100
AcDbEntity
  8
Object
100
AcDbLine
 10
-26.94944734304874
 20
-1789.633959511521
 30
0.0
 11
-26.94944734304874
 21
-1804.633959511521
 31
0.0
  0
LINE
  5
1BD
330
2
100
AcDbEntity
  8
Object
100
AcDbLine
 10
-25.95325264495716
 20
-1788.63395951152
 30
0.0
 11
-25.95325264495716
 21
-1805.633959511521
 31
0.0
  0
LINE
  5
1BE
330
2
100
AcDbEntity
  8
Object
100
AcDbLine
 10
-27.0007783688835
 20
-1805.633959511521
 30
0.0
 11
-27.0007783688826
 21
-1818.633959511521
 31
0.0
  0
LINE
  5
1BF
330
2
100
AcDbEntity
  8
Object
100
AcDbLine
 10
-28.61603824799214
 20
-1805.633959511521
 30
0.0
 11
-28.61603824799214
 21
-1817.963316662389
 31
0.0
  0
LINE
  5
1C0
330
2
100
AcDbEntity
  8
Object
100
AcDbLine
 10
-29.61223294608373
 20
-1789.633959511521
 30
0.0
 11
-29.61223294608373
 21
-1804.633959511521
 31
0.0
  0
LINE
  5
1C1
330
2
100
AcDbEntity
  8
Object
100
AcDbLine
 10
-34.59320643654256
 20
-1788.63395951152
 30
0.0
 11
-34.59320643654256
 21
-1805.633959511521
 31
0.0
  0
LINE
  5
1C2
330
2
100
AcDbEntity
  8
Object
100
AcDbLine
 10
-25.95325264495716
 20
-1788.63395951152
 30
0.0
 11
-34.59320643654256
 21
-1788.63395951152
 31
0.0
  0
ARC
  5
1C3
330
2
100
AcDbEntity
  8
Object
100
AcDbCircle
 10
-33.61603824799215
 20
-1817.963316662389
 30
0.0
 40
5.0
100
AcDbArc
 50
270.0
 51
0.0
  0
ARC
  5
1C4
330
2
100
AcDbEntity
  8
Object
100
AcDbCircle
 10
-32.0007783688826
 20
-1818.633959511521
 30
0.0
 40
5.0
100
AcDbArc
 50
270.0
 51
0.0
  0
LINE
  5
1C5
330
2
100
AcDbEntity
  8
Object
100
AcDbLine
 10
-25.95325264495716
 20
-1805.633959511521
 30
0.0
 11
-34.59320643654256
 21
-1805.633959511521
 31
0.0
  0
ARC
  5
1C6
330
2
100
AcDbEntity
  8
1
  6
Continuous
 62
     7
100
AcDbCircle
 10
-59.33076851602084
 20
-1855.43395951152
 30
0.0
 40
40.00000000000006
100
AcDbArc
 50
41.40962210927898
 51
48.5903778907194
  0
ARC
  5
1C7
330
2
100
AcDbEntity
  8
Object
100
AcDbCircle
 10
-37.4307685160212
 20
-1775.133959511521
 30
0.0
 40
1.0
100
AcDbArc
 50
0.0
 51
90.0
  0
LINE
  5
1C8
330
2
100
AcDbEntity
  8
Object
100
AcDbLine
 10
-32.83076851602084
 20
-1773.633959511521
 30
0.0
 11
-36.33076851602128
 21
-1773.633959511521
 31
0.0
  0
LINE
  5
1C9
330
2
100
AcDbEntity
  8
Object
100
AcDbLine
 10
-33.61603824799215
 20
-1776.17963867127
 30
0.0
 11
-36.33076851602082
 21
-1776.17963867127
 31
0.0
  0
LINE
  5
1CA
330
2
100
AcDbEntity
  8
Object
100
AcDbLine
 10
-36.33076851602174
 20
-1781.433959511521
 30
0.0
 11
-36.33076851602082
 21
-1773.633959511521
 31
0.0
  0
LINE
  5
1CB
330
2
100
AcDbEntity
  8
Object
100
AcDbLine
 10
-36.4307685160212
 20
-1783.333959511522
 30
0.0
 11
-38.43076851602075
 21
-1783.333959511523
 31
0.0
  0
LINE
  5
1CC
330
2
100
AcDbEntity
  8
Object
100
AcDbLine
 10
-36.4307685160212
 20
-1783.133959511522
 30
0.0
 11
-38.43076851602075
 21
-1783.133959511522
 31
0.0
  0
LINE
  5
1CD
330
2
100
AcDbEntity
  8
Object
100
AcDbLine
 10
-39.93076851602074
 20
-1773.833959511521
 30
0.0
 11
-39.93076851601982
 21
-1781.633959511523
 31
0.0
  0
LINE
  5
1CE
330
2
100
AcDbEntity
  8
Object
100
AcDbLine
 10
-40.13076851602057
 20
-1773.833959511521
 30
0.0
 11
-40.13076851602057
 21
-1781.633959511523
 31
0.0
  0
ARC
  5
1CF
330
2
100
AcDbEntity
  8
Object
100
AcDbCircle
 10
-45.53076851602066
 20
-1773.833959511521
 30
0.0
 40
0.2
100
AcDbArc
 50
0.0
 51
90.0
  0
ARC
  5
1D0
330
2
100
AcDbEntity
  8
Object
100
AcDbCircle
 10
-42.13076851602102
 20
-1773.833959511521
 30
0.0
 40
0.2
100
AcDbArc
 50
90.0
 51
180.0
  0
ARC
  5
1D1
330
2
100
AcDbEntity
  8
Object
100
AcDbCircle
 10
-43.83076851602083
 20
-1766.001923417351
 30
0.0
 40
8.63815572471549
100
AcDbArc
 50
259.999999999995
 51
280.000000000005
  0
LINE
  5
1D2
330
2
100
AcDbEntity
  8
Object
100
AcDbLine
 10
-42.33076851602128
 20
-1773.833959511519
 30
0.0
 11
-42.33076851602128
 21
-1774.508846146778
 31
0.0
  0
LINE
  5
1D3
330
2
100
AcDbEntity
  8
Object
100
AcDbLine
 10
-45.33076851602038
 20
-1773.833959511519
 30
0.0
 11
-45.33076851602084
 21
-1774.508846146778
 31
0.0
  0
ARC
  5
1D4
330
2
100
AcDbEntity
  8
Object
100
AcDbCircle
 10
-39.73076851602138
 20
-1773.933959511519
 30
0.0
 40
0.2
100
AcDbArc
 50
180.0
 51
270.0
  0
ARC
  5
1D5
330
2
100
AcDbEntity
  8
Object
100
AcDbCircle
 10
-40.13076851602102
 20
-1773.833959511521
 30
0.0
 40
0.2
100
AcDbArc
 50
0.0
 51
90.0
  0
ARC
  5
1D6
330
2
100
AcDbEntity
  8
Object
100
AcDbCircle
 10
-38.43076851602075
 20
-1781.633959511523
 30
0.0
 40
1.5
100
AcDbArc
 50
180.0
 51
270.0
  0
ARC
  5
1D7
330
2
100
AcDbEntity
  8
Object
100
AcDbCircle
 10
-38.43076851602075
 20
-1781.633959511523
 30
0.0
 40
1.7
100
AcDbArc
 50
180.0
 51
270.0
  0
LINE
  5
1D8
330
2
100
AcDbEntity
  8
Object
100
AcDbLine
 10
-39.73076851602138
 20
-1774.133959511521
 30
0.0
 11
-37.43076851602074
 21
-1774.133959511521
 31
0.0
  0
ARC
  5
1D9
330
2
100
AcDbEntity
  8
Object
100
AcDbCircle
 10
-49.83076851602175
 20
-1766.001923417351
 30
0.0
 40
8.63815572471549
100
AcDbArc
 50
259.999999999995
 51
280.000000000005
  0
LINE
  5
1DA
330
2
100
AcDbEntity
  8
Object
100
AcDbLine
 10
-51.33076851602083
 20
-1773.833959511519
 30
0.0
 11
-51.3307685160213
 21
-1774.508846146778
 31
0.0
  0
ARC
  5
1DB
330
2
100
AcDbEntity
  8
Object
100
AcDbCircle
 10
-51.53076851602065
 20
-1773.833959511521
 30
0.0
 40
0.2
100
AcDbArc
 50
0.0
 51
90.0
  0
ARC
  5
1DC
330
2
100
AcDbEntity
  8
Object
100
AcDbCircle
 10
-48.13076851602193
 20
-1773.833959511521
 30
0.0
 40
0.2
100
AcDbArc
 50
90.0
 51
180.0
  0
LINE
  5
1DD
330
2
100
AcDbEntity
  8
Object
100
AcDbLine
 10
-48.33076851602175
 20
-1773.833959511519
 30
0.0
 11
-48.33076851602175
 21
-1774.508846146778
 31
0.0
  0
ARC
  5
1DE
330
2
100
AcDbEntity
  8
Object
100
AcDbCircle
 10
-32.83076851602084
 20
-1780.633959511521
 30
0.0
 40
7.0
100
AcDbArc
 50
0.0
 51
90.0
  0
ARC
  5
1DF
330
2
100
AcDbEntity
  8
Object
100
AcDbCircle
 10
-33.61603824799215
 20
-1781.17963867127
 30
0.0
 40
5.0
100
AcDbArc
 50
0.0
 51
90.0
  0
TEXT
  5
1E2
330
2
100
AcDbEntity
  8
text3
100
AcDbText
 10
-7.021627848956036
 20
-1876.235046783801
 30
0.0
 40
2.304
  1
0
 50
90.0
  7
Roman
100
AcDbText
  0
TEXT
  5
1E3
330
2
100
AcDbEntity
  8
text3
100
AcDbText
 10
-4.19471744511879
 20
-1879.062182404721
 30
0.0
 40
2.304
  1
-0.011
 50
90.0
  7
Roman
100
AcDbText
  0
LINE
  5
1E6
330
2
100
AcDbEntity
  8
1
  6
Continuous
 62
     7
100
AcDbLine
 10
46.46229541787021
 20
-1885.43395951152
 30
0.0
 11
46.46229541787021
 21
-1825.433959511521
 31
0.0
  0
LINE
  5
1E7
330
2
100
AcDbEntity
  8
1
  6
Continuous
 62
     3
100
AcDbLine
 10
32.66229541787049
 20
-1880.43395951152
 30
0.0
 11
32.66229541787049
 21
-1830.433959511521
 31
0.0
  0
LINE
  5
1E8
330
2
100
AcDbEntity
  8
1
  6
Continuous
 62
     7
100
AcDbLine
 10
32.16229541787049
 20
-1879.933959511521
 30
0.0
 11
32.16229541787049
 21
-1830.93395951152
 31
0.0
  0
LINE
  5
1E9
330
2
100
AcDbEntity
  8
1
  6
Continuous
 62
     3
100
AcDbLine
 10
35.66229541787049
 20
-1885.43395951152
 30
0.0
 11
35.66229541787049
 21
-1825.433959511521
 31
0.0
  0
LINE
  5
1EA
330
2
100
AcDbEntity
  8
1
  6
Continuous
 62
     7
100
AcDbLine
 10
35.16229541787049
 20
-1884.933959511521
 30
0.0
 11
35.16229541787049
 21
-1825.933959511521
 31
0.0
  0
DIMENSION
  5
1EB
330
2
100
AcDbEntity
  8
text3
100
AcDbDimension
  2
*D3
 10
35.16229541787049
 20
-1899.237549780424
 30
0.0
 11
53.99562875120382
 21
-1899.237549780424
 31
0.0
 70
   129
 71
     5
 42
6.0
  3
DMST_1
100
AcDbAlignedDimension
 13
41.16229541787049
 23
-1885.43395951152
 33
0.0
 14
35.16229541787049
 24
-1885.43395951152
 34
0.0
1001
ACAD
1000
DSTYLE
1002
{
1070
    41
1040
5.0
1070
    42
1040
2.0
1070
    43
1040
0.38
1070
    44
1040
5.0
1070
    47
1040
0.0
1070
    48
1040
0.0
1070
    71
1070
     0
1070
    78
1070
     8
1070
    79
1070
     2
1070
   140
1040
4.0
1070
   141
1040
2.0
1070
   146
1040
1.0
1070
   147
1040
1.5
1070
   176
1070
     0
1070
   177
1070
     0
1070
   178
1070
     0
1070
   179
1070
     2
1070
   279
1070
     0
1002
}
  0
LINE
  5
1F9
330
2
100
AcDbEntity
  8
1
  6
Continuous
 62
     7
100
AcDbLine
 10
32.66229541787049
 20
-1880.43395951152
 30
0.0
 11
35.16229541787049
 21
-1880.43395951152
 31
0.0
  0
LINE
  5
1FA
330
2
100
AcDbEntity
  8
text3
100
AcDbLine
 10
32.16229541787065
 20
-1887.433959511522
 30
0.0
 11
32.16229541787065
 21
-1882.078342927999
 31
0.0
  0
LINE
  5
1FC
330
2
100
AcDbEntity
  8
1
  6
Continuous
 62
     7
100
AcDbLine
 10
5.662295417870544
 20
-1848.43395951152
 30
0.0
 11
32.16229541787049
 21
-1848.43395951152
 31
0.0
  0
LINE
  5
1FD
330
2
100
AcDbEntity
  8
1
  6
Continuous
 62
     7
100
AcDbLine
 10
32.66229541787049
 20
-1880.43395951152
 30
0.0
 11
32.16229541787049
 21
-1879.933959511521
 31
0.0
  0
LINE
  5
1FF
330
2
100
AcDbEntity
  8
1
  6
Continuous
 62
     7
100
AcDbLine
 10
35.66229541787049
 20
-1885.43395951152
 30
0.0
 11
35.16229541787049
 21
-1884.933959511521
 31
0.0
  0
LINE
  5
200
330
2
100
AcDbEntity
  8
1
  6
Continuous
 62
     7
100
AcDbLine
 10
41.16229541787049
 20
-1885.43395951152
 30
0.0
 11
41.16229541787049
 21
-1872.433959511521
 31
0.0
  0
LINE
  5
203
330
2
100
AcDbEntity
  8
1
  6
Continuous
 62
     7
100
AcDbLine
 10
35.16229541787049
 20
-1830.433959511521
 30
0.0
 11
32.66229541787049
 21
-1830.433959511521
 31
0.0
  0
LINE
  5
204
330
2
100
AcDbEntity
  8
1
  6
Continuous
 62
     7
100
AcDbLine
 10
32.66229541787049
 20
-1830.433959511521
 30
0.0
 11
32.16229541787049
 21
-1830.93395951152
 31
0.0
  0
LINE
  5
205
330
2
100
AcDbEntity
  8
1
  6
Continuous
 62
     7
100
AcDbLine
 10
35.66229541787049
 20
-1825.433959511521
 30
0.0
 11
35.16229541787049
 21
-1825.933959511521
 31
0.0
  0
LINE
  5
206
330
2
100
AcDbEntity
  8
1
  6
Continuous
 62
     7
100
AcDbLine
 10
41.16229541787049
 20
-1838.433959511521
 30
0.0
 11
41.16229541787049
 21
-1825.433959511521
 31
0.0
  0
ARC
  5
208
330
2
100
AcDbEntity
  8
Object
 48
0.5
370
    30
100
AcDbCircle
 10
88.76229541786996
 20
-1801.383959511524
 30
0.0
 40
1.0
100
AcDbArc
 50
180.0
 51
250.6896266621386
  0
LINE
  5
209
330
2
100
AcDbEntity
  8
画層1
 62
     0
 48
0.5
370
    30
100
AcDbLine
 10
87.76229541786994
 20
-1799.633959511522
 30
0.0
 11
87.76229541786994
 21
-1801.383959511524
 31
0.0
  0
ARC
  5
20B
330
2
100
AcDbEntity
  8
Object
100
AcDbCircle
 10
77.7441633074403
 20
-1793.633959511521
 30
0.0
 40
2.499999999999914
100
AcDbArc
 50
126.869897645831
 51
233.1301023541688
  0
ARC
  5
20D
330
2
100
AcDbEntity
  8
Object
100
AcDbCircle
 10
74.74416330744077
 20
-1797.633959511522
 30
0.0
 40
2.499999999999983
100
AcDbArc
 50
306.8698976458311
 51
53.13010235416886
  0
LINE
  5
21C
330
2
100
AcDbEntity
  8
Object
100
AcDbLine
 10
156.2622954178699
 20
-1879.7446353996
 30
0.0
 11
156.2622954178707
 21
-1774.523283623442
 31
0.0
  0
LINE
  5
21D
330
2
100
AcDbEntity
  8
Object
100
AcDbLine
 10
133.4622954178706
 20
-1855.413295357979
 30
0.0
 11
133.4622954178697
 21
-1773.958497683113
 31
0.0
  0
LINE
  5
21E
330
2
100
AcDbEntity
  8
Object
100
AcDbLine
 10
133.4622954178702
 20
-1773.958497683113
 30
0.0
 11
133.4622954178706
 21
-1855.413295357979
 31
0.0
  0
LINE
  5
21F
330
2
100
AcDbEntity
  8
Object
100
AcDbLine
 10
133.4622954178706
 20
-1773.633959511521
 30
0.0
 11
133.4622954178711
 21
-1880.633959511521
 31
0.0
  0
LINE
  5
220
330
2
100
AcDbEntity
  8
Object
100
AcDbLine
 10
133.4622954178706
 20
-1880.633959511521
 30
0.0
 11
133.4622954178697
 21
-1773.633959511521
 31
0.0
  0
LINE
  5
223
330
2
100
AcDbEntity
  8
1
  6
Continuous
 62
     7
100
AcDbLine
 10
101.9622954178701
 20
-1885.43395951152
 30
0.0
 11
101.9622954178701
 21
-1825.433959511521
 31
0.0
  0
LINE
  5
224
330
2
100
AcDbEntity
  8
Object
100
AcDbLine
 10
115.1622954178705
 20
-1877.366440033988
 30
0.0
 11
115.1622954178699
 21
-1823.633959511521
 31
0.0
  0
LINE
  5
234
330
2
100
AcDbEntity
  8
Object
100
AcDbLine
 10
133.1570596959397
 20
-1880.628631602175
 30
0.0
 11
118.1099381985585
 21
-1880.365983119457
 31
0.0
  0
LINE
  5
235
330
2
100
AcDbEntity
  8
0
100
AcDbLine
 10
115.1622954178699
 20
-1858.633959511521
 30
0.0
 11
115.1622954178699
 21
-1840.542487644981
 31
0.0
  0
ARC
  5
236
330
2
100
AcDbEntity
  8
1
 62
     7
100
AcDbCircle
 10
110.3622954178703
 20
-1884.883959511521
 30
0.0
 40
0.299999999999983
100
AcDbArc
 50
270.0
 51
0.0
  0
ARC
  5
237
330
2
100
AcDbEntity
  8
1
 62
     7
100
AcDbCircle
 10
110.3622954178703
 20
-1879.983959511521
 30
0.0
 40
0.3000000000000114
100
AcDbArc
 50
0.0
 51
90.0
  0
LINE
  5
238
330
2
100
AcDbEntity
  8
1
 62
     7
100
AcDbLine
 10
110.6622954178699
 20
-1884.883959511521
 30
0.0
 11
110.6622954178699
 21
-1879.983959511521
 31
0.0
  0
LINE
  5
23B
330
2
100
AcDbEntity
  8
1
  6
Continuous
 62
     7
100
AcDbLine
 10
107.6622954178704
 20
-1882.346459511521
 30
0.0
 11
106.9622954178701
 21
-1882.171459511521
 31
0.0
  0
LINE
  5
23C
330
2
100
AcDbEntity
  8
1
  6
Continuous
 62
     7
100
AcDbLine
 10
107.6622954178704
 20
-1882.696459511521
 30
0.0
 11
106.9622954178701
 21
-1882.52145951152
 31
0.0
  0
LINE
  5
23D
330
2
100
AcDbEntity
  8
1
  6
Continuous
 62
     7
100
AcDbLine
 10
106.9622954178701
 20
-1879.483959511521
 30
0.0
 11
107.6622954178704
 21
-1879.483959511521
 31
0.0
  0
LINE
  5
23E
330
2
100
AcDbEntity
  8
1
  6
Continuous
 62
     7
100
AcDbLine
 10
106.9622954178701
 20
-1885.383959511521
 30
0.0
 11
106.9622954178701
 21
-1879.483959511521
 31
0.0
  0
LINE
  5
23F
330
2
100
AcDbEntity
  8
1
  6
Continuous
 62
     7
100
AcDbLine
 10
107.6622954178704
 20
-1885.383959511521
 30
0.0
 11
106.9622954178701
 21
-1885.383959511521
 31
0.0
  0
LINE
  5
240
330
2
100
AcDbEntity
  8
1
  6
Continuous
 62
     7
100
AcDbLine
 10
107.6622954178704
 20
-1879.483959511521
 30
0.0
 11
107.6622954178704
 21
-1885.383959511521
 31
0.0
  0
LINE
  5
241
330
2
100
AcDbEntity
  8
1
  6
Continuous
 62
     7
100
AcDbLine
 10
106.9622954178701
 20
-1878.220626178189
 30
0.0
 11
106.9622954178701
 21
-1885.43395951152
 31
0.0
  0
LINE
  5
242
330
2
100
AcDbEntity
  8
1
 62
     7
100
AcDbLine
 10
107.6622954178699
 20
-1879.68395951152
 30
0.0
 11
107.6622954178699
 21
-1885.18395951152
 31
0.0
  0
LINE
  5
243
330
2
100
AcDbEntity
  8
1
 62
     7
100
AcDbLine
 10
106.9622954178701
 20
-1882.171459511521
 30
0.0
 11
107.6622954178699
 21
-1882.346459511522
 31
0.0
  0
LINE
  5
244
330
2
100
AcDbEntity
  8
1
 62
     7
100
AcDbLine
 10
106.9622954178701
 20
-1882.52145951152
 30
0.0
 11
107.6622954178699
 21
-1882.696459511521
 31
0.0
  0
LINE
  5
245
330
2
100
AcDbEntity
  8
1
 62
     7
100
AcDbLine
 10
107.6622954178699
 20
-1879.483959511521
 30
0.0
 11
106.9622954178701
 21
-1879.483959511521
 31
0.0
  0
LINE
  5
246
330
2
100
AcDbEntity
  8
1
 62
     7
100
AcDbLine
 10
106.9622954178701
 20
-1879.483959511521
 30
0.0
 11
106.9622954178701
 21
-1885.383959511521
 31
0.0
  0
LINE
  5
247
330
2
100
AcDbEntity
  8
1
 62
     7
100
AcDbLine
 10
106.9622954178701
 20
-1885.383959511521
 30
0.0
 11
107.6622954178699
 21
-1885.383959511521
 31
0.0
  0
LINE
  5
248
330
2
100
AcDbEntity
  8
1
 62
     7
100
AcDbLine
 10
107.6622954178699
 20
-1885.383959511521
 30
0.0
 11
107.6622954178699
 21
-1879.483959511521
 31
0.0
  0
LINE
  5
249
330
2
100
AcDbEntity
  8
1
  6
Continuous
 62
     7
100
AcDbLine
 10
112.1622954178705
 20
-1879.233959511521
 30
0.0
 11
106.9622954178701
 21
-1879.233959511521
 31
0.0
  0
LINE
  5
24A
330
2
100
AcDbEntity
  8
1
 62
     7
100
AcDbLine
 10
107.6622954178699
 20
-1885.18395951152
 30
0.0
 11
110.3622954178703
 21
-1885.18395951152
 31
0.0
  0
LINE
  5
24B
330
2
100
AcDbEntity
  8
1
 62
     7
100
AcDbLine
 10
110.3622954178703
 20
-1879.68395951152
 30
0.0
 11
107.6622954178699
 21
-1879.68395951152
 31
0.0
  0
LINE
  5
24C
330
2
100
AcDbEntity
  8
1
  6
Continuous
 62
     7
100
AcDbLine
 10
112.1622954178704
 20
-1825.433959511521
 30
0.0
 11
112.1622954178705
 21
-1885.43395951152
 31
0.0
  0
ARC
  5
24D
330
2
100
AcDbEntity
  8
Object
100
AcDbCircle
 10
118.1622954178704
 20
-1877.366440033988
 30
0.0
 40
3.0
100
AcDbArc
 50
180.0
 51
268.9999999999981
  0
LINE
  5
24E
330
2
100
AcDbEntity
  8
Object
100
AcDbLine
 10
133.4622954178706
 20
-1880.633959511521
 30
0.0
 11
155.7710216210883
 21
-1880.244559247179
 31
0.0
  0
ARC
  5
24F
330
2
100
AcDbEntity
  8
Object
100
AcDbCircle
 10
125.9622954178851
 20
-1857.133959511521
 30
0.0
 40
1.5
100
AcDbArc
 50
91.68033827256174
 51
268.3196617274381
  0
ARC
  5
250
330
2
100
AcDbEntity
  8
Object
100
AcDbCircle
 10
125.9622954178851
 20
-1855.151908703952
 30
0.0
 40
1.5
100
AcDbArc
 50
221.3520290631663
 51
268.3196617274381
  0
LINE
  5
251
330
2
100
AcDbEntity
  8
Object
100
AcDbLine
 10
133.4622954178702
 20
-1855.413295357977
 30
0.0
 11
125.9183105706296
 21
-1855.634604539137
 31
0.0
  0
LINE
  5
252
330
2
100
AcDbEntity
  8
Object
100
AcDbLine
 10
133.4622954178711
 20
-1856.872572857493
 30
0.0
 11
125.9183105706296
 21
-1856.651263676336
 31
0.0
  0
LINE
  5
253
330
2
100
AcDbEntity
  8
Object
100
AcDbLine
 10
133.4622954178711
 20
-1858.854623665062
 30
0.0
 11
125.9183105706296
 21
-1858.633314483904
 31
0.0
  0
ARC
  5
254
330
2
100
AcDbEntity
  8
Object
100
AcDbCircle
 10
133.7622954178713
 20
-1880.328677293629
 30
0.0
 40
0.3
100
AcDbArc
 50
180.0
 51
270.9999999999757
  0
POINT
  5
255
330
2
100
AcDbEntity
  8
Object2
100
AcDbPoint
 10
133.4622954178706
 20
-1879.651414576449
 30
0.0
  0
LINE
  5
256
330
2
100
AcDbEntity
  8
Object
100
AcDbLine
 10
133.4622954178706
 20
-1880.328677293629
 30
0.0
 11
133.4622954178706
 21
-1872.633959511521
 31
0.0
  0
POINT
  5
257
330
2
100
AcDbEntity
  8
Object2
100
AcDbPoint
 10
133.4622954178706
 20
-1879.651414576449
 30
0.0
  0
POINT
  5
258
330
2
100
AcDbEntity
  8
DIM
100
AcDbPoint
 10
133.4622954178706
 20
-1879.133959511522
 30
0.0
  0
LINE
  5
259
330
2
100
AcDbEntity
  8
Object
100
AcDbLine
 10
133.4622954178711
 20
-1872.854623665062
 30
0.0
 11
133.4622954178711
 21
-1880.328677293629
 31
0.0
  0
POINT
  5
25A
330
2
100
AcDbEntity
  8
Object
  6
Continuous
100
AcDbPoint
 10
133.4622954178706
 20
-1879.133959511521
 30
0.0
  0
POINT
  5
25B
330
2
100
AcDbEntity
  8
Object
  6
Continuous
100
AcDbPoint
 10
133.4622954178706
 20
-1880.633959511521
 30
0.0
  0
ARC
  5
25C
330
2
100
AcDbEntity
  8
Object
100
AcDbCircle
 10
133.1622954178709
 20
-1880.328677293629
 30
0.0
 40
0.3
100
AcDbArc
 50
268.9999999999981
 51
0.0
  0
LINE
  5
25D
330
2
100
AcDbEntity
  8
Object
100
AcDbLine
 10
133.4622954178711
 20
-1865.854623665063
 30
0.0
 11
133.4622954178711
 21
-1869.413295357977
 31
0.0
  0
LINE
  5
25E
330
2
100
AcDbEntity
  8
Object
100
AcDbLine
 10
133.4622954178702
 20
-1869.413295357977
 30
0.0
 11
133.4622954178702
 21
-1865.854623665063
 31
0.0
  0
ARC
  5
25F
330
2
100
AcDbEntity
  8
Object
100
AcDbCircle
 10
125.9622954178851
 20
-1871.133959511521
 30
0.0
 40
1.5
100
AcDbArc
 50
91.68033827256174
 51
268.3196617274381
  0
ARC
  5
260
330
2
100
AcDbEntity
  8
Object
100
AcDbCircle
 10
125.9622954178851
 20
-1869.151908703952
 30
0.0
 40
1.5
100
AcDbArc
 50
221.3520290631663
 51
268.3196617274381
  0
ARC
  5
261
330
2
100
AcDbEntity
  8
Object
100
AcDbCircle
 10
125.9622954178847
 20
-1862.151908703952
 30
0.0
 40
1.5
100
AcDbArc
 50
221.3520290631663
 51
268.3196617274381
  0
ARC
  5
262
330
2
100
AcDbEntity
  8
Object
100
AcDbCircle
 10
125.9622954178847
 20
-1864.13395951152
 30
0.0
 40
1.5
100
AcDbArc
 50
91.68033827256174
 51
268.3196617274381
  0
LINE
  5
263
330
2
100
AcDbEntity
  8
Object
100
AcDbLine
 10
133.4622954178706
 20
-1862.413295357979
 30
0.0
 11
125.918310570629
 21
-1862.634604539136
 31
0.0
  0
LINE
  5
264
330
2
100
AcDbEntity
  8
Object
100
AcDbLine
 10
133.4622954178711
 20
-1863.872572857493
 30
0.0
 11
125.918310570629
 21
-1863.651263676336
 31
0.0
  0
LINE
  5
265
330
2
100
AcDbEntity
  8
Object
100
AcDbLine
 10
133.4622954178711
 20
-1865.854623665063
 30
0.0
 11
125.918310570629
 21
-1865.633314483904
 31
0.0
  0
LINE
  5
266
330
2
100
AcDbEntity
  8
Object
100
AcDbLine
 10
133.4622954178711
 20
-1869.413295357977
 30
0.0
 11
125.9183105706296
 21
-1869.634604539136
 31
0.0
  0
LINE
  5
267
330
2
100
AcDbEntity
  8
Object
100
AcDbLine
 10
133.4622954178711
 20
-1870.872572857494
 30
0.0
 11
125.9183105706296
 21
-1870.651263676336
 31
0.0
  0
LINE
  5
268
330
2
100
AcDbEntity
  8
Object
100
AcDbLine
 10
133.4622954178711
 20
-1872.854623665062
 30
0.0
 11
125.9183105706296
 21
-1872.633314483905
 31
0.0
  0
LINE
  5
269
330
2
100
AcDbEntity
  8
Object
100
AcDbLine
 10
133.4622954178711
 20
-1858.854623665062
 30
0.0
 11
133.462295417872
 21
-1862.413295357979
 31
0.0
  0
LINE
  5
26A
330
2
100
AcDbEntity
  8
Object
100
AcDbLine
 10
133.4622954178702
 20
-1862.413295357979
 30
0.0
 11
133.4622954178706
 21
-1858.854623665062
 31
0.0
  0
POINT
  5
26C
330
2
100
AcDbEntity
  8
Hidden
100
AcDbPoint
 10
156.2622954178704
 20
-1879.896425502099
 30
0.0
  0
ARC
  5
26E
330
2
100
AcDbEntity
  8
Object
100
AcDbCircle
 10
155.7622954178699
 20
-1879.7446353996
 30
0.0
 40
0.5
100
AcDbArc
 50
271.0000000000017
 51
0.0
  0
LINE
  5
27C
330
2
100
AcDbEntity
  8
Object
100
AcDbLine
 10
93.35705969593924
 20
-1788.028177368644
 30
0.0
 11
127.0797478243079
 21
-1788.61680907948
 31
0.0
  0
LINE
  5
27D
330
2
100
AcDbEntity
  8
Object
100
AcDbLine
 10
93.35705969593879
 20
-1806.239741654397
 30
0.0
 11
127.0797478243079
 21
-1805.651109943561
 31
0.0
  0
LINE
  5
27E
330
2
100
AcDbEntity
  8
Object
100
AcDbLine
 10
133.1466035987231
 20
-1773.650934825836
 30
0.0
 11
97.43462265204641
 21
-1776.461528680433
 31
0.0
  0
LINE
  5
27F
330
2
100
AcDbEntity
  8
Object
100
AcDbLine
 10
133.1387576891513
 20
-1773.659422482992
 30
0.0
 11
100.4346226520467
 21
-1776.23329373064
 31
0.0
  0
LINE
  5
280
330
2
100
AcDbEntity
  8
Object
100
AcDbLine
 10
90.06229541787012
 20
-1801.598429197732
 30
0.0
 11
90.06229541787012
 21
-1784.436867350297
 31
0.0
  0
LINE
  5
281
330
2
100
AcDbEntity
  8
Object
100
AcDbLine
 10
93.06229541786967
 20
-1818.033766631718
 30
0.0
 11
93.06229541787059
 21
-1784.208632400504
 31
0.0
  0
LINE
  5
282
330
2
100
AcDbEntity
  8
1
  6
Continuous
 62
     7
100
AcDbLine
 10
103.7587019464971
 20
-1824.083959511521
 30
0.0
 11
106.421201946497
 21
-1824.083959511521
 31
0.0
  0
LINE
  5
283
330
2
100
AcDbEntity
  8
1
  6
Continuous
 62
     7
100
AcDbLine
 10
106.5962019464972
 20
-1824.78395951152
 30
0.0
 11
106.2462019464967
 21
-1824.78395951152
 31
0.0
  0
LINE
  5
284
330
2
100
AcDbEntity
  8
1
  6
Continuous
 62
     7
100
AcDbLine
 10
106.2462019464967
 20
-1824.78395951152
 30
0.0
 11
106.421201946497
 21
-1824.083959511521
 31
0.0
  0
LINE
  5
285
330
2
100
AcDbEntity
  8
1
  6
Continuous
 62
     7
100
AcDbLine
 10
109.5087019464971
 20
-1825.283959511521
 30
0.0
 11
103.5087019464971
 21
-1825.283959511521
 31
0.0
  0
LINE
  5
286
330
2
100
AcDbEntity
  8
1
  6
Continuous
 62
     7
100
AcDbLine
 10
100.9622954178702
 20
-1825.283959511521
 30
0.0
 11
109.3623356636205
 21
-1825.283959511521
 31
0.0
  0
LINE
  5
287
330
2
100
AcDbEntity
  8
1
  6
Continuous
 62
     7
100
AcDbLine
 10
100.9622954178702
 20
-1825.433959511521
 30
0.0
 11
109.3623356636205
 21
-1825.433959511521
 31
0.0
  0
LINE
  5
288
330
2
100
AcDbEntity
  8
Object
100
AcDbLine
 10
115.1622954178699
 20
-1823.633959511521
 30
0.0
 11
97.88779793435686
 21
-1823.030720766814
 31
0.0
  0
LINE
  5
289
330
2
100
AcDbEntity
  8
1
  6
Continuous
 62
     7
100
AcDbLine
 10
106.2462019464967
 20
-1824.78395951152
 30
0.0
 11
103.7587019464971
 21
-1824.78395951152
 31
0.0
  0
LINE
  5
28A
330
2
100
AcDbEntity
  8
1
  6
Continuous
 62
     7
100
AcDbLine
 10
103.832826618934
 20
-1823.236710628642
 30
0.0
 11
103.7587019464971
 21
-1824.083959511521
 31
0.0
  0
LINE
  5
28B
330
2
100
AcDbEntity
  8
1
  6
Continuous
 62
     7
100
AcDbLine
 10
103.5087019464971
 20
-1825.283959511521
 30
0.0
 11
103.5087019464971
 21
-1824.78395951152
 31
0.0
  0
LINE
  5
28C
330
2
100
AcDbEntity
  8
1
  6
Continuous
 62
     7
100
AcDbLine
 10
103.5087019464971
 20
-1824.78395951152
 30
0.0
 11
103.7587019464971
 21
-1824.78395951152
 31
0.0
  0
LINE
  5
28D
330
2
100
AcDbEntity
  8
1
  6
Continuous
 62
     7
100
AcDbLine
 10
103.7587019464971
 20
-1824.78395951152
 30
0.0
 11
103.7587019464971
 21
-1824.083959511521
 31
0.0
  0
LINE
  5
28E
330
2
100
AcDbEntity
  8
1
  6
Continuous
 62
     7
100
AcDbLine
 10
101.1122954178703
 20
-1824.433959511521
 30
0.0
 11
100.9622954178702
 21
-1824.433959511521
 31
0.0
  0
LINE
  5
28F
330
2
100
AcDbEntity
  8
1
  6
Continuous
 62
     7
100
AcDbLine
 10
100.9622954178702
 20
-1824.433959511521
 30
0.0
 11
100.9622954178702
 21
-1825.283959511521
 31
0.0
  0
LINE
  5
290
330
2
100
AcDbEntity
  8
1
  6
Continuous
 62
     7
100
AcDbLine
 10
100.9622954178702
 20
-1825.283959511521
 30
0.0
 11
100.9622954178702
 21
-1825.433959511521
 31
0.0
  0
LINE
  5
291
330
2
100
AcDbEntity
  8
1
  6
Continuous
 62
     7
100
AcDbLine
 10
99.96229541787023
 20
-1824.433959511521
 30
0.0
 11
101.1122954178703
 21
-1824.433959511521
 31
0.0
  0
LINE
  5
292
330
2
100
AcDbEntity
  8
1
  6
Continuous
 62
     7
100
AcDbLine
 10
100.9622954178702
 20
-1824.433955259312
 30
0.0
 11
100.9622954178702
 21
-1825.283959511521
 31
0.0
  0
LINE
  5
293
330
2
100
AcDbEntity
  8
1
  6
Continuous
 62
     7
100
AcDbLine
 10
101.1122954178703
 20
-1824.433959511521
 30
0.0
 11
101.1122954178703
 21
-1825.283959511521
 31
0.0
  0
LINE
  5
294
330
2
100
AcDbEntity
  8
1
  6
Continuous
 62
     7
100
AcDbLine
 10
100.9622954178702
 20
-1825.433959511521
 30
0.0
 11
100.9622954178702
 21
-1824.433959511521
 31
0.0
  0
LINE
  5
295
330
2
100
AcDbEntity
  8
1
  6
Continuous
 62
     7
100
AcDbLine
 10
99.96229541786975
 20
-1823.103163815247
 30
0.0
 11
99.96229541787023
 21
-1825.433959511521
 31
0.0
  0
LINE
  5
296
330
2
100
AcDbEntity
  8
1
  6
Continuous
 62
     7
100
AcDbLine
 10
101.1122954178703
 20
-1823.143322700162
 30
0.0
 11
101.1122954178703
 21
-1824.433959511521
 31
0.0
  0
LINE
  5
297
330
2
100
AcDbEntity
  8
1
  6
Continuous
 62
     7
100
AcDbLine
 10
99.96229541787023
 20
-1824.433959511521
 30
0.0
 11
99.96229541787023
 21
-1823.103163815247
 31
0.0
  0
ARC
  5
298
330
2
100
AcDbEntity
  8
Object
100
AcDbCircle
 10
93.36229541787032
 20
-1787.728223060097
 30
0.0
 40
0.3
100
AcDbArc
 50
180.0
 51
269.0000000000241
  0
LINE
  5
299
330
2
100
AcDbEntity
  8
Object
100
AcDbLine
 10
92.06229541787012
 20
-1792.533959511528
 30
0.0
 11
93.06229541787059
 21
-1792.499038742036
 31
0.0
  0
LINE
  5
29A
330
2
100
AcDbEntity
  8
Object
 48
10.0
100
AcDbLine
 10
92.06229541786967
 20
-1802.633959511521
 30
0.0
 11
91.02739592116803
 21
-1802.597820024751
 31
0.0
  0
ARC
  5
29B
330
2
100
AcDbEntity
  8
Object
100
AcDbCircle
 10
93.36229541786986
 20
-1806.539695962943
 30
0.0
 40
0.3
100
AcDbArc
 50
90.99999999997569
 51
180.0
  0
ARC
  5
29C
330
2
100
AcDbEntity
  8
Object
100
AcDbCircle
 10
92.06229541787058
 20
-1803.669021969422
 30
0.0
 40
1.0
100
AcDbArc
 50
0.0
 51
88.99999999999822
  0
LINE
  5
29D
330
2
100
AcDbEntity
  8
Object
 48
10.0
100
AcDbLine
 10
92.0797478243079
 20
-1802.669174274267
 30
0.0
 11
91.04484301143282
 21
-1802.651109943564
 31
0.0
  0
ARC
  5
29E
330
2
100
AcDbEntity
  8
Object
100
AcDbCircle
 10
90.26229541786994
 20
-1792.270980217583
 30
0.0
 40
0.2
100
AcDbArc
 50
180.0
 51
268.0000000000223
  0
POINT
  5
29F
330
2
100
AcDbEntity
  8
Hidden
100
AcDbPoint
 10
90.06229541787012
 20
-1792.633959511528
 30
0.0
  0
LINE
  5
2A0
330
2
100
AcDbEntity
  8
Object
 48
0.5
100
AcDbLine
 10
88.48820133857577
 20
-1800.797817358056
 30
0.0
 11
89.46229541786975
 21
-1800.797817358056
 31
0.0
  0
POINT
  5
2A1
330
2
100
AcDbEntity
  8
Hidden
100
AcDbPoint
 10
90.06229541787012
 20
-1802.633959511523
 30
0.0
  0
LINE
  5
2A2
330
2
100
AcDbEntity
  8
Object
 48
0.5
100
AcDbLine
 10
88.48820133857531
 20
-1801.66384276184
 30
0.0
 11
89.46229541786975
 21
-1801.66384276184
 31
0.0
  0
LINE
  5
2A3
330
2
100
AcDbEntity
  8
Object
100
AcDbLine
 10
90.06229541787012
 20
-1802.783959511527
 30
0.0
 11
89.46229541786975
 21
-1802.783959511527
 31
0.0
  0
LINE
  5
2A4
330
2
100
AcDbEntity
  8
Object
100
AcDbLine
 10
90.06229541787012
 20
-1801.651262248406
 30
0.0
 11
90.06229541787012
 21
-1793.616656774644
 31
0.0
  0
LINE
  5
2A5
330
2
100
AcDbEntity
  8
Object
 48
0.5
100
AcDbLine
 10
90.06229541787012
 20
-1802.783959511527
 30
0.0
 11
90.06229541787012
 21
-1797.483959511528
 31
0.0
  0
LINE
  5
2A6
330
2
100
AcDbEntity
  8
Object
 48
0.5
100
AcDbLine
 10
89.46229541786975
 20
-1799.633959511522
 30
0.0
 11
89.46229541786975
 21
-1802.783959511527
 31
0.0
  0
LINE
  5
2A7
330
2
100
AcDbEntity
  8
Object
100
AcDbLine
 10
92.06229541787012
 20
-1792.533959511528
 30
0.0
 11
90.25531551852951
 21
-1792.470858382986
 31
0.0
  0
ARC
  5
2A8
330
2
100
AcDbEntity
  8
Object
 48
10.0
100
AcDbCircle
 10
91.06229541787014
 20
-1801.598429197732
 30
0.0
 40
1.0
100
AcDbArc
 50
180.0
 51
268.0000000000223
  0
ARC
  5
2A9
330
2
100
AcDbEntity
  8
Object
100
AcDbCircle
 10
91.06229541787014
 20
-1801.651262248406
 30
0.0
 40
1.0
100
AcDbArc
 50
180.0
 51
268.9999999999981
  0
ARC
  5
2AA
330
2
100
AcDbEntity
  8
Object
100
AcDbCircle
 10
98.06229541786969
 20
-1818.033766631718
 30
0.0
 40
5.0
100
AcDbArc
 50
180.0
 51
267.9999999999961
  0
LINE
  5
2AD
330
2
100
AcDbEntity
  8
1
  6
Continuous
 62
     7
100
AcDbLine
 10
109.258701946497
 20
-1824.083959511521
 30
0.0
 11
109.258701946497
 21
-1824.78395951152
 31
0.0
  0
LINE
  5
2AE
330
2
100
AcDbEntity
  8
1
  6
Continuous
 62
     7
100
AcDbLine
 10
109.258701946497
 20
-1824.78395951152
 30
0.0
 11
109.5087019464971
 21
-1824.78395951152
 31
0.0
  0
LINE
  5
2AF
330
2
100
AcDbEntity
  8
1
  6
Continuous
 62
     7
100
AcDbLine
 10
109.5087019464971
 20
-1824.78395951152
 30
0.0
 11
109.5087019464971
 21
-1825.283959511521
 31
0.0
  0
LINE
  5
2B0
330
2
100
AcDbEntity
  8
1
  6
Continuous
 62
     7
100
AcDbLine
 10
109.3623356636205
 20
-1825.433959511521
 30
0.0
 11
109.3623356636205
 21
-1825.283959511521
 31
0.0
  0
ARC
  5
2B1
330
2
100
AcDbEntity
  8
1
 62
     7
100
AcDbCircle
 10
110.3622954178703
 20
-1825.98395951152
 30
0.0
 40
0.3000000000000114
100
AcDbArc
 50
0.0
 51
90.0
  0
ARC
  5
2B2
330
2
100
AcDbEntity
  8
1
 62
     7
100
AcDbCircle
 10
110.3622954178703
 20
-1830.88395951152
 30
0.0
 40
0.3000000000000114
100
AcDbArc
 50
270.0
 51
0.0
  0
LINE
  5
2B4
330
2
100
AcDbEntity
  8
1
 62
     7
100
AcDbLine
 10
110.6622954178699
 20
-1830.88395951152
 30
0.0
 11
110.6622954178699
 21
-1825.98395951152
 31
0.0
  0
LINE
  5
2B5
330
2
100
AcDbEntity
  8
1
  6
Continuous
 62
     7
100
AcDbLine
 10
109.258701946497
 20
-1824.083959511521
 30
0.0
 11
109.2011196338343
 21
-1823.425790666067
 31
0.0
  0
LINE
  5
2B6
330
2
100
AcDbEntity
  8
1
  6
Continuous
 62
     7
100
AcDbLine
 10
107.6622954178704
 20
-1828.346459511521
 30
0.0
 11
106.9622954178701
 21
-1828.171459511521
 31
0.0
  0
LINE
  5
2B7
330
2
100
AcDbEntity
  8
1
  6
Continuous
 62
     7
100
AcDbLine
 10
107.6622954178704
 20
-1828.696459511521
 30
0.0
 11
106.9622954178701
 21
-1828.521459511521
 31
0.0
  0
LINE
  5
2B8
330
2
100
AcDbEntity
  8
1
  6
Continuous
 62
     7
100
AcDbLine
 10
106.9622954178701
 20
-1825.483959511521
 30
0.0
 11
107.6622954178704
 21
-1825.483959511521
 31
0.0
  0
LINE
  5
2B9
330
2
100
AcDbEntity
  8
1
  6
Continuous
 62
     7
100
AcDbLine
 10
106.9622954178701
 20
-1831.38395951152
 30
0.0
 11
106.9622954178701
 21
-1825.483959511521
 31
0.0
  0
LINE
  5
2BA
330
2
100
AcDbEntity
  8
1
  6
Continuous
 62
     7
100
AcDbLine
 10
107.6622954178704
 20
-1831.38395951152
 30
0.0
 11
106.9622954178701
 21
-1831.38395951152
 31
0.0
  0
LINE
  5
2BB
330
2
100
AcDbEntity
  8
1
  6
Continuous
 62
     7
100
AcDbLine
 10
107.6622954178704
 20
-1825.483959511521
 30
0.0
 11
107.6622954178704
 21
-1831.38395951152
 31
0.0
  0
LINE
  5
2BC
330
2
100
AcDbEntity
  8
1
  6
Continuous
 62
     7
100
AcDbLine
 10
106.421201946497
 20
-1824.083959511521
 30
0.0
 11
106.7712019464968
 21
-1824.083959511521
 31
0.0
  0
LINE
  5
2BD
330
2
100
AcDbEntity
  8
1
  6
Continuous
 62
     7
100
AcDbLine
 10
106.7712019464968
 20
-1824.083959511521
 30
0.0
 11
106.5962019464972
 21
-1824.78395951152
 31
0.0
  0
LINE
  5
2BE
330
2
100
AcDbEntity
  8
1
 62
     7
100
AcDbLine
 10
107.6622954178699
 20
-1825.483959511521
 30
0.0
 11
106.9622954178701
 21
-1825.483959511521
 31
0.0
  0
LINE
  5
2BF
330
2
100
AcDbEntity
  8
1
 62
     7
100
AcDbLine
 10
107.6622954178699
 20
-1828.171459511521
 30
0.0
 11
106.9622954178701
 21
-1828.346459511521
 31
0.0
  0
LINE
  5
2C0
330
2
100
AcDbEntity
  8
1
 62
     7
100
AcDbLine
 10
106.9622954178701
 20
-1831.38395951152
 30
0.0
 11
107.6622954178699
 21
-1831.38395951152
 31
0.0
  0
LINE
  5
2C1
330
2
100
AcDbEntity
  8
1
 62
     7
100
AcDbLine
 10
107.6622954178699
 20
-1828.521459511521
 30
0.0
 11
106.9622954178701
 21
-1828.696459511522
 31
0.0
  0
LINE
  5
2C2
330
2
100
AcDbEntity
  8
1
  6
Continuous
 62
     7
100
AcDbLine
 10
106.9622954178701
 20
-1825.433959511521
 30
0.0
 11
106.9622954178701
 21
-1832.647292844854
 31
0.0
  0
LINE
  5
2C3
330
2
100
AcDbEntity
  8
1
 62
     7
100
AcDbLine
 10
106.9622954178701
 20
-1825.483959511521
 30
0.0
 11
106.9622954178701
 21
-1831.38395951152
 31
0.0
  0
LINE
  5
2C4
330
2
100
AcDbEntity
  8
1
 62
     7
100
AcDbLine
 10
107.6622954178699
 20
-1831.38395951152
 30
0.0
 11
107.6622954178699
 21
-1825.483959511521
 31
0.0
  0
LINE
  5
2C5
330
2
100
AcDbEntity
  8
1
 62
     7
100
AcDbLine
 10
107.6622954178699
 20
-1825.68395951152
 30
0.0
 11
107.6622954178699
 21
-1831.183959511521
 31
0.0
  0
LINE
  5
2C6
330
2
100
AcDbEntity
  8
1
  6
Continuous
 62
     7
100
AcDbLine
 10
109.258701946497
 20
-1824.78395951152
 30
0.0
 11
106.5962019464972
 21
-1824.78395951152
 31
0.0
  0
LINE
  5
2C7
330
2
100
AcDbEntity
  8
1
  6
Continuous
 62
     7
100
AcDbLine
 10
106.7712019464968
 20
-1824.083959511521
 30
0.0
 11
109.258701946497
 21
-1824.083959511521
 31
0.0
  0
LINE
  5
2C8
330
2
100
AcDbEntity
  8
1
 62
     7
100
AcDbLine
 10
110.3622954178703
 20
-1825.68395951152
 30
0.0
 11
107.6622954178699
 21
-1825.68395951152
 31
0.0
  0
LINE
  5
2C9
330
2
100
AcDbEntity
  8
1
 62
     7
100
AcDbLine
 10
107.6622954178699
 20
-1831.183959511521
 30
0.0
 11
110.3622954178703
 21
-1831.183959511521
 31
0.0
  0
LINE
  5
2CA
330
2
100
AcDbEntity
  8
1
  6
Continuous
 62
     7
100
AcDbLine
 10
106.9622954178701
 20
-1831.63395951152
 30
0.0
 11
112.1622954178699
 21
-1831.63395951152
 31
0.0
  0
ARC
  5
2CB
330
2
100
AcDbEntity
  8
Object
  6
Continuous
100
AcDbCircle
 10
90.50020298025208
 20
-1782.986088950637
 30
0.0
 40
0.2
100
AcDbArc
 50
290.4047219671054
 51
349.1398297200763
  0
POINT
  5
2CC
330
2
100
AcDbEntity
  8
Object
  6
Continuous
100
AcDbPoint
 10
90.67633365492694
 20
-1783.133959511522
 30
0.0
  0
LINE
  5
2CD
330
2
100
AcDbEntity
  8
Object
100
AcDbLine
 10
97.7191002789713
 20
-1776.940685904881
 30
0.0
 11
97.47385219991054
 21
-1776.959987347299
 31
0.0
  0
ARC
  5
2CE
330
2
100
AcDbEntity
  8
Object
  6
Continuous
100
AcDbCircle
 10
90.3212809769924
 20
-1783.479425223523
 30
0.0
 40
0.2
100
AcDbArc
 50
110.4047219671054
 51
172.9492186620558
  0
POINT
  5
2CF
330
2
100
AcDbEntity
  8
Object
  6
Continuous
100
AcDbPoint
 10
90.13868548936114
 20
-1783.333959511522
 30
0.0
  0
ARC
  5
2D0
330
2
100
AcDbEntity
  8
Object
100
AcDbCircle
 10
98.06229541787011
 20
-1784.436867350298
 30
0.0
 40
8.0
100
AcDbArc
 50
94.4999999999972
 51
180.0
  0
ARC
  5
2D1
330
2
100
AcDbEntity
  8
Object
100
AcDbCircle
 10
98.06229541787011
 20
-1784.436867350298
 30
0.0
 40
7.5
100
AcDbArc
 50
94.4999999999972
 51
169.1398297200754
  0
LINE
  5
2D2
330
2
100
AcDbEntity
  8
Object
  6
Continuous
100
AcDbLine
 10
90.25155111875701
 20
-1783.291974571696
 30
0.0
 11
90.56993283848749
 21
-1783.173539602464
 31
0.0
  0
ARC
  5
2D3
330
2
100
AcDbEntity
  8
Object
100
AcDbCircle
 10
101.0622954178705
 20
-1784.208632400504
 30
0.0
 40
8.0
100
AcDbArc
 50
94.4999999999972
 51
180.0
  0
POINT
  5
2D4
330
2
100
AcDbEntity
  8
Text
100
AcDbPoint
 10
128.0622954178705
 20
-1788.63395951152
 30
0.0
  0
POINT
  5
2D5
330
2
100
AcDbEntity
  8
Text
100
AcDbPoint
 10
128.0622954178705
 20
-1805.633959511521
 30
0.0
  0
LINE
  5
2D6
330
2
100
AcDbEntity
  8
Object
100
AcDbLine
 10
128.0622954178705
 20
-1789.616656774636
 30
0.0
 11
128.0622954178705
 21
-1804.651262248405
 31
0.0
  0
ARC
  5
2D7
330
2
100
AcDbEntity
  8
Object
100
AcDbCircle
 10
127.0622954178705
 20
-1789.616656774636
 30
0.0
 40
1.0
100
AcDbArc
 50
0.0
 51
88.99999999999822
  0
ARC
  5
2D8
330
2
100
AcDbEntity
  8
Object
100
AcDbCircle
 10
127.0622954178705
 20
-1804.651262248405
 30
0.0
 40
1.0
100
AcDbArc
 50
271.0000000000017
 51
0.0
  0
LINE
  5
2D9
330
2
100
AcDbEntity
  8
Object
100
AcDbLine
 10
133.4622954178706
 20
-1773.633959511521
 30
0.0
 11
155.7710216210892
 21
-1774.023359775863
 31
0.0
  0
POINT
  5
2DA
330
2
100
AcDbEntity
  8
Object
100
AcDbPoint
 10
133.3622954178689
 20
-1774.714774172905
 30
0.0
  0
POINT
  5
2DB
330
2
100
AcDbEntity
  8
Object
  6
Continuous
100
AcDbPoint
 10
133.3622954178685
 20
-1773.633959511521
 30
0.0
  0
LINE
  5
2DC
330
2
100
AcDbEntity
  8
DIM
100
AcDbLine
 10
133.4622954178702
 20
-1773.633959511519
 30
0.0
 11
133.4622954178697
 21
-1774.789734613732
 31
0.0
  0
ARC
  5
2DD
330
2
100
AcDbEntity
  8
Object
100
AcDbCircle
 10
133.7622954178704
 20
-1773.939241729413
 30
0.0
 40
0.3
100
AcDbArc
 50
89.0000000000243
 51
180.0
  0
POINT
  5
2DE
330
2
100
AcDbEntity
  8
Hidden
100
AcDbPoint
 10
133.4622954178706
 20
-1774.916504446593
 30
0.0
  0
POINT
  5
2DF
330
2
100
AcDbEntity
  8
Text
100
AcDbPoint
 10
133.461686244889
 20
-1775.433938238731
 30
0.0
  0
ARC
  5
2E0
330
2
100
AcDbEntity
  8
Object
100
AcDbCircle
 10
133.1622954178699
 20
-1773.958497683113
 30
0.0
 40
0.3
100
AcDbArc
 50
0.0
 51
94.4999999999972
  0
POINT
  5
2E1
330
2
100
AcDbEntity
  8
Object
  6
Continuous
100
AcDbPoint
 10
133.4622954178702
 20
-1773.633959511521
 30
0.0
  0
POINT
  5
2E2
330
2
100
AcDbEntity
  8
Object
  6
Continuous
100
AcDbPoint
 10
133.4622954178697
 20
-1775.133959511522
 30
0.0
  0
ARC
  5
2E3
330
2
100
AcDbEntity
  8
Object
100
AcDbCircle
 10
133.1622954178685
 20
-1773.850318292582
 30
0.0
 40
0.2
100
AcDbArc
 50
62.25639959038398
 51
94.4999999999972
  0
ARC
  5
2E4
330
2
100
AcDbEntity
  8
Object
100
AcDbCircle
 10
155.7622954178708
 20
-1774.523283623442
 30
0.0
 40
0.5
100
AcDbArc
 50
0.0
 51
88.99999999999822
  0
DIMENSION
  5
384
330
2
100
AcDbEntity
  8
text3
100
AcDbDimension
  2
*D9
 10
176.5622954178716
 20
-1751.24731929189
 30
0.0
 11
123.1622954178706
 21
-1751.24731929189
 31
0.0
 70
   161
  1
<>±1
 71
     5
 42
86.50000000000153
  3
DMST_1
100
AcDbAlignedDimension
 13
90.06229541787012
 23
-1773.633959511519
 33
0.0
 14
176.5622954178716
 24
-1773.633959511522
 34
0.0
1001
ACAD
1000
DSTYLE
1002
{
1070
    41
1040
5.0
1070
    42
1040
2.0
1070
    43
1040
0.38
1070
    44
1040
5.0
1070
    47
1040
0.0
1070
    48
1040
0.0
1070
    71
1070
     0
1070
    78
1070
     8
1070
    79
1070
     2
1070
   140
1040
4.0
1070
   141
1040
1.0
1070
   146
1040
1.0
1070
   147
1040
1.5
1070
   176
1070
     0
1070
   177
1070
     0
1070
   178
1070
     0
1070
   179
1070
     2
1070
   279
1070
     0
1002
}
  0
DIMENSION
  5
385
330
2
100
AcDbEntity
  8
text3
100
AcDbDimension
  2
*D10
 10
176.5622954178705
 20
-1903.520218130691
 30
0.0
 11
145.7122954178698
 21
-1903.520218130691
 31
0.0
 70
   161
  1
<>±1
 71
     5
 42
61.4000000000011
  3
DMST_1
100
AcDbAlignedDimension
 13
115.1622954178694
 23
-1885.43395951152
 33
0.0
 14
176.5622954178705
 24
-1885.43395951152
 34
0.0
1001
ACAD
1000
DSTYLE
1002
{
1070
    41
1040
5.0
1070
    42
1040
2.0
1070
    43
1040
0.38
1070
    44
1040
5.0
1070
    47
1040
0.0
1070
    48
1040
0.0
1070
    71
1070
     0
1070
    78
1070
     8
1070
    79
1070
     2
1070
   140
1040
4.0
1070
   141
1040
1.0
1070
   146
1040
1.0
1070
   147
1040
1.5
1070
   176
1070
     0
1070
   177
1070
     0
1070
   178
1070
     0
1070
   179
1070
     2
1070
   279
1070
     0
1002
}
  0
LINE
  5
387
330
2
100
AcDbEntity
  8
text3
100
AcDbLine
 10
182.7280614056209
 20
-1885.43395951152
 30
0.0
 11
174.3626605989408
 21
-1885.43395951152
 31
0.0
  0
LINE
  5
388
330
2
100
AcDbEntity
  8
text3
100
AcDbLine
 10
176.5622954178706
 20
-1887.433959511522
 30
0.0
 11
176.5622954178706
 21
-1883.083520354184
 31
0.0
  0
DIMENSION
  5
389
330
2
100
AcDbEntity
  8
text3
100
AcDbDimension
  2
*D11
 10
184.7812970242847
 20
-1880.633959511519
 30
0.0
 11
184.781297024285
 21
-1827.133959511519
 31
0.0
 70
   161
  1
<>±1
 71
     5
 42
107.0
  3
DMST_1
100
AcDbAlignedDimension
 13
176.5622954178837
 23
-1773.633959511519
 33
0.0
 14
176.562295417883
 24
-1880.633959511519
 34
0.0
1001
ACAD
1000
DSTYLE
1002
{
1070
    41
1040
5.0
1070
    42
1040
2.0
1070
    43
1040
0.38
1070
    44
1040
5.0
1070
    47
1040
0.0
1070
    48
1040
0.0
1070
    71
1070
     0
1070
    78
1070
     8
1070
    79
1070
     2
1070
   140
1040
4.0
1070
   141
1040
1.0
1070
   146
1040
1.0
1070
   147
1040
1.5
1070
   176
1070
     0
1070
   177
1070
     0
1070
   178
1070
     0
1070
   179
1070
     2
1070
   279
1070
     0
1002
}
  0
DIMENSION
  5
38A
330
2
100
AcDbEntity
  8
text3
100
AcDbDimension
  2
*D12
 10
192.876978915744
 20
-1773.633959511519
 30
0.0
 11
192.8769789157443
 21
-1829.533959511521
 31
0.0
 70
   161
  1
112±1
 71
     5
 42
111.800000000001
  3
DMST_1
100
AcDbAlignedDimension
 13
180.7280614056209
 23
-1885.43395951152
 33
0.0
 14
180.7280614056209
 24
-1773.633959511519
 34
0.0
1001
ACAD
1000
DSTYLE
1002
{
1070
    41
1040
5.0
1070
    42
1040
2.0
1070
    43
1040
0.38
1070
    44
1040
5.0
1070
    47
1040
0.0
1070
    48
1040
0.0
1070
    71
1070
     0
1070
    78
1070
     8
1070
    79
1070
     2
1070
   140
1040
4.0
1070
   141
1040
1.0
1070
   146
1040
1.0
1070
   147
1040
1.5
1070
   176
1070
     0
1070
   177
1070
     0
1070
   178
1070
     0
1070
   179
1070
     2
1070
   279
1070
     0
1002
}
  0
LINE
  5
497
330
2
100
AcDbEntity
  8
Object2
  6
Continuous
100
AcDbLine
 10
166.0622954178698
 20
-1774.133959511521
 30
0.0
 11
166.0622954178698
 21
-1880.133959511521
 31
0.0
  0
LINE
  5
498
330
2
100
AcDbEntity
  8
Object2
  6
Continuous
100
AcDbLine
 10
167.0622954178698
 20
-1774.133959511521
 30
0.0
 11
167.0622954178698
 21
-1880.133959511521
 31
0.0
  0
LINE
  5
499
330
2
100
AcDbEntity
  8
Object2
  6
Continuous
100
AcDbLine
 10
168.0622954178698
 20
-1774.133959511521
 30
0.0
 11
168.0622954178698
 21
-1880.133959511521
 31
0.0
  0
LINE
  5
49A
330
2
100
AcDbEntity
  8
Object2
  6
Continuous
100
AcDbLine
 10
169.0622954178698
 20
-1774.133959511521
 30
0.0
 11
169.0622954178698
 21
-1880.133959511521
 31
0.0
  0
LINE
  5
49B
330
2
100
AcDbEntity
  8
Object2
  6
Continuous
100
AcDbLine
 10
170.0622954178698
 20
-1774.133959511521
 30
0.0
 11
170.0622954178698
 21
-1880.133959511521
 31
0.0
  0
LINE
  5
49C
330
2
100
AcDbEntity
  8
Object2
  6
Continuous
100
AcDbLine
 10
171.0622954178698
 20
-1774.133959511521
 30
0.0
 11
171.0622954178698
 21
-1880.133959511521
 31
0.0
  0
LINE
  5
49D
330
2
100
AcDbEntity
  8
Object2
  6
Continuous
100
AcDbLine
 10
172.0622954178698
 20
-1774.133959511521
 30
0.0
 11
172.0622954178698
 21
-1880.133959511521
 31
0.0
  0
LINE
  5
49E
330
2
100
AcDbEntity
  8
Object2
  6
Continuous
100
AcDbLine
 10
173.0622954178698
 20
-1774.133959511521
 30
0.0
 11
173.0622954178698
 21
-1880.133959511521
 31
0.0
  0
LINE
  5
49F
330
2
100
AcDbEntity
  8
Object2
  6
Continuous
100
AcDbLine
 10
174.0622954178698
 20
-1774.133959511521
 30
0.0
 11
174.0622954178698
 21
-1880.133959511521
 31
0.0
  0
LINE
  5
4A0
330
2
100
AcDbEntity
  8
Object
  6
Continuous
100
AcDbLine
 10
176.5622954178716
 20
-1880.133959511521
 30
0.0
 11
176.5622954178716
 21
-1774.133959511521
 31
0.0
  0
LINE
  5
4A1
330
2
100
AcDbEntity
  8
Object
  6
Continuous
100
AcDbLine
 10
156.5622954178716
 20
-1880.133959511521
 30
0.0
 11
156.5622954178716
 21
-1774.133959511521
 31
0.0
  0
LINE
  5
4A3
330
2
100
AcDbEntity
  8
Object2
  6
Continuous
100
AcDbLine
 10
165.0622954178698
 20
-1774.133959511521
 30
0.0
 11
165.0622954178698
 21
-1880.133959511521
 31
0.0
  0
LINE
  5
4A4
330
2
100
AcDbEntity
  8
Object2
  6
Continuous
100
AcDbLine
 10
162.7622954179491
 20
-1774.133959511521
 30
0.0
 11
162.7622954179491
 21
-1776.383959511521
 31
0.0
  0
LINE
  5
4A6
330
2
100
AcDbEntity
  8
Object
  6
Continuous
100
AcDbLine
 10
176.5622954178716
 20
-1873.633959511522
 30
0.0
 11
161.0622954178716
 21
-1873.633959511521
 31
0.0
  0
LINE
  5
4A7
330
2
100
AcDbEntity
  8
Object
  6
Continuous
100
AcDbLine
 10
176.5622954178716
 20
-1880.133959511521
 30
0.0
 11
156.5622954178716
 21
-1880.133959511521
 31
0.0
  0
LINE
  5
4A8
330
2
100
AcDbEntity
  8
Object
  6
Continuous
100
AcDbLine
 10
161.5622954178718
 20
-1879.63395951152
 30
0.0
 11
161.0622954178718
 21
-1879.633959511521
 31
0.0
  0
LINE
  5
4A9
330
2
100
AcDbEntity
  8
Object
  6
Continuous
100
AcDbLine
 10
161.5622954178718
 20
-1873.633959511521
 30
0.0
 11
161.5622954178718
 21
-1873.883959511521
 31
0.0
  0
LINE
  5
4AA
330
2
100
AcDbEntity
  8
Object
  6
Continuous
100
AcDbLine
 10
161.0622954178716
 20
-1873.633959511521
 30
0.0
 11
161.0622954178718
 21
-1879.633959511521
 31
0.0
  0
LINE
  5
4AC
330
2
100
AcDbEntity
  8
Object
  6
Continuous
100
AcDbLine
 10
176.5622954178716
 20
-1782.133959511522
 30
0.0
 11
161.0622954178718
 21
-1782.133959511522
 31
0.0
  0
LINE
  5
4AD
330
2
100
AcDbEntity
  8
Object
  6
Continuous
100
AcDbLine
 10
176.5622954178716
 20
-1774.133959511521
 30
0.0
 11
156.5622954178716
 21
-1774.133959511521
 31
0.0
  0
LINE
  5
4AE
330
2
100
AcDbEntity
  8
Object
  6
Continuous
100
AcDbLine
 10
161.5622954178718
 20
-1774.133959511521
 30
0.0
 11
161.5622954178719
 21
-1776.383959511521
 31
0.0
  0
LINE
  5
4AF
330
2
100
AcDbEntity
  8
Object
  6
Continuous
100
AcDbLine
 10
161.5622954178718
 20
-1776.133959511521
 30
0.0
 11
161.0622954178716
 21
-1776.133959511521
 31
0.0
  0
LINE
  5
4B0
330
2
100
AcDbEntity
  8
Object
  6
Continuous
100
AcDbLine
 10
161.0622954178716
 20
-1776.133959511521
 30
0.0
 11
161.0622954178718
 21
-1782.133959511522
 31
0.0
  0
LINE
  5
63E
330
2
100
AcDbEntity
  8
Object
  6
Continuous
100
AcDbLine
 10
161.5622954178718
 20
-1879.383959511521
 30
0.0
 11
161.5622954178718
 21
-1880.133959511521
 31
0.0
  0
LINE
  5
63F
330
2
100
AcDbEntity
  8
Object2
  6
Continuous
100
AcDbLine
 10
163.0622954179492
 20
-1879.383959511522
 30
0.0
 11
163.0622954179491
 21
-1880.133959511521
 31
0.0
  0
LINE
  5
642
330
2
100
AcDbEntity
  8
Object2
  6
Continuous
100
AcDbLine
 10
163.0622954179491
 20
-1781.883959511521
 30
0.0
 11
163.0622954179492
 21
-1873.883959511521
 31
0.0
  0
LINE
  5
643
330
2
100
AcDbEntity
  8
Object2
  6
Continuous
100
AcDbLine
 10
164.0622954178697
 20
-1774.133959511521
 30
0.0
 11
164.0622954178698
 21
-1880.133959511521
 31
0.0
  0
LWPOLYLINE
  5
69C
330
2
100
AcDbEntity
  8
Object
100
AcDbPolyline
 90
        4
 70
     1
 43
0.0
 10
156.2622954178715
 20
-1872.13395951152
 10
156.5622954178717
 20
-1872.13395951152
 10
156.5622954178717
 20
-1782.13395951152
 10
156.2622954178715
 20
-1782.13395951152
  0
LINE
  5
6AD
330
2
100
AcDbEntity
  8
Object
100
AcDbLine
 10
161.5622954178718
 20
-1782.133959511522
 30
0.0
 11
161.5622954178718
 21
-1781.883959511521
 31
0.0
  0
LINE
  5
6BA
330
2
100
AcDbEntity
  8
0
  6
Continuous
 62
     7
100
AcDbLine
 10
161.0622954178717
 20
-1879.383959511521
 30
0.0
 11
161.0622954178717
 21
-1873.883959511521
 31
0.0
  0
LINE
  5
6BB
330
2
100
AcDbEntity
  8
0
  6
Continuous
 62
     7
100
AcDbLine
 10
163.7622954178715
 20
-1879.383959511521
 30
0.0
 11
163.7622954178715
 21
-1873.883959511521
 31
0.0
  0
LINE
  5
6BD
330
2
100
AcDbEntity
  8
0
  6
Continuous
 62
     7
100
AcDbLine
 10
164.0622954178717
 20
-1879.083959511521
 30
0.0
 11
164.0622954178717
 21
-1874.183959511521
 31
0.0
  0
LINE
  5
6BF
330
2
100
AcDbEntity
  8
0
100
AcDbLine
 10
163.7622954178715
 20
-1873.883959511521
 30
0.0
 11
164.0622954178717
 21
-1874.183959511521
 31
0.0
  0
LINE
  5
6C4
330
2
100
AcDbEntity
  8
0
  6
Continuous
 62
     7
100
AcDbLine
 10
163.7622954178715
 20
-1873.883959511521
 30
0.0
 11
161.0622954178717
 21
-1873.883959511521
 31
0.0
  0
LINE
  5
6C5
330
2
100
AcDbEntity
  8
0
100
AcDbLine
 10
163.7622954178715
 20
-1879.383959511521
 30
0.0
 11
164.0622954178717
 21
-1879.083959511521
 31
0.0
  0
LINE
  5
6C9
330
2
100
AcDbEntity
  8
0
  6
Continuous
 62
     7
100
AcDbLine
 10
163.7622954178715
 20
-1879.383959511521
 30
0.0
 11
161.0622954178717
 21
-1879.383959511521
 31
0.0
  0
LINE
  5
6D6
330
2
100
AcDbEntity
  8
0
  6
Continuous
 62
     7
100
AcDbLine
 10
161.0622954178717
 20
-1781.883959511521
 30
0.0
 11
161.0622954178717
 21
-1776.383959511521
 31
0.0
  0
LINE
  5
6D7
330
2
100
AcDbEntity
  8
0
  6
Continuous
 62
     7
100
AcDbLine
 10
163.7622954178715
 20
-1781.883959511521
 30
0.0
 11
163.7622954178715
 21
-1776.383959511521
 31
0.0
  0
LINE
  5
6D9
330
2
100
AcDbEntity
  8
0
  6
Continuous
 62
     7
100
AcDbLine
 10
164.0622954178717
 20
-1781.583959511521
 30
0.0
 11
164.0622954178717
 21
-1776.683959511521
 31
0.0
  0
LINE
  5
6DB
330
2
100
AcDbEntity
  8
0
100
AcDbLine
 10
163.7622954178715
 20
-1776.383959511521
 30
0.0
 11
164.0622954178717
 21
-1776.683959511521
 31
0.0
  0
LINE
  5
6E0
330
2
100
AcDbEntity
  8
0
  6
Continuous
 62
     7
100
AcDbLine
 10
163.7622954178715
 20
-1776.383959511521
 30
0.0
 11
161.0622954178717
 21
-1776.383959511521
 31
0.0
  0
LINE
  5
6E1
330
2
100
AcDbEntity
  8
0
100
AcDbLine
 10
163.7622954178715
 20
-1781.883959511521
 30
0.0
 11
164.0622954178717
 21
-1781.583959511521
 31
0.0
  0
LINE
  5
6E5
330
2
100
AcDbEntity
  8
0
  6
Continuous
 62
     7
100
AcDbLine
 10
163.7622954178715
 20
-1781.883959511521
 30
0.0
 11
161.0622954178717
 21
-1781.883959511521
 31
0.0
  0
LINE
  5
94B
330
2
100
AcDbEntity
  8
1
  6
Continuous
 62
     7
100
AcDbLine
 10
5.662295417870494
 20
-1848.43395951152
 30
0.0
 11
5.162295417870494
 21
-1848.93395951152
 31
0.0
  0
CIRCLE
  5
94C
330
2
100
AcDbEntity
  8
Object2
  6
Continuous
100
AcDbCircle
 10
-59.33076851602084
 20
-1855.43395951152
 30
0.0
 40
6.5
  0
LINE
  5
94D
330
2
100
AcDbEntity
  8
Object
100
AcDbLine
 10
0.0835579290659894
 20
-1752.899115567281
 30
0.0
 11
-5.716442070935102
 21
-1752.899115567281
 31
0.0
  0
LINE
  5
94E
330
2
100
AcDbEntity
  8
Object
100
AcDbLine
 10
1.083557929065079
 20
-1755.399115567281
 30
0.0
 11
-3.41644207093492
 21
-1755.399115567281
 31
0.0
  0
LINE
  5
94F
330
2
100
AcDbEntity
  8
Object
100
AcDbLine
 10
1.083557929065079
 20
-1760.399115567281
 30
0.0
 11
-3.41644207093492
 21
-1760.399115567281
 31
0.0
  0
LINE
  5
950
330
2
100
AcDbEntity
  8
Object
100
AcDbLine
 10
0.0835579290659894
 20
-1762.899115567281
 30
0.0
 11
-5.716442070935102
 21
-1762.899115567281
 31
0.0
  0
LINE
  5
951
330
2
100
AcDbEntity
  8
Object
100
AcDbLine
 10
-5.91644207093492
 20
-1753.099115567281
 30
0.0
 11
-5.716442070935102
 21
-1752.899115567281
 31
0.0
  0
LINE
  5
952
330
2
100
AcDbEntity
  8
Object
100
AcDbLine
 10
-5.91644207093492
 20
-1755.199115567281
 30
0.0
 11
-5.91644207093492
 21
-1753.099115567281
 31
0.0
  0
LINE
  5
953
330
2
100
AcDbEntity
  8
Object
100
AcDbLine
 10
-3.41644207093492
 20
-1753.699115567281
 30
0.0
 11
-5.91644207093492
 21
-1753.699115567281
 31
0.0
  0
LINE
  5
954
330
2
100
AcDbEntity
  8
Object
100
AcDbLine
 10
-3.66644207093492
 20
-1755.399115567281
 30
0.0
 11
-5.716442070935102
 21
-1755.399115567281
 31
0.0
  0
LINE
  5
955
330
2
100
AcDbEntity
  8
Object
100
AcDbLine
 10
-5.91644207093492
 20
-1762.699115567281
 30
0.0
 11
-5.716442070935102
 21
-1762.899115567281
 31
0.0
  0
LINE
  5
956
330
2
100
AcDbEntity
  8
Object
100
AcDbLine
 10
-5.716442070935102
 20
-1760.399115567281
 30
0.0
 11
-5.91644207093492
 21
-1760.599115567281
 31
0.0
  0
LINE
  5
957
330
2
100
AcDbEntity
  8
Object
100
AcDbLine
 10
-5.91644207093492
 20
-1760.599115567281
 30
0.0
 11
-5.91644207093492
 21
-1762.699115567281
 31
0.0
  0
LINE
  5
958
330
2
100
AcDbEntity
  8
Object
100
AcDbLine
 10
-3.41644207093492
 20
-1762.099115567281
 30
0.0
 11
-5.91644207093492
 21
-1762.099115567281
 31
0.0
  0
LINE
  5
959
330
2
100
AcDbEntity
  8
Object
100
AcDbLine
 10
-3.66644207093492
 20
-1760.399115567281
 30
0.0
 11
-5.716442070935102
 21
-1760.399115567281
 31
0.0
  0
LINE
  5
95A
330
2
100
AcDbEntity
  8
Object
100
AcDbLine
 10
-3.66644207093492
 20
-1760.399115567281
 30
0.0
 11
-3.66644207093492
 21
-1755.399115567281
 31
0.0
  0
LINE
  5
95B
330
2
100
AcDbEntity
  8
Object
100
AcDbLine
 10
-3.91644207093492
 20
-1760.399115567281
 30
0.0
 11
-3.91644207093492
 21
-1755.399115567281
 31
0.0
  0
LINE
  5
95C
330
2
100
AcDbEntity
  8
Object
100
AcDbLine
 10
-5.716442070935102
 20
-1755.399115567281
 30
0.0
 11
-5.91644207093492
 21
-1755.199115567281
 31
0.0
  0
LINE
  5
95D
330
2
100
AcDbEntity
  8
Object
100
AcDbLine
 10
-3.41644207093492
 20
-1762.099115567281
 30
0.0
 11
-3.41644207093492
 21
-1753.699115567281
 31
0.0
  0
INSERT
  5
95E
330
2
100
AcDbEntity
  8
Dims
100
AcDbBlockReference
  2
1-178128-4-jo1
 10
47.59970773137496
 20
-1769.858448578053
 30
0.0
 50
180.0
  0
LINE
  5
95F
330
2
100
AcDbEntity
  8
Center
  6
CENTER
100
AcDbLine
 10
74.24416330743992
 20
-1795.633959511521
 30
0.0
 11
31.39605264913365
 21
-1795.633959511521
 31
0.0
  0
LINE
  5
960
330
2
100
AcDbEntity
  8
Object
100
AcDbLine
 10
31.39605264913365
 20
-1799.633959511521
 30
0.0
 11
74.24416330743946
 21
-1799.633959511521
 31
0.0
  0
LINE
  5
961
330
2
100
AcDbEntity
  8
Object
100
AcDbLine
 10
74.24416330743946
 20
-1791.633959511521
 30
0.0
 11
31.39605264913365
 21
-1791.633959511521
 31
0.0
  0
LWPOLYLINE
  5
962
330
2
100
AcDbEntity
  8
Object
100
AcDbPolyline
 90
        4
 70
     0
 43
0.3
 10
15.68355792906453
 20
-1792.633959511521
 10
17.28641750535592
 20
-1792.633959511521
 42
-0.0396516019860023
 10
18.07571879251685
 20
-1792.696652201045
 10
31.39605264913365
 20
-1794.82610374159
  0
LWPOLYLINE
  5
963
330
2
100
AcDbEntity
  8
Object
100
AcDbPolyline
 90
        4
 70
     0
 43
0.3
 10
15.68355792906453
 20
-1800.633959511521
 10
17.02887483393345
 20
-1800.633959511521
 42
0.0651900857428688
 10
18.31617110433166
 20
-1800.46540529019
 10
31.39605264913365
 20
-1796.98038579474
  0
LWPOLYLINE
  5
964
330
2
100
AcDbEntity
  8
Object
100
AcDbPolyline
 90
        4
 70
     0
 43
0.3
 10
15.68355792906453
 20
-1802.633959511521
 10
16.78137487451834
 20
-1802.633959511521
 42
0.0894957036537148
 10
18.52884785814552
 20
-1802.3186514087
 10
31.39605264913365
 20
-1797.518956308027
  0
LWPOLYLINE
  5
965
330
2
100
AcDbEntity
  8
Object
100
AcDbPolyline
 90
        4
 70
     0
 43
0.3
 10
15.68355792906453
 20
-1804.633959511521
 10
16.54657144845572
 20
-1804.633959511521
 42
0.112265638776158
 10
18.70873970474661
 20
-1804.14228829628
 10
31.39605264913365
 20
-1798.057526821315
  0
LWPOLYLINE
  5
966
330
2
100
AcDbEntity
  8
Object
100
AcDbPolyline
 90
        4
 70
     0
 43
0.3
 10
15.68355792906453
 20
-1794.633959511521
 10
17.55043176341035
 20
-1794.633959511521
 42
-0.0133102580627244
 10
17.81649548134049
 20
-1794.641043520039
 10
31.39605264913365
 20
-1795.364674254878
  0
LWPOLYLINE
  5
967
330
2
100
AcDbEntity
  8
Object
100
AcDbPolyline
 90
        4
 70
     0
 43
0.3
 10
15.68355792906453
 20
-1796.633959511521
 10
17.55043176341081
 20
-1796.633959511521
 42
0.0133102580627244
 10
17.81649548134095
 20
-1796.626875503004
 10
31.39605264913365
 20
-1795.903244768165
  0
LWPOLYLINE
  5
968
330
2
100
AcDbEntity
  8
Object
100
AcDbPolyline
 90
        4
 70
     0
 43
0.3
 10
15.68355792906453
 20
-1798.633959511521
 10
17.28641750535638
 20
-1798.633959511521
 42
0.0396516019860022
 10
18.0757187925173
 20
-1798.571266821998
 10
31.39605264913365
 20
-1796.441815281452
  0
LWPOLYLINE
  5
969
330
2
100
AcDbEntity
  8
Object
100
AcDbPolyline
 90
        4
 70
     0
 43
0.3
 10
15.68355792906453
 20
-1786.633959511521
 10
16.54657144845572
 20
-1786.633959511521
 42
-0.112265638776158
 10
18.70873970474661
 20
-1787.125630726762
 10
31.39605264913365
 20
-1793.210392201728
  0
LWPOLYLINE
  5
96A
330
2
100
AcDbEntity
  8
Object
100
AcDbPolyline
 90
        4
 70
     0
 43
0.3
 10
15.68355792906453
 20
-1788.633959511521
 10
16.78137487451834
 20
-1788.633959511521
 42
-0.0894957036537151
 10
18.52884785814552
 20
-1788.949267614342
 10
31.39605264913365
 20
-1793.748962715015
  0
LWPOLYLINE
  5
96B
330
2
100
AcDbEntity
  8
Object
100
AcDbPolyline
 90
        4
 70
     0
 43
0.3
 10
15.68355792906453
 20
-1790.633959511521
 10
17.02887483393345
 20
-1790.633959511521
 42
-0.0651900857428688
 10
18.31617110433211
 20
-1790.802513732852
 10
31.39605264913365
 20
-1794.287533228303
  0
LWPOLYLINE
  5
96C
330
2
100
AcDbEntity
  8
Object
100
AcDbPolyline
 90
        4
 70
     0
 43
0.3
 10
15.68355792906453
 20
-1760.899115567281
 10
16.09294027662957
 20
-1760.899115567281
 42
-0.3218642003028505
 10
20.83083606599524
 20
-1764.30151001862
 10
31.39605264913365
 20
-1795.633959511521
  0
LWPOLYLINE
  5
96D
330
2
100
AcDbEntity
  8
Object
100
AcDbPolyline
 90
        4
 70
     0
 43
0.3
 10
15.68355792906453
 20
-1754.899115567281
 10
15.98371210390263
 20
-1754.899115567281
 42
-0.3297534451698269
 10
20.76525116755504
 20
-1758.437307035782
 10
31.39605264913365
 20
-1793.210392201728
  0
LWPOLYLINE
  5
96E
330
2
100
AcDbEntity
  8
Object
100
AcDbPolyline
 90
        4
 70
     0
 43
0.3
 10
15.68355792906453
 20
-1757.899115567281
 10
16.04030357433242
 20
-1757.899115567281
 42
-0.3256819082115214
 10
20.79982801622048
 20
-1761.367147197154
 10
31.39605264913365
 20
-1794.287533228303
  0
LWPOLYLINE
  5
96F
330
2
100
AcDbEntity
  8
Object
100
AcDbPolyline
 90
        4
 70
     0
 10
15.68355792906453
 20
-1774.114227196676
 40
0.3
 41
0.3
 10
16.71229738203231
 20
-1774.114227196676
 40
0.3
 41
0.3
 42
-0.2747042088169623
 10
21.10396457921564
 20
-1776.723984692413
 40
0.3
 41
0.3
 10
31.39605264913365
 20
-1795.633959511521
 40
0.5
 41
0.5
  0
LWPOLYLINE
  5
970
330
2
100
AcDbEntity
  8
Object
100
AcDbPolyline
 90
        4
 70
     0
 43
0.3
 10
15.68355792906453
 20
-1771.114227196676
 10
16.57660212414333
 20
-1771.114227196676
 42
-0.2853901843838895
 10
21.05953314138963
 20
-1773.899880906096
 10
31.39605264913365
 20
-1794.82610374159
  0
LWPOLYLINE
  5
971
330
2
100
AcDbEntity
  8
Object
100
AcDbPolyline
 90
        4
 70
     0
 43
0.3
 10
15.68355792906453
 20
-1768.114227196677
 10
16.44324082769929
 20
-1768.114227196677
 42
-0.2956990489431058
 10
21.00711209476497
 20
-1771.071905219698
 10
31.39605264913365
 20
-1794.287533228303
  0
LINE
  5
972
330
2
100
AcDbEntity
  8
Object
100
AcDbLine
 10
14.8835579290648
 20
-1767.114227196676
 30
0.0
 11
6.183557929064534
 21
-1767.114227196676
 31
0.0
  0
LINE
  5
973
330
2
100
AcDbEntity
  8
Object
100
AcDbLine
 10
15.68355792906453
 20
-1769.014227196676
 30
0.0
 11
6.183557929064988
 21
-1769.014227196676
 31
0.0
  0
LINE
  5
974
330
2
100
AcDbEntity
  8
Object
100
AcDbLine
 10
15.68355792906453
 20
-1768.114227196677
 30
0.0
 11
6.183557929064534
 21
-1768.114227196677
 31
0.0
  0
LINE
  5
975
330
2
100
AcDbEntity
  8
Object
100
AcDbLine
 10
15.68355792906453
 20
-1773.214227196677
 30
0.0
 11
6.183557929064534
 21
-1773.214227196676
 31
0.0
  0
LINE
  5
976
330
2
100
AcDbEntity
  8
Object
100
AcDbLine
 10
15.68355792906453
 20
-1774.114227196676
 30
0.0
 11
6.183557929064534
 21
-1774.114227196676
 31
0.0
  0
LINE
  5
977
330
2
100
AcDbEntity
  8
Object
100
AcDbLine
 10
14.8835579290648
 20
-1775.114227196677
 30
0.0
 11
6.183557929064534
 21
-1775.114227196677
 31
0.0
  0
LINE
  5
978
330
2
100
AcDbEntity
  8
Object
100
AcDbLine
 10
14.8835579290648
 20
-1771.864227196676
 30
0.0
 11
11.18355792906453
 21
-1771.864227196676
 31
0.0
  0
LINE
  5
979
330
2
100
AcDbEntity
  8
Object
100
AcDbLine
 10
14.8835579290648
 20
-1770.364227196676
 30
0.0
 11
11.18355792906453
 21
-1770.364227196676
 31
0.0
  0
LINE
  5
97A
330
2
100
AcDbEntity
  8
Object
100
AcDbLine
 10
14.8835579290648
 20
-1766.714227196677
 30
0.0
 11
11.68355792906453
 21
-1766.714227196677
 31
0.0
  0
LINE
  5
97B
330
2
100
AcDbEntity
  8
Object
100
AcDbLine
 10
14.8835579290648
 20
-1775.514227196676
 30
0.0
 11
11.68355792906453
 21
-1775.514227196676
 31
0.0
  0
LINE
  5
97C
330
2
100
AcDbEntity
  8
Object
100
AcDbLine
 10
15.68355792906453
 20
-1754.699115567281
 30
0.0
 11
2.083557929065079
 21
-1754.699115567281
 31
0.0
  0
LINE
  5
97D
330
2
100
AcDbEntity
  8
Object
100
AcDbLine
 10
15.48355792906471
 20
-1753.899115567281
 30
0.0
 11
2.083557929065079
 21
-1753.899115567281
 31
0.0
  0
LINE
  5
97E
330
2
100
AcDbEntity
  8
Object
100
AcDbLine
 10
15.48355792906471
 20
-1761.899115567281
 30
0.0
 11
2.083557929065079
 21
-1761.899115567281
 31
0.0
  0
LINE
  5
97F
330
2
100
AcDbEntity
  8
Object
100
AcDbLine
 10
12.68355792906453
 20
-1784.383959511521
 30
0.0
 11
14.68355792906453
 21
-1784.383959511521
 31
0.0
  0
LINE
  5
980
330
2
100
AcDbEntity
  8
Object
100
AcDbLine
 10
15.68355792906453
 20
-1780.783959511521
 30
0.0
 11
12.68355792906453
 21
-1780.783959511521
 31
0.0
  0
LINE
  5
981
330
2
100
AcDbEntity
  8
Object
100
AcDbLine
 10
12.68355792906453
 20
-1806.883959511521
 30
0.0
 11
14.68355792906453
 21
-1806.883959511521
 31
0.0
  0
LINE
  5
982
330
2
100
AcDbEntity
  8
Object
100
AcDbLine
 10
13.18242634643496
 20
-1808.887361447644
 30
0.0
 11
14.68242634643496
 21
-1809.637361447644
 31
0.0
  0
LINE
  5
983
330
2
100
AcDbEntity
  8
Object
100
AcDbLine
 10
15.68355792906453
 20
-1810.483959511521
 30
0.0
 11
12.68355792906453
 21
-1810.483959511521
 31
0.0
  0
LINE
  5
984
330
2
100
AcDbEntity
  8
Object
100
AcDbLine
 10
14.68242634643496
 20
-1808.137361447644
 30
0.0
 11
13.18242634643496
 21
-1808.887361447644
 31
0.0
  0
LINE
  5
985
330
2
100
AcDbEntity
  8
Object
100
AcDbLine
 10
3.683557929064534
 20
-1782.083959511521
 30
0.0
 11
12.68355792906453
 21
-1782.083959511521
 31
0.0
  0
LINE
  5
986
330
2
100
AcDbEntity
  8
Object
100
AcDbLine
 10
3.883557929065261
 20
-1781.883959511521
 30
0.0
 11
12.68355792906453
 21
-1781.883959511521
 31
0.0
  0
LINE
  5
987
330
2
100
AcDbEntity
  8
Object
100
AcDbLine
 10
3.883557929065261
 20
-1809.383959511521
 30
0.0
 11
12.68355792906453
 21
-1809.383959511521
 31
0.0
  0
LINE
  5
988
330
2
100
AcDbEntity
  8
Object
100
AcDbLine
 10
3.683557929064534
 20
-1809.183959511521
 30
0.0
 11
12.68355792906453
 21
-1809.183959511521
 31
0.0
  0
LINE
  5
989
330
2
100
AcDbEntity
  8
Object
100
AcDbLine
 10
8.183557929064988
 20
-1807.683959511521
 30
0.0
 11
5.283557929064897
 21
-1807.683959511521
 31
0.0
  0
LINE
  5
98A
330
2
100
AcDbEntity
  8
Object
100
AcDbLine
 10
7.883557929065261
 20
-1807.383959511521
 30
0.0
 11
5.283557929064897
 21
-1807.383959511521
 31
0.0
  0
LINE
  5
98B
330
2
100
AcDbEntity
  8
Object
100
AcDbLine
 10
8.183557929064988
 20
-1790.183959511521
 30
0.0
 11
5.283557929064897
 21
-1790.183959511521
 31
0.0
  0
LINE
  5
98C
330
2
100
AcDbEntity
  8
Object
100
AcDbLine
 10
7.883557929065261
 20
-1789.883959511521
 30
0.0
 11
5.283557929064897
 21
-1789.883959511521
 31
0.0
  0
LINE
  5
98D
330
2
100
AcDbEntity
  8
Object
100
AcDbLine
 10
7.883557929065261
 20
-1791.383959511521
 30
0.0
 11
5.283557929064897
 21
-1791.383959511521
 31
0.0
  0
LINE
  5
98E
330
2
100
AcDbEntity
  8
Object
100
AcDbLine
 10
8.183557929064988
 20
-1791.083959511521
 30
0.0
 11
5.283557929064897
 21
-1791.083959511521
 31
0.0
  0
LINE
  5
98F
330
2
100
AcDbEntity
  8
Object
100
AcDbLine
 10
8.183557929064988
 20
-1788.583959511521
 30
0.0
 11
5.283557929064897
 21
-1788.583959511521
 31
0.0
  0
LINE
  5
990
330
2
100
AcDbEntity
  8
Object
100
AcDbLine
 10
7.883557929065261
 20
-1788.883959511522
 30
0.0
 11
5.283557929064897
 21
-1788.883959511522
 31
0.0
  0
LINE
  5
991
330
2
100
AcDbEntity
  8
Object
100
AcDbLine
 10
8.183557929064988
 20
-1787.683959511521
 30
0.0
 11
5.283557929064897
 21
-1787.683959511521
 31
0.0
  0
LINE
  5
992
330
2
100
AcDbEntity
  8
Object
100
AcDbLine
 10
8.183557929064988
 20
-1786.083959511521
 30
0.0
 11
5.283557929064897
 21
-1786.083959511521
 31
0.0
  0
LINE
  5
993
330
2
100
AcDbEntity
  8
Object
100
AcDbLine
 10
7.883557929065261
 20
-1786.383959511521
 30
0.0
 11
5.283557929064897
 21
-1786.383959511521
 31
0.0
  0
LINE
  5
994
330
2
100
AcDbEntity
  8
Object
100
AcDbLine
 10
7.883557929065261
 20
-1787.383959511521
 30
0.0
 11
5.283557929064897
 21
-1787.383959511521
 31
0.0
  0
LINE
  5
995
330
2
100
AcDbEntity
  8
Object
100
AcDbLine
 10
7.883557929065261
 20
-1802.383959511521
 30
0.0
 11
5.283557929064897
 21
-1802.383959511521
 31
0.0
  0
LINE
  5
996
330
2
100
AcDbEntity
  8
Object
100
AcDbLine
 10
8.183557929064988
 20
-1802.683959511521
 30
0.0
 11
5.283557929064897
 21
-1802.683959511521
 31
0.0
  0
LINE
  5
997
330
2
100
AcDbEntity
  8
Object
100
AcDbLine
 10
7.883557929065261
 20
-1803.883959511521
 30
0.0
 11
5.283557929064897
 21
-1803.883959511521
 31
0.0
  0
LINE
  5
998
330
2
100
AcDbEntity
  8
Object
100
AcDbLine
 10
8.183557929064988
 20
-1803.583959511521
 30
0.0
 11
5.283557929064897
 21
-1803.583959511521
 31
0.0
  0
LINE
  5
999
330
2
100
AcDbEntity
  8
Object
100
AcDbLine
 10
8.183557929064988
 20
-1806.083959511521
 30
0.0
 11
5.283557929064897
 21
-1806.083959511521
 31
0.0
  0
LINE
  5
99A
330
2
100
AcDbEntity
  8
Object
100
AcDbLine
 10
7.883557929065261
 20
-1806.383959511521
 30
0.0
 11
5.283557929064897
 21
-1806.383959511521
 31
0.0
  0
LINE
  5
99B
330
2
100
AcDbEntity
  8
Object
100
AcDbLine
 10
7.883557929065261
 20
-1804.883959511522
 30
0.0
 11
5.283557929064897
 21
-1804.883959511522
 31
0.0
  0
LINE
  5
99C
330
2
100
AcDbEntity
  8
Object
100
AcDbLine
 10
8.183557929064988
 20
-1805.183959511521
 30
0.0
 11
5.283557929064897
 21
-1805.183959511521
 31
0.0
  0
LINE
  5
99D
330
2
100
AcDbEntity
  8
Object
100
AcDbLine
 10
8.183557929064988
 20
-1800.183959511521
 30
0.0
 11
5.283557929064897
 21
-1800.183959511521
 31
0.0
  0
LINE
  5
99E
330
2
100
AcDbEntity
  8
Object
100
AcDbLine
 10
7.883557929065261
 20
-1799.883959511521
 30
0.0
 11
5.283557929064897
 21
-1799.883959511521
 31
0.0
  0
LINE
  5
99F
330
2
100
AcDbEntity
  8
Object
100
AcDbLine
 10
7.883557929065261
 20
-1801.383959511522
 30
0.0
 11
5.283557929064897
 21
-1801.383959511522
 31
0.0
  0
LINE
  5
9A0
330
2
100
AcDbEntity
  8
Object
100
AcDbLine
 10
8.183557929064988
 20
-1801.083959511521
 30
0.0
 11
5.283557929064897
 21
-1801.083959511521
 31
0.0
  0
LINE
  5
9A1
330
2
100
AcDbEntity
  8
Object
100
AcDbLine
 10
8.183557929064988
 20
-1793.583959511521
 30
0.0
 11
5.283557929064897
 21
-1793.583959511521
 31
0.0
  0
LINE
  5
9A2
330
2
100
AcDbEntity
  8
Object
100
AcDbLine
 10
7.883557929065261
 20
-1793.883959511521
 30
0.0
 11
5.283557929064897
 21
-1793.883959511521
 31
0.0
  0
LINE
  5
9A3
330
2
100
AcDbEntity
  8
Object
100
AcDbLine
 10
7.883557929065261
 20
-1796.383959511521
 30
0.0
 11
5.283557929064897
 21
-1796.383959511521
 31
0.0
  0
LINE
  5
9A4
330
2
100
AcDbEntity
  8
Object
100
AcDbLine
 10
8.183557929064988
 20
-1796.083959511521
 30
0.0
 11
5.283557929064897
 21
-1796.083959511521
 31
0.0
  0
LINE
  5
9A5
330
2
100
AcDbEntity
  8
Object
100
AcDbLine
 10
8.183557929064988
 20
-1798.583959511521
 30
0.0
 11
5.283557929064897
 21
-1798.583959511521
 31
0.0
  0
LINE
  5
9A6
330
2
100
AcDbEntity
  8
Object
100
AcDbLine
 10
7.883557929065261
 20
-1797.383959511521
 30
0.0
 11
5.283557929064897
 21
-1797.383959511521
 31
0.0
  0
LINE
  5
9A7
330
2
100
AcDbEntity
  8
Object
100
AcDbLine
 10
8.183557929064988
 20
-1797.683959511521
 30
0.0
 11
5.283557929064897
 21
-1797.683959511521
 31
0.0
  0
LINE
  5
9A8
330
2
100
AcDbEntity
  8
Object
100
AcDbLine
 10
8.183557929064988
 20
-1795.183959511521
 30
0.0
 11
5.283557929064897
 21
-1795.183959511521
 31
0.0
  0
LINE
  5
9A9
330
2
100
AcDbEntity
  8
Object
100
AcDbLine
 10
7.883557929065261
 20
-1794.883959511521
 30
0.0
 11
5.283557929064897
 21
-1794.883959511521
 31
0.0
  0
LINE
  5
9AA
330
2
100
AcDbEntity
  8
Object
100
AcDbLine
 10
7.883557929065261
 20
-1798.883959511521
 30
0.0
 11
5.283557929064897
 21
-1798.883959511521
 31
0.0
  0
LINE
  5
9AB
330
2
100
AcDbEntity
  8
Object
100
AcDbLine
 10
7.883557929065261
 20
-1792.383959511521
 30
0.0
 11
5.283557929064897
 21
-1792.383959511521
 31
0.0
  0
LINE
  5
9AC
330
2
100
AcDbEntity
  8
Object
100
AcDbLine
 10
8.183557929064988
 20
-1792.683959511521
 30
0.0
 11
5.283557929064897
 21
-1792.683959511521
 31
0.0
  0
LINE
  5
9AD
330
2
100
AcDbEntity
  8
Object
100
AcDbLine
 10
8.183557929064988
 20
-1783.583959511521
 30
0.0
 11
5.283557929064897
 21
-1783.583959511521
 31
0.0
  0
LINE
  5
9AE
330
2
100
AcDbEntity
  8
Object
100
AcDbLine
 10
7.883557929065261
 20
-1783.883959511521
 30
0.0
 11
5.283557929064897
 21
-1783.883959511521
 31
0.0
  0
LINE
  5
9AF
330
2
100
AcDbEntity
  8
Object
100
AcDbLine
 10
8.183557929064988
 20
-1785.183959511521
 30
0.0
 11
5.283557929064897
 21
-1785.183959511521
 31
0.0
  0
LINE
  5
9B0
330
2
100
AcDbEntity
  8
Object
100
AcDbLine
 10
7.883557929065261
 20
-1784.883959511521
 30
0.0
 11
5.283557929064897
 21
-1784.883959511521
 31
0.0
  0
LINE
  5
9B1
330
2
100
AcDbEntity
  8
Object
100
AcDbLine
 10
3.883557929065261
 20
-1781.883959511521
 30
0.0
 11
3.883557929065261
 21
-1787.533959511521
 31
0.0
  0
LINE
  5
9B2
330
2
100
AcDbEntity
  8
Object
100
AcDbLine
 10
5.283557929064897
 20
-1788.733959511521
 30
0.0
 11
3.883557929065261
 21
-1788.733959511521
 31
0.0
  0
LINE
  5
9B3
330
2
100
AcDbEntity
  8
Object
100
AcDbLine
 10
5.283557929064897
 20
-1787.533959511521
 30
0.0
 11
3.883557929065261
 21
-1787.533959511521
 31
0.0
  0
ARC
  5
9B4
330
2
100
AcDbEntity
  8
Object
100
AcDbCircle
 10
4.683557929064534
 20
-1788.133959511521
 30
0.0
 40
0.9999999999999829
100
AcDbArc
 50
143.1301023541308
 51
216.8698976458231
  0
LINE
  5
9B5
330
2
100
AcDbEntity
  8
Object
100
AcDbLine
 10
5.283557929064897
 20
-1786.083959511521
 30
0.0
 11
5.283557929064897
 21
-1787.683959511521
 31
0.0
  0
LINE
  5
9B6
330
2
100
AcDbEntity
  8
Object
100
AcDbLine
 10
5.283557929064897
 20
-1788.583959511521
 30
0.0
 11
5.283557929064897
 21
-1790.183959511521
 31
0.0
  0
LINE
  5
9B7
330
2
100
AcDbEntity
  8
Object
100
AcDbLine
 10
5.283557929064897
 20
-1802.533959511521
 30
0.0
 11
3.883557929065261
 21
-1802.533959511521
 31
0.0
  0
LINE
  5
9B8
330
2
100
AcDbEntity
  8
Object
100
AcDbLine
 10
5.283557929064897
 20
-1803.733959511521
 30
0.0
 11
3.883557929065261
 21
-1803.733959511521
 31
0.0
  0
ARC
  5
9B9
330
2
100
AcDbEntity
  8
Object
100
AcDbCircle
 10
4.683557929064534
 20
-1803.133959511521
 30
0.0
 40
0.9999999999999829
100
AcDbArc
 50
143.1301023541768
 51
216.869897645869
  0
LINE
  5
9BA
330
2
100
AcDbEntity
  8
Object
100
AcDbLine
 10
5.283557929064897
 20
-1800.183959511521
 30
0.0
 11
5.283557929064897
 21
-1798.583959511521
 31
0.0
  0
LINE
  5
9BB
330
2
100
AcDbEntity
  8
Object
100
AcDbLine
 10
5.283557929064897
 20
-1805.183959511521
 30
0.0
 11
5.283557929064897
 21
-1803.583959511521
 31
0.0
  0
LINE
  5
9BC
330
2
100
AcDbEntity
  8
Object
100
AcDbLine
 10
5.283557929064897
 20
-1802.683959511521
 30
0.0
 11
5.283557929064897
 21
-1801.083959511521
 31
0.0
  0
LINE
  5
9BD
330
2
100
AcDbEntity
  8
Object
100
AcDbLine
 10
5.283557929064897
 20
-1793.583959511521
 30
0.0
 11
5.283557929064897
 21
-1795.183959511521
 31
0.0
  0
LINE
  5
9BE
330
2
100
AcDbEntity
  8
Object
100
AcDbLine
 10
5.283557929064897
 20
-1797.683959511521
 30
0.0
 11
5.283557929064897
 21
-1796.083959511521
 31
0.0
  0
LINE
  5
9BF
330
2
100
AcDbEntity
  8
Object
100
AcDbLine
 10
3.883557929065261
 20
-1788.733959511521
 30
0.0
 11
3.883557929065261
 21
-1802.533959511521
 31
0.0
  0
LINE
  5
9C0
330
2
100
AcDbEntity
  8
Object
100
AcDbLine
 10
5.283557929064897
 20
-1791.083959511521
 30
0.0
 11
5.283557929064897
 21
-1792.683959511521
 31
0.0
  0
LINE
  5
9C1
330
2
100
AcDbEntity
  8
Object
100
AcDbLine
 10
3.883557929065261
 20
-1781.883959511521
 30
0.0
 11
3.683557929064534
 21
-1782.083959511521
 31
0.0
  0
LINE
  5
9C2
330
2
100
AcDbEntity
  8
Object
100
AcDbLine
 10
5.283557929064897
 20
-1783.583959511521
 30
0.0
 11
5.283557929064897
 21
-1785.183959511521
 31
0.0
  0
LINE
  5
9C3
330
2
100
AcDbEntity
  8
Object
100
AcDbLine
 10
5.283557929064897
 20
-1807.683959511521
 30
0.0
 11
5.283557929064897
 21
-1806.083959511521
 31
0.0
  0
LINE
  5
9C4
330
2
100
AcDbEntity
  8
Object
100
AcDbLine
 10
3.883557929065261
 20
-1809.383959511521
 30
0.0
 11
3.683557929064534
 21
-1809.183959511521
 31
0.0
  0
LINE
  5
9C5
330
2
100
AcDbEntity
  8
Object
100
AcDbLine
 10
3.883557929065261
 20
-1803.733959511521
 30
0.0
 11
3.883557929065261
 21
-1809.383959511521
 31
0.0
  0
LINE
  5
9C6
330
2
100
AcDbEntity
  8
Object
100
AcDbLine
 10
3.683557929064534
 20
-1782.083959511521
 30
0.0
 11
3.683557929064534
 21
-1809.183959511521
 31
0.0
  0
LINE
  5
9C7
330
2
100
AcDbEntity
  8
Object
100
AcDbLine
 10
2.083557929065079
 20
-1753.899115567281
 30
0.0
 11
0.0835579290650799
 21
-1752.899115567281
 31
0.0
  0
LINE
  5
9C8
330
2
100
AcDbEntity
  8
Object
100
AcDbLine
 10
2.083557929065079
 20
-1761.899115567281
 30
0.0
 11
0.0835579290650799
 21
-1762.899115567281
 31
0.0
  0
LINE
  5
9C9
330
2
100
AcDbEntity
  8
Object
100
AcDbLine
 10
-0.9164420709349201
 20
-1757.399115567281
 30
0.0
 11
-1.91644207093492
 21
-1757.399115567281
 31
0.0
  0
LINE
  5
9CA
330
2
100
AcDbEntity
  8
Object
100
AcDbLine
 10
-0.9164420709349201
 20
-1758.399115567281
 30
0.0
 11
-1.91644207093492
 21
-1758.399115567281
 31
0.0
  0
LINE
  5
9CB
330
2
100
AcDbEntity
  8
Object
100
AcDbLine
 10
0.0835579290650799
 20
-1760.399115567281
 30
0.0
 11
0.0835579290650799
 21
-1762.899115567281
 31
0.0
  0
LINE
  5
9CC
330
2
100
AcDbEntity
  8
Object
100
AcDbLine
 10
1.083557929065079
 20
-1760.399115567281
 30
0.0
 11
1.083557929065079
 21
-1755.399115567281
 31
0.0
  0
LINE
  5
9CD
330
2
100
AcDbEntity
  8
Object
100
AcDbLine
 10
-1.91644207093492
 20
-1758.399115567281
 30
0.0
 11
-1.91644207093492
 21
-1757.399115567281
 31
0.0
  0
LINE
  5
9CE
330
2
100
AcDbEntity
  8
Object
100
AcDbLine
 10
-1.41644207093492
 20
-1758.399115567281
 30
0.0
 11
-1.41644207093492
 21
-1757.399115567281
 31
0.0
  0
LINE
  5
9CF
330
2
100
AcDbEntity
  8
Object
100
AcDbLine
 10
-0.9164420709349201
 20
-1758.399115567281
 30
0.0
 11
-0.9164420709349201
 21
-1757.399115567281
 31
0.0
  0
LINE
  5
9D0
330
2
100
AcDbEntity
  8
Object
100
AcDbLine
 10
0.0835579290650799
 20
-1755.399115567281
 30
0.0
 11
0.0835579290650799
 21
-1752.899115567281
 31
0.0
  0
ARC
  5
9D1
330
2
100
AcDbEntity
  8
Object
100
AcDbCircle
 10
2.083557929065079
 20
-1754.299115567281
 30
0.0
 40
0.4
100
AcDbArc
 50
90.0
 51
270.0
  0
LINE
  5
9D2
330
2
100
AcDbEntity
  8
Object
100
AcDbLine
 10
2.083557929065989
 20
-1761.899115567281
 30
0.0
 11
2.083557929065079
 21
-1754.699115567281
 31
0.0
  0
LINE
  5
9D3
330
2
100
AcDbEntity
  8
Object
100
AcDbLine
 10
6.183557929064534
 20
-1767.114227196676
 30
0.0
 11
6.183557929064534
 21
-1775.114227196677
 31
0.0
  0
LINE
  5
9D4
330
2
100
AcDbEntity
  8
Object
100
AcDbLine
 10
11.18355792906453
 20
-1775.114227196677
 30
0.0
 11
11.18355792906453
 21
-1774.114227196676
 31
0.0
  0
LINE
  5
9D5
330
2
100
AcDbEntity
  8
Object
100
AcDbLine
 10
7.883557929065261
 20
-1789.883959511521
 30
0.0
 11
8.183557929064534
 21
-1790.183959511521
 31
0.0
  0
LINE
  5
9D6
330
2
100
AcDbEntity
  8
Object
100
AcDbLine
 10
8.183557929064988
 20
-1791.083959511521
 30
0.0
 11
7.883557929065261
 21
-1791.383959511521
 31
0.0
  0
LINE
  5
9D7
330
2
100
AcDbEntity
  8
Object
100
AcDbLine
 10
8.183557929064988
 20
-1788.583959511521
 30
0.0
 11
7.883557929065261
 21
-1788.883959511522
 31
0.0
  0
LINE
  5
9D8
330
2
100
AcDbEntity
  8
Object
100
AcDbLine
 10
8.183557929064988
 20
-1786.083959511521
 30
0.0
 11
7.883557929065261
 21
-1786.383959511521
 31
0.0
  0
LINE
  5
9D9
330
2
100
AcDbEntity
  8
Object
100
AcDbLine
 10
7.883557929065261
 20
-1787.383959511521
 30
0.0
 11
8.183557929064988
 21
-1787.683959511521
 31
0.0
  0
LINE
  5
9DA
330
2
100
AcDbEntity
  8
Object
100
AcDbLine
 10
6.283557929064897
 20
-1786.083959511521
 30
0.0
 11
6.283557929064897
 21
-1787.683959511521
 31
0.0
  0
LINE
  5
9DB
330
2
100
AcDbEntity
  8
Object
100
AcDbLine
 10
6.283557929064897
 20
-1788.583959511521
 30
0.0
 11
6.283557929064897
 21
-1790.183959511521
 31
0.0
  0
LINE
  5
9DC
330
2
100
AcDbEntity
  8
Object
100
AcDbLine
 10
6.283557929064897
 20
-1800.183959511521
 30
0.0
 11
6.283557929064897
 21
-1798.583959511521
 31
0.0
  0
LINE
  5
9DD
330
2
100
AcDbEntity
  8
Object
100
AcDbLine
 10
8.183557929064988
 20
-1802.683959511521
 30
0.0
 11
7.883557929065261
 21
-1802.383959511521
 31
0.0
  0
LINE
  5
9DE
330
2
100
AcDbEntity
  8
Object
100
AcDbLine
 10
7.883557929065261
 20
-1803.883959511521
 30
0.0
 11
8.183557929064534
 21
-1803.583959511521
 31
0.0
  0
LINE
  5
9DF
330
2
100
AcDbEntity
  8
Object
100
AcDbLine
 10
8.183557929064988
 20
-1805.183959511521
 30
0.0
 11
7.883557929065261
 21
-1804.883959511522
 31
0.0
  0
LINE
  5
9E0
330
2
100
AcDbEntity
  8
Object
100
AcDbLine
 10
6.283557929064897
 20
-1805.183959511521
 30
0.0
 11
6.283557929064897
 21
-1803.583959511521
 31
0.0
  0
LINE
  5
9E1
330
2
100
AcDbEntity
  8
Object
100
AcDbLine
 10
8.183557929064988
 20
-1800.183959511521
 30
0.0
 11
7.883557929065261
 21
-1799.883959511521
 31
0.0
  0
LINE
  5
9E2
330
2
100
AcDbEntity
  8
Object
100
AcDbLine
 10
7.883557929065261
 20
-1801.383959511522
 30
0.0
 11
8.183557929064534
 21
-1801.083959511521
 31
0.0
  0
LINE
  5
9E3
330
2
100
AcDbEntity
  8
Object
100
AcDbLine
 10
6.283557929064897
 20
-1802.683959511521
 30
0.0
 11
6.283557929064897
 21
-1801.083959511521
 31
0.0
  0
LINE
  5
9E4
330
2
100
AcDbEntity
  8
Object
100
AcDbLine
 10
6.283557929064897
 20
-1793.583959511521
 30
0.0
 11
6.283557929064897
 21
-1795.183959511521
 31
0.0
  0
LINE
  5
9E5
330
2
100
AcDbEntity
  8
Object
100
AcDbLine
 10
8.183557929064988
 20
-1793.583959511521
 30
0.0
 11
7.883557929065261
 21
-1793.883959511521
 31
0.0
  0
LINE
  5
9E6
330
2
100
AcDbEntity
  8
Object
100
AcDbLine
 10
7.883557929065261
 20
-1798.883959511521
 30
0.0
 11
8.183557929064534
 21
-1798.583959511521
 31
0.0
  0
LINE
  5
9E7
330
2
100
AcDbEntity
  8
Object
100
AcDbLine
 10
7.883557929065261
 20
-1796.383959511521
 30
0.0
 11
8.183557929064534
 21
-1796.083959511521
 31
0.0
  0
LINE
  5
9E8
330
2
100
AcDbEntity
  8
Object
100
AcDbLine
 10
8.183557929064988
 20
-1797.683959511521
 30
0.0
 11
7.883557929065261
 21
-1797.383959511521
 31
0.0
  0
LINE
  5
9E9
330
2
100
AcDbEntity
  8
Object
100
AcDbLine
 10
6.283557929064897
 20
-1797.683959511521
 30
0.0
 11
6.283557929064897
 21
-1796.083959511521
 31
0.0
  0
LINE
  5
9EA
330
2
100
AcDbEntity
  8
Object
100
AcDbLine
 10
7.883557929065261
 20
-1794.883959511521
 30
0.0
 11
8.183557929064534
 21
-1795.183959511521
 31
0.0
  0
LINE
  5
9EB
330
2
100
AcDbEntity
  8
Object
100
AcDbLine
 10
7.883557929065261
 20
-1792.383959511521
 30
0.0
 11
8.183557929064534
 21
-1792.683959511521
 31
0.0
  0
LINE
  5
9EC
330
2
100
AcDbEntity
  8
Object
100
AcDbLine
 10
6.283557929064897
 20
-1791.083959511521
 30
0.0
 11
6.283557929064897
 21
-1792.683959511521
 31
0.0
  0
LINE
  5
9ED
330
2
100
AcDbEntity
  8
Object
100
AcDbLine
 10
6.283557929064897
 20
-1783.583959511521
 30
0.0
 11
6.283557929064897
 21
-1785.183959511521
 31
0.0
  0
LINE
  5
9EE
330
2
100
AcDbEntity
  8
Object
100
AcDbLine
 10
8.183557929064988
 20
-1783.583959511521
 30
0.0
 11
7.883557929065261
 21
-1783.883959511521
 31
0.0
  0
LINE
  5
9EF
330
2
100
AcDbEntity
  8
Object
100
AcDbLine
 10
7.883557929065261
 20
-1784.883959511521
 30
0.0
 11
8.183557929064988
 21
-1785.183959511521
 31
0.0
  0
LINE
  5
9F0
330
2
100
AcDbEntity
  8
Object
100
AcDbLine
 10
6.283557929064897
 20
-1807.683959511521
 30
0.0
 11
6.283557929064897
 21
-1806.083959511521
 31
0.0
  0
LINE
  5
9F1
330
2
100
AcDbEntity
  8
Object
100
AcDbLine
 10
8.183557929064988
 20
-1807.683959511521
 30
0.0
 11
7.883557929065261
 21
-1807.383959511521
 31
0.0
  0
LINE
  5
9F2
330
2
100
AcDbEntity
  8
Object
100
AcDbLine
 10
7.883557929065261
 20
-1806.383959511521
 30
0.0
 11
8.183557929064534
 21
-1806.083959511521
 31
0.0
  0
LINE
  5
9F3
330
2
100
AcDbEntity
  8
Object
100
AcDbLine
 10
11.68355792906453
 20
-1775.114227196677
 30
0.0
 11
11.68355792906453
 21
-1775.514227196676
 31
0.0
  0
TEXT
  5
9F4
330
2
100
AcDbEntity
  8
Object
100
AcDbText
 10
13.13173130326407
 20
-1796.430260662927
 30
0.0
 40
1.0
  1
JST 20
 50
270.0
100
AcDbText
  0
TEXT
  5
9F5
330
2
100
AcDbEntity
  8
Object
100
AcDbText
 10
13.17886606894438
 20
-1793.168922246664
 30
0.0
 40
1.0
  1
H
 50
270.0
100
AcDbText
  0
LINE
  5
9F6
330
2
100
AcDbEntity
  8
Object
100
AcDbLine
 10
12.68355792906453
 20
-1780.783959511521
 30
0.0
 11
12.68355792906453
 21
-1784.383959511521
 31
0.0
  0
LINE
  5
9F7
330
2
100
AcDbEntity
  8
Object
100
AcDbLine
 10
12.68355792906453
 20
-1810.483959511521
 30
0.0
 11
12.68355792906453
 21
-1806.883959511521
 31
0.0
  0
LINE
  5
9F8
330
2
100
AcDbEntity
  8
Object
100
AcDbLine
 10
11.18355792906453
 20
-1770.364227196676
 30
0.0
 11
11.18355792906453
 21
-1771.864227196676
 31
0.0
  0
LINE
  5
9F9
330
2
100
AcDbEntity
  8
Object
100
AcDbLine
 10
11.68355792906453
 20
-1766.714227196677
 30
0.0
 11
11.68355792906453
 21
-1767.114227196676
 31
0.0
  0
LINE
  5
9FA
330
2
100
AcDbEntity
  8
Object
100
AcDbLine
 10
11.18355792906453
 20
-1767.114227196676
 30
0.0
 11
11.18355792906453
 21
-1768.114227196677
 31
0.0
  0
LINE
  5
9FB
330
2
100
AcDbEntity
  8
Object
100
AcDbLine
 10
15.68355792906453
 20
-1766.214227196677
 30
0.0
 11
15.68355792906453
 21
-1776.014227196676
 31
0.0
  0
LINE
  5
9FC
330
2
100
AcDbEntity
  8
Object
100
AcDbLine
 10
14.8835579290648
 20
-1775.114227196677
 30
0.0
 11
14.8835579290648
 21
-1776.014227196676
 31
0.0
  0
LINE
  5
9FD
330
2
100
AcDbEntity
  8
Object
100
AcDbLine
 10
15.68355792906453
 20
-1776.014227196676
 30
0.0
 11
14.8835579290648
 21
-1776.014227196677
 31
0.0
  0
LINE
  5
9FE
330
2
100
AcDbEntity
  8
Object
100
AcDbLine
 10
14.68242634643496
 20
-1808.137361447644
 30
0.0
 11
14.68242634643496
 21
-1809.637361447644
 31
0.0
  0
LINE
  5
9FF
330
2
100
AcDbEntity
  8
Object
100
AcDbLine
 10
14.68355792906453
 20
-1784.383959511521
 30
0.0
 11
14.68355792906453
 21
-1806.883959511521
 31
0.0
  0
LINE
  5
A00
330
2
100
AcDbEntity
  8
Object
100
AcDbLine
 10
15.68355792906453
 20
-1780.783959511521
 30
0.0
 11
15.68355792906453
 21
-1810.483959511521
 31
0.0
  0
LINE
  5
A01
330
2
100
AcDbEntity
  8
Object
100
AcDbLine
 10
15.68355792906453
 20
-1754.099115567281
 30
0.0
 11
15.48355792906471
 21
-1753.899115567281
 31
0.0
  0
LINE
  5
A02
330
2
100
AcDbEntity
  8
Object
100
AcDbLine
 10
14.8835579290648
 20
-1771.864227196676
 30
0.0
 11
14.8835579290648
 21
-1773.214227196677
 31
0.0
  0
LINE
  5
A03
330
2
100
AcDbEntity
  8
Object
100
AcDbLine
 10
15.68355792906453
 20
-1766.214227196677
 30
0.0
 11
14.8835579290648
 21
-1766.214227196677
 31
0.0
  0
LINE
  5
A04
330
2
100
AcDbEntity
  8
Object
100
AcDbLine
 10
14.8835579290648
 20
-1766.214227196677
 30
0.0
 11
14.8835579290648
 21
-1767.114227196676
 31
0.0
  0
LINE
  5
A05
330
2
100
AcDbEntity
  8
Object
100
AcDbLine
 10
14.8835579290648
 20
-1769.014227196677
 30
0.0
 11
14.8835579290648
 21
-1770.364227196676
 31
0.0
  0
LINE
  5
A06
330
2
100
AcDbEntity
  8
Object
100
AcDbLine
 10
15.68355792906453
 20
-1761.699115567281
 30
0.0
 11
15.48355792906471
 21
-1761.899115567281
 31
0.0
  0
LINE
  5
A07
330
2
100
AcDbEntity
  8
Object
100
AcDbLine
 10
15.68355792906499
 20
-1761.699115567281
 30
0.0
 11
15.68355792906453
 21
-1754.099115567281
 31
0.0
  0
LINE
  5
A08
330
2
100
AcDbEntity
  8
Object
100
AcDbLine
 10
51.59970773137496
 20
-1778.006987264255
 30
0.0
 11
43.59970773137496
 21
-1778.006987264255
 31
0.0
  0
ARC
  5
A09
330
2
100
AcDbEntity
  8
Center
  6
CENTER
100
AcDbCircle
 10
60.59970773137496
 20
-1782.633959511521
 30
0.0
 40
13.0
100
AcDbArc
 50
180.0
 51
223.8130614604133
  0
LINE
  5
A0A
330
2
100
AcDbEntity
  8
Object
100
AcDbLine
 10
31.39605264913365
 20
-1791.633959511521
 30
0.0
 11
31.39605264913365
 21
-1799.633959511521
 31
0.0
  0
LWPOLYLINE
  5
A0B
330
2
100
AcDbEntity
  8
Object
100
AcDbPolyline
 90
        5
 70
     0
 43
0.3
 10
41.88470773137481
 20
-1769.858448578053
 10
41.88470773137481
 20
-1770.401984429517
 42
0.216102127730352
 10
43.5897436066952
 20
-1774.162730554566
 10
43.98967185605482
 20
-1774.513126244748
 42
-0.2021674280290146
 10
45.6875798847995
 20
-1778.006987264255
 42
-0.2021674280290146
  0
LWPOLYLINE
  5
A0C
330
2
100
AcDbEntity
  8
Object
100
AcDbPolyline
 90
        6
 70
     0
 43
0.3
 10
45.69470773137521
 20
-1769.858448578053
 10
45.69470773137521
 20
-1772.161237695514
 42
0.0794699954038677
 10
45.94416608980412
 20
-1773.720838321219
 10
46.44524937294585
 20
-1775.24713740268
 42
-0.0794699954038734
 10
46.69470773137521
 20
-1776.806738028386
 10
46.69470773137521
 20
-1778.006987264255
  0
ARC
  5
A0D
330
2
100
AcDbEntity
  8
Object
100
AcDbCircle
 10
60.59970773137496
 20
-1782.633959511521
 30
0.0
 40
17.0
100
AcDbArc
 50
180.0
 51
211.9657187507939
  0
LINE
  5
A0E
330
2
100
AcDbEntity
  8
Object
100
AcDbLine
 10
43.59970773137496
 20
-1778.006987264255
 30
0.0
 11
43.59970773137496
 21
-1782.633959511521
 31
0.0
  0
LINE
  5
A0F
330
2
100
AcDbEntity
  8
Center
  6
CENTER
100
AcDbLine
 10
47.59970773137496
 20
-1782.633959511521
 30
0.0
 11
47.59970773137496
 21
-1778.006987264255
 31
0.0
  0
ARC
  5
A10
330
2
100
AcDbEntity
  8
Object
100
AcDbCircle
 10
60.59970773137496
 20
-1782.633959511521
 30
0.0
 40
9.0
100
AcDbArc
 50
180.0
 51
270.0
  0
LWPOLYLINE
  5
A11
330
2
100
AcDbEntity
  8
Object
100
AcDbPolyline
 90
        5
 70
     0
 43
0.3
 10
53.3147077313751
 20
-1769.858448578053
 10
53.3147077313751
 20
-1770.356392374722
 42
-0.2200502165146602
 10
51.55260485705861
 20
-1774.166382165192
 10
51.2668106056912
 20
-1774.409262707117
 42
0.2089452191475042
 10
49.50921541622569
 20
-1778.006987264255
 42
0.2089452191475042
  0
LWPOLYLINE
  5
A12
330
2
100
AcDbEntity
  8
Object
100
AcDbPolyline
 90
        6
 70
     0
 43
0.3
 10
49.50470773137471
 20
-1769.858448578053
 10
49.50470773137471
 20
-1772.161237695515
 42
-0.0794699954038677
 10
49.25524937294579
 20
-1773.720838321221
 10
48.75416608980407
 20
-1775.247137402681
 42
0.0794699954038734
 10
48.5047077313747
 20
-1776.806738028387
 10
48.5047077313747
 20
-1778.006987264255
  0
LINE
  5
A13
330
2
100
AcDbEntity
  8
Object
100
AcDbLine
 10
51.59970773137496
 20
-1782.633959511521
 30
0.0
 11
51.59970773137496
 21
-1778.006987264255
 31
0.0
  0
ARC
  5
A14
330
2
100
AcDbEntity
  8
Object
100
AcDbCircle
 10
75.74416330743947
 20
-1793.633959511521
 30
0.0
 40
2.499999999999914
100
AcDbArc
 50
126.8698976458336
 51
233.1301023541663
  0
LINE
  5
A15
330
2
100
AcDbEntity
  8
Object
100
AcDbLine
 10
77.7037272183324
 20
-1791.633959511521
 30
0.0
 11
76.24416330743946
 21
-1791.633959511521
 31
0.0
  0
ARC
  5
A16
330
2
100
AcDbEntity
  8
Object
100
AcDbCircle
 10
72.74416330743946
 20
-1797.633959511521
 30
0.0
 40
2.499999999999983
100
AcDbArc
 50
306.8698976458335
 51
53.13010235416641
  0
LINE
  5
A18
330
2
100
AcDbEntity
  8
Object
100
AcDbLine
 10
76.24416330743946
 20
-1799.633959511521
 30
0.0
 11
77.7037272183324
 21
-1799.633959511521
 31
0.0
  0
DIMENSION
  5
A1A
330
2
100
AcDbEntity
  8
text3
100
AcDbDimension
  2
*D19
 10
90.06229541787012
 20
-1815.719452001867
 30
0.0
 11
52.87292667346733
 21
-1812.219452001867
 31
0.0
 70
    33
  1
300±50
 71
     5
 42
74.37873748880559
  3
DMST_1
100
AcDbAlignedDimension
 13
15.68355792906453
 23
-1810.483959511521
 33
0.0
 14
90.06229541787012
 24
-1810.483959511521
 34
0.0
1001
ACAD
1000
DSTYLE
1002
{
1070
    41
1040
5.0
1070
    42
1040
2.0
1070
    43
1040
0.38
1070
    44
1040
5.0
1070
    47
1040
0.0
1070
    48
1040
0.0
1070
    71
1070
     0
1070
    78
1070
     8
1070
    79
1070
     2
1070
   140
1040
4.0
1070
   141
1040
1.0
1070
   146
1040
1.0
1070
   147
1040
1.5
1070
   176
1070
     0
1070
   177
1070
     0
1070
   178
1070
     0
1070
   179
1070
     2
1070
   279
1070
     0
1002
}
  0
ARC
  5
A39
330
2
100
AcDbEntity
  8
text3
100
AcDbCircle
 10
60.59970773137496
 20
-1782.633959511521
 30
0.0
 40
3.0
100
AcDbArc
 50
180.0
 51
270.0
  0
LEADER
  5
A3A
330
2
100
AcDbEntity
  8
text3
100
AcDbLeader
  3
DMST_1
 73
     0
 40
4.0
 76
     2
 10
90.06229541787012
 20
-1785.633959511521
 30
0.0
 10
60.59970773137497
 20
-1785.633959511522
 30
0.0
340
A3B
211
-1.0
221
0.0
231
0.0
210
0.0
220
0.0
230
-1.0
213
0.0
223
-2.0
233
0.0
1001
ACAD
1000
DSTYLE
1002
{
1070
    77
1070
     0
1070
    41
1040
5.0
1070
    42
1040
2.0
1070
    43
1040
0.38
1070
    44
1040
0.18
1070
    47
1040
0.0
1070
    48
1040
0.0
1070
    71
1070
     0
1070
    78
1070
     8
1070
    79
1070
     2
1070
   140
1040
4.0
1070
   141
1040
1.0
1070
   146
1040
1.0
1070
   147
1040
1.5
1070
   176
1070
     0
1070
   177
1070
     0
1070
   178
1070
     0
1070
   179
1070
     2
1070
   279
1070
     0
1002
}
  0
MTEXT
  5
A3B
102
{ACAD_REACTORS
330
A3A
102
}
330
2
100
AcDbEntity
  8
text3
100
AcDbMText
 10
91.56229541787011
 20
-1783.633959511521
 30
0.0
 40
4.0
 41
0.0
 71
     1
 72
     1
  1

 73
     1
 44
1.0
  0
LEADER
  5
A3C
330
2
100
AcDbEntity
  8
text3
100
AcDbLeader
  3
DMST_1
 40
4.0
 76
     2
 10
57.59970773137506
 20
-1769.858448578053
 30
0.0
 10
57.59970773137496
 20
-1782.633959511521
 30
0.0
211
-0.0000000000000002
221
-1.0
231
0.0
213
-2.0
223
0.0000000000000004
233
0.0
1001
ACAD
1000
DSTYLE
1002
{
1070
    77
1070
     0
1070
    41
1040
5.0
1070
    42
1040
2.0
1070
    43
1040
0.38
1070
    44
1040
0.18
1070
    47
1040
0.0
1070
    48
1040
0.0
1070
    71
1070
     0
1070
    78
1070
     8
1070
    79
1070
     2
1070
   140
1040
4.0
1070
   141
1040
1.0
1070
   146
1040
1.0
1070
   147
1040
1.5
1070
   176
1070
     0
1070
   177
1070
     0
1070
   178
1070
     0
1070
   179
1070
     2
1070
   279
1070
     0
1002
}
  0
TEXT
  5
A42
330
2
100
AcDbEntity
  8
text3
100
AcDbText
 10
62.13412189123755
 20
-1783.8358138558
 30
0.0
 40
3.456
  1
300±50
  7
Roman
100
AcDbText
  0
LINE
  5
AA8
330
2
100
AcDbEntity
  8
text3
100
AcDbLine
 10
115.1622954178703
 20
-1823.93395951152
 30
0.0
 11
115.1622954178703
 21
-1877.43395951152
 31
0.0
  0
LINE
  5
AA9
330
2
100
AcDbEntity
  8
text3
100
AcDbLine
 10
112.1622954178707
 20
-1823.933959511521
 30
0.0
 11
112.1622954178703
 21
-1877.43395951152
 31
0.0
  0
LINE
  5
AAA
330
2
100
AcDbEntity
  8
text3
100
AcDbLine
 10
112.1622954178707
 20
-1826.933959511521
 30
0.0
 11
115.1622954178707
 21
-1826.933959511521
 31
0.0
  0
LINE
  5
AAB
330
2
100
AcDbEntity
  8
text3
100
AcDbLine
 10
112.1622954178707
 20
-1823.933959511521
 30
0.0
 11
115.1622954178703
 21
-1823.93395951152
 31
0.0
  0
LINE
  5
AAC
330
2
100
AcDbEntity
  8
text3
100
AcDbLine
 10
112.1622954178703
 20
-1877.43395951152
 30
0.0
 11
115.1622954178698
 21
-1877.43395951152
 31
0.0
  0
LINE
  5
AAD
330
2
100
AcDbEntity
  8
text3
100
AcDbLine
 10
112.1622954178703
 20
-1874.43395951152
 30
0.0
 11
115.1622954178703
 21
-1874.433959511521
 31
0.0
  0
DIMENSION
  5
AAE
330
2
100
AcDbEntity
  8
text3
100
AcDbDimension
  2
*D20
 10
115.1622954178694
 20
-1903.520218130691
 30
0.0
 11
99.32896208453717
 21
-1903.520218130691
 31
0.0
 70
   161
 71
     5
 42
2.999999999998991
  3
DMST_1
100
AcDbAlignedDimension
 13
112.1622954178705
 23
-1885.43395951152
 33
0.0
 14
115.1622954178694
 24
-1885.43395951152
 34
0.0
1001
ACAD
1000
DSTYLE
1002
{
1070
    41
1040
5.0
1070
    42
1040
2.0
1070
    43
1040
0.38
1070
    44
1040
0.18
1070
    47
1040
0.0
1070
    48
1040
0.0
1070
    71
1070
     0
1070
    78
1070
     8
1070
    79
1070
     2
1070
   140
1040
4.0
1070
   141
1040
1.0
1070
   146
1040
1.0
1070
   147
1040
1.5
1070
   176
1070
     0
1070
   177
1070
     0
1070
   178
1070
     0
1070
   179
1070
     2
1070
   279
1070
     0
1002
}
  0
DIMENSION
  5
AD0
330
2
100
AcDbEntity
  8
text3
100
AcDbDimension
  2
*D21
 10
176.5622954178716
 20
-1916.731319065587
 30
0.0
 11
105.8622954178708
 21
-1913.231319065587
 31
0.0
 70
    33
  1
<>±1
 71
     5
 42
141.4000000000015
  3
DMST_1
100
AcDbAlignedDimension
 13
35.16229541787004
 23
-1855.43395951152
 33
0.0
 14
176.5622954178716
 24
-1855.43395951152
 34
0.0
1001
ACAD
1000
DSTYLE
1002
{
1070
    41
1040
5.0
1070
    42
1040
2.0
1070
    43
1040
0.38
1070
    44
1040
0.18
1070
    47
1040
0.0
1070
    48
1040
0.0
1070
    71
1070
     0
1070
    78
1070
     8
1070
    79
1070
     2
1070
   140
1040
4.0
1070
   141
1040
1.0
1070
   146
1040
1.0
1070
   147
1040
1.5
1070
   176
1070
     0
1070
   177
1070
     0
1070
   178
1070
     0
1070
   179
1070
     2
1070
   279
1070
     0
1002
}
  0
TEXT
  5
C38
330
2
100
AcDbEntity
  8
Object
100
AcDbText
 10
-118.9027234328942
 20
-1946.369968485767
 30
0.0
 40
3.84
  1
（キー溝）
  7
Roman
100
AcDbText
  0
LINE
  5
C39
330
2
100
AcDbEntity
  8
Center
  6
CENTER
 48
0.5
100
AcDbLine
 10
-86.48433787969759
 20
-1993.10362031766
 30
0.0
 11
-106.4843378796975
 21
-1993.10362031766
 31
0.0
  0
TEXT
  5
C3A
330
2
100
AcDbEntity
  8
text3
100
AcDbText
 10
-99.54205010068347
 20
-2029.130130382795
 30
0.0
 40
3.84
  1
付属キー　5*5*20
  7
Roman
100
AcDbText
  0
ARC
  5
C3B
330
2
100
AcDbEntity
  8
Object
100
AcDbCircle
 10
-96.48433787969759
 20
-1993.10362031766
 30
0.0
 40
7.0
100
AcDbArc
 50
20.92483242764044
 51
339.0751675723596
  0
DIMENSION
  5
C3C
330
2
100
AcDbEntity
  8
text3
100
AcDbDimension
  2
*D36
 10
-103.4843378796975
 20
-2014.498398603736
 30
0.0
 11
-97.98433787969759
 21
-2014.498398603736
 31
0.0
 70
   161
 71
     5
 42
11.0
  3
Standard
100
AcDbAlignedDimension
 13
-92.48433787969759
 23
-1993.10362031766
 33
0.0
 14
-103.4843378796975
 24
-1993.10362031766
 34
0.0
1001
ACAD
1000
DSTYLE
1002
{
1070
   140
1040
4.0
1070
    42
1040
2.0
1070
    44
1040
5.0
1070
    41
1040
5.0
1070
   284
1070
     8
1070
   146
1040
0.5
1070
   272
1070
     3
1070
    48
1040
0.2
1070
   147
1040
1.5
1070
    72
1070
     0
1070
    71
1070
     0
1070
   283
1070
     1
1002
}
  0
LINE
  5
C3D
330
2
100
AcDbEntity
  8
Center
  6
CENTER
 48
0.5
100
AcDbLine
 10
-96.48433787969759
 20
-2003.10362031766
 30
0.0
 11
-96.48433787969759
 21
-1983.10362031766
 31
0.0
  0
LINE
  5
C3E
330
2
100
AcDbEntity
  8
1
  6
Continuous
 62
     7
100
AcDbLine
 10
165.8053353353794
 20
-1989.498069042196
 30
0.0
 11
145.8053353353794
 21
-1996.709171593125
 31
0.0
  0
LINE
  5
C3F
330
2
100
AcDbEntity
  8
1
  6
Continuous
 62
     7
100
AcDbLine
 10
145.8053353353794
 20
-1989.498069042196
 30
0.0
 11
165.8053353353794
 21
-1996.709171593125
 31
0.0
  0
LINE
  5
C40
330
2
100
AcDbEntity
  8
1
  6
Continuous
 62
     7
100
AcDbLine
 10
145.8053353353794
 20
-1987.10362031766
 30
0.0
 11
165.8053353353794
 21
-1987.10362031766
 31
0.0
  0
LINE
  5
C41
330
2
100
AcDbEntity
  8
1
  6
Continuous
 62
     7
100
AcDbLine
 10
145.8053353353794
 20
-1996.709171593125
 30
0.0
 11
165.8053353353794
 21
-1996.709171593125
 31
0.0
  0
LINE
  5
C42
330
2
100
AcDbEntity
  8
1
  6
Continuous
 62
     7
100
AcDbLine
 10
145.8053353353794
 20
-1989.498069042196
 30
0.0
 11
165.8053353353794
 21
-1989.498069042196
 31
0.0
  0
DIMENSION
  5
C43
330
2
100
AcDbEntity
  8
text3
100
AcDbDimension
  2
*D37
 10
165.8053353353794
 20
-1976.888545209783
 30
0.0
 11
155.8053353353794
 21
-1973.388545209783
 31
0.0
 70
    33
 71
     5
 42
20.0
  3
Standard
100
AcDbAlignedDimension
 13
145.8053353353794
 23
-1986.10362031766
 33
0.0
 14
165.8053353353794
 24
-1986.10362031766
 34
0.0
1001
ACAD
1000
DSTYLE
1002
{
1070
   147
1040
1.5
1070
   140
1040
4.0
1070
    42
1040
2.0
1070
    44
1040
5.0
1070
    41
1040
5.0
1002
}
  0
DIMENSION
  5
C44
330
2
100
AcDbEntity
  8
text3
100
AcDbDimension
  2
*D38
 10
175.8053353353794
 20
-1957.309585876013
 30
0.0
 11
160.8053353353794
 21
-1957.309585876013
 31
0.0
 70
   161
  1
<>±1
 71
     5
 42
30.0
  3
Standard
100
AcDbAlignedDimension
 13
145.8053353353794
 23
-1987.678469602562
 33
0.0
 14
175.8053353353794
 24
-1987.678469602562
 34
0.0
1001
ACAD
1000
DSTYLE
1002
{
1070
   147
1040
1.5
1070
   140
1040
4.0
1070
    42
1040
2.0
1070
    44
1040
5.0
1070
    41
1040
5.0
1002
}
  0
LINE
  5
C45
330
2
100
AcDbEntity
  8
1
  6
Continuous
 62
     7
100
AcDbLine
 10
172.8053353353794
 20
-2000.10362031766
 30
0.0
 11
146.3053353353794
 21
-2000.10362031766
 31
0.0
  0
LINE
  5
C46
330
2
100
AcDbEntity
  8
Center
  6
CENTER
100
AcDbLine
 10
194.5127735295115
 20
-1993.10362031766
 30
0.0
 11
140.9733247129939
 21
-1993.10362031766
 31
0.0
  0
LINE
  5
C47
330
2
100
AcDbEntity
  8
Center
  6
CENTER
100
AcDbLine
 10
87.47743651913026
 20
-1993.10362031766
 30
0.0
 11
33.9379877026123
 21
-1993.10362031766
 31
0.0
  0
DIMENSION
  5
C48
330
2
100
AcDbEntity
  8
text3
100
AcDbDimension
  2
*D39
 10
30.24512963116696
 20
-2000.10362031766
 30
0.0
 11
30.24512963116729
 21
-1970.670286984327
 31
0.0
 70
   161
  1
Φ<>h6
 71
     5
 42
14.0
  3
DMST_1
100
AcDbAlignedDimension
 13
39.2699983249978
 23
-1986.10362031766
 33
0.0
 14
39.2699983249978
 24
-2000.10362031766
 34
0.0
1001
ACAD
1000
DSTYLE
1002
{
1070
    41
1040
5.0
1070
    42
1040
2.0
1070
    43
1040
0.38
1070
    44
1040
5.0
1070
    47
1040
0.0
1070
    48
1040
0.0
1070
    71
1070
     0
1070
    78
1070
     8
1070
    79
1070
     2
1070
   140
1040
4.0
1070
   141
1040
2.0
1070
   146
1040
1.0
1070
   147
1040
1.5
1070
   176
1070
     0
1070
   177
1070
     0
1070
   178
1070
     0
1070
   179
1070
     2
1070
   279
1070
     0
1002
}
  0
DIMENSION
  5
C49
330
2
100
AcDbEntity
  8
text3
100
AcDbDimension
  2
*D40
 10
17.09089750982218
 20
-2010.977682892536
 30
0.0
 11
31.77756417648885
 21
-2007.477682892536
 31
0.0
 70
    33
 71
     5
 42
13.0
  3
Standard
100
AcDbAlignedDimension
 13
4.090897509822184
 23
-1993.10362031766
 33
0.0
 14
17.09089750982218
 24
-1993.10362031766
 34
0.0
1001
ACAD
1000
DSTYLE
1002
{
1070
   140
1040
4.0
1070
    42
1040
2.0
1070
    44
1040
5.0
1070
    41
1040
5.0
1070
   146
1040
0.8
1070
   284
1070
     8
1070
    47
1040
0.2
1070
    48
1040
0.2
1070
   147
1040
1.5
1070
    72
1070
     0
1070
    71
1070
     1
1002
}
  0
LINE
  5
C4A
330
2
100
AcDbEntity
  8
1
  6
Continuous
 62
     7
100
AcDbLine
 10
-29.9717986886377
 20
-1963.10362031766
 30
0.0
 11
-12.27649284904146
 21
-1963.103620317659
 31
0.0
  0
LINE
  5
C4B
330
2
100
AcDbEntity
  8
Center
  6
CENTER
100
AcDbLine
 10
-11.76436049450546
 20
-1993.10362031766
 30
0.0
 11
-65.3038093110232
 21
-1993.10362031766
 31
0.0
  0
LINE
  5
C4C
330
2
100
AcDbEntity
  8
1
  6
Continuous
 62
     7
100
AcDbLine
 10
-29.9717986886377
 20
-2023.10362031766
 30
0.0
 11
-22.50286098785227
 21
-2023.10362031766
 31
0.0
  0
DIMENSION
  5
C4D
330
2
100
AcDbEntity
  8
text3
100
AcDbDimension
  2
*D41
 10
-84.26612722073443
 20
-1995.60362031766
 30
0.0
 11
-84.26612722073413
 21
-1973.770286984327
 31
0.0
 70
   161
  1
<>P9
 71
     5
 42
5.0
  3
Standard
100
AcDbAlignedDimension
 13
-89.94598946438657
 23
-1990.60362031766
 33
0.0
 14
-89.94598946438657
 24
-1995.60362031766
 34
0.0
1001
ACAD
1000
DSTYLE
1002
{
1070
   147
1040
1.5
1070
   140
1040
4.0
1070
    42
1040
2.0
1070
    44
1040
5.0
1070
    41
1040
5.0
1002
}
  0
DIMENSION
  5
C4E
330
2
100
AcDbEntity
  8
text3
100
AcDbDimension
  2
*D42
 10
-40.47179868863771
 20
-1972.518925385177
 30
0.0
 11
-50.47179868863771
 21
-1969.018925385177
 31
0.0
 70
    33
 71
     5
 42
20.0
  3
Standard
100
AcDbAlignedDimension
 13
-60.47179868863771
 23
-1986.60362031766
 33
0.0
 14
-40.47179868863771
 24
-1986.60362031766
 34
0.0
1001
ACAD
1000
DSTYLE
1002
{
1070
   147
1040
1.5
1070
   140
1040
4.0
1070
    42
1040
2.0
1070
    44
1040
5.0
1070
    41
1040
5.0
1002
}
  0
DIMENSION
  5
C4F
330
2
100
AcDbEntity
  8
text3
100
AcDbDimension
  2
*D43
 10
-30.4717986886377
 20
-1957.040655301484
 30
0.0
 11
-45.47179868863771
 21
-1957.040655301484
 31
0.0
 70
   161
  1
<>±1
 71
     5
 42
30.0
  3
Standard
100
AcDbAlignedDimension
 13
-60.47179868863771
 23
-1986.60362031766
 33
0.0
 14
-30.4717986886377
 24
-1986.60362031766
 34
0.0
1001
ACAD
1000
DSTYLE
1002
{
1070
   147
1040
1.5
1070
   140
1040
4.0
1070
    42
1040
2.0
1070
    44
1040
5.0
1070
    41
1040
5.0
1002
}
  0
DIMENSION
  5
C50
330
2
100
AcDbEntity
  8
text3
100
AcDbDimension
  2
*D44
 10
-69.15408408208962
 20
-2000.10362031766
 30
0.0
 11
-69.15408408208929
 21
-1970.670286984327
 31
0.0
 70
   161
  1
Φ<>h6
 71
     5
 42
14.0
  3
DMST_1
100
AcDbAlignedDimension
 13
-59.97179868863771
 23
-1986.10362031766
 33
0.0
 14
-59.97179868863771
 24
-2000.10362031766
 34
0.0
1001
ACAD
1000
DSTYLE
1002
{
1070
    41
1040
5.0
1070
    42
1040
2.0
1070
    43
1040
0.38
1070
    44
1040
5.0
1070
    47
1040
0.0
1070
    48
1040
0.0
1070
    71
1070
     0
1070
    78
1070
     8
1070
    79
1070
     2
1070
   140
1040
4.0
1070
   141
1040
2.0
1070
   146
1040
1.0
1070
   147
1040
1.5
1070
   176
1070
     0
1070
   177
1070
     0
1070
   178
1070
     0
1070
   179
1070
     2
1070
   279
1070
     0
1002
}
  0
LINE
  5
C51
330
2
100
AcDbEntity
  8
1
  6
Continuous
 62
     7
100
AcDbLine
 10
-33.4717986886377
 20
-2017.60362031766
 30
0.0
 11
-33.4717986886377
 21
-1968.60362031766
 31
0.0
  0
LINE
  5
C52
330
2
100
AcDbEntity
  8
1
  6
Continuous
 62
     3
100
AcDbLine
 10
-32.9717986886377
 20
-2018.10362031766
 30
0.0
 11
-32.9717986886377
 21
-1968.10362031766
 31
0.0
  0
LINE
  5
C53
330
2
100
AcDbEntity
  8
1
  6
Continuous
 62
     7
100
AcDbLine
 10
-30.4717986886377
 20
-2022.60362031766
 30
0.0
 11
-30.4717986886377
 21
-1963.60362031766
 31
0.0
  0
LINE
  5
C54
330
2
100
AcDbEntity
  8
1
  6
Continuous
 62
     3
100
AcDbLine
 10
-29.9717986886377
 20
-2023.10362031766
 30
0.0
 11
-29.9717986886377
 21
-1963.10362031766
 31
0.0
  0
LINE
  5
C55
330
2
100
AcDbEntity
  8
Object
100
AcDbLine
 10
-89.94598946438657
 20
-1990.60362031766
 30
0.0
 11
-92.48433787969759
 21
-1990.60362031766
 31
0.0
  0
LINE
  5
C56
330
2
100
AcDbEntity
  8
Object
100
AcDbLine
 10
-89.94598946438657
 20
-1995.60362031766
 30
0.0
 11
-92.48433787969782
 21
-1995.60362031766
 31
0.0
  0
LINE
  5
C57
330
2
100
AcDbEntity
  8
Object
100
AcDbLine
 10
-92.48433787969782
 20
-1995.60362031766
 30
0.0
 11
-92.48433787969759
 21
-1990.60362031766
 31
0.0
  0
TEXT
  5
C58
330
2
100
AcDbEntity
  8
text3
100
AcDbText
 10
-91.76404292702262
 20
-2012.714250251154
 30
0.0
 40
1.92
  1
-0.2
  7
Roman
100
AcDbText
  0
TEXT
  5
C59
330
2
100
AcDbEntity
  8
text3
100
AcDbText
 10
-89.41010807066083
 20
-2010.062723144592
 30
0.0
 40
1.92
  1
0
  7
Roman
100
AcDbText
  0
LINE
  5
C5A
330
2
100
AcDbEntity
  8
text3
100
AcDbLine
 10
-92.48433787969759
 20
-2014.498398603736
 30
0.0
 11
-80.25700878496706
 21
-2014.498398603736
 31
0.0
  0
LINE
  5
C5B
330
2
100
AcDbEntity
  8
1
  6
Continuous
 62
     7
100
AcDbLine
 10
-59.97179868863748
 20
-1986.10362031766
 30
0.0
 11
-33.4717986886377
 21
-1986.10362031766
 31
0.0
  0
LINE
  5
C5C
330
2
100
AcDbEntity
  8
Object
100
AcDbLine
 10
-60.47179868863771
 20
-1990.60362031766
 30
0.0
 11
-42.97179868863771
 21
-1990.60362031766
 31
0.0
  0
LINE
  5
C5D
330
2
100
AcDbEntity
  8
Object
100
AcDbLine
 10
-60.47179868863771
 20
-1995.60362031766
 30
0.0
 11
-42.97179868863771
 21
-1995.60362031766
 31
0.0
  0
LINE
  5
C5E
330
2
100
AcDbEntity
  8
1
  6
Continuous
 62
     7
100
AcDbLine
 10
-33.4717986886377
 20
-2000.10362031766
 30
0.0
 11
-59.97179868863771
 21
-2000.10362031766
 31
0.0
  0
LINE
  5
C5F
330
2
100
AcDbEntity
  8
1
  6
Continuous
 62
     7
100
AcDbLine
 10
-60.47179868863771
 20
-1993.10362031766
 30
0.0
 11
-60.47179868863771
 21
-1999.60362031766
 31
0.0
  0
LINE
  5
C60
330
2
100
AcDbEntity
  8
1
  6
Continuous
 62
     3
100
AcDbLine
 10
-59.97179868863771
 20
-1986.10362031766
 30
0.0
 11
-59.97179868863748
 21
-1990.60362031766
 31
0.0
  0
LINE
  5
C61
330
2
100
AcDbEntity
  8
1
  6
Continuous
 62
     7
100
AcDbLine
 10
-60.47179868863771
 20
-1986.60362031766
 30
0.0
 11
-60.47179868863771
 21
-1993.10362031766
 31
0.0
  0
LINE
  5
C62
330
2
100
AcDbEntity
  8
1
  6
Continuous
 62
     7
100
AcDbLine
 10
-59.97179868863771
 20
-1986.10362031766
 30
0.0
 11
-60.47179868863771
 21
-1986.60362031766
 31
0.0
  0
LINE
  5
C63
330
2
100
AcDbEntity
  8
1
  6
Continuous
 62
     7
100
AcDbLine
 10
-59.97179868863771
 20
-2000.10362031766
 30
0.0
 11
-60.47179868863771
 21
-1999.60362031766
 31
0.0
  0
LINE
  5
C64
330
2
100
AcDbEntity
  8
1
  6
Continuous
 62
     3
100
AcDbLine
 10
-59.97179868863748
 20
-1995.60362031766
 30
0.0
 11
-59.97179868863771
 21
-2000.10362031766
 31
0.0
  0
ARC
  5
C65
330
2
100
AcDbEntity
  8
Object
100
AcDbCircle
 10
-42.97179868863771
 20
-1993.10362031766
 30
0.0
 40
2.5
100
AcDbArc
 50
270.0
 51
90.0
  0
LINE
  5
C66
330
2
100
AcDbEntity
  8
text3
100
AcDbLine
 10
-40.47179868863771
 20
-1984.60362031766
 30
0.0
 11
-40.47179868863771
 21
-1990.089331076817
 31
0.0
  0
LINE
  5
C67
330
2
100
AcDbEntity
  8
1
  6
Continuous
 62
     7
100
AcDbLine
 10
-32.9717986886377
 20
-2018.10362031766
 30
0.0
 11
-33.4717986886377
 21
-2017.60362031766
 31
0.0
  0
LINE
  5
C68
330
2
100
AcDbEntity
  8
1
  6
Continuous
 62
     7
100
AcDbLine
 10
-32.9717986886377
 20
-2018.10362031766
 30
0.0
 11
-30.4717986886377
 21
-2018.10362031766
 31
0.0
  0
LINE
  5
C69
330
2
100
AcDbEntity
  8
1
  6
Continuous
 62
     7
100
AcDbLine
 10
-29.9717986886377
 20
-2023.10362031766
 30
0.0
 11
-30.4717986886377
 21
-2022.60362031766
 31
0.0
  0
TEXT
  5
C6A
330
2
100
AcDbEntity
  8
text3
100
AcDbText
 10
-87.8765255017439
 20
-1967.582089975125
 30
0.0
 40
1.92
  1
-0.012
 50
90.0
  7
Roman
100
AcDbText
  0
TEXT
  5
C6B
330
2
100
AcDbEntity
  8
text3
100
AcDbText
 10
-85.2249983951823
 20
-1967.629679987635
 30
0.0
 40
1.92
  1
-0.042
 50
90.0
  7
Roman
100
AcDbText
  0
LINE
  5
C6C
330
2
100
AcDbEntity
  8
text3
100
AcDbLine
 10
-84.26612722073413
 20
-1967.519326295041
 30
0.0
 11
-84.26612722073413
 21
-1956.900726860135
 31
0.0
  0
TEXT
  5
C6D
330
2
100
AcDbEntity
  8
text3
100
AcDbText
 10
-70.70757996098439
 20
-1960.527026341767
 30
0.0
 40
1.92
  1
-0.011
 50
90.0
  7
Roman
100
AcDbText
  0
TEXT
  5
C6E
330
2
100
AcDbEntity
  8
text3
100
AcDbText
 10
-73.35910706754578
 20
-1958.156845646226
 30
0.0
 40
1.92
  1
0
 50
90.0
  7
Roman
100
AcDbText
  0
LINE
  5
C6F
330
2
100
AcDbEntity
  8
text3
100
AcDbLine
 10
-69.15408408208953
 20
-1960.236953650993
 30
0.0
 11
-69.15408408208953
 21
-1948.108745260306
 31
0.0
  0
LINE
  5
C70
330
2
100
AcDbEntity
  8
1
  6
Continuous
 62
     7
100
AcDbLine
 10
-29.9717986886377
 20
-1963.10362031766
 30
0.0
 11
-30.4717986886377
 21
-1963.60362031766
 31
0.0
  0
LINE
  5
C71
330
2
100
AcDbEntity
  8
1
  6
Continuous
 62
     7
100
AcDbLine
 10
-32.9717986886377
 20
-1968.10362031766
 30
0.0
 11
-33.4717986886377
 21
-1968.60362031766
 31
0.0
  0
LINE
  5
C72
330
2
100
AcDbEntity
  8
1
  6
Continuous
 62
     7
100
AcDbLine
 10
-30.4717986886377
 20
-1968.10362031766
 30
0.0
 11
-32.9717986886377
 21
-1968.10362031766
 31
0.0
  0
LINE
  5
C73
330
2
100
AcDbEntity
  8
Object2
100
AcDbLine
 10
-8.937374208166261
 20
-1955.57662207285
 30
0.0
 11
-21.84962537034528
 21
-2031.335196301222
 31
0.0
  0
LINE
  5
C74
330
2
100
AcDbEntity
  8
Object2
100
AcDbLine
 10
-10.99359526518139
 20
-1955.57662207285
 30
0.0
 11
-23.90584642736041
 21
-2031.335196301222
 31
0.0
  0
LINE
  5
C75
330
2
100
AcDbEntity
  8
1
  6
Continuous
 62
     7
100
AcDbLine
 10
-19.17179868863752
 20
-2003.559659525327
 30
0.0
 11
-19.17179868863752
 21
-1963.10362031766
 31
0.0
  0
LINE
  5
C76
330
2
100
AcDbEntity
  8
Center
  6
CENTER
 48
0.5
100
AcDbLine
 10
21.09089750982241
 20
-1993.10362031766
 30
0.0
 11
1.090897509822184
 21
-1993.10362031766
 31
0.0
  0
LINE
  5
C77
330
2
100
AcDbEntity
  8
1
  6
Continuous
 62
     7
100
AcDbLine
 10
-24.4717986886377
 20
-2023.10362031766
 30
0.0
 11
-24.4717986886377
 21
-2010.10362031766
 31
0.0
  0
LINE
  5
C78
330
2
100
AcDbEntity
  8
1
  6
Continuous
 62
     7
100
AcDbLine
 10
-24.4717986886377
 20
-2013.10362031766
 30
0.0
 11
-20.79846629805035
 21
-2013.10362031766
 31
0.0
  0
LINE
  5
C79
330
2
100
AcDbEntity
  8
Object
 48
0.5
100
AcDbLine
 10
17.09089750982218
 20
-1996.709171593124
 30
0.0
 11
17.09089750982218
 21
-1989.498069042196
 31
0.0
  0
LINE
  5
C7A
330
2
100
AcDbEntity
  8
Center
  6
CENTER
 48
0.5
100
AcDbLine
 10
11.09089750982218
 20
-2003.10362031766
 30
0.0
 11
11.09089750982218
 21
-1983.10362031766
 31
0.0
  0
ARC
  5
C7B
330
2
100
AcDbEntity
  8
Object
100
AcDbCircle
 10
11.09089750982218
 20
-1993.10362031766
 30
0.0
 40
7.0
100
AcDbArc
 50
31.00271913387189
 51
328.9972808661281
  0
LINE
  5
C7C
330
2
100
AcDbEntity
  8
1
  6
Continuous
 62
     7
100
AcDbLine
 10
-13.98088753884326
 20
-1973.10362031766
 30
0.0
 11
-24.4717986886377
 21
-1973.10362031766
 31
0.0
  0
LINE
  5
C7D
330
2
100
AcDbEntity
  8
1
  6
Continuous
 62
     7
100
AcDbLine
 10
-24.4717986886377
 20
-1976.10362031766
 30
0.0
 11
-24.4717986886377
 21
-1963.10362031766
 31
0.0
  0
TEXT
  5
C7E
330
2
100
AcDbEntity
  8
Object
100
AcDbText
 10
-11.52775413723918
 20
-1946.195334880194
 30
0.0
 40
3.84
  1
（Ｄカット）
  7
Roman
100
AcDbText
  0
TEXT
  5
C7F
330
2
100
AcDbEntity
  8
text3
100
AcDbText
 10
25.86982201265993
 20
-1957.810225571481
 30
0.0
 40
1.92
  1
0
 50
90.0
  7
Roman
100
AcDbText
  0
TEXT
  5
C80
330
2
100
AcDbEntity
  8
text3
100
AcDbText
 10
28.52134911922132
 20
-1960.180406267023
 30
0.0
 40
1.92
  1
-0.011
 50
90.0
  7
Roman
100
AcDbText
  0
LINE
  5
C81
330
2
100
AcDbEntity
  8
text3
100
AcDbLine
 10
30.24512963116706
 20
-1960.236953650993
 30
0.0
 11
30.24512963116706
 21
-1948.108745260306
 31
0.0
  0
LINE
  5
C82
330
2
100
AcDbEntity
  8
Object2
100
AcDbLine
 10
88.24820174845411
 20
-1955.57662207285
 30
0.0
 11
75.33595058627509
 21
-2031.335196301222
 31
0.0
  0
LINE
  5
C83
330
2
100
AcDbEntity
  8
Object2
100
AcDbLine
 10
90.30442280546925
 20
-1955.57662207285
 30
0.0
 11
77.39217164329023
 21
-2031.335196301222
 31
0.0
  0
DIMENSION
  5
C84
330
2
100
AcDbEntity
  8
text3
100
AcDbDimension
  2
*D45
 10
58.7699983249978
 20
-1972.518925385177
 30
0.0
 11
48.7699983249978
 21
-1969.018925385177
 31
0.0
 70
    33
 71
     5
 42
20.0
  3
Standard
100
AcDbAlignedDimension
 13
38.7699983249978
 23
-1986.60362031766
 33
0.0
 14
58.7699983249978
 24
-1986.60362031766
 34
0.0
1001
ACAD
1000
DSTYLE
1002
{
1070
   147
1040
1.5
1070
   140
1040
4.0
1070
    42
1040
2.0
1070
    44
1040
5.0
1070
    41
1040
5.0
1002
}
  0
DIMENSION
  5
C85
330
2
100
AcDbEntity
  8
text3
100
AcDbDimension
  2
*D46
 10
68.7699983249978
 20
-1957.040655301484
 30
0.0
 11
53.7699983249978
 21
-1957.040655301484
 31
0.0
 70
   161
  1
<>±1
 71
     5
 42
30.0
  3
Standard
100
AcDbAlignedDimension
 13
38.7699983249978
 23
-1986.60362031766
 33
0.0
 14
68.7699983249978
 24
-1986.60362031766
 34
0.0
1001
ACAD
1000
DSTYLE
1002
{
1070
   147
1040
1.5
1070
   140
1040
4.0
1070
    42
1040
2.0
1070
    44
1040
5.0
1070
    41
1040
5.0
1002
}
  0
LINE
  5
C86
330
2
100
AcDbEntity
  8
1
  6
Continuous
 62
     7
100
AcDbLine
 10
65.7699983249978
 20
-2017.60362031766
 30
0.0
 11
65.7699983249978
 21
-1968.60362031766
 31
0.0
  0
LINE
  5
C87
330
2
100
AcDbEntity
  8
1
  6
Continuous
 62
     3
100
AcDbLine
 10
66.2699983249978
 20
-2018.10362031766
 30
0.0
 11
66.2699983249978
 21
-1968.10362031766
 31
0.0
  0
LINE
  5
C88
330
2
100
AcDbEntity
  8
1
  6
Continuous
 62
     7
100
AcDbLine
 10
68.7699983249978
 20
-2022.60362031766
 30
0.0
 11
68.7699983249978
 21
-1963.60362031766
 31
0.0
  0
LINE
  5
C89
330
2
100
AcDbEntity
  8
1
  6
Continuous
 62
     3
100
AcDbLine
 10
69.2699983249978
 20
-2023.10362031766
 30
0.0
 11
69.2699983249978
 21
-1963.10362031766
 31
0.0
  0
LINE
  5
C8A
330
2
100
AcDbEntity
  8
1
  6
Continuous
 62
     7
100
AcDbLine
 10
80.06999832499809
 20
-2003.559659525327
 30
0.0
 11
80.06999832499799
 21
-1963.10362031766
 31
0.0
  0
LINE
  5
C8B
330
2
100
AcDbEntity
  8
1
  6
Continuous
 62
     7
100
AcDbLine
 10
66.2699983249978
 20
-2018.10362031766
 30
0.0
 11
68.7699983249978
 21
-2018.10362031766
 31
0.0
  0
LINE
  5
C8C
330
2
100
AcDbEntity
  8
1
  6
Continuous
 62
     7
100
AcDbLine
 10
39.2699983249978
 20
-1986.10362031766
 30
0.0
 11
65.7699983249978
 21
-1986.10362031766
 31
0.0
  0
LINE
  5
C8D
330
2
100
AcDbEntity
  8
1
  6
Continuous
 62
     7
100
AcDbLine
 10
38.7699983249978
 20
-1989.498069042196
 30
0.0
 11
58.7699983249978
 21
-1989.498069042196
 31
0.0
  0
LINE
  5
C8E
330
2
100
AcDbEntity
  8
1
  6
Continuous
 62
     7
100
AcDbLine
 10
38.7699983249978
 20
-1996.709171593125
 30
0.0
 11
58.7699983249978
 21
-1996.709171593125
 31
0.0
  0
LINE
  5
C8F
330
2
100
AcDbEntity
  8
1
  6
Continuous
 62
     7
100
AcDbLine
 10
38.7699983249978
 20
-1989.498069042196
 30
0.0
 11
58.7699983249978
 21
-1996.709171593125
 31
0.0
  0
LINE
  5
C90
330
2
100
AcDbEntity
  8
1
  6
Continuous
 62
     7
100
AcDbLine
 10
58.7699983249978
 20
-1989.498069042196
 30
0.0
 11
38.7699983249978
 21
-1996.709171593125
 31
0.0
  0
LINE
  5
C91
330
2
100
AcDbEntity
  8
1
  6
Continuous
 62
     7
100
AcDbLine
 10
65.7699983249978
 20
-2000.10362031766
 30
0.0
 11
39.2699983249978
 21
-2000.10362031766
 31
0.0
  0
LINE
  5
C92
330
2
100
AcDbEntity
  8
1
  6
Continuous
 62
     3
100
AcDbLine
 10
39.2699983249978
 20
-1986.10362031766
 30
0.0
 11
39.2699983249978
 21
-1989.498069042196
 31
0.0
  0
LINE
  5
C93
330
2
100
AcDbEntity
  8
1
  6
Continuous
 62
     7
100
AcDbLine
 10
38.7699983249978
 20
-1993.10362031766
 30
0.0
 11
38.7699983249978
 21
-1999.60362031766
 31
0.0
  0
LINE
  5
C94
330
2
100
AcDbEntity
  8
1
  6
Continuous
 62
     7
100
AcDbLine
 10
38.7699983249978
 20
-1986.60362031766
 30
0.0
 11
38.7699983249978
 21
-1993.10362031766
 31
0.0
  0
LINE
  5
C95
330
2
100
AcDbEntity
  8
1
  6
Continuous
 62
     7
100
AcDbLine
 10
39.2699983249978
 20
-1986.10362031766
 30
0.0
 11
38.7699983249978
 21
-1986.60362031766
 31
0.0
  0
LINE
  5
C96
330
2
100
AcDbEntity
  8
1
  6
Continuous
 62
     3
100
AcDbLine
 10
39.2699983249978
 20
-1996.709171593125
 30
0.0
 11
39.2699983249978
 21
-2000.10362031766
 31
0.0
  0
LINE
  5
C97
330
2
100
AcDbEntity
  8
1
  6
Continuous
 62
     7
100
AcDbLine
 10
39.2699983249978
 20
-2000.10362031766
 30
0.0
 11
38.7699983249978
 21
-1999.60362031766
 31
0.0
  0
LINE
  5
C98
330
2
100
AcDbEntity
  8
1
  6
Continuous
 62
     7
100
AcDbLine
 10
58.7699983249978
 20
-1996.709171593125
 30
0.0
 11
58.7699983249978
 21
-1989.498069042196
 31
0.0
  0
LINE
  5
C99
330
2
100
AcDbEntity
  8
text3
100
AcDbLine
 10
58.7699983249978
 20
-1984.60362031766
 30
0.0
 11
58.7699983249978
 21
-1987.861181837135
 31
0.0
  0
LINE
  5
C9A
330
2
100
AcDbEntity
  8
1
  6
Continuous
 62
     7
100
AcDbLine
 10
66.2699983249978
 20
-2018.10362031766
 30
0.0
 11
65.7699983249978
 21
-2017.60362031766
 31
0.0
  0
LINE
  5
C9B
330
2
100
AcDbEntity
  8
1
  6
Continuous
 62
     7
100
AcDbLine
 10
69.2699983249978
 20
-2023.10362031766
 30
0.0
 11
68.7699983249978
 21
-2022.60362031766
 31
0.0
  0
LINE
  5
C9C
330
2
100
AcDbEntity
  8
1
  6
Continuous
 62
     7
100
AcDbLine
 10
74.7699983249978
 20
-2023.10362031766
 30
0.0
 11
74.7699983249978
 21
-2010.10362031766
 31
0.0
  0
LINE
  5
C9D
330
2
100
AcDbEntity
  8
1
  6
Continuous
 62
     7
100
AcDbLine
 10
74.7699983249978
 20
-2013.10362031766
 30
0.0
 11
78.44333071558515
 21
-2013.10362031766
 31
0.0
  0
LINE
  5
C9E
330
2
100
AcDbEntity
  8
1
  6
Continuous
 62
     7
100
AcDbLine
 10
69.2699983249978
 20
-2023.10362031766
 30
0.0
 11
76.73893602578323
 21
-2023.10362031766
 31
0.0
  0
LINE
  5
C9F
330
2
100
AcDbEntity
  8
1
  6
Continuous
 62
     7
100
AcDbLine
 10
68.7699983249978
 20
-1968.10362031766
 30
0.0
 11
66.2699983249978
 21
-1968.10362031766
 31
0.0
  0
LINE
  5
CA0
330
2
100
AcDbEntity
  8
1
  6
Continuous
 62
     7
100
AcDbLine
 10
66.2699983249978
 20
-1968.10362031766
 30
0.0
 11
65.7699983249978
 21
-1968.60362031766
 31
0.0
  0
LINE
  5
CA1
330
2
100
AcDbEntity
  8
1
  6
Continuous
 62
     7
100
AcDbLine
 10
69.2699983249978
 20
-1963.10362031766
 30
0.0
 11
86.96530416459394
 21
-1963.103620317659
 31
0.0
  0
LINE
  5
CA2
330
2
100
AcDbEntity
  8
1
  6
Continuous
 62
     7
100
AcDbLine
 10
85.26090947479202
 20
-1973.10362031766
 30
0.0
 11
74.7699983249978
 21
-1973.10362031766
 31
0.0
  0
LINE
  5
CA3
330
2
100
AcDbEntity
  8
1
  6
Continuous
 62
     7
100
AcDbLine
 10
69.2699983249978
 20
-1963.10362031766
 30
0.0
 11
68.7699983249978
 21
-1963.60362031766
 31
0.0
  0
LINE
  5
CA4
330
2
100
AcDbEntity
  8
1
  6
Continuous
 62
     7
100
AcDbLine
 10
74.7699983249978
 20
-1976.10362031766
 30
0.0
 11
74.7699983249978
 21
-1963.10362031766
 31
0.0
  0
DIMENSION
  5
CA5
330
2
100
AcDbEntity
  8
text3
100
AcDbDimension
  2
*D47
 10
136.6408534288657
 20
-2000.10362031766
 30
0.0
 11
136.640853428866
 21
-1970.670286984327
 31
0.0
 70
   161
  1
Φ<>h6
 71
     5
 42
14.0
  3
DMST_1
100
AcDbAlignedDimension
 13
146.3053353353794
 23
-1986.10362031766
 33
0.0
 14
146.3053353353794
 24
-2000.10362031766
 34
0.0
1001
ACAD
1000
DSTYLE
1002
{
1070
    41
1040
5.0
1070
    42
1040
2.0
1070
    43
1040
0.38
1070
    44
1040
5.0
1070
    47
1040
0.0
1070
    48
1040
0.0
1070
    71
1070
     0
1070
    78
1070
     8
1070
    79
1070
     2
1070
   140
1040
4.0
1070
   141
1040
2.0
1070
   146
1040
1.0
1070
   147
1040
1.5
1070
   176
1070
     0
1070
   177
1070
     0
1070
   178
1070
     0
1070
   179
1070
     2
1070
   279
1070
     0
1002
}
  0
DIMENSION
  5
CA6
330
2
100
AcDbEntity
  8
text3
100
AcDbDimension
  2
*D48
 10
123.9363679924332
 20
-1987.10362031766
 30
0.0
 11
120.4363679924335
 21
-1972.416953650993
 31
0.0
 70
    33
 71
     5
 42
13.0
  3
Standard
100
AcDbAlignedDimension
 13
109.7927961443193
 23
-2000.10362031766
 33
0.0
 14
109.7927961443193
 24
-1987.10362031766
 34
0.0
1001
ACAD
1000
DSTYLE
1002
{
1070
   140
1040
4.0
1070
    42
1040
2.0
1070
    44
1040
5.0
1070
    41
1040
5.0
1070
   146
1040
0.8
1070
   284
1070
     8
1070
    47
1040
0.2
1070
    48
1040
0.2
1070
   147
1040
1.5
1070
    72
1070
     0
1070
    71
1070
     1
1002
}
  0
DIMENSION
  5
CA7
330
2
100
AcDbEntity
  8
text3
100
AcDbDimension
  2
*D49
 10
115.7927961443193
 20
-2010.977682892536
 30
0.0
 11
130.479462810986
 21
-2007.477682892536
 31
0.0
 70
    33
 71
     5
 42
13.0
  3
Standard
100
AcDbAlignedDimension
 13
102.7927961443193
 23
-1993.10362031766
 33
0.0
 14
115.7927961443193
 24
-1993.10362031766
 34
0.0
1001
ACAD
1000
DSTYLE
1002
{
1070
   140
1040
4.0
1070
    42
1040
2.0
1070
    44
1040
5.0
1070
    41
1040
5.0
1070
   146
1040
0.8
1070
   284
1070
     8
1070
    47
1040
0.2
1070
    48
1040
0.2
1070
   147
1040
1.5
1070
    72
1070
     0
1070
    71
1070
     1
1002
}
  0
LINE
  5
CA8
330
2
100
AcDbEntity
  8
Center
  6
CENTER
 48
0.5
100
AcDbLine
 10
119.7927961443193
 20
-1993.10362031766
 30
0.0
 11
99.79279614431938
 21
-1993.10362031766
 31
0.0
  0
ARC
  5
CA9
330
2
100
AcDbEntity
  8
Object
100
AcDbCircle
 10
109.7927961443193
 20
-1993.10362031766
 30
0.0
 40
7.0
100
AcDbArc
 50
31.00271913387189
 51
58.99728086612853
  0
ARC
  5
CAA
330
2
100
AcDbEntity
  8
Object
100
AcDbCircle
 10
109.7927961443193
 20
-1993.10362031766
 30
0.0
 40
7.0
100
AcDbArc
 50
121.0027191338714
 51
328.9972808661281
  0
LINE
  5
CAB
330
2
100
AcDbEntity
  8
Object
 48
0.5
100
AcDbLine
 10
113.3983474197831
 20
-1987.10362031766
 30
0.0
 11
106.1872448688556
 21
-1987.10362031766
 31
0.0
  0
LINE
  5
CAC
330
2
100
AcDbEntity
  8
Center
  6
CENTER
 48
0.5
100
AcDbLine
 10
109.7927961443193
 20
-2003.10362031766
 30
0.0
 11
109.7927961443193
 21
-1983.10362031766
 31
0.0
  0
LINE
  5
CAD
330
2
100
AcDbEntity
  8
Object
 48
0.5
100
AcDbLine
 10
115.7927961443193
 20
-1996.709171593124
 30
0.0
 11
115.7927961443193
 21
-1989.498069042196
 31
0.0
  0
LINE
  5
CAE
330
2
100
AcDbEntity
  8
1
  6
Continuous
 62
     7
100
AcDbLine
 10
146.3053353353794
 20
-2000.10362031766
 30
0.0
 11
145.8053353353794
 21
-1999.60362031766
 31
0.0
  0
LINE
  5
CAF
330
2
100
AcDbEntity
  8
1
  6
Continuous
 62
     7
100
AcDbLine
 10
145.8053353353794
 20
-1987.10362031766
 30
0.0
 11
145.8053353353794
 21
-1993.10362031766
 31
0.0
  0
LINE
  5
CB0
330
2
100
AcDbEntity
  8
1
  6
Continuous
 62
     7
100
AcDbLine
 10
145.8053353353794
 20
-1993.10362031766
 30
0.0
 11
145.8053353353794
 21
-1999.60362031766
 31
0.0
  0
LINE
  5
CB1
330
2
100
AcDbEntity
  8
1
  6
Continuous
 62
     3
100
AcDbLine
 10
146.3053353353794
 20
-1987.10362031766
 30
0.0
 11
146.3053353353794
 21
-1989.498069042196
 31
0.0
  0
LINE
  5
CB2
330
2
100
AcDbEntity
  8
1
  6
Continuous
 62
     3
100
AcDbLine
 10
146.3053353353794
 20
-1996.709171593125
 30
0.0
 11
146.3053353353794
 21
-2000.10362031766
 31
0.0
  0
TEXT
  5
CB3
330
2
100
AcDbEntity
  8
Object
100
AcDbText
 10
87.71138713392735
 20
-1946.229391023234
 30
0.0
 40
3.84
  1
（ダブルＤカット）
  7
Roman
100
AcDbText
  0
TEXT
  5
CB4
330
2
100
AcDbEntity
  8
text3
100
AcDbText
 10
132.4675562354078
 20
-1957.995126413947
 30
0.0
 40
1.92
  1
0
 50
90.0
  7
Roman
100
AcDbText
  0
TEXT
  5
CB5
330
2
100
AcDbEntity
  8
text3
100
AcDbText
 10
135.1190833419692
 20
-1960.365307109489
 30
0.0
 40
1.92
  1
-0.011
 50
90.0
  7
Roman
100
AcDbText
  0
LINE
  5
CB6
330
2
100
AcDbEntity
  8
text3
100
AcDbLine
 10
136.6408534288658
 20
-1960.236953650993
 30
0.0
 11
136.6408534288658
 21
-1948.108745260306
 31
0.0
  0
LINE
  5
CB7
330
2
100
AcDbEntity
  8
Object2
100
AcDbLine
 10
195.2835387588357
 20
-1955.57662207285
 30
0.0
 11
182.3712875966567
 21
-2031.335196301222
 31
0.0
  0
LINE
  5
CB8
330
2
100
AcDbEntity
  8
Object2
100
AcDbLine
 10
197.3397598158509
 20
-1955.57662207285
 30
0.0
 11
184.4275086536718
 21
-2031.335196301222
 31
0.0
  0
LINE
  5
CB9
330
2
100
AcDbEntity
  8
1
  6
Continuous
 62
     7
100
AcDbLine
 10
187.1053353353797
 20
-2003.559659525327
 30
0.0
 11
187.1053353353796
 21
-1963.10362031766
 31
0.0
  0
LINE
  5
CBA
330
2
100
AcDbEntity
  8
1
  6
Continuous
 62
     3
100
AcDbLine
 10
176.3053353353794
 20
-2023.10362031766
 30
0.0
 11
176.3053353353794
 21
-1963.10362031766
 31
0.0
  0
LINE
  5
CBB
330
2
100
AcDbEntity
  8
1
  6
Continuous
 62
     7
100
AcDbLine
 10
175.8053353353794
 20
-2022.60362031766
 30
0.0
 11
175.8053353353794
 21
-1963.60362031766
 31
0.0
  0
LINE
  5
CBC
330
2
100
AcDbEntity
  8
1
  6
Continuous
 62
     3
100
AcDbLine
 10
173.3053353353794
 20
-2018.10362031766
 30
0.0
 11
173.3053353353794
 21
-1968.10362031766
 31
0.0
  0
LINE
  5
CBD
330
2
100
AcDbEntity
  8
1
  6
Continuous
 62
     7
100
AcDbLine
 10
172.8053353353794
 20
-2017.60362031766
 30
0.0
 11
172.8053353353794
 21
-1968.60362031766
 31
0.0
  0
LINE
  5
CBE
330
2
100
AcDbEntity
  8
1
  6
Continuous
 62
     7
100
AcDbLine
 10
176.3053353353794
 20
-2023.10362031766
 30
0.0
 11
183.774273036165
 21
-2023.10362031766
 31
0.0
  0
LINE
  5
CBF
330
2
100
AcDbEntity
  8
1
  6
Continuous
 62
     7
100
AcDbLine
 10
165.8053353353794
 20
-1996.709171593125
 30
0.0
 11
165.8053353353794
 21
-1989.498069042196
 31
0.0
  0
LINE
  5
CC0
330
2
100
AcDbEntity
  8
1
  6
Continuous
 62
     7
100
AcDbLine
 10
165.8053353353794
 20
-1987.10362031766
 30
0.0
 11
165.8053353353794
 21
-1986.10362031766
 31
0.0
  0
LINE
  5
CC1
330
2
100
AcDbEntity
  8
1
  6
Continuous
 62
     7
100
AcDbLine
 10
165.8053353353794
 20
-1986.10362031766
 30
0.0
 11
172.8053353353794
 21
-1986.10362031766
 31
0.0
  0
LINE
  5
CC2
330
2
100
AcDbEntity
  8
1
  6
Continuous
 62
     7
100
AcDbLine
 10
173.3053353353794
 20
-2018.10362031766
 30
0.0
 11
172.8053353353794
 21
-2017.60362031766
 31
0.0
  0
LINE
  5
CC3
330
2
100
AcDbEntity
  8
1
  6
Continuous
 62
     7
100
AcDbLine
 10
176.3053353353794
 20
-2023.10362031766
 30
0.0
 11
175.8053353353794
 21
-2022.60362031766
 31
0.0
  0
LINE
  5
CC4
330
2
100
AcDbEntity
  8
1
  6
Continuous
 62
     7
100
AcDbLine
 10
173.3053353353794
 20
-2018.10362031766
 30
0.0
 11
175.8053353353794
 21
-2018.10362031766
 31
0.0
  0
LINE
  5
CC5
330
2
100
AcDbEntity
  8
1
  6
Continuous
 62
     7
100
AcDbLine
 10
181.8053353353794
 20
-2013.10362031766
 30
0.0
 11
185.4786677259668
 21
-2013.10362031766
 31
0.0
  0
LINE
  5
CC6
330
2
100
AcDbEntity
  8
1
  6
Continuous
 62
     7
100
AcDbLine
 10
181.8053353353794
 20
-2023.10362031766
 30
0.0
 11
181.8053353353794
 21
-2010.10362031766
 31
0.0
  0
LINE
  5
CC7
330
2
100
AcDbEntity
  8
1
  6
Continuous
 62
     7
100
AcDbLine
 10
176.3053353353794
 20
-1963.10362031766
 30
0.0
 11
194.0006411749756
 21
-1963.103620317659
 31
0.0
  0
LINE
  5
CC8
330
2
100
AcDbEntity
  8
1
  6
Continuous
 62
     7
100
AcDbLine
 10
173.3053353353794
 20
-1968.10362031766
 30
0.0
 11
172.8053353353794
 21
-1968.60362031766
 31
0.0
  0
LINE
  5
CC9
330
2
100
AcDbEntity
  8
1
  6
Continuous
 62
     7
100
AcDbLine
 10
175.8053353353794
 20
-1968.10362031766
 30
0.0
 11
173.3053353353794
 21
-1968.10362031766
 31
0.0
  0
LINE
  5
CCA
330
2
100
AcDbEntity
  8
1
  6
Continuous
 62
     7
100
AcDbLine
 10
176.3053353353794
 20
-1963.10362031766
 30
0.0
 11
175.8053353353794
 21
-1963.60362031766
 31
0.0
  0
LINE
  5
CCB
330
2
100
AcDbEntity
  8
1
  6
Continuous
 62
     7
100
AcDbLine
 10
181.8053353353794
 20
-1976.10362031766
 30
0.0
 11
181.8053353353794
 21
-1963.10362031766
 31
0.0
  0
LINE
  5
CCC
330
2
100
AcDbEntity
  8
1
  6
Continuous
 62
     7
100
AcDbLine
 10
192.2962464851737
 20
-1973.10362031766
 30
0.0
 11
181.8053353353794
 21
-1973.10362031766
 31
0.0
  0
TEXT
  5
E03
330
2
100
AcDbEntity
  8
Object
100
AcDbText
 10
-20.81253319902646
 20
-1821.490098155486
 30
0.0
 40
3.84
  1
（丸軸）
  7
Roman
100
AcDbText
  0
TEXT
  5
E0A
330
2
100
AcDbEntity
  8
text3
100
AcDbText
 10
204.0149604942049
 20
-2012.103700681635
 30
0.0
 40
4.0
  1
Scale
  7
Roman
100
AcDbText
  0
TEXT
  5
E0B
330
2
100
AcDbEntity
  8
text3
100
AcDbText
 10
204.2662227245633
 20
-2019.144595146424
 30
0.0
 40
4.0
  1
単位   [ｍｍ]
  7
Roman
100
AcDbText
  0
TEXT
  5
E1C
330
2
100
AcDbEntity
  8
Object
100
AcDbText
 10
-115.2392154945282
 20
-1951.079170856437
 30
0.0
 40
3.84
  1
Keyway
  7
Roman
100
AcDbText
  0
TEXT
  5
E1D
330
2
100
AcDbEntity
  8
Object
100
AcDbText
 10
-7.185933442163104
 20
-1951.358084586763
 30
0.0
 40
3.84
  1
D-cut
  7
Roman
100
AcDbText
  0
TEXT
  5
E1E
330
2
100
AcDbEntity
  8
Object
100
AcDbText
 10
89.30855555713174
 20
-1951.170375315032
 30
0.0
 40
3.84
  1
Double D-cut
  7
Roman
100
AcDbText
  0
TEXT
  5
E1F
330
2
100
AcDbEntity
  8
text3
100
AcDbText
 10
-99.54205010068347
 20
-2034.201729689434
 30
0.0
 40
3.84
  1
Key
  7
Roman
100
AcDbText
  0
TEXT
  5
E20
330
2
100
AcDbEntity
  8
text3
100
AcDbText
 10
204.2662227245633
 20
-2026.751917919431
 30
0.0
 40
4.0
  1
Unit
  7
Roman
100
AcDbText
  0
TEXT
  5
E22
330
2
100
AcDbEntity
  8
text3
100
AcDbText
 10
204.0149604942049
 20
-2006.39820902514
 30
0.0
 40
4.0
  1
尺度　  １：２　（A4）
  7
Roman
100
AcDbText
  0
TEXT
  5
E28
330
2
100
AcDbEntity
  8
Object
100
AcDbText
 10
-17.22879335213201
 20
-1827.303531677834
 30
0.0
 40
3.84
  1
Round Shaft
  7
Roman
100
AcDbText
  0
ENDSEC
  0
SECTION
  2
OBJECTS
  0
DICTIONARY
  5
7
330
0
100
AcDbDictionary
281
     1
  3
ACAD_GROUP
350
20
  3
ACAD_LAYOUT
350
B
  3
ACAD_MLINESTYLE
350
21
  3
ACAD_PLOTSETTINGS
350
22
  3
ACAD_PLOTSTYLENAME
350
6
  3
AcDbVariableDictionary
350
2F5
  0
DICTIONARY
  5
77B
330
10
100
AcDbDictionary
280
     1
281
     1
  3
ACAD_LAYERSTATES
360
77C
  0
DICTIONARY
  5
20
102
{ACAD_REACTORS
330
7
102
}
330
7
100
AcDbDictionary
281
     1
  0
DICTIONARY
  5
B
102
{ACAD_REACTORS
330
7
102
}
330
7
100
AcDbDictionary
281
     1
  3
Model
350
A
  3
ﾚｲｱｳﾄ1
350
F
  0
DICTIONARY
  5
21
102
{ACAD_REACTORS
330
7
102
}
330
7
100
AcDbDictionary
281
     1
  3
Standard
350
24
  0
DICTIONARY
  5
22
102
{ACAD_REACTORS
330
7
102
}
330
7
100
AcDbDictionary
281
     1
  0
ACDBDICTIONARYWDFLT
  5
6
102
{ACAD_REACTORS
330
7
102
}
330
7
100
AcDbDictionary
281
     1
  3
Normal
350
5
100
AcDbDictionaryWithDefault
340
5
  0
DICTIONARY
  5
2F5
102
{ACAD_REACTORS
330
7
102
}
330
7
100
AcDbDictionary
281
     1
  3
DIMASSOC
350
2F7
  3
HIDETEXT
350
2F6
  0
DICTIONARY
  5
77C
102
{ACAD_REACTORS
330
77B
102
}
330
77B
100
AcDbDictionary
281
     1
  0
LAYOUT
  5
A
102
{ACAD_REACTORS
330
B
102
}
330
B
100
AcDbPlotSettings
  1

  2
クセロPDF
  4
A4
  6

 40
3.174999952316284
 41
3.174999952316284
 42
3.175003051757812
 43
3.17498779296875
 44
209.9733276367187
 45
296.9259948730469
 46
5.53
 47
68.0
 48
-127.1318699829155
 49
-2039.55768870152
140
258.0041898960087
141
-1730.424845280275
142
1.0
143
2.0
 70
 11956
 72
     1
 73
     0
 74
     4
  7
monochrome.ctb
 75
    17
147
0.5
148
127.1318699829155
149
2039.55768870152
100
AcDbLayout
  1
Model
 70
     1
 71
     0
 10
0.0
 20
0.0
 11
12.0
 21
9.0
 12
0.0
 22
0.0
 32
0.0
 14
0.0
 24
0.0
 34
0.0
 15
0.0
 25
0.0
 35
0.0
146
0.0
 13
0.0
 23
0.0
 33
0.0
 16
1.0
 26
0.0
 36
0.0
 17
0.0
 27
1.0
 37
0.0
 76
     0
330
2
  0
LAYOUT
  5
F
102
{ACAD_REACTORS
330
B
102
}
330
B
100
AcDbPlotSettings
  1

  2
\\Epson_lpr\192.168.1.20(LP-8100)
  4

  6

 40
0.0
 41
0.0
 42
0.0
 43
0.0
 44
0.0
 45
0.0
 46
0.0
 47
0.0
 48
0.0
 49
0.0
140
0.0
141
0.0
142
1.0
143
1.0
 70
   688
 72
     0
 73
     0
 74
     5
  7
monochrome.ctb
 75
    16
147
1.0
148
0.0
149
0.0
100
AcDbLayout
  1
ﾚｲｱｳﾄ1
 70
     1
 71
     1
 10
0.0
 20
0.0
 11
12.0
 21
9.0
 12
0.0
 22
0.0
 32
0.0
 14
1.000000000000000E+20
 24
1.000000000000000E+20
 34
1.000000000000000E+20
 15
-1.000000000000000E+20
 25
-1.000000000000000E+20
 35
-1.000000000000000E+20
146
0.0
 13
0.0
 23
0.0
 33
0.0
 16
1.0
 26
0.0
 36
0.0
 17
0.0
 27
1.0
 37
0.0
 76
     0
330
C
  0
MLINESTYLE
  5
24
102
{ACAD_REACTORS
330
21
102
}
330
21
100
AcDbMlineStyle
  2
STANDARD
 70
     0
  3

 62
   256
 51
90.0
 52
90.0
 71
     2
 49
0.5
 62
   256
  6
BYLAYER
 49
-0.5
 62
   256
  6
BYLAYER
  0
ACDBPLACEHOLDER
  5
5
102
{ACAD_REACTORS
330
6
102
}
330
6
  0
DICTIONARYVAR
  5
2F7
102
{ACAD_REACTORS
330
2F5
102
}
330
2F5
100
DictionaryVariables
280
     0
  1
1
  0
DICTIONARYVAR
  5
2F6
102
{ACAD_REACTORS
330
2F5
102
}
330
2F5
100
DictionaryVariables
280
     0
  1
1
  0
ENDSEC
  0
EOF
