  0
SECTION
  2
HEADER
  9
$ACADVER
  1
AC1021
  9
$ACADMAINTVER
 70
    25
  9
$DWGCODEPAGE
  3
ANSI_932
  9
$LASTSAVEDBY
  1
liujie
  9
$INSBASE
 10
0.0
 20
0.0
 30
0.0
  9
$EXTMIN
 10
0.0
 20
-0.0000000000000284
 30
0.0
  9
$EXTMAX
 10
297.0000000000001
 20
210.0
 30
0.0
  9
$LIMMIN
 10
0.5
 20
0.5
  9
$LIMMAX
 10
296.5
 20
209.5
  9
$ORTHOMODE
 70
     1
  9
$REGENMODE
 70
     1
  9
$FILLMODE
 70
     1
  9
$QTEXTMODE
 70
     0
  9
$MIRRTEXT
 70
     1
  9
$LTSCALE
 40
1.0
  9
$ATTMODE
 70
     1
  9
$TEXTSIZE
 40
2.5
  9
$TRACEWID
 40
1.0
  9
$TEXTSTYLE
  7
STANDARD
  9
$CLAYER
  8
DIMS
  9
$CELTYPE
  6
BYLAYER
  9
$CECOLOR
 62
   256
  9
$CELTSCALE
 40
1.0
  9
$DISPSILH
 70
     0
  9
$DIMSCALE
 40
1.0
  9
$DIMASZ
 40
2.5
  9
$DIMEXO
 40
0.65
  9
$DIMDLI
 40
1.0
  9
$DIMRND
 40
0.0
  9
$DIMDLE
 40
0.0
  9
$DIMEXE
 40
0.65
  9
$DIMTP
 40
0.0
  9
$DIMTM
 40
0.0
  9
$DIMTXT
 40
3.0
  9
$DIMCEN
 40
5.0
  9
$DIMTSZ
 40
0.0
  9
$DIMTOL
 70
     0
  9
$DIMLIM
 70
     0
  9
$DIMTIH
 70
     0
  9
$DIMTOH
 70
     0
  9
$DIMSE1
 70
     0
  9
$DIMSE2
 70
     0
  9
$DIMTAD
 70
     1
  9
$DIMZIN
 70
     8
  9
$DIMBLK
  1
Open30
  9
$DIMASO
 70
     1
  9
$DIMSHO
 70
     1
  9
$DIMPOST
  1

  9
$DIMAPOST
  1

  9
$DIMALT
 70
     0
  9
$DIMALTD
 70
     2
  9
$DIMALTF
 40
25.4
  9
$DIMLFAC
 40
1.0
  9
$DIMTOFL
 70
     1
  9
$DIMTVP
 40
0.0
  9
$DIMTIX
 70
     0
  9
$DIMSOXD
 70
     0
  9
$DIMSAH
 70
     0
  9
$DIMBLK1
  1

  9
$DIMBLK2
  1

  9
$DIMSTYLE
  2
STANDARD
  9
$DIMCLRD
 70
   256
  9
$DIMCLRE
 70
   256
  9
$DIMCLRT
 70
     7
  9
$DIMTFAC
 40
1.0
  9
$DIMGAP
 40
0.65
  9
$DIMJUST
 70
     0
  9
$DIMSD1
 70
     0
  9
$DIMSD2
 70
     0
  9
$DIMTOLJ
 70
     1
  9
$DIMTZIN
 70
     0
  9
$DIMALTZ
 70
     0
  9
$DIMALTTZ
 70
     0
  9
$DIMUPT
 70
     0
  9
$DIMDEC
 70
     3
  9
$DIMTDEC
 70
     4
  9
$DIMALTU
 70
     2
  9
$DIMALTTD
 70
     2
  9
$DIMTXSTY
  7
STANDARD
  9
$DIMAUNIT
 70
     0
  9
$DIMADEC
 70
     2
  9
$DIMALTRND
 40
0.0
  9
$DIMAZIN
 70
     2
  9
$DIMDSEP
 70
    46
  9
$DIMATFIT
 70
     3
  9
$DIMFRAC
 70
     0
  9
$DIMLDRBLK
  1
Open30
  9
$DIMLUNIT
 70
     2
  9
$DIMLWD
 70
    -1
  9
$DIMLWE
 70
    -1
  9
$DIMTMOVE
 70
     0
  9
$DIMFXL
 40
1.0
  9
$DIMFXLON
 70
     0
  9
$DIMJOGANG
 40
0.7853981633974483
  9
$DIMTFILL
 70
     0
  9
$DIMTFILLCLR
 70
     0
  9
$DIMARCSYM
 70
     0
  9
$DIMLTYPE
  6
BYLAYER
  9
$DIMLTEX1
  6

  9
$DIMLTEX2
  6

  9
$LUNITS
 70
     2
  9
$LUPREC
 70
     4
  9
$SKETCHINC
 40
1.0
  9
$FILLETRAD
 40
10.0
  9
$AUNITS
 70
     0
  9
$AUPREC
 70
     0
  9
$MENU
  1
.
  9
$ELEVATION
 40
0.0
  9
$PELEVATION
 40
0.0
  9
$THICKNESS
 40
0.0
  9
$LIMCHECK
 70
     0
  9
$CHAMFERA
 40
2.0
  9
$CHAMFERB
 40
2.0
  9
$CHAMFERC
 40
20.0
  9
$CHAMFERD
 40
0.0
  9
$SKPOLY
 70
     0
  9
$TDCREATE
 40
2454036.711772419
  9
$TDUCREATE
 40
2454036.336772419
  9
$TDUPDATE
 40
2459172.4331914
  9
$TDUUPDATE
 40
2459172.0581914
  9
$TDINDWG
 40
0.0040578009
  9
$TDUSRTIMER
 40
0.0004498843
  9
$USRTIMER
 70
     1
  9
$ANGBASE
 50
0.0
  9
$ANGDIR
 70
     0
  9
$PDMODE
 70
     0
  9
$PDSIZE
 40
0.0
  9
$PLINEWID
 40
0.0
  9
$SPLFRAME
 70
     0
  9
$SPLINETYPE
 70
     6
  9
$SPLINESEGS
 70
     8
  9
$HANDSEED
  5
3A0
  9
$SURFTAB1
 70
     6
  9
$SURFTAB2
 70
     6
  9
$SURFTYPE
 70
     6
  9
$SURFU
 70
     6
  9
$SURFV
 70
     6
  9
$UCSBASE
  2

  9
$UCSNAME
  2

  9
$UCSORG
 10
0.0
 20
0.0
 30
0.0
  9
$UCSXDIR
 10
1.0
 20
0.0
 30
0.0
  9
$UCSYDIR
 10
0.0
 20
1.0
 30
0.0
  9
$UCSORTHOREF
  2

  9
$UCSORTHOVIEW
 70
     0
  9
$UCSORGTOP
 10
0.0
 20
0.0
 30
0.0
  9
$UCSORGBOTTOM
 10
0.0
 20
0.0
 30
0.0
  9
$UCSORGLEFT
 10
0.0
 20
0.0
 30
0.0
  9
$UCSORGRIGHT
 10
0.0
 20
0.0
 30
0.0
  9
$UCSORGFRONT
 10
0.0
 20
0.0
 30
0.0
  9
$UCSORGBACK
 10
0.0
 20
0.0
 30
0.0
  9
$PUCSBASE
  2

  9
$PUCSNAME
  2

  9
$PUCSORG
 10
0.0
 20
0.0
 30
0.0
  9
$PUCSXDIR
 10
1.0
 20
0.0
 30
0.0
  9
$PUCSYDIR
 10
0.0
 20
1.0
 30
0.0
  9
$PUCSORTHOREF
  2

  9
$PUCSORTHOVIEW
 70
     0
  9
$PUCSORGTOP
 10
0.0
 20
0.0
 30
0.0
  9
$PUCSORGBOTTOM
 10
0.0
 20
0.0
 30
0.0
  9
$PUCSORGLEFT
 10
0.0
 20
0.0
 30
0.0
  9
$PUCSORGRIGHT
 10
0.0
 20
0.0
 30
0.0
  9
$PUCSORGFRONT
 10
0.0
 20
0.0
 30
0.0
  9
$PUCSORGBACK
 10
0.0
 20
0.0
 30
0.0
  9
$USERI1
 70
     0
  9
$USERI2
 70
     0
  9
$USERI3
 70
     0
  9
$USERI4
 70
     0
  9
$USERI5
 70
     0
  9
$USERR1
 40
0.0
  9
$USERR2
 40
0.0
  9
$USERR3
 40
0.0
  9
$USERR4
 40
0.0
  9
$USERR5
 40
0.0
  9
$WORLDVIEW
 70
     1
  9
$SHADEDGE
 70
     3
  9
$SHADEDIF
 70
    70
  9
$TILEMODE
 70
     1
  9
$MAXACTVP
 70
    64
  9
$PINSBASE
 10
0.0
 20
0.0
 30
0.0
  9
$PLIMCHECK
 70
     0
  9
$PEXTMIN
 10
0.0
 20
0.0
 30
0.0
  9
$PEXTMAX
 10
594.0
 20
420.0
 30
0.0
  9
$PLIMMIN
 10
0.0
 20
0.0
  9
$PLIMMAX
 10
0.0
 20
0.0
  9
$UNITMODE
 70
     0
  9
$VISRETAIN
 70
     1
  9
$PLINEGEN
 70
     0
  9
$PSLTSCALE
 70
     1
  9
$TREEDEPTH
 70
  3020
  9
$CMLSTYLE
  2
STANDARD
  9
$CMLJUST
 70
     0
  9
$CMLSCALE
 40
20.0
  9
$PROXYGRAPHICS
 70
     1
  9
$MEASUREMENT
 70
     1
  9
$CELWEIGHT
370
    -1
  9
$ENDCAPS
280
     0
  9
$JOINSTYLE
280
     0
  9
$LWDISPLAY
290
     1
  9
$INSUNITS
 70
     4
  9
$HYPERLINKBASE
  1

  9
$STYLESHEET
  1
monochrome.ctb
  9
$XEDIT
290
     1
  9
$CEPSNTYPE
380
     0
  9
$PSTYLEMODE
290
     1
  9
$FINGERPRINTGUID
  2
{82FD4B47-A590-11D2-9A33-0060089B3A3F}
  9
$VERSIONGUID
  2
{9F9256D1-6E4B-4D58-B2EE-145D339BB681}
  9
$EXTNAMES
290
     1
  9
$PSVPSCALE
 40
0.0
  9
$OLESTARTUP
290
     0
  9
$SORTENTS
280
   127
  9
$INDEXCTL
280
     0
  9
$HIDETEXT
280
     1
  9
$XCLIPFRAME
290
     0
  9
$HALOGAP
280
     0
  9
$OBSCOLOR
 70
   257
  9
$OBSLTYPE
280
     0
  9
$INTERSECTIONDISPLAY
280
     0
  9
$INTERSECTIONCOLOR
 70
   257
  9
$DIMASSOC
280
     2
  9
$PROJECTNAME
  1

  9
$CAMERADISPLAY
290
     0
  9
$LENSLENGTH
 40
50.0
  9
$CAMERAHEIGHT
 40
0.0
  9
$STEPSPERSEC
 40
2.0
  9
$STEPSIZE
 40
6.0
  9
$3DDWFPREC
 40
2.0
  9
$PSOLWIDTH
 40
0.25
  9
$PSOLHEIGHT
 40
4.0
  9
$LOFTANG1
 40
1.570796326794897
  9
$LOFTANG2
 40
1.570796326794897
  9
$LOFTMAG1
 40
0.0
  9
$LOFTMAG2
 40
0.0
  9
$LOFTPARAM
 70
     7
  9
$LOFTNORMALS
280
     1
  9
$LATITUDE
 40
37.795
  9
$LONGITUDE
 40
-122.394
  9
$NORTHDIRECTION
 40
0.0
  9
$TIMEZONE
 70
 -8000
  9
$LIGHTGLYPHDISPLAY
280
     1
  9
$TILEMODELIGHTSYNCH
280
     1
  9
$SOLIDHIST
280
     1
  9
$SHOWHIST
280
     1
  9
$DWFFRAME
280
     2
  9
$DGNFRAME
280
     2
  9
$REALWORLDSCALE
290
     1
  9
$INTERFERECOLOR
 62
   256
  9
$CSHADOW
280
     0
  9
$SHADOWPLANELOCATION
 40
0.0
  0
ENDSEC
  0
SECTION
  2
CLASSES
  0
CLASS
  1
ACDBDICTIONARYWDFLT
  2
AcDbDictionaryWithDefault
  3
ObjectDBX Classes
 90
        0
 91
        3
280
     0
281
     0
  0
CLASS
  1
MATERIAL
  2
AcDbMaterial
  3
ObjectDBX Classes
 90
     1153
 91
        3
280
     0
281
     0
  0
CLASS
  1
VISUALSTYLE
  2
AcDbVisualStyle
  3
ObjectDBX Classes
 90
     4095
 91
        3
280
     0
281
     0
  0
CLASS
  1
SUN
  2
AcDbSun
  3
SCENEOE
 90
     1153
 91
        3
280
     0
281
     0
  0
CLASS
  1
SCALE
  2
AcDbScale
  3
ObjectDBX Classes
 90
     1153
 91
        3
280
     0
281
     0
  0
CLASS
  1
DIMASSOC
  2
AcDbDimAssoc
  3
"AcDbDimAssoc|Product Desc:     AcDim ARX App For Dimension|Company:          Autodesk, Inc.|WEB Address:      www.autodesk.com"
 90
        0
 91
        3
280
     0
281
     0
  0
CLASS
  1
ACAD_TABLE
  2
AcDbTable
  3
ObjectDBX Classes
 90
     1025
 91
        3
280
     0
281
     1
  0
CLASS
  1
TABLESTYLE
  2
AcDbTableStyle
  3
ObjectDBX Classes
 90
     4095
 91
        3
280
     0
281
     0
  0
CLASS
  1
BREAKDATA
  2
AcDbBreakData
  3
ObjectDBX Classes
 90
     1024
 91
        3
280
     0
281
     0
  0
CLASS
  1
DICTIONARYVAR
  2
AcDbDictionaryVar
  3
ObjectDBX Classes
 90
        0
 91
        3
280
     0
281
     0
  0
CLASS
  1
CELLSTYLEMAP
  2
AcDbCellStyleMap
  3
ObjectDBX Classes
 90
     1152
 91
        3
280
     0
281
     0
  0
CLASS
  1
TABLEGEOMETRY
  2
AcDbTableGeometry
  3
ObjectDBX Classes
 90
     1152
 91
        3
280
     0
281
     0
  0
CLASS
  1
MLEADERSTYLE
  2
AcDbMLeaderStyle
  3
ACDB_MLEADERSTYLE_CLASS
 90
     4095
 91
        3
280
     0
281
     0
  0
CLASS
  1
SORTENTSTABLE
  2
AcDbSortentsTable
  3
ObjectDBX Classes
 90
        0
 91
        3
280
     0
281
     0
  0
ENDSEC
  0
SECTION
  2
TABLES
  0
TABLE
  2
VPORT
  5
30
330
0
100
AcDbSymbolTable
 70
     1
  0
VPORT
  5
35
330
30
100
AcDbSymbolTableRecord
100
AcDbViewportTableRecord
  2
*Active
 70
     0
 10
0.0
 20
0.0
 11
1.0
 21
1.0
 12
148.5000000000001
 22
105.0
 13
0.0
 23
0.0
 14
10.0
 24
10.0
 15
10.0
 25
10.0
 16
0.0
 26
0.0
 36
1.0
 17
0.0
 27
0.0
 37
0.0
 40
214.2
 41
1.677047289504037
 42
50.0
 43
0.0
 44
0.0
 50
0.0
 51
0.0
 71
    16
 72
   100
 73
     1
 74
     3
 75
     0
 76
     0
 77
     0
 78
     0
281
     0
 65
     1
110
0.0
120
0.0
130
0.0
111
1.0
121
0.0
131
0.0
112
0.0
122
1.0
132
0.0
 79
     0
146
0.0
348
36
 60
     3
 61
     5
292
     1
282
     1
141
0.0
142
0.0
 63
   256
361
37
  0
ENDTAB
  0
TABLE
  2
LTYPE
  5
E
330
0
100
AcDbSymbolTable
 70
     1
  0
LTYPE
  5
F
330
E
100
AcDbSymbolTableRecord
100
AcDbLinetypeTableRecord
  2
BYBLOCK
 70
     0
  3

 72
    65
 73
     0
 40
0.0
  0
LTYPE
  5
10
330
E
100
AcDbSymbolTableRecord
100
AcDbLinetypeTableRecord
  2
BYLAYER
 70
     0
  3

 72
    65
 73
     0
 40
0.0
  0
LTYPE
  5
D
330
E
100
AcDbSymbolTableRecord
100
AcDbLinetypeTableRecord
  2
CONTINUOUS
 70
     0
  3
Solid line
 72
    65
 73
     0
 40
0.0
  0
ENDTAB
  0
TABLE
  2
LAYER
  5
2
102
{ACAD_XDICTIONARY
360
3
102
}
330
0
100
AcDbSymbolTable
 70
     4
  0
LAYER
  5
1F
330
2
100
AcDbSymbolTableRecord
100
AcDbLayerTableRecord
  2
0
 70
     0
 62
     7
  6
CONTINUOUS
370
    -3
390
8
347
B
  0
LAYER
  5
62
330
2
100
AcDbSymbolTableRecord
100
AcDbLayerTableRecord
  2
OBJECT
 70
     0
 62
     7
  6
CONTINUOUS
370
    30
390
8
347
B
  0
LAYER
  5
1
330
2
100
AcDbSymbolTableRecord
100
AcDbLayerTableRecord
  2
DIMS
 70
     0
 62
     6
  6
CONTINUOUS
370
    -3
390
8
347
B
  0
LAYER
  5
5F
330
2
100
AcDbSymbolTableRecord
100
AcDbLayerTableRecord
  2
Defpoints
 70
     0
 62
     2
  6
CONTINUOUS
290
     0
370
    -3
390
8
347
B
  0
ENDTAB
  0
TABLE
  2
STYLE
  5
12
330
0
100
AcDbSymbolTable
 70
     2
  0
STYLE
  5
11
330
12
100
AcDbSymbolTableRecord
100
AcDbTextStyleTableRecord
  2
STANDARD
 70
     0
 40
2.5
 41
1.0
 50
0.0
 71
     0
 42
2.5
  3
simplex.shx
  4
bigfont.shx
  0
STYLE
  5
BC
330
12
100
AcDbSymbolTableRecord
100
AcDbTextStyleTableRecord
  2
Bom
 70
     0
 40
2.5
 41
0.8500000000000001
 50
0.0
 71
     0
 42
2.5
  3
romans.shx
  4
bigfont.shx
  0
ENDTAB
  0
TABLE
  2
VIEW
  5
2E
330
0
100
AcDbSymbolTable
 70
     0
  0
ENDTAB
  0
TABLE
  2
UCS
  5
2F
330
0
100
AcDbSymbolTable
 70
     0
  0
ENDTAB
  0
TABLE
  2
APPID
  5
7
330
0
100
AcDbSymbolTable
 70
     4
  0
APPID
  5
6
330
7
100
AcDbSymbolTableRecord
100
AcDbRegAppTableRecord
  2
ACAD
 70
     0
  0
APPID
  5
18F
330
7
100
AcDbSymbolTableRecord
100
AcDbRegAppTableRecord
  2
ENABLE_CUSTOM_SPLIT
 70
     0
  0
APPID
  5
20D
330
7
100
AcDbSymbolTableRecord
100
AcDbRegAppTableRecord
  2
ACAD_MLEADERVER
 70
     0
  0
APPID
  5
277
330
7
100
AcDbSymbolTableRecord
100
AcDbRegAppTableRecord
  2
PLOTTRANSPARENCY
 70
     0
  0
ENDTAB
  0
TABLE
  2
DIMSTYLE
  5
14
330
0
100
AcDbSymbolTable
 70
     6
100
AcDbDimStyleTable
  0
DIMSTYLE
105
13
102
{ACAD_REACTORS
330
A9
330
17F
330
190
330
1A0
330
1B0
102
}
330
14
100
AcDbSymbolTableRecord
100
AcDbDimStyleTableRecord
  2
STANDARD
 70
     0
 41
2.5
 42
0.65
 43
1.0
 44
0.65
 73
     0
 74
     0
 77
     1
 78
     8
 79
     2
140
3.0
141
5.0
147
0.65
172
     1
176
   256
177
   256
271
     3
178
     7
179
     2
271
     3
340
11
341
19
342
19
371
    -1
372
    -1
345
10
  0
DIMSTYLE
105
18
330
14
100
AcDbSymbolTableRecord
100
AcDbDimStyleTableRecord
  2
DIMSTYLE_9
 70
     0
  3
%%c<>
 41
4.0
 42
0.625
 44
0.625
 47
0.03
 48
0.03000000003
 73
     0
 74
     0
 77
     1
 78
     8
140
3.0
146
0.7
147
0.625
172
     1
178
     0
271
     3
272
     3
284
     8
340
11
  0
DIMSTYLE
105
17
330
14
100
AcDbSymbolTableRecord
100
AcDbDimStyleTableRecord
  2
ISO-25
 70
     0
 41
2.5
 42
0.625
 43
3.75
 44
1.25
 73
     0
 74
     0
 77
     1
 78
     8
140
2.5
141
2.5
143
0.03937007874016
147
0.625
171
     3
172
     1
178
     0
271
     2
272
     2
274
     3
278
    44
283
     0
284
     8
340
11
  0
DIMSTYLE
105
16
330
14
100
AcDbSymbolTableRecord
100
AcDbDimStyleTableRecord
  2
DIMSTYLE_3
 70
     0
  3
□<>
 41
4.0
 42
0.625
 44
0.625
 47
0.3
 48
0.3000000003
 73
     0
 74
     0
 77
     1
 78
     8
140
3.0
147
0.625
172
     1
178
     0
271
     3
272
     3
284
     8
340
11
  0
DIMSTYLE
105
15
330
14
100
AcDbSymbolTableRecord
100
AcDbDimStyleTableRecord
  2
DIMSTYLE_4
 70
     0
 41
4.0
 42
0.625
 44
0.625
 47
0.5
 71
     1
 73
     0
 74
     0
 77
     1
 78
     8
140
3.0
146
0.7
147
0.625
172
     1
178
     0
271
     3
272
     3
284
     8
289
     0
340
11
  0
DIMSTYLE
105
1EE
330
14
100
AcDbSymbolTableRecord
100
AcDbDimStyleTableRecord
  2
DIMSTYLE_6
 70
     0
  3
%%c<> G6
 41
4.0
 42
0.625
 44
0.625
 47
0.025
 48
-0.009
 71
     1
 73
     0
 74
     0
 77
     1
 78
     8
140
3.0
146
0.7
147
0.625
172
     1
178
     0
271
     3
272
     3
284
     8
289
     1
340
11
  0
ENDTAB
  0
TABLE
  2
BLOCK_RECORD
  5
1A
330
0
100
AcDbSymbolTable
 70
    22
  0
BLOCK_RECORD
  5
1B
102
{ACAD_XDICTIONARY
360
1C
102
}
330
1A
100
AcDbSymbolTableRecord
100
AcDbBlockTableRecord
  2
*MODEL_SPACE
340
21
 70
     0
280
     1
281
     0
  0
BLOCK_RECORD
  5
23
330
1A
100
AcDbSymbolTableRecord
100
AcDbBlockTableRecord
  2
*PAPER_SPACE
340
26
 70
     0
280
     1
281
     0
  0
BLOCK_RECORD
  5
19
330
1A
100
AcDbSymbolTableRecord
100
AcDbBlockTableRecord
  2
_Open30
340
0
102
{BLKREFS
331
B1
331
B2
331
188
331
189
331
19B
331
19C
331
1A9
331
1AA
331
0
331
1BB
331
285
331
286
331
299
331
29A
331
2B0
331
2B1
331
2C1
331
2C2
331
2D0
331
2D1
331
2E0
331
2E1
331
315
331
316
331
326
331
327
331
338
331
339
331
348
331
349
331
35A
331
35B
331
36A
331
36B
331
37B
331
37C
102
}
 70
     0
280
     1
281
     0
  0
BLOCK_RECORD
  5
75
102
{ACAD_XDICTIONARY
360
30A
102
}
330
1A
100
AcDbSymbolTableRecord
100
AcDbBlockTableRecord
  2
XADR-12V_b
340
0
102
{BLKREFS
331
74
102
}
 70
     4
280
     1
281
     0
  0
BLOCK_RECORD
  5
AC
330
1A
100
AcDbSymbolTableRecord
100
AcDbBlockTableRecord
  2
*D2
340
0
 70
     0
280
     1
281
     0
  0
BLOCK_RECORD
  5
B9
330
1A
100
AcDbSymbolTableRecord
100
AcDbBlockTableRecord
  2
*T3
340
0
102
{BLKREFS
331
B8
102
}
 70
     0
280
     1
281
     0
  0
BLOCK_RECORD
  5
D6
330
1A
100
AcDbSymbolTableRecord
100
AcDbBlockTableRecord
  2
XADR-12V‗ｌ
340
0
102
{BLKREFS
331
D5
102
}
 70
     4
280
     1
281
     1
  0
BLOCK_RECORD
  5
183
330
1A
100
AcDbSymbolTableRecord
100
AcDbBlockTableRecord
  2
*D5
340
0
 70
     0
280
     1
281
     0
  0
BLOCK_RECORD
  5
194
330
1A
100
AcDbSymbolTableRecord
100
AcDbBlockTableRecord
  2
*D6
340
0
 70
     0
280
     1
281
     0
  0
BLOCK_RECORD
  5
1A4
330
1A
100
AcDbSymbolTableRecord
100
AcDbBlockTableRecord
  2
*D7
340
0
 70
     0
280
     1
281
     0
  0
BLOCK_RECORD
  5
1B4
330
1A
100
AcDbSymbolTableRecord
100
AcDbBlockTableRecord
  2
*D8
340
0
 70
     0
280
     1
281
     0
  0
BLOCK_RECORD
  5
27F
330
1A
100
AcDbSymbolTableRecord
100
AcDbBlockTableRecord
  2
*D9
340
0
 70
     0
280
     1
281
     0
  0
BLOCK_RECORD
  5
294
330
1A
100
AcDbSymbolTableRecord
100
AcDbBlockTableRecord
  2
*D10
340
0
 70
     0
280
     1
281
     0
  0
BLOCK_RECORD
  5
2AA
330
1A
100
AcDbSymbolTableRecord
100
AcDbBlockTableRecord
  2
*D11
340
0
 70
     0
280
     1
281
     0
  0
BLOCK_RECORD
  5
2BA
330
1A
100
AcDbSymbolTableRecord
100
AcDbBlockTableRecord
  2
*D12
340
0
 70
     0
280
     1
281
     0
  0
BLOCK_RECORD
  5
2CB
330
1A
100
AcDbSymbolTableRecord
100
AcDbBlockTableRecord
  2
*D13
340
0
 70
     0
280
     1
281
     0
  0
BLOCK_RECORD
  5
2DB
330
1A
100
AcDbSymbolTableRecord
100
AcDbBlockTableRecord
  2
*D14
340
0
 70
     0
280
     1
281
     0
  0
BLOCK_RECORD
  5
30F
330
1A
100
AcDbSymbolTableRecord
100
AcDbBlockTableRecord
  2
*D15
340
0
 70
     0
280
     1
281
     0
  0
BLOCK_RECORD
  5
31F
330
1A
100
AcDbSymbolTableRecord
100
AcDbBlockTableRecord
  2
*D16
340
0
 70
     0
280
     1
281
     0
  0
BLOCK_RECORD
  5
331
330
1A
100
AcDbSymbolTableRecord
100
AcDbBlockTableRecord
  2
*D17
340
0
 70
     0
280
     1
281
     0
  0
BLOCK_RECORD
  5
342
330
1A
100
AcDbSymbolTableRecord
100
AcDbBlockTableRecord
  2
*D18
340
0
 70
     0
280
     1
281
     0
  0
BLOCK_RECORD
  5
354
330
1A
100
AcDbSymbolTableRecord
100
AcDbBlockTableRecord
  2
*D19
340
0
 70
     0
280
     1
281
     0
  0
BLOCK_RECORD
  5
364
330
1A
100
AcDbSymbolTableRecord
100
AcDbBlockTableRecord
  2
*D20
340
0
 70
     0
280
     1
281
     0
  0
BLOCK_RECORD
  5
375
330
1A
100
AcDbSymbolTableRecord
100
AcDbBlockTableRecord
  2
*D21
340
0
 70
     0
280
     1
281
     0
  0
ENDTAB
  0
ENDSEC
  0
SECTION
  2
BLOCKS
  0
BLOCK
  5
1E
330
1B
100
AcDbEntity
  8
0
100
AcDbBlockBegin
  2
*MODEL_SPACE
 70
     0
 10
0.0
 20
0.0
 30
0.0
  3
*MODEL_SPACE
  1
*MODEL_SPACE
  0
ENDBLK
  5
20
330
1B
100
AcDbEntity
  8
0
100
AcDbBlockEnd
  0
BLOCK
  5
24
330
23
100
AcDbEntity
 67
     1
  8
0
100
AcDbBlockBegin
  2
*PAPER_SPACE
 70
     0
 10
0.0
 20
0.0
 30
0.0
  3
*PAPER_SPACE
  1
*PAPER_SPACE
  0
ENDBLK
  5
25
330
23
100
AcDbEntity
 67
     1
  8
0
100
AcDbBlockEnd
  0
BLOCK
  5
27
330
19
100
AcDbEntity
  8
0
100
AcDbBlockBegin
  2
_Open30
 70
     0
 10
0.0
 20
0.0
 30
0.0
  3
_Open30
  1
_Open30
  0
LINE
  5
28
330
19
100
AcDbEntity
  8
0
  6
ByBlock
 62
     0
370
    -2
100
AcDbLine
 10
-1.0
 20
0.26794919
 30
0.0
 11
0.0
 21
0.0
 31
0.0
  0
LINE
  5
29
330
19
100
AcDbEntity
  8
0
  6
ByBlock
 62
     0
370
    -2
100
AcDbLine
 10
0.0
 20
0.0
 30
0.0
 11
-1.0
 21
-0.26794919
 31
0.0
  0
LINE
  5
2A
330
19
100
AcDbEntity
  8
0
  6
ByBlock
 62
     0
370
    -2
100
AcDbLine
 10
0.0
 20
0.0
 30
0.0
 11
-1.0
 21
0.0
 31
0.0
  0
ENDBLK
  5
2B
330
19
100
AcDbEntity
  8
0
100
AcDbBlockEnd
  0
BLOCK
  5
76
330
75
100
AcDbEntity
  8
0
100
AcDbBlockBegin
  2
XADR-12V_b
 70
     0
 10
0.0
 20
0.0
 30
0.0
  3
XADR-12V_b
  1

  0
LINE
  5
77
330
75
100
AcDbEntity
  8
OBJECT
100
AcDbLine
 10
-3.75
 20
-20.80000000000004
 30
0.0
 11
-3.75
 21
-21.50000000000006
 31
0.0
  0
LINE
  5
78
330
75
100
AcDbEntity
  8
OBJECT
100
AcDbLine
 10
-8.75
 20
-6.05000000000004
 30
0.0
 11
-6.850000000000023
 21
-6.05000000000004
 31
0.0
  0
LINE
  5
79
330
75
100
AcDbEntity
  8
OBJECT
100
AcDbLine
 10
-6.850000000000023
 20
-6.05000000000004
 30
0.0
 11
-6.850000000000023
 21
-11.20000000000005
 31
0.0
  0
LINE
  5
7A
330
75
100
AcDbEntity
  8
OBJECT
100
AcDbLine
 10
-6.850000000000023
 20
-11.20000000000005
 30
0.0
 11
6.850000000000023
 21
-11.20000000000005
 31
0.0
  0
LINE
  5
7B
330
75
100
AcDbEntity
  8
OBJECT
100
AcDbLine
 10
6.850000000000023
 20
-11.20000000000005
 30
0.0
 11
6.850000000000023
 21
-6.05000000000004
 31
0.0
  0
LINE
  5
7C
330
75
100
AcDbEntity
  8
OBJECT
100
AcDbLine
 10
6.850000000000023
 20
-6.05000000000004
 30
0.0
 11
8.75
 21
-6.05000000000004
 31
0.0
  0
LINE
  5
7D
330
75
100
AcDbEntity
  8
OBJECT
100
AcDbLine
 10
3.75
 20
-20.80000000000004
 30
0.0
 11
-3.75
 21
-20.80000000000004
 31
0.0
  0
LINE
  5
7E
330
75
100
AcDbEntity
  8
OBJECT
100
AcDbLine
 10
8.75
 20
-21.50000000000006
 30
0.0
 11
3.75
 21
-21.50000000000006
 31
0.0
  0
LINE
  5
7F
330
75
100
AcDbEntity
  8
OBJECT
100
AcDbLine
 10
8.75
 20
-6.05000000000004
 30
0.0
 11
8.75
 21
-21.50000000000006
 31
0.0
  0
LINE
  5
80
330
75
100
AcDbEntity
  8
OBJECT
100
AcDbLine
 10
-3.75
 20
-21.50000000000006
 30
0.0
 11
-8.75
 21
-21.50000000000006
 31
0.0
  0
LINE
  5
81
330
75
100
AcDbEntity
  8
OBJECT
100
AcDbLine
 10
3.75
 20
-20.80000000000004
 30
0.0
 11
3.75
 21
-21.50000000000006
 31
0.0
  0
LINE
  5
82
330
75
100
AcDbEntity
  8
OBJECT
100
AcDbLine
 10
-8.75
 20
-6.05000000000004
 30
0.0
 11
-8.75
 21
-21.50000000000006
 31
0.0
  0
LINE
  5
83
330
75
100
AcDbEntity
  8
OBJECT
100
AcDbLine
 10
-7.949999999999989
 20
-6.05000000000004
 30
0.0
 11
-7.949999999999989
 21
0.0
 31
0.0
  0
LINE
  5
85
330
75
100
AcDbEntity
  8
OBJECT
100
AcDbLine
 10
-8.75
 20
-6.05000000000004
 30
0.0
 11
-8.75
 21
0.0
 31
0.0
  0
LINE
  5
86
330
75
100
AcDbEntity
  8
OBJECT
100
AcDbLine
 10
8.75
 20
-2.100000000000023
 30
0.0
 11
8.75
 21
0.0
 31
0.0
  0
LINE
  5
87
330
75
100
AcDbEntity
  8
OBJECT
100
AcDbLine
 10
9.75
 20
-2.100000000000023
 30
0.0
 11
8.75
 21
-2.100000000000023
 31
0.0
  0
LINE
  5
88
330
75
100
AcDbEntity
  8
OBJECT
100
AcDbLine
 10
11.69999999999998
 20
-5.477499074759322
 30
0.0
 11
9.75
 21
-2.100000000000023
 31
0.0
  0
LINE
  5
89
330
75
100
AcDbEntity
  8
OBJECT
100
AcDbLine
 10
11.69999999999998
 20
-7.30000000000004
 30
0.0
 11
11.69999999999998
 21
-5.477499074759322
 31
0.0
  0
LINE
  5
8A
330
75
100
AcDbEntity
  8
OBJECT
100
AcDbLine
 10
8.75
 20
-7.30000000000004
 30
0.0
 11
11.69999999999998
 21
-7.30000000000004
 31
0.0
  0
LINE
  5
8B
330
75
100
AcDbEntity
  8
OBJECT
100
AcDbLine
 10
8.75
 20
0.0
 30
0.0
 11
-8.750000000000014
 21
0.0
 31
0.0
  0
LINE
  5
8C
330
75
100
AcDbEntity
  8
OBJECT
100
AcDbLine
 10
-11.69999999999999
 20
-7.30000000000004
 30
0.0
 11
-8.75
 21
-7.30000000000004
 31
0.0
  0
LINE
  5
8D
330
75
100
AcDbEntity
  8
OBJECT
100
AcDbLine
 10
-11.69999999999999
 20
-5.477499074759322
 30
0.0
 11
-11.69999999999999
 21
-7.30000000000004
 31
0.0
  0
LINE
  5
8E
330
75
100
AcDbEntity
  8
OBJECT
100
AcDbLine
 10
-9.749999999999996
 20
-2.100000000000023
 30
0.0
 11
-11.69999999999999
 21
-5.477499074759322
 31
0.0
  0
LINE
  5
8F
330
75
100
AcDbEntity
  8
OBJECT
100
AcDbLine
 10
-8.75
 20
-2.100000000000023
 30
0.0
 11
-9.749999999999996
 21
-2.100000000000023
 31
0.0
  0
LINE
  5
90
330
75
100
AcDbEntity
  8
OBJECT
100
AcDbLine
 10
-11.94999999999999
 20
-10.55000000000004
 30
0.0
 11
-10.94999999999999
 21
-7.30000000000004
 31
0.0
  0
LINE
  5
91
330
75
100
AcDbEntity
  8
OBJECT
100
AcDbLine
 10
-8.75
 20
-17.10000000000005
 30
0.0
 11
-11.94999999999999
 21
-10.55000000000004
 31
0.0
  0
LINE
  5
92
330
75
100
AcDbEntity
  8
OBJECT
100
AcDbLine
 10
10.94999999999998
 20
-7.30000000000004
 30
0.0
 11
11.94999999999998
 21
-10.55000000000004
 31
0.0
  0
LINE
  5
93
330
75
100
AcDbEntity
  8
OBJECT
100
AcDbLine
 10
11.94999999999998
 20
-10.55000000000004
 30
0.0
 11
8.75
 21
-17.10000000000005
 31
0.0
  0
LINE
  5
94
330
75
100
AcDbEntity
  8
OBJECT
100
AcDbLine
 10
-3.199999999999989
 20
-21.50000000000006
 30
0.0
 11
-3.199999999999989
 21
-20.80000000000004
 31
0.0
  0
LINE
  5
95
330
75
100
AcDbEntity
  8
OBJECT
100
AcDbLine
 10
3.199999999999989
 20
-20.80000000000004
 30
0.0
 11
3.199999999999989
 21
-21.50000000000006
 31
0.0
  0
LINE
  5
96
330
75
100
AcDbEntity
  8
OBJECT
100
AcDbLine
 10
-3.199999999999989
 20
-21.50000000000006
 30
0.0
 11
3.199999999999989
 21
-21.50000000000006
 31
0.0
  0
ENDBLK
  5
97
330
75
100
AcDbEntity
  8
0
100
AcDbBlockEnd
  0
BLOCK
  5
AD
330
AC
100
AcDbEntity
  8
0
100
AcDbBlockBegin
  2
*D2
 70
     1
 10
0.0
 20
0.0
 30
0.0
  3
*D2
  1

  0
LINE
  5
AE
330
AC
100
AcDbEntity
  8
DIMS
100
AcDbLine
 10
105.0
 20
134.4
 30
0.0
 11
105.0
 21
149.0624888816166
 31
0.0
  0
LINE
  5
AF
330
AC
100
AcDbEntity
  8
DIMS
100
AcDbLine
 10
237.0
 20
127.3459795856546
 30
0.0
 11
237.0
 21
149.0624888816166
 31
0.0
  0
LINE
  5
B0
330
AC
100
AcDbEntity
  8
DIMS
100
AcDbLine
 10
107.5
 20
148.4124888816166
 30
0.0
 11
234.5
 21
148.4124888816166
 31
0.0
  0
INSERT
  5
B1
330
AC
100
AcDbEntity
  8
DIMS
100
AcDbBlockReference
  2
_Open30
 10
105.0
 20
148.4124888816166
 30
0.0
 41
2.5
 42
2.5
 43
2.5
 50
180.0
  0
INSERT
  5
B2
330
AC
100
AcDbEntity
  8
DIMS
100
AcDbBlockReference
  2
_Open30
 10
237.0
 20
148.4124888816166
 30
0.0
 41
2.5
 42
2.5
 43
2.5
  0
MTEXT
  5
B3
330
AC
100
AcDbEntity
  8
DIMS
 62
     7
100
AcDbMText
 10
171.0
 20
150.3124888816166
 30
0.0
 40
2.5
 41
0.0
 46
0.0
 71
     5
 72
     1
  1
\A1;L
 73
     1
 44
1.0
  0
POINT
  5
B4
330
AC
100
AcDbEntity
  8
Defpoints
 62
     0
100
AcDbPoint
 10
105.0
 20
133.75
 30
0.0
  0
POINT
  5
B5
330
AC
100
AcDbEntity
  8
Defpoints
 62
     0
100
AcDbPoint
 10
237.0
 20
126.6959795856546
 30
0.0
  0
POINT
  5
B6
330
AC
100
AcDbEntity
  8
Defpoints
 62
     0
100
AcDbPoint
 10
237.0
 20
148.4124888816166
 30
0.0
  0
ENDBLK
  5
B7
330
AC
100
AcDbEntity
  8
0
100
AcDbBlockEnd
  0
BLOCK
  5
BA
330
B9
100
AcDbEntity
  8
0
100
AcDbBlockBegin
  2
*T3
 70
     1
 10
0.0
 20
0.0
 30
0.0
  3
*T3
  1

  0
MTEXT
  5
BB
330
B9
100
AcDbEntity
  8
0
100
AcDbMText
 10
14.0
 20
-2.5
 30
0.0
 40
2.5
 41
27.0
 46
0.0
 71
     5
 72
     5
  1
長さL（単位mm）
  7
Bom
 73
     1
 44
1.0
  0
MTEXT
  5
BD
330
B9
100
AcDbEntity
  8
0
100
AcDbMText
 10
50.5
 20
-2.5
 30
0.0
 40
2.5
 41
44.0
 46
0.0
 71
     5
 72
     5
  1
名称
  7
Bom
 73
     1
 44
1.0
  0
MTEXT
  5
BE
330
B9
100
AcDbEntity
  8
0
100
AcDbMText
 10
90.5
 20
-2.5
 30
0.0
 40
2.5
 41
34.0
 46
0.0
 71
     5
 72
     5
  1
型番
  7
Bom
 73
     1
 44
1.0
  0
MTEXT
  5
BF
330
B9
100
AcDbEntity
  8
0
100
AcDbMText
 10
14.0
 20
-7.5
 30
0.0
 40
2.5
 41
27.0
 46
0.0
 71
     5
 72
     5
  1
1000
  7
Bom
 73
     1
 44
1.0
  0
MTEXT
  5
C0
330
B9
100
AcDbEntity
  8
0
100
AcDbMText
 10
50.5
 20
-7.5
 30
0.0
 40
2.5
 41
44.0
 46
0.0
 71
     5
 72
     5
  1
I/OケーブルB 1000mm
  7
Bom
 73
     1
 44
1.0
  0
MTEXT
  5
C1
330
B9
100
AcDbEntity
  8
0
100
AcDbMText
 10
90.5
 20
-7.5
 30
0.0
 40
2.5
 41
34.0
 46
0.0
 71
     5
 72
     5
  1
CMIOB1-1000S
  7
Bom
 73
     1
 44
1.0
  0
MTEXT
  5
C2
330
B9
100
AcDbEntity
  8
0
100
AcDbMText
 10
14.0
 20
-12.5
 30
0.0
 40
2.5
 41
27.0
 46
0.0
 71
     5
 72
     5
  1
3000
  7
Bom
 73
     1
 44
1.0
  0
MTEXT
  5
C3
330
B9
100
AcDbEntity
  8
0
100
AcDbMText
 10
50.5
 20
-12.5
 30
0.0
 40
2.5
 41
44.0
 46
0.0
 71
     5
 72
     5
  1
I/OケーブルB 3000mm
  7
Bom
 73
     1
 44
1.0
  0
MTEXT
  5
C4
330
B9
100
AcDbEntity
  8
0
100
AcDbMText
 10
90.5
 20
-12.5
 30
0.0
 40
2.5
 41
34.0
 46
0.0
 71
     5
 72
     5
  1
CMIOB1-3000S
  7
Bom
 73
     1
 44
1.0
  0
MTEXT
  5
C5
330
B9
100
AcDbEntity
  8
0
100
AcDbMText
 10
14.0
 20
-17.5
 30
0.0
 40
2.5
 41
27.0
 46
0.0
 71
     5
 72
     5
  1
5000
  7
Bom
 73
     1
 44
1.0
  0
MTEXT
  5
C6
330
B9
100
AcDbEntity
  8
0
100
AcDbMText
 10
50.5
 20
-17.5
 30
0.0
 40
2.5
 41
44.0
 46
0.0
 71
     5
 72
     5
  1
I/OケーブルB 5000mm
  7
Bom
 73
     1
 44
1.0
  0
MTEXT
  5
C7
330
B9
100
AcDbEntity
  8
0
100
AcDbMText
 10
90.5
 20
-17.5
 30
0.0
 40
2.5
 41
34.0
 46
0.0
 71
     5
 72
     5
  1
CMIOB1-5000S
  7
Bom
 73
     1
 44
1.0
  0
LINE
  5
C8
330
B9
100
AcDbEntity
  8
0
  6
ByBlock
100
AcDbLine
 10
0.0
 20
0.0
 30
0.0
 11
108.0
 21
0.0
 31
0.0
  0
LINE
  5
C9
330
B9
100
AcDbEntity
  8
0
  6
ByBlock
100
AcDbLine
 10
108.0
 20
0.0
 30
0.0
 11
108.0
 21
-20.0
 31
0.0
  0
LINE
  5
CA
330
B9
100
AcDbEntity
  8
0
  6
ByBlock
100
AcDbLine
 10
0.0
 20
-5.0
 30
0.0
 11
108.0
 21
-5.0
 31
0.0
  0
LINE
  5
CB
330
B9
100
AcDbEntity
  8
0
  6
ByBlock
100
AcDbLine
 10
0.0
 20
-10.0
 30
0.0
 11
108.0
 21
-10.0
 31
0.0
  0
LINE
  5
CC
330
B9
100
AcDbEntity
  8
0
  6
ByBlock
100
AcDbLine
 10
0.0
 20
-15.0
 30
0.0
 11
108.0
 21
-15.0
 31
0.0
  0
LINE
  5
CD
330
B9
100
AcDbEntity
  8
0
  6
ByBlock
100
AcDbLine
 10
0.0
 20
-20.0
 30
0.0
 11
108.0
 21
-20.0
 31
0.0
  0
LINE
  5
CE
330
B9
100
AcDbEntity
  8
0
  6
ByBlock
100
AcDbLine
 10
0.0
 20
0.0
 30
0.0
 11
0.0
 21
-20.0
 31
0.0
  0
LINE
  5
CF
330
B9
100
AcDbEntity
  8
0
  6
ByBlock
100
AcDbLine
 10
28.0
 20
0.0
 30
0.0
 11
28.0
 21
-20.0
 31
0.0
  0
LINE
  5
D0
330
B9
100
AcDbEntity
  8
0
  6
ByBlock
100
AcDbLine
 10
73.0
 20
0.0
 30
0.0
 11
73.0
 21
-20.0
 31
0.0
  0
ENDBLK
  5
D1
330
B9
100
AcDbEntity
  8
0
100
AcDbBlockEnd
  0
BLOCK
  5
D7
330
D6
100
AcDbEntity
  8
0
100
AcDbBlockBegin
  2
XADR-12V‗ｌ
 70
     0
 10
0.0
 20
0.0
 30
0.0
  3
XADR-12V‗ｌ
  1

  0
LINE
  5
D8
330
D6
100
AcDbEntity
  8
OBJECT
100
AcDbLine
 10
-8.05
 20
-1.200000000000017
 30
0.0
 11
-8.05
 21
-3.250000000000028
 31
0.0
  0
LINE
  5
D9
330
D6
100
AcDbEntity
  8
OBJECT
100
AcDbLine
 10
-8.750000000000004
 20
-3.250000000000028
 30
0.0
 11
-8.05
 21
-3.250000000000028
 31
0.0
  0
LINE
  5
DA
330
D6
100
AcDbEntity
  8
OBJECT
100
AcDbLine
 10
-3.750000000000007
 20
0.0
 30
0.0
 11
-8.750000000000004
 21
0.0
 31
0.0
  0
LINE
  5
DB
330
D6
100
AcDbEntity
  8
OBJECT
100
AcDbLine
 10
-3.750000000000007
 20
0.0
 30
0.0
 11
-3.750000000000007
 21
-1.200000000000017
 31
0.0
  0
LINE
  5
DC
330
D6
100
AcDbEntity
  8
OBJECT
100
AcDbLine
 10
-3.750000000000007
 20
-1.200000000000017
 30
0.0
 11
-8.05
 21
-1.200000000000017
 31
0.0
  0
LINE
  5
DD
330
D6
100
AcDbEntity
  8
OBJECT
100
AcDbLine
 10
-8.750000000000004
 20
0.0
 30
0.0
 11
-8.750000000000004
 21
-3.250000000000028
 31
0.0
  0
LINE
  5
DE
330
D6
100
AcDbEntity
  8
OBJECT
100
AcDbLine
 10
8.049999999999997
 20
-3.250000000000028
 30
0.0
 11
8.75
 21
-3.250000000000028
 31
0.0
  0
LINE
  5
DF
330
D6
100
AcDbEntity
  8
OBJECT
100
AcDbLine
 10
8.049999999999997
 20
-3.250000000000028
 30
0.0
 11
8.049999999999997
 21
-1.200000000000017
 31
0.0
  0
LINE
  5
E0
330
D6
100
AcDbEntity
  8
OBJECT
100
AcDbLine
 10
8.049999999999997
 20
-1.200000000000017
 30
0.0
 11
3.75
 21
-1.200000000000017
 31
0.0
  0
LINE
  5
E1
330
D6
100
AcDbEntity
  8
OBJECT
100
AcDbLine
 10
8.75
 20
0.0
 30
0.0
 11
3.75
 21
0.0
 31
0.0
  0
LINE
  5
E2
330
D6
100
AcDbEntity
  8
OBJECT
100
AcDbLine
 10
8.75
 20
0.0
 30
0.0
 11
8.75
 21
-3.250000000000028
 31
0.0
  0
LINE
  5
E3
330
D6
100
AcDbEntity
  8
OBJECT
100
AcDbLine
 10
3.75
 20
-1.200000000000017
 30
0.0
 11
3.75
 21
0.0
 31
0.0
  0
LINE
  5
E4
330
D6
100
AcDbEntity
  8
OBJECT
100
AcDbLine
 10
8.049999999999997
 20
-6.849999999999994
 30
0.0
 11
8.75
 21
-6.849999999999994
 31
0.0
  0
LINE
  5
E5
330
D6
100
AcDbEntity
  8
OBJECT
100
AcDbLine
 10
8.75
 20
-10.10000000000011
 30
0.0
 11
6.249999999999993
 21
-10.10000000000011
 31
0.0
  0
LINE
  5
E6
330
D6
100
AcDbEntity
  8
OBJECT
100
AcDbLine
 10
6.249999999999993
 20
-8.90000000000012
 30
0.0
 11
6.249999999999993
 21
-10.10000000000011
 31
0.0
  0
LINE
  5
E7
330
D6
100
AcDbEntity
  8
OBJECT
100
AcDbLine
 10
6.249999999999993
 20
-8.90000000000012
 30
0.0
 11
8.049999999999997
 21
-8.90000000000012
 31
0.0
  0
LINE
  5
E8
330
D6
100
AcDbEntity
  8
OBJECT
100
AcDbLine
 10
8.75
 20
-6.849999999999994
 30
0.0
 11
8.75
 21
-10.10000000000011
 31
0.0
  0
LINE
  5
E9
330
D6
100
AcDbEntity
  8
OBJECT
100
AcDbLine
 10
8.049999999999997
 20
-8.90000000000012
 30
0.0
 11
8.049999999999997
 21
-6.849999999999994
 31
0.0
  0
LINE
  5
EA
330
D6
100
AcDbEntity
  8
OBJECT
100
AcDbLine
 10
-8.750000000000004
 20
-6.849999999999994
 30
0.0
 11
-8.05
 21
-6.849999999999994
 31
0.0
  0
LINE
  5
EB
330
D6
100
AcDbEntity
  8
OBJECT
100
AcDbLine
 10
-8.05
 20
-8.90000000000012
 30
0.0
 11
-6.25
 21
-8.90000000000012
 31
0.0
  0
LINE
  5
EC
330
D6
100
AcDbEntity
  8
OBJECT
100
AcDbLine
 10
-6.25
 20
-8.90000000000012
 30
0.0
 11
-6.25
 21
-10.10000000000011
 31
0.0
  0
LINE
  5
ED
330
D6
100
AcDbEntity
  8
OBJECT
100
AcDbLine
 10
-6.25
 20
-10.10000000000011
 30
0.0
 11
-8.750000000000004
 21
-10.10000000000011
 31
0.0
  0
LINE
  5
EE
330
D6
100
AcDbEntity
  8
OBJECT
100
AcDbLine
 10
-8.750000000000004
 20
-6.849999999999994
 30
0.0
 11
-8.750000000000004
 21
-10.10000000000011
 31
0.0
  0
LINE
  5
EF
330
D6
100
AcDbEntity
  8
OBJECT
100
AcDbLine
 10
-8.05
 20
-6.849999999999994
 30
0.0
 11
-8.05
 21
-8.90000000000012
 31
0.0
  0
LINE
  5
F0
330
D6
100
AcDbEntity
  8
OBJECT
100
AcDbLine
 10
3.199999999999996
 20
-10.10000000000011
 30
0.0
 11
-3.200000000000003
 21
-10.10000000000011
 31
0.0
  0
LINE
  5
F1
330
D6
100
AcDbEntity
  8
OBJECT
100
AcDbLine
 10
3.199999999999996
 20
-8.90000000000012
 30
0.0
 11
3.199999999999996
 21
-10.10000000000011
 31
0.0
  0
LINE
  5
F2
330
D6
100
AcDbEntity
  8
OBJECT
100
AcDbLine
 10
-3.200000000000003
 20
-8.90000000000012
 30
0.0
 11
-3.200000000000003
 21
-10.10000000000011
 31
0.0
  0
LINE
  5
F3
330
D6
100
AcDbEntity
  8
OBJECT
100
AcDbLine
 10
-3.200000000000003
 20
-8.90000000000012
 30
0.0
 11
3.199999999999996
 21
-8.90000000000012
 31
0.0
  0
LINE
  5
F4
330
D6
100
AcDbEntity
  8
OBJECT
100
AcDbLine
 10
-3.750000000000007
 20
-1.200000000000017
 30
0.0
 11
3.75
 21
-1.200000000000017
 31
0.0
  0
LINE
  5
F5
330
D6
100
AcDbEntity
  8
OBJECT
100
AcDbLine
 10
3.75
 20
0.0
 30
0.0
 11
-3.750000000000007
 21
0.0
 31
0.0
  0
LINE
  5
F6
330
D6
100
AcDbEntity
  8
OBJECT
100
AcDbLine
 10
-6.25
 20
-10.10000000000011
 30
0.0
 11
-3.200000000000003
 21
-10.10000000000011
 31
0.0
  0
LINE
  5
F7
330
D6
100
AcDbEntity
  8
OBJECT
100
AcDbLine
 10
-3.200000000000003
 20
-8.90000000000012
 30
0.0
 11
-6.25
 21
-8.90000000000012
 31
0.0
  0
LINE
  5
F8
330
D6
100
AcDbEntity
  8
OBJECT
100
AcDbLine
 10
3.199999999999996
 20
-10.10000000000011
 30
0.0
 11
6.249999999999993
 21
-10.10000000000011
 31
0.0
  0
LINE
  5
F9
330
D6
100
AcDbEntity
  8
OBJECT
100
AcDbLine
 10
6.249999999999993
 20
-8.90000000000012
 30
0.0
 11
3.199999999999996
 21
-8.90000000000012
 31
0.0
  0
LINE
  5
FA
330
D6
100
AcDbEntity
  8
OBJECT
100
AcDbLine
 10
8.049999999999997
 20
-4.349999999999994
 30
0.0
 11
8.75
 21
-4.349999999999994
 31
0.0
  0
LINE
  5
FB
330
D6
100
AcDbEntity
  8
OBJECT
100
AcDbLine
 10
8.75
 20
-6.849999999999994
 30
0.0
 11
8.75
 21
-4.349999999999994
 31
0.0
  0
LINE
  5
FC
330
D6
100
AcDbEntity
  8
OBJECT
100
AcDbLine
 10
8.049999999999997
 20
-6.849999999999994
 30
0.0
 11
8.049999999999997
 21
-4.349999999999994
 31
0.0
  0
LINE
  5
FD
330
D6
100
AcDbEntity
  8
OBJECT
100
AcDbLine
 10
-8.750000000000004
 20
-4.349999999999994
 30
0.0
 11
-8.05
 21
-4.349999999999994
 31
0.0
  0
LINE
  5
FE
330
D6
100
AcDbEntity
  8
OBJECT
100
AcDbLine
 10
-8.750000000000004
 20
-6.849999999999994
 30
0.0
 11
-8.750000000000004
 21
-4.349999999999994
 31
0.0
  0
LINE
  5
FF
330
D6
100
AcDbEntity
  8
OBJECT
100
AcDbLine
 10
-8.05
 20
-4.349999999999994
 30
0.0
 11
-8.05
 21
-6.849999999999994
 31
0.0
  0
LINE
  5
100
330
D6
100
AcDbEntity
  8
OBJECT
100
AcDbLine
 10
8.75
 20
-4.350000000000051
 30
0.0
 11
8.75
 21
-3.250000000000028
 31
0.0
  0
LINE
  5
101
330
D6
100
AcDbEntity
  8
OBJECT
100
AcDbLine
 10
11.95
 20
-2.150000000000063
 30
0.0
 11
11.95
 21
-8.90000000000012
 31
0.0
  0
LINE
  5
102
330
D6
100
AcDbEntity
  8
OBJECT
100
AcDbLine
 10
8.75
 20
-8.90000000000012
 30
0.0
 11
11.95
 21
-8.90000000000012
 31
0.0
  0
LINE
  5
103
330
D6
100
AcDbEntity
  8
OBJECT
100
AcDbLine
 10
11.95
 20
-2.150000000000063
 30
0.0
 11
8.75
 21
-2.150000000000006
 31
0.0
  0
LINE
  5
104
330
D6
100
AcDbEntity
  8
OBJECT
100
AcDbLine
 10
-8.750000000000004
 20
-4.350000000000051
 30
0.0
 11
-8.750000000000004
 21
-3.250000000000028
 31
0.0
  0
LINE
  5
105
330
D6
100
AcDbEntity
  8
OBJECT
100
AcDbLine
 10
-11.95
 20
-8.90000000000012
 30
0.0
 11
-8.750000000000004
 21
-8.90000000000012
 31
0.0
  0
LINE
  5
106
330
D6
100
AcDbEntity
  8
OBJECT
100
AcDbLine
 10
-11.95
 20
-2.150000000000063
 30
0.0
 11
-11.95
 21
-8.90000000000012
 31
0.0
  0
LINE
  5
107
330
D6
100
AcDbEntity
  8
OBJECT
100
AcDbLine
 10
-8.750000000000004
 20
-2.150000000000006
 30
0.0
 11
-11.95
 21
-2.150000000000063
 31
0.0
  0
LINE
  5
108
330
D6
100
AcDbEntity
  8
OBJECT
100
AcDbLine
 10
-8.05
 20
-3.250000000000028
 30
0.0
 11
-8.05
 21
-4.350000000000051
 31
0.0
  0
LINE
  5
109
330
D6
100
AcDbEntity
  8
OBJECT
100
AcDbLine
 10
8.049999999999997
 20
-4.350000000000051
 30
0.0
 11
8.049999999999997
 21
-3.250000000000028
 31
0.0
  0
LINE
  5
10A
330
D6
100
AcDbEntity
  8
OBJECT
100
AcDbLine
 10
11.7
 20
-10.10000000000011
 30
0.0
 11
11.7
 21
-8.90000000000012
 31
0.0
  0
LINE
  5
10B
330
D6
100
AcDbEntity
  8
OBJECT
100
AcDbLine
 10
11.7
 20
-2.150000000000063
 30
0.0
 11
11.7
 21
-0.9500000000000455
 31
0.0
  0
LINE
  5
10C
330
D6
100
AcDbEntity
  8
OBJECT
100
AcDbLine
 10
8.75
 20
-0.9500000000000455
 30
0.0
 11
11.7
 21
-0.9500000000000455
 31
0.0
  0
LINE
  5
10D
330
D6
100
AcDbEntity
  8
OBJECT
100
AcDbLine
 10
8.75
 20
-10.10000000000011
 30
0.0
 11
11.7
 21
-10.10000000000011
 31
0.0
  0
LINE
  5
10E
330
D6
100
AcDbEntity
  8
OBJECT
100
AcDbLine
 10
-11.7
 20
-0.9500000000000455
 30
0.0
 11
-8.750000000000004
 21
-0.9500000000000455
 31
0.0
  0
LINE
  5
10F
330
D6
100
AcDbEntity
  8
OBJECT
100
AcDbLine
 10
-11.7
 20
-10.10000000000011
 30
0.0
 11
-11.7
 21
-8.90000000000012
 31
0.0
  0
LINE
  5
110
330
D6
100
AcDbEntity
  8
OBJECT
100
AcDbLine
 10
-11.7
 20
-2.150000000000063
 30
0.0
 11
-11.7
 21
-0.9500000000000455
 31
0.0
  0
LINE
  5
111
330
D6
100
AcDbEntity
  8
OBJECT
100
AcDbLine
 10
-11.7
 20
-10.10000000000011
 30
0.0
 11
-8.750000000000004
 21
-10.10000000000011
 31
0.0
  0
LINE
  5
112
330
D6
100
AcDbEntity
  8
OBJECT
100
AcDbLine
 10
6.737500000000011
 20
-7.300000000000068
 30
0.0
 11
5.762499999999989
 21
-7.300000000000068
 31
0.0
  0
LINE
  5
113
330
D6
100
AcDbEntity
  8
OBJECT
100
AcDbLine
 10
4.237500000000011
 20
-7.300000000000068
 30
0.0
 11
3.262499999999989
 21
-7.300000000000068
 31
0.0
  0
LINE
  5
114
330
D6
100
AcDbEntity
  8
OBJECT
100
AcDbLine
 10
1.737500000000011
 20
-7.300000000000068
 30
0.0
 11
0.7624999999999886
 21
-7.300000000000068
 31
0.0
  0
LINE
  5
115
330
D6
100
AcDbEntity
  8
OBJECT
100
AcDbLine
 10
-0.7624999999999886
 20
-7.300000000000068
 30
0.0
 11
-1.737500000000011
 21
-7.300000000000068
 31
0.0
  0
LINE
  5
116
330
D6
100
AcDbEntity
  8
OBJECT
100
AcDbLine
 10
-3.262499999999989
 20
-7.300000000000068
 30
0.0
 11
-4.237500000000011
 21
-7.300000000000068
 31
0.0
  0
LINE
  5
117
330
D6
100
AcDbEntity
  8
OBJECT
100
AcDbLine
 10
-5.762499999999989
 20
-7.300000000000068
 30
0.0
 11
-6.737500000000011
 21
-7.300000000000068
 31
0.0
  0
LINE
  5
118
330
D6
100
AcDbEntity
  8
OBJECT
100
AcDbLine
 10
-6.737500000000011
 20
-2.799999999999983
 30
0.0
 11
-5.762499999999989
 21
-2.799999999999983
 31
0.0
  0
LINE
  5
119
330
D6
100
AcDbEntity
  8
OBJECT
100
AcDbLine
 10
-4.237500000000011
 20
-2.799999999999983
 30
0.0
 11
-3.262499999999989
 21
-2.799999999999983
 31
0.0
  0
LINE
  5
11A
330
D6
100
AcDbEntity
  8
OBJECT
100
AcDbLine
 10
-1.737500000000011
 20
-2.799999999999983
 30
0.0
 11
-0.7624999999999886
 21
-2.799999999999983
 31
0.0
  0
LINE
  5
11B
330
D6
100
AcDbEntity
  8
OBJECT
100
AcDbLine
 10
0.7624999999999886
 20
-2.799999999999983
 30
0.0
 11
1.737500000000011
 21
-2.799999999999983
 31
0.0
  0
LINE
  5
11C
330
D6
100
AcDbEntity
  8
OBJECT
100
AcDbLine
 10
3.262499999999989
 20
-2.799999999999983
 30
0.0
 11
4.237500000000011
 21
-2.799999999999983
 31
0.0
  0
LINE
  5
11D
330
D6
100
AcDbEntity
  8
OBJECT
100
AcDbLine
 10
5.762499999999989
 20
-2.799999999999983
 30
0.0
 11
6.737500000000011
 21
-2.799999999999983
 31
0.0
  0
LINE
  5
11E
330
D6
100
AcDbEntity
  8
OBJECT
100
AcDbLine
 10
-5.275000000000006
 20
-4.599999999999994
 30
0.0
 11
-7.224999999999994
 21
-4.599999999999994
 31
0.0
  0
LINE
  5
11F
330
D6
100
AcDbEntity
  8
OBJECT
100
AcDbLine
 10
-7.224999999999994
 20
-4.599999999999994
 30
0.0
 11
-7.224999999999994
 21
-3.37363438105379
 31
0.0
  0
LINE
  5
120
330
D6
100
AcDbEntity
  8
OBJECT
100
AcDbLine
 10
-6.737500000000011
 20
-2.799999999999983
 30
0.0
 11
-5.762499999999989
 21
-2.799999999999983
 31
0.0
  0
LINE
  5
121
330
D6
100
AcDbEntity
  8
OBJECT
100
AcDbLine
 10
-5.275000000000006
 20
-3.37363438105379
 30
0.0
 11
-5.275000000000006
 21
-4.599999999999994
 31
0.0
  0
LINE
  5
122
330
D6
100
AcDbEntity
  8
OBJECT
100
AcDbLine
 10
-6.737500000000011
 20
-2.799999999999983
 30
0.0
 11
-6.737500000000011
 21
-3.37363438105379
 31
0.0
  0
LINE
  5
123
330
D6
100
AcDbEntity
  8
OBJECT
100
AcDbLine
 10
-6.737500000000011
 20
-3.37363438105379
 30
0.0
 11
-7.224999999999994
 21
-3.37363438105379
 31
0.0
  0
LINE
  5
124
330
D6
100
AcDbEntity
  8
OBJECT
100
AcDbLine
 10
-5.762499999999989
 20
-2.799999999999983
 30
0.0
 11
-5.762499999999989
 21
-3.37363438105379
 31
0.0
  0
LINE
  5
125
330
D6
100
AcDbEntity
  8
OBJECT
100
AcDbLine
 10
-5.762499999999989
 20
-3.37363438105379
 30
0.0
 11
-5.275000000000006
 21
-3.37363438105379
 31
0.0
  0
LINE
  5
126
330
D6
100
AcDbEntity
  8
OBJECT
100
AcDbLine
 10
-5.275000000000006
 20
-5.500000000000085
 30
0.0
 11
-7.224999999999994
 21
-5.500000000000085
 31
0.0
  0
LINE
  5
127
330
D6
100
AcDbEntity
  8
OBJECT
100
AcDbLine
 10
-7.224999999999994
 20
-5.500000000000085
 30
0.0
 11
-7.224999999999994
 21
-6.726365618946318
 31
0.0
  0
LINE
  5
128
330
D6
100
AcDbEntity
  8
OBJECT
100
AcDbLine
 10
-6.737500000000011
 20
-7.300000000000068
 30
0.0
 11
-5.762499999999989
 21
-7.300000000000068
 31
0.0
  0
LINE
  5
129
330
D6
100
AcDbEntity
  8
OBJECT
100
AcDbLine
 10
-5.275000000000006
 20
-6.726365618946318
 30
0.0
 11
-5.275000000000006
 21
-5.500000000000085
 31
0.0
  0
LINE
  5
12A
330
D6
100
AcDbEntity
  8
OBJECT
100
AcDbLine
 10
-6.737500000000011
 20
-7.300000000000068
 30
0.0
 11
-6.737500000000011
 21
-6.726365618946318
 31
0.0
  0
LINE
  5
12B
330
D6
100
AcDbEntity
  8
OBJECT
100
AcDbLine
 10
-6.737500000000011
 20
-6.726365618946318
 30
0.0
 11
-7.224999999999994
 21
-6.726365618946318
 31
0.0
  0
LINE
  5
12C
330
D6
100
AcDbEntity
  8
OBJECT
100
AcDbLine
 10
-5.762499999999989
 20
-7.300000000000068
 30
0.0
 11
-5.762499999999989
 21
-6.726365618946318
 31
0.0
  0
LINE
  5
12D
330
D6
100
AcDbEntity
  8
OBJECT
100
AcDbLine
 10
-5.762499999999989
 20
-6.726365618946318
 30
0.0
 11
-5.275000000000006
 21
-6.726365618946318
 31
0.0
  0
LINE
  5
12E
330
D6
100
AcDbEntity
  8
OBJECT
100
AcDbLine
 10
-2.775000000000006
 20
-4.599999999999994
 30
0.0
 11
-4.724999999999994
 21
-4.599999999999994
 31
0.0
  0
LINE
  5
12F
330
D6
100
AcDbEntity
  8
OBJECT
100
AcDbLine
 10
-4.724999999999994
 20
-4.599999999999994
 30
0.0
 11
-4.724999999999994
 21
-3.37363438105379
 31
0.0
  0
LINE
  5
130
330
D6
100
AcDbEntity
  8
OBJECT
100
AcDbLine
 10
-4.237500000000011
 20
-2.799999999999983
 30
0.0
 11
-3.262499999999989
 21
-2.799999999999983
 31
0.0
  0
LINE
  5
131
330
D6
100
AcDbEntity
  8
OBJECT
100
AcDbLine
 10
-2.775000000000006
 20
-3.37363438105379
 30
0.0
 11
-2.775000000000006
 21
-4.599999999999994
 31
0.0
  0
LINE
  5
132
330
D6
100
AcDbEntity
  8
OBJECT
100
AcDbLine
 10
-4.237500000000011
 20
-2.799999999999983
 30
0.0
 11
-4.237500000000011
 21
-3.37363438105379
 31
0.0
  0
LINE
  5
133
330
D6
100
AcDbEntity
  8
OBJECT
100
AcDbLine
 10
-4.237500000000011
 20
-3.37363438105379
 30
0.0
 11
-4.724999999999994
 21
-3.37363438105379
 31
0.0
  0
LINE
  5
134
330
D6
100
AcDbEntity
  8
OBJECT
100
AcDbLine
 10
-3.262499999999989
 20
-2.799999999999983
 30
0.0
 11
-3.262499999999989
 21
-3.37363438105379
 31
0.0
  0
LINE
  5
135
330
D6
100
AcDbEntity
  8
OBJECT
100
AcDbLine
 10
-3.262499999999989
 20
-3.37363438105379
 30
0.0
 11
-2.775000000000006
 21
-3.37363438105379
 31
0.0
  0
LINE
  5
136
330
D6
100
AcDbEntity
  8
OBJECT
100
AcDbLine
 10
-2.775000000000006
 20
-5.500000000000085
 30
0.0
 11
-4.724999999999994
 21
-5.500000000000085
 31
0.0
  0
LINE
  5
137
330
D6
100
AcDbEntity
  8
OBJECT
100
AcDbLine
 10
-4.724999999999994
 20
-5.500000000000085
 30
0.0
 11
-4.724999999999994
 21
-6.726365618946318
 31
0.0
  0
LINE
  5
138
330
D6
100
AcDbEntity
  8
OBJECT
100
AcDbLine
 10
-4.237500000000011
 20
-7.300000000000068
 30
0.0
 11
-3.262499999999989
 21
-7.300000000000068
 31
0.0
  0
LINE
  5
139
330
D6
100
AcDbEntity
  8
OBJECT
100
AcDbLine
 10
-2.775000000000006
 20
-6.726365618946318
 30
0.0
 11
-2.775000000000006
 21
-5.500000000000085
 31
0.0
  0
LINE
  5
13A
330
D6
100
AcDbEntity
  8
OBJECT
100
AcDbLine
 10
-4.237500000000011
 20
-7.300000000000068
 30
0.0
 11
-4.237500000000011
 21
-6.726365618946318
 31
0.0
  0
LINE
  5
13B
330
D6
100
AcDbEntity
  8
OBJECT
100
AcDbLine
 10
-4.237500000000011
 20
-6.726365618946318
 30
0.0
 11
-4.724999999999994
 21
-6.726365618946318
 31
0.0
  0
LINE
  5
13C
330
D6
100
AcDbEntity
  8
OBJECT
100
AcDbLine
 10
-3.262499999999989
 20
-7.300000000000068
 30
0.0
 11
-3.262499999999989
 21
-6.726365618946318
 31
0.0
  0
LINE
  5
13D
330
D6
100
AcDbEntity
  8
OBJECT
100
AcDbLine
 10
-3.262499999999989
 20
-6.726365618946318
 30
0.0
 11
-2.775000000000006
 21
-6.726365618946318
 31
0.0
  0
LINE
  5
13E
330
D6
100
AcDbEntity
  8
OBJECT
100
AcDbLine
 10
-0.2750000000000057
 20
-4.599999999999994
 30
0.0
 11
-2.224999999999994
 21
-4.599999999999994
 31
0.0
  0
LINE
  5
13F
330
D6
100
AcDbEntity
  8
OBJECT
100
AcDbLine
 10
-2.224999999999994
 20
-4.599999999999994
 30
0.0
 11
-2.224999999999994
 21
-3.37363438105379
 31
0.0
  0
LINE
  5
140
330
D6
100
AcDbEntity
  8
OBJECT
100
AcDbLine
 10
-1.737500000000011
 20
-2.799999999999983
 30
0.0
 11
-0.7624999999999886
 21
-2.799999999999983
 31
0.0
  0
LINE
  5
141
330
D6
100
AcDbEntity
  8
OBJECT
100
AcDbLine
 10
-0.2750000000000057
 20
-3.37363438105379
 30
0.0
 11
-0.2750000000000057
 21
-4.599999999999994
 31
0.0
  0
LINE
  5
142
330
D6
100
AcDbEntity
  8
OBJECT
100
AcDbLine
 10
-1.737500000000011
 20
-2.799999999999983
 30
0.0
 11
-1.737500000000011
 21
-3.37363438105379
 31
0.0
  0
LINE
  5
143
330
D6
100
AcDbEntity
  8
OBJECT
100
AcDbLine
 10
-1.737500000000011
 20
-3.37363438105379
 30
0.0
 11
-2.224999999999994
 21
-3.37363438105379
 31
0.0
  0
LINE
  5
144
330
D6
100
AcDbEntity
  8
OBJECT
100
AcDbLine
 10
-0.7624999999999886
 20
-2.799999999999983
 30
0.0
 11
-0.7624999999999886
 21
-3.37363438105379
 31
0.0
  0
LINE
  5
145
330
D6
100
AcDbEntity
  8
OBJECT
100
AcDbLine
 10
-0.7624999999999886
 20
-3.37363438105379
 30
0.0
 11
-0.2750000000000057
 21
-3.37363438105379
 31
0.0
  0
LINE
  5
146
330
D6
100
AcDbEntity
  8
OBJECT
100
AcDbLine
 10
-0.2750000000000057
 20
-5.500000000000085
 30
0.0
 11
-2.224999999999994
 21
-5.500000000000085
 31
0.0
  0
LINE
  5
147
330
D6
100
AcDbEntity
  8
OBJECT
100
AcDbLine
 10
-2.224999999999994
 20
-5.500000000000085
 30
0.0
 11
-2.224999999999994
 21
-6.726365618946318
 31
0.0
  0
LINE
  5
148
330
D6
100
AcDbEntity
  8
OBJECT
100
AcDbLine
 10
-1.737500000000011
 20
-7.300000000000068
 30
0.0
 11
-0.7624999999999886
 21
-7.300000000000068
 31
0.0
  0
LINE
  5
149
330
D6
100
AcDbEntity
  8
OBJECT
100
AcDbLine
 10
-0.2750000000000057
 20
-6.726365618946318
 30
0.0
 11
-0.2750000000000057
 21
-5.500000000000085
 31
0.0
  0
LINE
  5
14A
330
D6
100
AcDbEntity
  8
OBJECT
100
AcDbLine
 10
-1.737500000000011
 20
-7.300000000000068
 30
0.0
 11
-1.737500000000011
 21
-6.726365618946318
 31
0.0
  0
LINE
  5
14B
330
D6
100
AcDbEntity
  8
OBJECT
100
AcDbLine
 10
-1.737500000000011
 20
-6.726365618946318
 30
0.0
 11
-2.224999999999994
 21
-6.726365618946318
 31
0.0
  0
LINE
  5
14C
330
D6
100
AcDbEntity
  8
OBJECT
100
AcDbLine
 10
-0.7624999999999886
 20
-7.300000000000068
 30
0.0
 11
-0.7624999999999886
 21
-6.726365618946318
 31
0.0
  0
LINE
  5
14D
330
D6
100
AcDbEntity
  8
OBJECT
100
AcDbLine
 10
-0.7624999999999886
 20
-6.726365618946318
 30
0.0
 11
-0.2750000000000057
 21
-6.726365618946318
 31
0.0
  0
LINE
  5
14E
330
D6
100
AcDbEntity
  8
OBJECT
100
AcDbLine
 10
2.224999999999994
 20
-4.599999999999994
 30
0.0
 11
0.2750000000000057
 21
-4.599999999999994
 31
0.0
  0
LINE
  5
14F
330
D6
100
AcDbEntity
  8
OBJECT
100
AcDbLine
 10
0.2750000000000057
 20
-4.599999999999994
 30
0.0
 11
0.2750000000000057
 21
-3.37363438105379
 31
0.0
  0
LINE
  5
150
330
D6
100
AcDbEntity
  8
OBJECT
100
AcDbLine
 10
0.7624999999999886
 20
-2.799999999999983
 30
0.0
 11
1.737500000000011
 21
-2.799999999999983
 31
0.0
  0
LINE
  5
151
330
D6
100
AcDbEntity
  8
OBJECT
100
AcDbLine
 10
2.224999999999994
 20
-3.37363438105379
 30
0.0
 11
2.224999999999994
 21
-4.599999999999994
 31
0.0
  0
LINE
  5
152
330
D6
100
AcDbEntity
  8
OBJECT
100
AcDbLine
 10
0.7624999999999886
 20
-2.799999999999983
 30
0.0
 11
0.7624999999999886
 21
-3.37363438105379
 31
0.0
  0
LINE
  5
153
330
D6
100
AcDbEntity
  8
OBJECT
100
AcDbLine
 10
0.7624999999999886
 20
-3.37363438105379
 30
0.0
 11
0.2750000000000057
 21
-3.37363438105379
 31
0.0
  0
LINE
  5
154
330
D6
100
AcDbEntity
  8
OBJECT
100
AcDbLine
 10
1.737500000000011
 20
-2.799999999999983
 30
0.0
 11
1.737500000000011
 21
-3.37363438105379
 31
0.0
  0
LINE
  5
155
330
D6
100
AcDbEntity
  8
OBJECT
100
AcDbLine
 10
1.737500000000011
 20
-3.37363438105379
 30
0.0
 11
2.224999999999994
 21
-3.37363438105379
 31
0.0
  0
LINE
  5
156
330
D6
100
AcDbEntity
  8
OBJECT
100
AcDbLine
 10
2.224999999999994
 20
-5.500000000000085
 30
0.0
 11
0.2750000000000057
 21
-5.500000000000085
 31
0.0
  0
LINE
  5
157
330
D6
100
AcDbEntity
  8
OBJECT
100
AcDbLine
 10
0.2750000000000057
 20
-5.500000000000085
 30
0.0
 11
0.2750000000000057
 21
-6.726365618946318
 31
0.0
  0
LINE
  5
158
330
D6
100
AcDbEntity
  8
OBJECT
100
AcDbLine
 10
0.7624999999999886
 20
-7.300000000000068
 30
0.0
 11
1.737500000000011
 21
-7.300000000000068
 31
0.0
  0
LINE
  5
159
330
D6
100
AcDbEntity
  8
OBJECT
100
AcDbLine
 10
2.224999999999994
 20
-6.726365618946318
 30
0.0
 11
2.224999999999994
 21
-5.500000000000085
 31
0.0
  0
LINE
  5
15A
330
D6
100
AcDbEntity
  8
OBJECT
100
AcDbLine
 10
0.7624999999999886
 20
-7.300000000000068
 30
0.0
 11
0.7624999999999886
 21
-6.726365618946318
 31
0.0
  0
LINE
  5
15B
330
D6
100
AcDbEntity
  8
OBJECT
100
AcDbLine
 10
0.7624999999999886
 20
-6.726365618946318
 30
0.0
 11
0.2750000000000057
 21
-6.726365618946318
 31
0.0
  0
LINE
  5
15C
330
D6
100
AcDbEntity
  8
OBJECT
100
AcDbLine
 10
1.737500000000011
 20
-7.300000000000068
 30
0.0
 11
1.737500000000011
 21
-6.726365618946318
 31
0.0
  0
LINE
  5
15D
330
D6
100
AcDbEntity
  8
OBJECT
100
AcDbLine
 10
1.737500000000011
 20
-6.726365618946318
 30
0.0
 11
2.224999999999994
 21
-6.726365618946318
 31
0.0
  0
LINE
  5
15E
330
D6
100
AcDbEntity
  8
OBJECT
100
AcDbLine
 10
4.724999999999994
 20
-4.599999999999994
 30
0.0
 11
2.775000000000006
 21
-4.599999999999994
 31
0.0
  0
LINE
  5
15F
330
D6
100
AcDbEntity
  8
OBJECT
100
AcDbLine
 10
2.775000000000006
 20
-4.599999999999994
 30
0.0
 11
2.775000000000006
 21
-3.37363438105379
 31
0.0
  0
LINE
  5
160
330
D6
100
AcDbEntity
  8
OBJECT
100
AcDbLine
 10
3.262499999999989
 20
-2.799999999999983
 30
0.0
 11
4.237500000000011
 21
-2.799999999999983
 31
0.0
  0
LINE
  5
161
330
D6
100
AcDbEntity
  8
OBJECT
100
AcDbLine
 10
4.724999999999994
 20
-3.37363438105379
 30
0.0
 11
4.724999999999994
 21
-4.599999999999994
 31
0.0
  0
LINE
  5
162
330
D6
100
AcDbEntity
  8
OBJECT
100
AcDbLine
 10
3.262499999999989
 20
-2.799999999999983
 30
0.0
 11
3.262499999999989
 21
-3.37363438105379
 31
0.0
  0
LINE
  5
163
330
D6
100
AcDbEntity
  8
OBJECT
100
AcDbLine
 10
3.262499999999989
 20
-3.37363438105379
 30
0.0
 11
2.775000000000006
 21
-3.37363438105379
 31
0.0
  0
LINE
  5
164
330
D6
100
AcDbEntity
  8
OBJECT
100
AcDbLine
 10
4.237500000000011
 20
-2.799999999999983
 30
0.0
 11
4.237500000000011
 21
-3.37363438105379
 31
0.0
  0
LINE
  5
165
330
D6
100
AcDbEntity
  8
OBJECT
100
AcDbLine
 10
4.237500000000011
 20
-3.37363438105379
 30
0.0
 11
4.724999999999994
 21
-3.37363438105379
 31
0.0
  0
LINE
  5
166
330
D6
100
AcDbEntity
  8
OBJECT
100
AcDbLine
 10
4.724999999999994
 20
-5.500000000000085
 30
0.0
 11
2.775000000000006
 21
-5.500000000000085
 31
0.0
  0
LINE
  5
167
330
D6
100
AcDbEntity
  8
OBJECT
100
AcDbLine
 10
2.775000000000006
 20
-5.500000000000085
 30
0.0
 11
2.775000000000006
 21
-6.726365618946318
 31
0.0
  0
LINE
  5
168
330
D6
100
AcDbEntity
  8
OBJECT
100
AcDbLine
 10
3.262499999999989
 20
-7.300000000000068
 30
0.0
 11
4.237500000000011
 21
-7.300000000000068
 31
0.0
  0
LINE
  5
169
330
D6
100
AcDbEntity
  8
OBJECT
100
AcDbLine
 10
4.724999999999994
 20
-6.726365618946318
 30
0.0
 11
4.724999999999994
 21
-5.500000000000085
 31
0.0
  0
LINE
  5
16A
330
D6
100
AcDbEntity
  8
OBJECT
100
AcDbLine
 10
3.262499999999989
 20
-7.300000000000068
 30
0.0
 11
3.262499999999989
 21
-6.726365618946318
 31
0.0
  0
LINE
  5
16B
330
D6
100
AcDbEntity
  8
OBJECT
100
AcDbLine
 10
3.262499999999989
 20
-6.726365618946318
 30
0.0
 11
2.775000000000006
 21
-6.726365618946318
 31
0.0
  0
LINE
  5
16C
330
D6
100
AcDbEntity
  8
OBJECT
100
AcDbLine
 10
4.237500000000011
 20
-7.300000000000068
 30
0.0
 11
4.237500000000011
 21
-6.726365618946318
 31
0.0
  0
LINE
  5
16D
330
D6
100
AcDbEntity
  8
OBJECT
100
AcDbLine
 10
4.237500000000011
 20
-6.726365618946318
 30
0.0
 11
4.724999999999994
 21
-6.726365618946318
 31
0.0
  0
LINE
  5
16E
330
D6
100
AcDbEntity
  8
OBJECT
100
AcDbLine
 10
7.224999999999994
 20
-4.599999999999994
 30
0.0
 11
5.275000000000006
 21
-4.599999999999994
 31
0.0
  0
LINE
  5
16F
330
D6
100
AcDbEntity
  8
OBJECT
100
AcDbLine
 10
5.275000000000006
 20
-4.599999999999994
 30
0.0
 11
5.275000000000006
 21
-3.37363438105379
 31
0.0
  0
LINE
  5
170
330
D6
100
AcDbEntity
  8
OBJECT
100
AcDbLine
 10
5.762499999999989
 20
-2.799999999999983
 30
0.0
 11
6.737500000000011
 21
-2.799999999999983
 31
0.0
  0
LINE
  5
171
330
D6
100
AcDbEntity
  8
OBJECT
100
AcDbLine
 10
7.224999999999994
 20
-3.37363438105379
 30
0.0
 11
7.224999999999994
 21
-4.599999999999994
 31
0.0
  0
LINE
  5
172
330
D6
100
AcDbEntity
  8
OBJECT
100
AcDbLine
 10
5.762499999999989
 20
-2.799999999999983
 30
0.0
 11
5.762499999999989
 21
-3.37363438105379
 31
0.0
  0
LINE
  5
173
330
D6
100
AcDbEntity
  8
OBJECT
100
AcDbLine
 10
5.762499999999989
 20
-3.37363438105379
 30
0.0
 11
5.275000000000006
 21
-3.37363438105379
 31
0.0
  0
LINE
  5
174
330
D6
100
AcDbEntity
  8
OBJECT
100
AcDbLine
 10
6.737500000000011
 20
-2.799999999999983
 30
0.0
 11
6.737500000000011
 21
-3.37363438105379
 31
0.0
  0
LINE
  5
175
330
D6
100
AcDbEntity
  8
OBJECT
100
AcDbLine
 10
6.737500000000011
 20
-3.37363438105379
 30
0.0
 11
7.224999999999994
 21
-3.37363438105379
 31
0.0
  0
LINE
  5
176
330
D6
100
AcDbEntity
  8
OBJECT
100
AcDbLine
 10
7.224999999999994
 20
-5.500000000000085
 30
0.0
 11
5.275000000000006
 21
-5.500000000000085
 31
0.0
  0
LINE
  5
177
330
D6
100
AcDbEntity
  8
OBJECT
100
AcDbLine
 10
5.275000000000006
 20
-5.500000000000085
 30
0.0
 11
5.275000000000006
 21
-6.726365618946318
 31
0.0
  0
LINE
  5
178
330
D6
100
AcDbEntity
  8
OBJECT
100
AcDbLine
 10
5.762499999999989
 20
-7.300000000000068
 30
0.0
 11
6.737500000000011
 21
-7.300000000000068
 31
0.0
  0
LINE
  5
179
330
D6
100
AcDbEntity
  8
OBJECT
100
AcDbLine
 10
7.224999999999994
 20
-6.726365618946318
 30
0.0
 11
7.224999999999994
 21
-5.500000000000085
 31
0.0
  0
LINE
  5
17A
330
D6
100
AcDbEntity
  8
OBJECT
100
AcDbLine
 10
5.762499999999989
 20
-7.300000000000068
 30
0.0
 11
5.762499999999989
 21
-6.726365618946318
 31
0.0
  0
LINE
  5
17B
330
D6
100
AcDbEntity
  8
OBJECT
100
AcDbLine
 10
5.762499999999989
 20
-6.726365618946318
 30
0.0
 11
5.275000000000006
 21
-6.726365618946318
 31
0.0
  0
LINE
  5
17C
330
D6
100
AcDbEntity
  8
OBJECT
100
AcDbLine
 10
6.737500000000011
 20
-7.300000000000068
 30
0.0
 11
6.737500000000011
 21
-6.726365618946318
 31
0.0
  0
LINE
  5
17D
330
D6
100
AcDbEntity
  8
OBJECT
100
AcDbLine
 10
6.737500000000011
 20
-6.726365618946318
 30
0.0
 11
7.224999999999994
 21
-6.726365618946318
 31
0.0
  0
ENDBLK
  5
17E
330
D6
100
AcDbEntity
  8
0
100
AcDbBlockEnd
  0
BLOCK
  5
184
330
183
100
AcDbEntity
  8
0
100
AcDbBlockBegin
  2
*D5
 70
     1
 10
0.0
 20
0.0
 30
0.0
  3
*D5
  1

  0
LINE
  5
185
330
183
100
AcDbEntity
  8
DIMS
100
AcDbLine
 10
83.49999999999997
 20
134.4
 30
0.0
 11
83.49999999999997
 21
149.0624888816166
 31
0.0
  0
LINE
  5
186
330
183
100
AcDbEntity
  8
DIMS
100
AcDbLine
 10
105.0
 20
134.4
 30
0.0
 11
105.0
 21
149.0624888816166
 31
0.0
  0
LINE
  5
187
330
183
100
AcDbEntity
  8
DIMS
100
AcDbLine
 10
85.99999999999997
 20
148.4124888816166
 30
0.0
 11
102.5
 21
148.4124888816166
 31
0.0
  0
INSERT
  5
188
330
183
100
AcDbEntity
  8
DIMS
100
AcDbBlockReference
  2
_Open30
 10
83.49999999999997
 20
148.4124888816166
 30
0.0
 41
2.5
 42
2.5
 43
2.5
 50
180.0
  0
INSERT
  5
189
330
183
100
AcDbEntity
  8
DIMS
100
AcDbBlockReference
  2
_Open30
 10
105.0
 20
148.4124888816166
 30
0.0
 41
2.5
 42
2.5
 43
2.5
  0
MTEXT
  5
18A
330
183
100
AcDbEntity
  8
DIMS
 62
     7
100
AcDbMText
 10
94.3985553394146
 20
150.3124888816166
 30
0.0
 40
2.5
 41
0.0
 46
0.0
 71
     5
 72
     1
  1
\A1;21.5
 73
     1
 44
1.0
  0
POINT
  5
18B
330
183
100
AcDbEntity
  8
Defpoints
 62
     0
100
AcDbPoint
 10
83.49999999999997
 20
133.75
 30
0.0
  0
POINT
  5
18C
330
183
100
AcDbEntity
  8
Defpoints
 62
     0
100
AcDbPoint
 10
105.0
 20
133.75
 30
0.0
  0
POINT
  5
18D
330
183
100
AcDbEntity
  8
Defpoints
 62
     0
100
AcDbPoint
 10
105.0
 20
148.4124888816166
 30
0.0
  0
ENDBLK
  5
18E
330
183
100
AcDbEntity
  8
0
100
AcDbBlockEnd
  0
BLOCK
  5
195
330
194
100
AcDbEntity
  8
0
100
AcDbBlockBegin
  2
*D6
 70
     1
 10
0.0
 20
0.0
 30
0.0
  3
*D6
  1

  0
LINE
  5
196
330
194
100
AcDbEntity
  8
DIMS
100
AcDbLine
 10
54.89999999999998
 20
137.35
 30
0.0
 11
54.89999999999998
 21
148.8029841003947
 31
0.0
  0
LINE
  5
197
330
194
100
AcDbEntity
  8
DIMS
100
AcDbLine
 10
65.00000000000011
 20
134.4
 30
0.0
 11
65.00000000000011
 21
148.8029841003947
 31
0.0
  0
LINE
  5
198
330
194
100
AcDbEntity
  8
DIMS
100
AcDbLine
 10
54.89999999999998
 20
148.1529841003947
 30
0.0
 11
65.00000000000011
 21
148.1529841003947
 31
0.0
  0
LINE
  5
199
330
194
100
AcDbEntity
  8
DIMS
100
AcDbLine
 10
52.39999999999998
 20
148.1529841003947
 30
0.0
 11
49.89999999999998
 21
148.1529841003947
 31
0.0
  0
LINE
  5
19A
330
194
100
AcDbEntity
  8
DIMS
100
AcDbLine
 10
67.50000000000011
 20
148.1529841003947
 30
0.0
 11
70.00000000000011
 21
148.1529841003947
 31
0.0
  0
INSERT
  5
19B
330
194
100
AcDbEntity
  8
DIMS
100
AcDbBlockReference
  2
_Open30
 10
54.89999999999998
 20
148.1529841003947
 30
0.0
 41
2.5
 42
2.5
 43
2.5
  0
INSERT
  5
19C
330
194
100
AcDbEntity
  8
DIMS
100
AcDbBlockReference
  2
_Open30
 10
65.00000000000011
 20
148.1529841003947
 30
0.0
 41
2.5
 42
2.5
 43
2.5
 50
180.0
  0
MTEXT
  5
19D
330
194
100
AcDbEntity
  8
DIMS
 62
     7
100
AcDbMText
 10
59.95000000000005
 20
150.0529841003947
 30
0.0
 40
2.5
 41
0.0
 46
0.0
 71
     5
 72
     1
  1
\A1;10.1
 73
     1
 44
1.0
  0
POINT
  5
19E
330
194
100
AcDbEntity
  8
Defpoints
 62
     0
100
AcDbPoint
 10
54.89999999999998
 20
136.7
 30
0.0
  0
POINT
  5
38B
330
194
100
AcDbEntity
  8
Defpoints
 62
     0
100
AcDbPoint
 10
65.00000000000011
 20
133.75
 30
0.0
  0
POINT
  5
38C
330
194
100
AcDbEntity
  8
Defpoints
 62
     0
100
AcDbPoint
 10
65.00000000000011
 20
148.1529841003947
 30
0.0
  0
ENDBLK
  5
19F
330
194
100
AcDbEntity
  8
0
100
AcDbBlockEnd
  0
BLOCK
  5
1A5
330
1A4
100
AcDbEntity
  8
0
100
AcDbBlockBegin
  2
*D7
 70
     1
 10
0.0
 20
0.0
 30
0.0
  3
*D7
  1

  0
LINE
  5
1A6
330
1A4
100
AcDbEntity
  8
DIMS
100
AcDbLine
 10
55.44999999999997
 20
136.95
 30
0.0
 11
47.2961614296128
 21
136.95
 31
0.0
  0
LINE
  5
1A7
330
1A4
100
AcDbEntity
  8
DIMS
100
AcDbLine
 10
55.44999999999991
 20
113.0499999999999
 30
0.0
 11
47.2961614296128
 21
113.0499999999999
 31
0.0
  0
LINE
  5
1A8
330
1A4
100
AcDbEntity
  8
DIMS
100
AcDbLine
 10
47.9461614296128
 20
134.45
 30
0.0
 11
47.9461614296128
 21
115.5499999999999
 31
0.0
  0
INSERT
  5
1A9
330
1A4
100
AcDbEntity
  8
DIMS
100
AcDbBlockReference
  2
_Open30
 10
47.9461614296128
 20
136.95
 30
0.0
 41
2.5
 42
2.5
 43
2.5
 50
90.0
  0
INSERT
  5
1AA
330
1A4
100
AcDbEntity
  8
DIMS
100
AcDbBlockReference
  2
_Open30
 10
47.9461614296128
 20
113.0499999999999
 30
0.0
 41
2.5
 42
2.5
 43
2.5
 50
270.0
  0
MTEXT
  5
1AB
330
1A4
100
AcDbEntity
  8
DIMS
 62
     7
100
AcDbMText
 10
46.0461614296128
 20
124.9999999999999
 30
0.0
 40
2.5
 41
0.0
 46
0.0
 71
     5
 72
     1
  1
\A1;23.9
 11
0.0
 21
1.0
 31
0.0
 73
     1
 44
1.0
  0
POINT
  5
1AC
330
1A4
100
AcDbEntity
  8
Defpoints
 62
     0
100
AcDbPoint
 10
56.09999999999997
 20
136.95
 30
0.0
  0
POINT
  5
1AD
330
1A4
100
AcDbEntity
  8
Defpoints
 62
     0
100
AcDbPoint
 10
56.09999999999991
 20
113.0499999999999
 30
0.0
  0
POINT
  5
1AE
330
1A4
100
AcDbEntity
  8
Defpoints
 62
     0
100
AcDbPoint
 10
47.9461614296128
 20
113.0499999999999
 30
0.0
  0
ENDBLK
  5
1AF
330
1A4
100
AcDbEntity
  8
0
100
AcDbBlockEnd
  0
BLOCK
  5
1B5
330
1B4
100
AcDbEntity
  8
0
100
AcDbBlockBegin
  2
*D8
 70
     1
 10
0.0
 20
0.0
 30
0.0
  3
*D8
  1

  0
LINE
  5
1B6
330
1B4
100
AcDbEntity
  8
DIMS
100
AcDbLine
 10
167.7394895954604
 20
127.7000000000001
 30
0.0
 11
167.7394895954604
 21
141.8683035714287
 31
0.0
  0
LINE
  5
1B7
330
1B4
100
AcDbEntity
  8
DIMS
100
AcDbLine
 10
167.7394895954604
 20
127.7000000000001
 30
0.0
 11
167.7394895954604
 21
122.3000000000001
 31
0.0
  0
LINE
  5
1B8
330
1B4
100
AcDbEntity
  8
DIMS
100
AcDbLine
 10
167.7394895954604
 20
130.2000000000001
 30
0.0
 11
167.7394895954604
 21
132.7000000000001
 31
0.0
  0
LINE
  5
1B9
330
1B4
100
AcDbEntity
  8
DIMS
100
AcDbLine
 10
167.7394895954604
 20
119.8000000000001
 30
0.0
 11
167.7394895954604
 21
117.3000000000001
 31
0.0
  0
INSERT
  5
1BA
330
1B4
100
AcDbEntity
  8
DIMS
100
AcDbBlockReference
  2
_Open30
 10
167.7394895954604
 20
127.7000000000001
 30
0.0
 41
2.5
 42
2.5
 43
2.5
 50
270.0
  0
INSERT
  5
1BB
330
1B4
100
AcDbEntity
  8
DIMS
100
AcDbBlockReference
  2
_Open30
 10
167.7394895954604
 20
122.3000000000001
 30
0.0
 41
2.5
 42
2.5
 43
2.5
 50
90.0
  0
MTEXT
  5
1BC
330
1B4
100
AcDbEntity
  8
DIMS
 62
     7
100
AcDbMText
 10
165.8394895954604
 20
137.2841517857144
 30
0.0
 40
2.5
 41
0.0
 46
0.0
 71
     5
 72
     1
  1
\A1;Φ5.4
 11
0.0
 21
1.0
 31
0.0
 73
     1
 44
1.0
  0
POINT
  5
1BD
330
1B4
100
AcDbEntity
  8
Defpoints
 62
     0
100
AcDbPoint
 10
168.0
 20
127.7000000000001
 30
0.0
  0
POINT
  5
1BE
330
1B4
100
AcDbEntity
  8
Defpoints
 62
     0
100
AcDbPoint
 10
168.0
 20
122.3000000000001
 30
0.0
  0
POINT
  5
393
330
1B4
100
AcDbEntity
  8
Defpoints
 62
     0
100
AcDbPoint
 10
167.7394895954604
 20
122.3000000000001
 30
0.0
  0
ENDBLK
  5
1C0
330
1B4
100
AcDbEntity
  8
0
100
AcDbBlockEnd
  0
BLOCK
  5
280
330
27F
100
AcDbEntity
  8
0
100
AcDbBlockBegin
  2
*D9
 70
     1
 10
0.0
 20
0.0
 30
0.0
  3
*D9
  1

  0
LINE
  5
282
330
27F
100
AcDbEntity
  8
DIMS
100
AcDbLine
 10
120.9999999999999
 20
121.5500000000001
 30
0.0
 11
120.9999999999999
 21
107.4000000000001
 31
0.0
  0
LINE
  5
283
330
27F
100
AcDbEntity
  8
DIMS
100
AcDbLine
 10
220.9999999999999
 20
121.5500000000001
 30
0.0
 11
220.9999999999999
 21
107.4000000000001
 31
0.0
  0
LINE
  5
284
330
27F
100
AcDbEntity
  8
DIMS
100
AcDbLine
 10
123.4999999999999
 20
108.0500000000001
 30
0.0
 11
218.4999999999999
 21
108.0500000000001
 31
0.0
  0
INSERT
  5
285
330
27F
100
AcDbEntity
  8
DIMS
100
AcDbBlockReference
  2
_Open30
 10
120.9999999999999
 20
108.0500000000001
 30
0.0
 41
2.5
 42
2.5
 43
2.5
 50
180.0
  0
INSERT
  5
286
330
27F
100
AcDbEntity
  8
DIMS
100
AcDbBlockReference
  2
_Open30
 10
220.9999999999999
 20
108.0500000000001
 30
0.0
 41
2.5
 42
2.5
 43
2.5
  0
MTEXT
  5
287
330
27F
100
AcDbEntity
  8
DIMS
 62
     7
100
AcDbMText
 10
170.9999999999999
 20
109.9500000000001
 30
0.0
 40
2.5
 41
0.0
 46
0.0
 71
     5
 72
     1
  1
\A1;100
 73
     1
 44
1.0
  0
POINT
  5
288
330
27F
100
AcDbEntity
  8
Defpoints
 62
     0
100
AcDbPoint
 10
120.9999999999999
 20
122.2000000000001
 30
0.0
  0
POINT
  5
289
330
27F
100
AcDbEntity
  8
Defpoints
 62
     0
100
AcDbPoint
 10
220.9999999999999
 20
122.2000000000001
 30
0.0
  0
POINT
  5
28A
330
27F
100
AcDbEntity
  8
Defpoints
 62
     0
100
AcDbPoint
 10
220.9999999999999
 20
108.0500000000001
 30
0.0
  0
ENDBLK
  5
281
330
27F
100
AcDbEntity
  8
0
100
AcDbBlockEnd
  0
BLOCK
  5
295
330
294
100
AcDbEntity
  8
0
100
AcDbBlockBegin
  2
*D10
 70
     1
 10
0.0
 20
0.0
 30
0.0
  3
*D10
  1

  0
LINE
  5
297
330
294
100
AcDbEntity
  8
DIMS
100
AcDbLine
 10
84.9998373972997
 20
124.4622069601533
 30
0.0
 11
84.9998373972997
 21
86.28042024470584
 31
0.0
  0
LINE
  5
298
330
294
100
AcDbEntity
  8
DIMS
100
AcDbLine
 10
57.5
 20
86.93042024470584
 30
0.0
 11
82.4998373972997
 21
86.93042024470584
 31
0.0
  0
INSERT
  5
299
330
294
100
AcDbEntity
  8
DIMS
100
AcDbBlockReference
  2
_Open30
 10
55.0
 20
86.93042024470584
 30
0.0
 41
2.5
 42
2.5
 43
2.5
 50
180.0
  0
INSERT
  5
29A
330
294
100
AcDbEntity
  8
DIMS
100
AcDbBlockReference
  2
_Open30
 10
84.9998373972997
 20
86.93042024470584
 30
0.0
 41
2.5
 42
2.5
 43
2.5
  0
MTEXT
  5
29B
330
294
100
AcDbEntity
  8
DIMS
 62
     7
100
AcDbMText
 10
69.99991869864985
 20
88.83042024470585
 30
0.0
 40
2.5
 41
0.0
 46
0.0
 71
     5
 72
     1
  1
\A1;30
 73
     1
 44
1.0
  0
POINT
  5
29C
330
294
100
AcDbEntity
  8
Defpoints
 62
     0
100
AcDbPoint
 10
55.0
 20
113.0499999999999
 30
0.0
  0
POINT
  5
29D
330
294
100
AcDbEntity
  8
Defpoints
 62
     0
100
AcDbPoint
 10
84.9998373972997
 20
125.1122069601533
 30
0.0
  0
POINT
  5
29E
330
294
100
AcDbEntity
  8
Defpoints
 62
     0
100
AcDbPoint
 10
84.9998373972997
 20
86.93042024470584
 30
0.0
  0
ENDBLK
  5
296
330
294
100
AcDbEntity
  8
0
100
AcDbBlockEnd
  0
BLOCK
  5
2AB
330
2AA
100
AcDbEntity
  8
0
100
AcDbBlockBegin
  2
*D11
 70
     1
 10
0.0
 20
0.0
 30
0.0
  3
*D11
  1

  0
LINE
  5
2AD
330
2AA
100
AcDbEntity
  8
DIMS
100
AcDbLine
 10
107.1498373972998
 20
134.15
 30
0.0
 11
119.9
 21
134.15
 31
0.0
  0
LINE
  5
2AE
330
2AA
100
AcDbEntity
  8
DIMS
100
AcDbLine
 10
111.3039937926958
 20
125.0
 30
0.0
 11
119.9
 21
125.0
 31
0.0
  0
LINE
  5
2AF
330
2AA
100
AcDbEntity
  8
DIMS
100
AcDbLine
 10
119.25
 20
131.65
 30
0.0
 11
119.25
 21
127.5
 31
0.0
  0
INSERT
  5
2B0
330
2AA
100
AcDbEntity
  8
DIMS
100
AcDbBlockReference
  2
_Open30
 10
119.25
 20
134.15
 30
0.0
 41
2.5
 42
2.5
 43
2.5
 50
90.0
  0
INSERT
  5
2B1
330
2AA
100
AcDbEntity
  8
DIMS
100
AcDbBlockReference
  2
_Open30
 10
119.25
 20
125.0
 30
0.0
 41
2.5
 42
2.5
 43
2.5
 50
270.0
  0
MTEXT
  5
2B2
330
2AA
100
AcDbEntity
  8
DIMS
 62
     7
100
AcDbMText
 10
117.35
 20
129.575
 30
0.0
 40
2.5
 41
0.0
 46
0.0
 71
     5
 72
     1
  1
\A1;9.15
 11
0.0
 21
1.0
 31
0.0
 73
     1
 44
1.0
  0
POINT
  5
2B3
330
2AA
100
AcDbEntity
  8
Defpoints
 62
     0
100
AcDbPoint
 10
106.4998373972998
 20
134.15
 30
0.0
  0
POINT
  5
2B4
330
2AA
100
AcDbEntity
  8
Defpoints
 62
     0
100
AcDbPoint
 10
106.4998373972998
 20
125.0
 30
0.0
  0
POINT
  5
2B5
330
2AA
100
AcDbEntity
  8
Defpoints
 62
     0
100
AcDbPoint
 10
119.25
 20
125.0
 30
0.0
  0
ENDBLK
  5
2AC
330
2AA
100
AcDbEntity
  8
0
100
AcDbBlockEnd
  0
BLOCK
  5
2BB
330
2BA
100
AcDbEntity
  8
0
100
AcDbBlockBegin
  2
*D12
 70
     1
 10
0.0
 20
0.0
 30
0.0
  3
*D12
  1

  0
LINE
  5
2BD
330
2BA
100
AcDbEntity
  8
DIMS
100
AcDbLine
 10
111.3039937926958
 20
125.0
 30
0.0
 11
115.4
 21
125.0
 31
0.0
  0
LINE
  5
2BE
330
2BA
100
AcDbEntity
  8
DIMS
100
AcDbLine
 10
107.1498373972998
 20
116.65
 30
0.0
 11
115.4
 21
116.65
 31
0.0
  0
LINE
  5
2BF
330
2BA
100
AcDbEntity
  8
DIMS
100
AcDbLine
 10
114.75
 20
116.65
 30
0.0
 11
114.75
 21
105.2309523809524
 31
0.0
  0
LINE
  5
2C0
330
2BA
100
AcDbEntity
  8
DIMS
100
AcDbLine
 10
114.75
 20
122.5
 30
0.0
 11
114.75
 21
119.15
 31
0.0
  0
INSERT
  5
2C1
330
2BA
100
AcDbEntity
  8
DIMS
100
AcDbBlockReference
  2
_Open30
 10
114.75
 20
125.0
 30
0.0
 41
2.5
 42
2.5
 43
2.5
 50
90.0
  0
INSERT
  5
2C2
330
2BA
100
AcDbEntity
  8
DIMS
100
AcDbBlockReference
  2
_Open30
 10
114.75
 20
116.65
 30
0.0
 41
2.5
 42
2.5
 43
2.5
 50
270.0
  0
MTEXT
  5
2C3
330
2BA
100
AcDbEntity
  8
DIMS
 62
     7
100
AcDbMText
 10
112.85
 20
109.6904761904762
 30
0.0
 40
2.5
 41
0.0
 46
0.0
 71
     5
 72
     1
  1
\A1;8.35
 11
0.0
 21
1.0
 31
0.0
 73
     1
 44
1.0
  0
POINT
  5
2C4
330
2BA
100
AcDbEntity
  8
Defpoints
 62
     0
100
AcDbPoint
 10
106.4998373972998
 20
125.0
 30
0.0
  0
POINT
  5
2C5
330
2BA
100
AcDbEntity
  8
Defpoints
 62
     0
100
AcDbPoint
 10
106.4998373972998
 20
116.65
 30
0.0
  0
POINT
  5
2C6
330
2BA
100
AcDbEntity
  8
Defpoints
 62
     0
100
AcDbPoint
 10
114.75
 20
116.65
 30
0.0
  0
ENDBLK
  5
2BC
330
2BA
100
AcDbEntity
  8
0
100
AcDbBlockEnd
  0
BLOCK
  5
2CC
330
2CB
100
AcDbEntity
  8
0
100
AcDbBlockBegin
  2
*D13
 70
     1
 10
0.0
 20
0.0
 30
0.0
  3
*D13
  1

  0
LINE
  5
2CE
330
2CB
100
AcDbEntity
  8
DIMS
100
AcDbLine
 10
63.60000000000004
 20
136.95
 30
0.0
 11
72.60200370077862
 21
136.95
 31
0.0
  0
LINE
  5
2CF
330
2CB
100
AcDbEntity
  8
DIMS
100
AcDbLine
 10
71.95200370077862
 20
134.45
 30
0.0
 11
71.95200370077862
 21
127.5
 31
0.0
  0
INSERT
  5
2D0
330
2CB
100
AcDbEntity
  8
DIMS
100
AcDbBlockReference
  2
_Open30
 10
71.95200370077862
 20
136.95
 30
0.0
 41
2.5
 42
2.5
 43
2.5
 50
90.0
  0
INSERT
  5
2D1
330
2CB
100
AcDbEntity
  8
DIMS
100
AcDbBlockReference
  2
_Open30
 10
71.95200370077862
 20
125.0
 30
0.0
 41
2.5
 42
2.5
 43
2.5
 50
270.0
  0
MTEXT
  5
2D2
330
2CB
100
AcDbEntity
  8
DIMS
 62
     7
100
AcDbMText
 10
70.05200370077861
 20
130.975
 30
0.0
 40
2.5
 41
0.0
 46
0.0
 71
     5
 72
     1
  1
\A1;11.95
 11
0.0
 21
1.0
 31
0.0
 73
     1
 44
1.0
  0
POINT
  5
2D3
330
2CB
100
AcDbEntity
  8
Defpoints
 62
     0
100
AcDbPoint
 10
62.95000000000005
 20
136.95
 30
0.0
  0
POINT
  5
2D4
330
2CB
100
AcDbEntity
  8
Defpoints
 62
     0
100
AcDbPoint
 10
65.10000000000011
 20
125.0
 30
0.0
  0
POINT
  5
2D5
330
2CB
100
AcDbEntity
  8
Defpoints
 62
     0
100
AcDbPoint
 10
71.95200370077862
 20
125.0
 30
0.0
  0
ENDBLK
  5
2CD
330
2CB
100
AcDbEntity
  8
0
100
AcDbBlockEnd
  0
BLOCK
  5
2DC
330
2DB
100
AcDbEntity
  8
0
100
AcDbBlockBegin
  2
*D14
 70
     1
 10
0.0
 20
0.0
 30
0.0
  3
*D14
  1

  0
LINE
  5
2DE
330
2DB
100
AcDbEntity
  8
DIMS
100
AcDbLine
 10
63.60000000000004
 20
113.05
 30
0.0
 11
72.53723871254333
 21
113.05
 31
0.0
  0
LINE
  5
2DF
330
2DB
100
AcDbEntity
  8
DIMS
100
AcDbLine
 10
71.88723871254332
 20
122.5
 30
0.0
 11
71.88723871254332
 21
115.55
 31
0.0
  0
INSERT
  5
2E0
330
2DB
100
AcDbEntity
  8
DIMS
100
AcDbBlockReference
  2
_Open30
 10
71.88723871254332
 20
125.0
 30
0.0
 41
2.5
 42
2.5
 43
2.5
 50
90.0
  0
INSERT
  5
2E1
330
2DB
100
AcDbEntity
  8
DIMS
100
AcDbBlockReference
  2
_Open30
 10
71.88723871254332
 20
113.05
 30
0.0
 41
2.5
 42
2.5
 43
2.5
 50
270.0
  0
MTEXT
  5
2E2
330
2DB
100
AcDbEntity
  8
DIMS
 62
     7
100
AcDbMText
 10
69.98723871254332
 20
119.025
 30
0.0
 40
2.5
 41
0.0
 46
0.0
 71
     5
 72
     1
  1
\A1;11.95
 11
0.0
 21
1.0
 31
0.0
 73
     1
 44
1.0
  0
POINT
  5
2E3
330
2DB
100
AcDbEntity
  8
Defpoints
 62
     0
100
AcDbPoint
 10
65.10000000000011
 20
125.0
 30
0.0
  0
POINT
  5
2E4
330
2DB
100
AcDbEntity
  8
Defpoints
 62
     0
100
AcDbPoint
 10
62.95000000000005
 20
113.05
 30
0.0
  0
POINT
  5
2E5
330
2DB
100
AcDbEntity
  8
Defpoints
 62
     0
100
AcDbPoint
 10
71.88723871254332
 20
113.05
 30
0.0
  0
ENDBLK
  5
2DD
330
2DB
100
AcDbEntity
  8
0
100
AcDbBlockEnd
  0
BLOCK
  5
310
330
30F
100
AcDbEntity
  8
0
100
AcDbBlockBegin
  2
*D15
 70
     1
 10
0.0
 20
0.0
 30
0.0
  3
*D15
  1

  0
LINE
  5
312
330
30F
100
AcDbEntity
  8
DIMS
100
AcDbLine
 10
111.3039937926958
 20
125.0
 30
0.0
 11
115.2039937926958
 21
125.0
 31
0.0
  0
LINE
  5
313
330
30F
100
AcDbEntity
  8
DIMS
100
AcDbLine
 10
107.1498373972998
 20
134.15
 30
0.0
 11
115.2039937926958
 21
134.15
 31
0.0
  0
LINE
  5
314
330
30F
100
AcDbEntity
  8
DIMS
100
AcDbLine
 10
114.5539937926958
 20
127.5
 30
0.0
 11
114.5539937926958
 21
131.65
 31
0.0
  0
INSERT
  5
315
330
30F
100
AcDbEntity
  8
DIMS
100
AcDbBlockReference
  2
_Open30
 10
114.5539937926958
 20
125.0
 30
0.0
 41
2.5
 42
2.5
 43
2.5
 50
270.0
  0
INSERT
  5
316
330
30F
100
AcDbEntity
  8
DIMS
100
AcDbBlockReference
  2
_Open30
 10
114.5539937926958
 20
134.15
 30
0.0
 41
2.5
 42
2.5
 43
2.5
 50
90.0
  0
MTEXT
  5
317
330
30F
100
AcDbEntity
  8
DIMS
 62
     7
100
AcDbMText
 10
112.6539937926958
 20
129.6268119905882
 30
0.0
 40
2.5
 41
0.0
 46
0.0
 71
     5
 72
     1
  1
\A1;9.15
 11
0.0
 21
1.0
 31
0.0
 73
     1
 44
1.0
  0
POINT
  5
318
330
30F
100
AcDbEntity
  8
Defpoints
 62
     0
100
AcDbPoint
 10
106.4998373972998
 20
125.0
 30
0.0
  0
POINT
  5
319
330
30F
100
AcDbEntity
  8
Defpoints
 62
     0
100
AcDbPoint
 10
106.4998373972998
 20
134.15
 30
0.0
  0
POINT
  5
31A
330
30F
100
AcDbEntity
  8
Defpoints
 62
     0
100
AcDbPoint
 10
114.5539937926958
 20
134.15
 30
0.0
  0
ENDBLK
  5
311
330
30F
100
AcDbEntity
  8
0
100
AcDbBlockEnd
  0
BLOCK
  5
320
330
31F
100
AcDbEntity
  8
0
100
AcDbBlockBegin
  2
*D16
 70
     1
 10
0.0
 20
0.0
 30
0.0
  3
*D16
  1

  0
LINE
  5
322
330
31F
100
AcDbEntity
  8
DIMS
100
AcDbLine
 10
111.3039937926958
 20
125.0
 30
0.0
 11
117.0498373972998
 21
125.0
 31
0.0
  0
LINE
  5
323
330
31F
100
AcDbEntity
  8
DIMS
100
AcDbLine
 10
107.1498373972998
 20
116.65
 30
0.0
 11
117.0498373972998
 21
116.65
 31
0.0
  0
LINE
  5
324
330
31F
100
AcDbEntity
  8
DIMS
100
AcDbLine
 10
116.3998373972998
 20
116.65
 30
0.0
 11
116.3998373972998
 21
105.2309523809524
 31
0.0
  0
LINE
  5
325
330
31F
100
AcDbEntity
  8
DIMS
100
AcDbLine
 10
116.3998373972998
 20
122.5
 30
0.0
 11
116.3998373972998
 21
119.15
 31
0.0
  0
INSERT
  5
326
330
31F
100
AcDbEntity
  8
DIMS
100
AcDbBlockReference
  2
_Open30
 10
116.3998373972998
 20
125.0
 30
0.0
 41
2.5
 42
2.5
 43
2.5
 50
90.0
  0
INSERT
  5
327
330
31F
100
AcDbEntity
  8
DIMS
100
AcDbBlockReference
  2
_Open30
 10
116.3998373972998
 20
116.65
 30
0.0
 41
2.5
 42
2.5
 43
2.5
 50
270.0
  0
MTEXT
  5
328
330
31F
100
AcDbEntity
  8
DIMS
 62
     7
100
AcDbMText
 10
114.4998373972998
 20
109.6904761904762
 30
0.0
 40
2.5
 41
0.0
 46
0.0
 71
     5
 72
     1
  1
\A1;8.35
 11
0.0
 21
1.0
 31
0.0
 73
     1
 44
1.0
  0
POINT
  5
329
330
31F
100
AcDbEntity
  8
Defpoints
 62
     0
100
AcDbPoint
 10
106.4998373972998
 20
125.0
 30
0.0
  0
POINT
  5
32A
330
31F
100
AcDbEntity
  8
Defpoints
 62
     0
100
AcDbPoint
 10
106.4998373972998
 20
116.65
 30
0.0
  0
POINT
  5
32B
330
31F
100
AcDbEntity
  8
Defpoints
 62
     0
100
AcDbPoint
 10
116.3998373972998
 20
116.65
 30
0.0
  0
ENDBLK
  5
321
330
31F
100
AcDbEntity
  8
0
100
AcDbBlockEnd
  0
BLOCK
  5
332
330
331
100
AcDbEntity
  8
0
100
AcDbBlockBegin
  2
*D17
 70
     1
 10
0.0
 20
0.0
 30
0.0
  3
*D17
  1

  0
LINE
  5
334
330
331
100
AcDbEntity
  8
DIMS
100
AcDbLine
 10
107.1498373972998
 20
133.75
 30
0.0
 11
116.55
 21
133.75
 31
0.0
  0
LINE
  5
335
330
331
100
AcDbEntity
  8
DIMS
100
AcDbLine
 10
111.3039937926958
 20
125.0
 30
0.0
 11
116.55
 21
125.0
 31
0.0
  0
LINE
  5
336
330
331
100
AcDbEntity
  8
DIMS
100
AcDbLine
 10
115.9
 20
125.0
 30
0.0
 11
115.9
 21
113.5809523809524
 31
0.0
  0
LINE
  5
337
330
331
100
AcDbEntity
  8
DIMS
100
AcDbLine
 10
115.9
 20
131.25
 30
0.0
 11
115.9
 21
127.5
 31
0.0
  0
INSERT
  5
338
330
331
100
AcDbEntity
  8
DIMS
100
AcDbBlockReference
  2
_Open30
 10
115.9
 20
133.75
 30
0.0
 41
2.5
 42
2.5
 43
2.5
 50
90.0
  0
INSERT
  5
339
330
331
100
AcDbEntity
  8
DIMS
100
AcDbBlockReference
  2
_Open30
 10
115.9
 20
125.0
 30
0.0
 41
2.5
 42
2.5
 43
2.5
 50
270.0
  0
MTEXT
  5
33A
330
331
100
AcDbEntity
  8
DIMS
 62
     7
100
AcDbMText
 10
114.0
 20
118.0404761904762
 30
0.0
 40
2.5
 41
0.0
 46
0.0
 71
     5
 72
     1
  1
\A1;8.75
 11
0.0
 21
1.0
 31
0.0
 73
     1
 44
1.0
  0
POINT
  5
33B
330
331
100
AcDbEntity
  8
Defpoints
 62
     0
100
AcDbPoint
 10
106.4998373972998
 20
133.75
 30
0.0
  0
POINT
  5
33C
330
331
100
AcDbEntity
  8
Defpoints
 62
     0
100
AcDbPoint
 10
106.4998373972998
 20
125.0
 30
0.0
  0
POINT
  5
33D
330
331
100
AcDbEntity
  8
Defpoints
 62
     0
100
AcDbPoint
 10
115.9
 20
125.0
 30
0.0
  0
ENDBLK
  5
333
330
331
100
AcDbEntity
  8
0
100
AcDbBlockEnd
  0
BLOCK
  5
343
330
342
100
AcDbEntity
  8
0
100
AcDbBlockBegin
  2
*D18
 70
     1
 10
0.0
 20
0.0
 30
0.0
  3
*D18
  1

  0
LINE
  5
345
330
342
100
AcDbEntity
  8
DIMS
100
AcDbLine
 10
103.7498373972997
 20
116.25
 30
0.0
 11
101.0998373972997
 21
116.25
 31
0.0
  0
LINE
  5
346
330
342
100
AcDbEntity
  8
DIMS
100
AcDbLine
 10
92.83045629974093
 20
116.25
 30
0.0
 11
92.83045629974093
 21
104.8309523809524
 31
0.0
  0
LINE
  5
347
330
342
100
AcDbEntity
  8
DIMS
100
AcDbLine
 10
92.83045629974093
 20
122.5
 30
0.0
 11
92.83045629974093
 21
118.75
 31
0.0
  0
INSERT
  5
348
330
342
100
AcDbEntity
  8
DIMS
100
AcDbBlockReference
  2
_Open30
 10
92.83045629974093
 20
125.0
 30
0.0
 41
2.5
 42
2.5
 43
2.5
 50
90.0
  0
INSERT
  5
349
330
342
100
AcDbEntity
  8
DIMS
100
AcDbBlockReference
  2
_Open30
 10
92.83045629974093
 20
116.25
 30
0.0
 41
2.5
 42
2.5
 43
2.5
 50
270.0
  0
MTEXT
  5
34A
330
342
100
AcDbEntity
  8
DIMS
 62
     7
100
AcDbMText
 10
90.93045629974092
 20
109.2904761904762
 30
0.0
 40
2.5
 41
0.0
 46
0.0
 71
     5
 72
     1
  1
\A1;8.75
 11
0.0
 21
1.0
 31
0.0
 73
     1
 44
1.0
  0
POINT
  5
34B
330
342
100
AcDbEntity
  8
Defpoints
 62
     0
100
AcDbPoint
 10
106.4998373972998
 20
125.0
 30
0.0
  0
POINT
  5
34C
330
342
100
AcDbEntity
  8
Defpoints
 62
     0
100
AcDbPoint
 10
106.4998373972998
 20
116.25
 30
0.0
  0
POINT
  5
34D
330
342
100
AcDbEntity
  8
Defpoints
 62
     0
100
AcDbPoint
 10
92.83045629974093
 20
116.25
 30
0.0
  0
ENDBLK
  5
344
330
342
100
AcDbEntity
  8
0
100
AcDbBlockEnd
  0
BLOCK
  5
355
330
354
100
AcDbEntity
  8
0
100
AcDbBlockBegin
  2
*D19
 70
     1
 10
0.0
 20
0.0
 30
0.0
  3
*D19
  1

  0
LINE
  5
357
330
354
100
AcDbEntity
  8
DIMS
100
AcDbLine
 10
55.0
 20
112.65
 30
0.0
 11
55.0
 21
93.43865203369168
 31
0.0
  0
LINE
  5
358
330
354
100
AcDbEntity
  8
DIMS
100
AcDbLine
 10
106.4998373972998
 20
115.6
 30
0.0
 11
106.4998373972998
 21
93.43865203369168
 31
0.0
  0
LINE
  5
359
330
354
100
AcDbEntity
  8
DIMS
100
AcDbLine
 10
57.5
 20
94.08865203369169
 30
0.0
 11
103.9998373972998
 21
94.08865203369169
 31
0.0
  0
INSERT
  5
35A
330
354
100
AcDbEntity
  8
DIMS
100
AcDbBlockReference
  2
_Open30
 10
55.0
 20
94.08865203369169
 30
0.0
 41
2.5
 42
2.5
 43
2.5
 50
180.0
  0
INSERT
  5
35B
330
354
100
AcDbEntity
  8
DIMS
100
AcDbBlockReference
  2
_Open30
 10
106.4998373972998
 20
94.08865203369169
 30
0.0
 41
2.5
 42
2.5
 43
2.5
  0
MTEXT
  5
35C
330
354
100
AcDbEntity
  8
DIMS
 62
     7
100
AcDbMText
 10
80.74991869864988
 20
95.9886520336917
 30
0.0
 40
2.5
 41
0.0
 46
0.0
 71
     5
 72
     1
  1
\A1;51.5
 73
     1
 44
1.0
  0
POINT
  5
35D
330
354
100
AcDbEntity
  8
Defpoints
 62
     0
100
AcDbPoint
 10
55.0
 20
125.0
 30
0.0
  0
POINT
  5
35E
330
354
100
AcDbEntity
  8
Defpoints
 62
     0
100
AcDbPoint
 10
106.4998373972998
 20
116.25
 30
0.0
  0
POINT
  5
35F
330
354
100
AcDbEntity
  8
Defpoints
 62
     0
100
AcDbPoint
 10
106.4998373972998
 20
94.08865203369169
 30
0.0
  0
ENDBLK
  5
356
330
354
100
AcDbEntity
  8
0
100
AcDbBlockEnd
  0
BLOCK
  5
365
330
364
100
AcDbEntity
  8
0
100
AcDbBlockBegin
  2
*D20
 70
     1
 10
0.0
 20
0.0
 30
0.0
  3
*D20
  1

  0
LINE
  5
367
330
364
100
AcDbEntity
  8
DIMS
100
AcDbLine
 10
5.0
 20
199.35
 30
0.0
 11
5.0
 21
176.8688640242799
 31
0.0
  0
LINE
  5
368
330
364
100
AcDbEntity
  8
DIMS
100
AcDbLine
 10
65.00000000000011
 20
134.4
 30
0.0
 11
65.00000000000011
 21
178.1688640242799
 31
0.0
  0
LINE
  5
369
330
364
100
AcDbEntity
  8
DIMS
100
AcDbLine
 10
7.5
 20
177.5188640242799
 30
0.0
 11
62.50000000000011
 21
177.5188640242799
 31
0.0
  0
INSERT
  5
36A
330
364
100
AcDbEntity
  8
DIMS
100
AcDbBlockReference
  2
_Open30
 10
5.0
 20
177.5188640242799
 30
0.0
 41
2.5
 42
2.5
 43
2.5
 50
180.0
  0
INSERT
  5
36B
330
364
100
AcDbEntity
  8
DIMS
100
AcDbBlockReference
  2
_Open30
 10
65.00000000000011
 20
177.5188640242799
 30
0.0
 41
2.5
 42
2.5
 43
2.5
  0
MTEXT
  5
36C
330
364
100
AcDbEntity
  8
DIMS
 62
     7
100
AcDbMText
 10
35.00000000000006
 20
179.4188640242799
 30
0.0
 40
2.5
 41
0.0
 46
0.0
 71
     5
 72
     1
  1
\A1;60
 73
     1
 44
1.0
  0
POINT
  5
36D
330
364
100
AcDbEntity
  8
Defpoints
 62
     0
100
AcDbPoint
 10
5.0
 20
205.0
 30
0.0
  0
POINT
  5
36E
330
364
100
AcDbEntity
  8
Defpoints
 62
     0
100
AcDbPoint
 10
65.00000000000011
 20
125.0
 30
0.0
  0
POINT
  5
36F
330
364
100
AcDbEntity
  8
Defpoints
 62
     0
100
AcDbPoint
 10
65.00000000000011
 20
177.5188640242799
 30
0.0
  0
ENDBLK
  5
366
330
364
100
AcDbEntity
  8
0
100
AcDbBlockEnd
  0
BLOCK
  5
376
330
375
100
AcDbEntity
  8
0
100
AcDbBlockBegin
  2
*D21
 70
     1
 10
0.0
 20
0.0
 30
0.0
  3
*D21
  1

  0
LINE
  5
378
330
375
100
AcDbEntity
  8
DIMS
100
AcDbLine
 10
5.0
 20
205.65
 30
0.0
 11
5.0
 21
305.55
 31
0.0
  0
LINE
  5
379
330
375
100
AcDbEntity
  8
DIMS
100
AcDbLine
 10
104.9998373972998
 20
134.4
 30
0.0
 11
104.9998373972998
 21
305.55
 31
0.0
  0
LINE
  5
37A
330
375
100
AcDbEntity
  8
DIMS
100
AcDbLine
 10
7.5
 20
304.9
 30
0.0
 11
102.4998373972998
 21
304.9
 31
0.0
  0
INSERT
  5
37B
330
375
100
AcDbEntity
  8
DIMS
100
AcDbBlockReference
  2
_Open30
 10
5.0
 20
304.9
 30
0.0
 41
2.5
 42
2.5
 43
2.5
 50
180.0
  0
INSERT
  5
37C
330
375
100
AcDbEntity
  8
DIMS
100
AcDbBlockReference
  2
_Open30
 10
104.9998373972998
 20
304.9
 30
0.0
 41
2.5
 42
2.5
 43
2.5
  0
MTEXT
  5
37D
330
375
100
AcDbEntity
  8
DIMS
 62
     7
100
AcDbMText
 10
54.99991869864988
 20
306.8
 30
0.0
 40
2.5
 41
0.0
 46
0.0
 71
     5
 72
     1
  1
\A1;100
 73
     1
 44
1.0
  0
POINT
  5
37E
330
375
100
AcDbEntity
  8
Defpoints
 62
     0
100
AcDbPoint
 10
5.0
 20
205.0
 30
0.0
  0
POINT
  5
37F
330
375
100
AcDbEntity
  8
Defpoints
 62
     0
100
AcDbPoint
 10
104.9998373972998
 20
125.0
 30
0.0
  0
POINT
  5
380
330
375
100
AcDbEntity
  8
Defpoints
 62
     0
100
AcDbPoint
 10
104.9998373972998
 20
304.9
 30
0.0
  0
ENDBLK
  5
377
330
375
100
AcDbEntity
  8
0
100
AcDbBlockEnd
  0
ENDSEC
  0
SECTION
  2
ENTITIES
  0
LINE
  5
61
330
1B
100
AcDbEntity
  8
OBJECT
100
AcDbLine
 10
105.0
 20
121.0000000000001
 30
0.0
 11
108.2
 21
121.0000000000001
 31
0.0
  0
LINE
  5
63
330
1B
100
AcDbEntity
  8
OBJECT
100
AcDbLine
 10
105.0
 20
122.6000000000001
 30
0.0
 11
108.2
 21
122.6000000000001
 31
0.0
  0
LINE
  5
64
330
1B
100
AcDbEntity
  8
OBJECT
100
AcDbLine
 10
105.0
 20
124.2
 30
0.0
 11
108.2
 21
124.2
 31
0.0
  0
LINE
  5
65
330
1B
100
AcDbEntity
  8
OBJECT
100
AcDbLine
 10
108.2
 20
124.2
 30
0.0
 11
120.9999999999999
 21
124.8480408286907
 31
0.0
  0
LINE
  5
66
330
1B
100
AcDbEntity
  8
OBJECT
100
AcDbLine
 10
108.2
 20
122.6000000000001
 30
0.0
 11
120.9999999999999
 21
124.3680408286908
 31
0.0
  0
LINE
  5
67
330
1B
100
AcDbEntity
  8
OBJECT
100
AcDbLine
 10
108.2
 20
121.0000000000001
 30
0.0
 11
120.9999999999999
 21
123.8880408286907
 31
0.0
  0
LINE
  5
68
330
1B
100
AcDbEntity
  8
OBJECT
370
    30
100
AcDbLine
 10
221.0
 20
123.8959795856547
 30
0.0
 11
237.0
 21
123.8959795856547
 31
0.0
  0
LINE
  5
69
330
1B
100
AcDbEntity
  8
OBJECT
370
    30
100
AcDbLine
 10
221.0
 20
124.5959795856547
 30
0.0
 11
237.0
 21
124.5959795856547
 31
0.0
  0
LINE
  5
6A
330
1B
100
AcDbEntity
  8
OBJECT
370
    30
100
AcDbLine
 10
221.0
 20
125.2959795856547
 30
0.0
 11
237.0
 21
125.2959795856547
 31
0.0
  0
LINE
  5
6B
330
1B
100
AcDbEntity
  8
OBJECT
370
    30
100
AcDbLine
 10
221.0
 20
125.9959795856546
 30
0.0
 11
237.0
 21
125.9959795856546
 31
0.0
  0
LINE
  5
6C
102
{ACAD_REACTORS
330
AB
102
}
330
1B
100
AcDbEntity
  8
OBJECT
370
    30
100
AcDbLine
 10
221.0
 20
126.6959795856546
 30
0.0
 11
237.0
 21
126.6959795856546
 31
0.0
  0
LINE
  5
6D
330
1B
100
AcDbEntity
  8
OBJECT
370
    30
100
AcDbLine
 10
221.0
 20
123.1959795856547
 30
0.0
 11
237.0
 21
123.1959795856547
 31
0.0
  0
LINE
  5
6E
330
1B
100
AcDbEntity
  8
OBJECT
100
AcDbLine
 10
105.0
 20
128.9999999999999
 30
0.0
 11
108.2
 21
128.9999999999999
 31
0.0
  0
LINE
  5
6F
330
1B
100
AcDbEntity
  8
OBJECT
100
AcDbLine
 10
105.0
 20
127.4
 30
0.0
 11
108.2
 21
127.4
 31
0.0
  0
LINE
  5
70
330
1B
100
AcDbEntity
  8
OBJECT
100
AcDbLine
 10
105.0
 20
125.8
 30
0.0
 11
108.2
 21
125.8
 31
0.0
  0
LINE
  5
71
330
1B
100
AcDbEntity
  8
OBJECT
100
AcDbLine
 10
108.2
 20
125.8
 30
0.0
 11
120.9999999999999
 21
125.1519591713094
 31
0.0
  0
LINE
  5
72
330
1B
100
AcDbEntity
  8
OBJECT
100
AcDbLine
 10
108.2
 20
127.4
 30
0.0
 11
120.9999999999999
 21
125.6319591713093
 31
0.0
  0
LINE
  5
73
330
1B
100
AcDbEntity
  8
OBJECT
100
AcDbLine
 10
108.2
 20
128.9999999999999
 30
0.0
 11
120.9999999999999
 21
126.1119591713093
 31
0.0
  0
INSERT
  5
74
102
{ACAD_REACTORS
330
181
102
}
330
1B
100
AcDbEntity
  8
0
100
AcDbBlockReference
  2
XADR-12V_b
 10
105.0
 20
125.0
 30
0.0
 50
270.0
  0
DIMENSION
  5
A9
102
{ACAD_REACTORS
330
AB
102
}
102
{ACAD_XDICTIONARY
360
AA
102
}
330
1B
100
AcDbEntity
  8
DIMS
100
AcDbDimension
  2
*D2
 10
237.0
 20
148.4124888816166
 30
0.0
 11
171.0
 21
150.3124888816166
 31
0.0
 70
    32
  1
L
 71
     5
 42
132.0
 73
     0
 74
     0
 75
     0
  3
STANDARD
100
AcDbAlignedDimension
 13
105.0
 23
133.75
 33
0.0
 14
237.0
 24
126.6959795856546
 34
0.0
100
AcDbRotatedDimension
1001
ENABLE_CUSTOM_SPLIT
1070
     1
  0
ACAD_TABLE
  5
B8
330
1B
100
AcDbEntity
  8
0
 92
     3824
310
F00E00001B000000880000001D000000000000000000F03F00000000000000000000000000000000F37BFE6C9CE55B400000000000000000000000000000F03F0000000000000000110B8EC7596B564000000000000000000000000000000000000000000000F03F0000000000000000000000000000000000000000000000
310
000000000000000000000000000000F03F0C0000001200000000000000E4000000260000003333333333930A400000000000000EC0000000000000000000000000000000000000000000000000000000000000F03F000000000000F03F00000000000000000000000000000000779555304C0008FF58534D4F6D006D0009FF
310
000009000000010000000000000000000440343333333333EB3F0000000000000000000000000000F03F0000000000000000000000000000000000000000000000000000000000000000000000000000000072006F006D0061006E0073002E007300680078000000000062006900670066006F006E0074002E007300680078
310
000000D80000002600000049922449921C48400000000000000EC0000000000000000000000000000000000000000000000000000000000000F03F000000000000F03F000000000000000000000000000000000D54F0790000000002000000010000000000000000000440343333333333EB3F000000000000000000000000
310
0000F03F0000000000000000000000000000000000000000000000000000000000000000000000000000000072006F006D0061006E0073002E007300680078000000000062006900670066006F006E0074002E007300680078000000D8000000260000007CC5577CC50E56400000000000000EC00000000000000000000000
310
00000000000000000000000000000000000000F03F000000000000F03F000000000000000000000000000000008B576A750000000002000000010000000000000000000440343333333333EB3F0000000000000000000000000000F03F00000000000000000000000000000000000000000000000000000000000000000000
310
00000000000072006F006D0061006E0073002E007300680078000000000062006900670066006F006E0074002E007300680078000000DC00000026000000DBB66DDBB69A234000000000008021C0000000000000000000000000000000000000000000000000000000000000F03F000000000000F03F000000000000000000
310
0000000000000031003000300030000000000004000000010000000000000000000440343333333333EB3F0000000000000000000000000000F03F0000000000000000000000000000000000000000000000000000000000000000000000000000000072006F006D0061006E0073002E007300680078000000000062006900
310
670066006F006E0074002E007300680078000000F000000026000000B21FFBB15FFE4040AAAAAAAAAA2221C0000000000000000000000000000000000000000000000000000000000000F03F000000000000F03F0000000000000000000000000000000049002F004F00B130FC30D630EB304200200031003000300030006D
310
006D0000000F000000010000000000000000000440343333333333EB3F0000000000000000000000000000F03F0000000000000000000000000000000000000000000000000000000000000000000000000000000072006F006D0061006E0073002E007300680078000000000062006900670066006F006E0074002E007300
310
680078000000EC00000026000000E8799EE7F98F534000000000008021C0000000000000000000000000000000000000000000000000000000000000F03F000000000000F03F0000000000000000000000000000000043004D0049004F00420031002D0031003000300030005300000000000C000000010000000000000000
310
000440343333333333EB3F0000000000000000000000000000F03F0000000000000000000000000000000000000000000000000000000000000000000000000000000072006F006D0061006E0073002E007300680078000000000062006900670066006F006E0074002E007300680078000000DC0000002600000085611886
310
61E423400000000000802BC0000000000000000000000000000000000000000000000000000000000000F03F000000000000F03F0000000000000000000000000000000033003000300030000000000004000000010000000000000000000440343333333333EB3F0000000000000000000000000000F03F00000000000000
310
00000000000000000000000000000000000000000000000000000000000000000072006F006D0061006E0073002E007300680078000000000062006900670066006F006E0074002E007300680078000000F000000026000000B21FFBB15FFE4040ABAAAAAAAA222BC000000000000000000000000000000000000000000000
310
0000000000000000F03F000000000000F03F0000000000000000000000000000000049002F004F00B130FC30D630EB304200200033003000300030006D006D0000000F000000010000000000000000000440343333333333EB3F0000000000000000000000000000F03F000000000000000000000000000000000000000000
310
0000000000000000000000000000000000000072006F006D0061006E0073002E007300680078000000000062006900670066006F006E0074002E007300680078000000EC00000026000000E8799EE7F98F53400000000000802BC0000000000000000000000000000000000000000000000000000000000000F03F00000000
310
0000F03F0000000000000000000000000000000043004D0049004F00420031002D0033003000300030005300000000000C000000010000000000000000000440343333333333EB3F0000000000000000000000000000F03F000000000000000000000000000000000000000000000000000000000000000000000000000000
310
0072006F006D0061006E0073002E007300680078000000000062006900670066006F006E0074002E007300680078000000DC000000260000008561188661E423400000000000C032C0000000000000000000000000000000000000000000000000000000000000F03F000000000000F03F0000000000000000000000000000
310
000035003000300030000000000004000000010000000000000000000440343333333333EB3F0000000000000000000000000000F03F0000000000000000000000000000000000000000000000000000000000000000000000000000000072006F006D0061006E0073002E007300680078000000000062006900670066006F
310
006E0074002E007300680078000000F000000026000000B21FFBB15FFE404056555555559132C0000000000000000000000000000000000000000000000000000000000000F03F000000000000F03F0000000000000000000000000000000049002F004F00B130FC30D630EB304200200035003000300030006D006D000000
310
0F000000010000000000000000000440343333333333EB3F0000000000000000000000000000F03F0000000000000000000000000000000000000000000000000000000000000000000000000000000072006F006D0061006E0073002E007300680078000000000062006900670066006F006E0074002E0073006800780000
310
00EC00000026000000E8799EE7F98F53400000000000C032C0000000000000000000000000000000000000000000000000000000000000F03F000000000000F03F0000000000000000000000000000000043004D0049004F00420031002D0035003000300030005300000000000C0000000100000000000000000004403433
310
33333333EB3F0000000000000000000000000000F03F0000000000000000000000000000000000000000000000000000000000000000000000000000000072006F006D0061006E0073002E007300680078000000000062006900670066006F006E0074002E0073006800780000000C00000012000000FE7F00005400000020
310
000000020000000000000000000000000000000000000000000000000000000000000000005B400000000000000000000000000000000000000000000000000000000000000000000000000000F03F5400000020000000020000000000000000005B40000000000000000000000000000000000000000000005B4000000000
310
000034C0000000000000000000000000000000000000000000000000000000000000F03F540000002000000002000000000000000000000000000000000014C000000000000000000000000000005B4000000000000014C0000000000000000000000000000000000000000000000000000000000000F03F54000000200000
310
0002000000000000000000000000000000000024C000000000000000000000000000005B4000000000000024C0000000000000000000000000000000000000000000000000000000000000F03F54000000200000000200000000000000000000000000000000002EC000000000000000000000000000005B40000000000000
310
2EC0000000000000000000000000000000000000000000000000000000000000F03F540000002000000002000000000000000000000000000000000034C000000000000000000000000000005B4000000000000034C0000000000000000000000000000000000000000000000000000000000000F03F540000002000000002
310
000000000000000000000000000000000000000000000000000000000000000000000000000000000034C0000000000000000000000000000000000000000000000000000000000000F03F5400000020000000020000000000000000003C40000000000000000000000000000000000000000000003C4000000000000034C0
310
000000000000000000000000000000000000000000000000000000000000F03F540000002000000002000000000000000040524000000000000000000000000000000000000000000040524000000000000034C0000000000000000000000000000000000000000000000000000000000000F03F080000001F000000880000
310
001D000000000000000000F03F0000000000000000000000000000000000000000000000000000000000000000000000000000F03F0000000000000000000000000000000000000000000000000000000000000000000000000000F03F00000000000000000000000000000000000000000000000000000000000000000000
310
00000000F03F080000001F000000
100
AcDbBlockReference
  2
*T3
 10
111.5876724705884
 20
89.67735470649156
 30
0.0
100
AcDbTable
342
D2
343
B9
 11
1.0
 21
0.0
 31
0.0
 90
       54
 91
        4
 92
        3
 93
        1
 94
        0
 95
        0
 96
        0
280
     1
141
5.0
141
5.0
141
5.0
141
5.0
142
28.0
142
45.0
142
35.0
171
     1
172
     0
173
     0
174
     0
175
     1
176
     1
 91
        0
178
     0
145
0.0
 92
        0
301
CELL_VALUE
 93
        6
 90
        4
  1
長さL（単位mm）
 94
        0
300

302
長さL（単位mm）
304
ACVALUE_END
171
     1
172
     0
173
     0
174
     0
175
     1
176
     1
 91
        0
178
     0
145
0.0
 92
        0
301
CELL_VALUE
 93
        6
 90
        4
  1
名称
 94
        0
300

302
名称
304
ACVALUE_END
171
     1
172
     0
173
     0
174
     0
175
     1
176
     1
 91
        0
178
     0
145
0.0
 92
        0
301
CELL_VALUE
 93
        6
 90
        4
  1
型番
 94
        0
300

302
型番
304
ACVALUE_END
171
     1
172
     6
173
     0
174
     0
175
     1
176
     1
 91
     6144
178
     0
145
0.0
275
    -1
276
    -1
 92
        0
301
CELL_VALUE
 93
        6
 90
        4
  1
1000
 94
        0
300

302
1000
304
ACVALUE_END
171
     1
172
    14
173
     0
174
     0
175
     1
176
     1
 91
    14336
178
     8
145
0.0
275
    -1
276
    -1
 92
        0
301
CELL_VALUE
 93
        6
 90
        4
  1
I/OケーブルB 1000mm
 94
        0
300

302
I/OケーブルB 1000mm
304
ACVALUE_END
171
     1
172
    12
173
     0
174
     0
175
     1
176
     1
 91
    12288
178
     8
145
0.0
276
    -1
 92
        0
301
CELL_VALUE
 93
        6
 90
        4
  1
CMIOB1-1000S
 94
        0
300

302
CMIOB1-1000S
304
ACVALUE_END
171
     1
172
     7
173
     0
174
     0
175
     1
176
     1
 91
     7168
178
     1
145
0.0
275
    -1
276
    -1
 92
        0
301
CELL_VALUE
 93
        6
 90
        4
  1
3000
 94
        0
300

302
3000
304
ACVALUE_END
171
     1
172
    15
173
     0
174
     0
175
     1
176
     1
 91
    15360
178
     9
145
0.0
275
    -1
276
    -1
 92
        0
301
CELL_VALUE
 93
        6
 90
        4
  1
I/OケーブルB 3000mm
 94
        0
300

302
I/OケーブルB 3000mm
304
ACVALUE_END
171
     1
172
    13
173
     0
174
     0
175
     1
176
     1
 91
    13312
178
     9
145
0.0
276
    -1
 92
        0
301
CELL_VALUE
 93
        6
 90
        4
  1
CMIOB1-3000S
 94
        0
300

302
CMIOB1-3000S
304
ACVALUE_END
171
     1
172
     3
173
     0
174
     0
175
     1
176
     1
 91
     3072
178
     1
145
0.0
275
    -1
 92
        0
301
CELL_VALUE
 93
        6
 90
        4
  1
5000
 94
        0
300

302
5000
304
ACVALUE_END
171
     1
172
    11
173
     0
174
     0
175
     1
176
     1
 91
    11264
178
     9
145
0.0
275
    -1
 92
        0
301
CELL_VALUE
 93
        6
 90
        4
  1
I/OケーブルB 5000mm
 94
        0
300

302
I/OケーブルB 5000mm
304
ACVALUE_END
171
     1
172
     9
173
     0
174
     0
175
     1
176
     1
 91
     9216
178
     9
145
0.0
 92
        0
301
CELL_VALUE
 93
        6
 90
        4
  1
CMIOB1-5000S
 94
        0
300

302
CMIOB1-5000S
304
ACVALUE_END
  0
MTEXT
  5
D4
330
1B
100
AcDbEntity
  8
DIMS
100
AcDbMText
 10
54.1584435329836
 20
106.2450639500246
 30
0.0
 40
2.5
 41
19.90699404761904
 46
6.666666666666667
 71
     1
 72
     1
  1
{XADR-12V\P（JST）}
 73
     1
 44
1.0
1001
ACAD
1000
ACAD_MTEXT_DEFINED_HEIGHT_BEGIN
1070
    46
1040
6.666666666666667
1000
ACAD_MTEXT_DEFINED_HEIGHT_END
  0
INSERT
  5
D5
102
{ACAD_REACTORS
330
192
330
1A2
102
}
330
1B
100
AcDbEntity
  8
OBJECT
100
AcDbBlockReference
  2
XADR-12V‗ｌ
 10
65.00000000000011
 20
125.0
 30
0.0
 50
270.0
  0
DIMENSION
  5
17F
102
{ACAD_REACTORS
330
181
102
}
102
{ACAD_XDICTIONARY
360
180
102
}
330
1B
100
AcDbEntity
  8
DIMS
100
AcDbDimension
  2
*D5
 10
105.0
 20
148.4124888816166
 30
0.0
 11
94.3985553394146
 21
148.4124888816166
 31
0.0
 70
   160
 71
     5
 42
21.50000000000003
 73
     0
 74
     0
 75
     0
  3
STANDARD
100
AcDbAlignedDimension
 13
83.49999999999997
 23
133.75
 33
0.0
 14
105.0
 24
133.75
 34
0.0
100
AcDbRotatedDimension
1001
ENABLE_CUSTOM_SPLIT
1070
     1
  0
DIMENSION
  5
190
102
{ACAD_REACTORS
330
192
102
}
102
{ACAD_XDICTIONARY
360
191
102
}
330
1B
100
AcDbEntity
  8
DIMS
100
AcDbDimension
  2
*D6
 10
65.00000000000011
 20
148.1529841003947
 30
0.0
 11
59.95000000000005
 21
150.0529841003947
 31
0.0
 70
    32
 71
     5
 42
10.10000000000014
 73
     0
 74
     1
 75
     1
  3
STANDARD
100
AcDbAlignedDimension
 13
54.89999999999998
 23
136.7
 33
0.0
 14
65.00000000000011
 24
133.75
 34
0.0
100
AcDbRotatedDimension
1001
ENABLE_CUSTOM_SPLIT
1070
     1
  0
DIMENSION
  5
1A0
102
{ACAD_REACTORS
330
1A2
102
}
102
{ACAD_XDICTIONARY
360
1A1
102
}
330
1B
100
AcDbEntity
  8
DIMS
100
AcDbDimension
  2
*D7
 10
47.9461614296128
 20
113.0499999999999
 30
0.0
 11
46.0461614296128
 21
124.9999999999999
 31
0.0
 70
    32
 71
     5
 42
23.90000000000009
 73
     0
 74
     0
 75
     0
  3
STANDARD
100
AcDbAlignedDimension
 13
56.09999999999997
 23
136.95
 33
0.0
 14
56.09999999999991
 24
113.0499999999999
 34
0.0
 50
90.0
100
AcDbRotatedDimension
1001
ENABLE_CUSTOM_SPLIT
1070
     1
  0
DIMENSION
  5
1B0
102
{ACAD_XDICTIONARY
360
1B1
102
}
330
1B
100
AcDbEntity
  8
DIMS
100
AcDbDimension
  2
*D8
 10
167.7394895954604
 20
122.3000000000001
 30
0.0
 11
167.7394895954604
 21
137.2841517857144
 31
0.0
 70
   160
  1
Φ<>
 71
     5
 42
5.400000000000006
 73
     0
 74
     0
 75
     0
  3
STANDARD
100
AcDbAlignedDimension
 13
168.0
 23
127.7000000000001
 33
0.0
 14
168.0
 24
122.3000000000001
 34
0.0
 50
90.0
100
AcDbRotatedDimension
1001
ENABLE_CUSTOM_SPLIT
1070
     1
  0
LWPOLYLINE
  5
205
330
1B
100
AcDbEntity
  8
Defpoints
100
AcDbPolyline
 90
        3
 70
     0
 43
0.0
 10
5.0
 20
200.0
 10
5.0
 20
205.0
 10
10.0
 20
205.0
  0
LWPOLYLINE
  5
206
330
1B
100
AcDbEntity
  8
Defpoints
100
AcDbPolyline
 90
        3
 70
     0
 43
0.0
 10
287.0000000000001
 20
205.0
 10
292.0000000000001
 20
205.0
 10
292.0000000000001
 20
200.0
  0
LWPOLYLINE
  5
207
330
1B
100
AcDbEntity
  8
Defpoints
100
AcDbPolyline
 90
        3
 70
     0
 43
0.0
 10
292.0000000000001
 20
9.999999999999972
 10
292.0000000000001
 20
4.999999999999972
 10
287.0000000000001
 20
4.999999999999972
  0
LWPOLYLINE
  5
208
330
1B
100
AcDbEntity
  8
Defpoints
100
AcDbPolyline
 90
        3
 70
     0
 43
0.0
 10
10.0
 20
5.0
 10
5.0
 20
5.0
 10
5.0
 20
10.0
  0
LWPOLYLINE
  5
209
330
1B
100
AcDbEntity
  8
Defpoints
100
AcDbPolyline
 90
        3
 70
     0
 43
0.0
 10
10.0
 20
0.0
 10
0.0
 20
0.0
 10
0.0
 20
10.0
  0
LWPOLYLINE
  5
20A
330
1B
100
AcDbEntity
  8
Defpoints
100
AcDbPolyline
 90
        3
 70
     0
 43
0.0
 10
297.0000000000001
 20
9.999999999999972
 10
297.0000000000001
 20
-0.0000000000000284
 10
287.0000000000001
 20
-0.0000000000000284
  0
LWPOLYLINE
  5
20B
330
1B
100
AcDbEntity
  8
Defpoints
100
AcDbPolyline
 90
        3
 70
     0
 43
0.0
 10
287.0000000000001
 20
210.0
 10
297.0000000000001
 20
210.0
 10
297.0000000000001
 20
200.0
  0
LWPOLYLINE
  5
20C
330
1B
100
AcDbEntity
  8
Defpoints
100
AcDbPolyline
 90
        3
 70
     0
 43
0.0
 10
0.0
 20
200.0
 10
0.0
 20
210.0
 10
10.0
 20
210.0
  0
LINE
  5
266
330
1B
100
AcDbEntity
  8
OBJECT
100
AcDbLine
 10
126.9999999999999
 20
128.3000000000001
 30
0.0
 11
120.9999999999999
 21
127.8000000000001
 31
0.0
  0
LINE
  5
267
330
1B
100
AcDbEntity
  8
OBJECT
100
AcDbLine
 10
126.9999999999999
 20
121.7000000000001
 30
0.0
 11
120.9999999999999
 21
122.2000000000001
 31
0.0
  0
LINE
  5
268
102
{ACAD_REACTORS
102
}
330
1B
100
AcDbEntity
  8
OBJECT
100
AcDbLine
 10
120.9999999999999
 20
127.8000000000001
 30
0.0
 11
120.9999999999999
 21
122.2000000000001
 31
0.0
  0
LINE
  5
269
330
1B
100
AcDbEntity
  8
OBJECT
100
AcDbLine
 10
132.9999999999999
 20
128.3000000000001
 30
0.0
 11
132.9999999999999
 21
121.7000000000001
 31
0.0
  0
LINE
  5
26A
330
1B
100
AcDbEntity
  8
OBJECT
100
AcDbLine
 10
126.9999999999999
 20
128.3000000000001
 30
0.0
 11
132.9999999999999
 21
128.3000000000001
 31
0.0
  0
LINE
  5
26B
330
1B
100
AcDbEntity
  8
OBJECT
100
AcDbLine
 10
126.9999999999999
 20
121.7000000000001
 30
0.0
 11
132.9999999999999
 21
121.7000000000001
 31
0.0
  0
LINE
  5
26C
102
{ACAD_REACTORS
102
}
330
1B
100
AcDbEntity
  8
OBJECT
100
AcDbLine
 10
220.9999999999999
 20
127.8000000000001
 30
0.0
 11
220.9999999999999
 21
122.2000000000001
 31
0.0
  0
LINE
  5
26D
330
1B
100
AcDbEntity
  8
OBJECT
100
AcDbLine
 10
214.9999999999999
 20
128.3000000000001
 30
0.0
 11
220.9999999999999
 21
127.8000000000001
 31
0.0
  0
LINE
  5
26E
330
1B
100
AcDbEntity
  8
OBJECT
100
AcDbLine
 10
214.9999999999999
 20
121.7000000000001
 30
0.0
 11
220.9999999999999
 21
122.2000000000001
 31
0.0
  0
LINE
  5
26F
330
1B
100
AcDbEntity
  8
OBJECT
100
AcDbLine
 10
208.9999999999999
 20
128.3000000000001
 30
0.0
 11
208.9999999999999
 21
121.7000000000001
 31
0.0
  0
LINE
  5
270
330
1B
100
AcDbEntity
  8
OBJECT
100
AcDbLine
 10
214.9999999999999
 20
128.3000000000001
 30
0.0
 11
208.9999999999999
 21
128.3000000000001
 31
0.0
  0
LINE
  5
271
330
1B
100
AcDbEntity
  8
OBJECT
100
AcDbLine
 10
214.9999999999999
 20
121.7000000000001
 30
0.0
 11
208.9999999999999
 21
121.7000000000001
 31
0.0
  0
LINE
  5
272
330
1B
100
AcDbEntity
  8
OBJECT
100
AcDbLine
 10
132.9999999999999
 20
127.7000000000001
 30
0.0
 11
208.9999999999999
 21
127.7000000000001
 31
0.0
  0
LINE
  5
273
330
1B
100
AcDbEntity
  8
OBJECT
100
AcDbLine
 10
132.9999999999999
 20
122.3000000000001
 30
0.0
 11
208.9999999999999
 21
122.3000000000001
 31
0.0
  0
ENDSEC
  0
SECTION
  2
OBJECTS
  0
DICTIONARY
  5
A
330
0
100
AcDbDictionary
281
     1
  3
ACAD_COLOR
350
33
  3
ACAD_DETAILVIEWSTYLE
350
1C8
  3
ACAD_GROUP
350
31
  3
ACAD_LAYOUT
350
22
  3
ACAD_MATERIAL
350
C
  3
ACAD_MLEADERSTYLE
350
1C6
  3
ACAD_MLINESTYLE
350
2D
  3
ACAD_PLOTSETTINGS
350
32
  3
ACAD_PLOTSTYLENAME
350
9
  3
ACAD_SCALELIST
350
39
  3
ACAD_SECTIONVIEWSTYLE
350
1C9
  3
ACAD_TABLESTYLE
350
D3
  3
ACAD_VISUALSTYLE
350
34
  3
ACDB_RECOMPOSE_DATA
350
39F
  3
AcDbVariableDictionary
350
1C1
  3
APPDATA
350
1E3
  0
SUN
  5
37
330
35
100
AcDbSun
 90
        1
290
     0
 63
     7
421
 16777215
 40
1.0
291
     1
 91
  2455826
 92
 54000000
292
     0
 70
     2
 71
   256
280
     1
  0
DICTIONARY
  5
3
330
2
100
AcDbDictionary
280
     1
281
     1
  3
ACAD_LAYERSTATES
360
4
  3
ACLYDICTIONARY
360
5
  0
DICTIONARY
  5
1C
330
1B
100
AcDbDictionary
280
     1
281
     1
  3
ACAD_SORTENTS
360
308
  3
DIM_BOUNDING_BOXES_V1
360
1D
  0
DICTIONARY
  5
30A
330
75
100
AcDbDictionary
280
     1
281
     1
  3
ACAD_SORTENTS
360
30B
  0
DICTIONARY
  5
AA
330
A9
100
AcDbDictionary
280
     1
281
     1
  3
ACAD_CUSTOM_BREAKDATA
360
350
  3
ACAD_DIMASSOC
360
AB
  0
DICTIONARY
  5
180
330
17F
100
AcDbDictionary
280
     1
281
     1
  3
ACAD_CUSTOM_BREAKDATA
360
32D
  3
ACAD_DIMASSOC
360
181
  0
DICTIONARY
  5
191
330
190
100
AcDbDictionary
280
     1
281
     1
  3
ACAD_CUSTOM_BREAKDATA
360
38D
  3
ACAD_DIMASSOC
360
192
  0
DICTIONARY
  5
1A1
330
1A0
100
AcDbDictionary
280
     1
281
     1
  3
ACAD_CUSTOM_BREAKDATA
360
1A3
  3
ACAD_DIMASSOC
360
1A2
  0
DICTIONARY
  5
1B1
330
1B0
100
AcDbDictionary
280
     1
281
     1
  3
ACAD_CUSTOM_BREAKDATA
360
394
  0
DICTIONARY
  5
33
102
{ACAD_REACTORS
330
A
102
}
330
A
100
AcDbDictionary
281
     1
  0
DICTIONARY
  5
1C8
102
{ACAD_REACTORS
330
A
102
}
330
A
100
AcDbDictionary
281
     1
  0
DICTIONARY
  5
31
102
{ACAD_REACTORS
330
A
102
}
330
A
100
AcDbDictionary
281
     1
  0
DICTIONARY
  5
22
102
{ACAD_REACTORS
330
A
102
}
330
A
100
AcDbDictionary
281
     1
  3
Model
350
21
  3
ﾚｲｱｳﾄ1
350
26
  0
DICTIONARY
  5
C
102
{ACAD_REACTORS
330
A
102
}
330
A
100
AcDbDictionary
281
     1
  3
ByBlock
350
5D
  3
ByLayer
350
5C
  3
Global
350
B
  0
DICTIONARY
  5
1C6
102
{ACAD_REACTORS
330
A
102
}
330
A
100
AcDbDictionary
281
     1
  3
Standard
350
1E2
  0
DICTIONARY
  5
2D
102
{ACAD_REACTORS
330
A
102
}
330
A
100
AcDbDictionary
281
     1
  3
STANDARD
350
2C
  0
DICTIONARY
  5
32
102
{ACAD_REACTORS
330
A
102
}
330
A
100
AcDbDictionary
281
     1
  0
ACDBDICTIONARYWDFLT
  5
9
102
{ACAD_REACTORS
330
A
102
}
330
A
100
AcDbDictionary
281
     1
  3
Normal
350
8
100
AcDbDictionaryWithDefault
340
8
  0
DICTIONARY
  5
39
102
{ACAD_REACTORS
330
A
102
}
330
A
100
AcDbDictionary
281
     1
  3
*A1
350
5B
  0
DICTIONARY
  5
1C9
102
{ACAD_REACTORS
330
A
102
}
330
A
100
AcDbDictionary
281
     1
  0
DICTIONARY
  5
D3
102
{ACAD_REACTORS
330
A
102
}
330
A
100
AcDbDictionary
281
     1
  3
部品表
350
D2
  0
DICTIONARY
  5
34
102
{ACAD_REACTORS
330
A
102
}
330
A
100
AcDbDictionary
281
     1
  3
2dWireframe
350
36
  3
Basic
350
1D1
  3
Brighten
350
1D5
  3
ColorChange
350
1D9
  3
Conceptual
350
1D3
  3
Dim
350
1D4
  3
EdgeColorOff
350
1DC
  3
Facepattern
350
1D8
  3
Flat
350
1CB
  3
FlatWithEdges
350
1CC
  3
Gouraud
350
1CD
  3
GouraudWithEdges
350
1CE
  3
Hidden
350
1D0
  3
JitterOff
350
1DA
  3
Linepattern
350
1D7
  3
OverhangOff
350
1DB
  3
Realistic
350
1D2
  3
Shaded
350
1E1
  3
Shaded with edges
350
1E0
  3
Shades of Gray
350
1DD
  3
Sketchy
350
1DE
  3
Thicken
350
1D6
  3
Wireframe
350
1CF
  3
X-Ray
350
1DF
  0
XRECORD
  5
39F
102
{ACAD_REACTORS
330
A
102
}
330
A
100
AcDbXrecord
280
     1
 90
        1
330
D2
  0
DICTIONARY
  5
1C1
102
{ACAD_REACTORS
330
A
102
}
330
A
100
AcDbDictionary
281
     1
  3
CANNOSCALE
350
1C2
  3
CMLEADERSTYLE
350
212
  3
CTABLESTYLE
350
211
  3
XCLIPFRAME
350
1C7
  0
DICTIONARY
  5
1E3
102
{ACAD_REACTORS
330
A
102
}
330
A
100
AcDbDictionary
281
     1
  0
DICTIONARY
  5
4
102
{ACAD_REACTORS
330
3
102
}
330
3
100
AcDbDictionary
281
     1
  0
DICTIONARY
  5
5
102
{ACAD_REACTORS
330
3
102
}
330
3
100
AcDbDictionary
281
     1
1001
ACAD
1000
<All
  0
SORTENTSTABLE
  5
308
102
{ACAD_REACTORS
330
1C
102
}
330
1C
100
AcDbSortentsTable
330
1B
  0
DICTIONARY
  5
1D
102
{ACAD_REACTORS
330
1C
102
}
330
1C
100
AcDbDictionary
281
     1
  0
SORTENTSTABLE
  5
30B
102
{ACAD_REACTORS
330
30A
102
}
330
30A
100
AcDbSortentsTable
330
75
  0
BREAKDATA
  5
350
102
{ACAD_REACTORS
330
AA
102
}
330
AA
100
AcDbBreakData
 70
     0
330
A9
 90
       25
100
AcDbBreakPointRef
 71
     0
 72
     0
 91
       -1
 10
0.0
 20
0.0
 30
0.0
 11
0.0
 21
0.0
 31
0.0
331
65
 73
     2
 92
        0
100
AcDbBreakPointRef
 71
     0
 72
     0
 91
       -1
 10
0.0
 20
0.0
 30
0.0
 11
0.0
 21
0.0
 31
0.0
331
66
 73
     2
 92
        0
100
AcDbBreakPointRef
 71
     0
 72
     0
 91
       -1
 10
0.0
 20
0.0
 30
0.0
 11
0.0
 21
0.0
 31
0.0
331
69
 73
     2
 92
        0
100
AcDbBreakPointRef
 71
     0
 72
     0
 91
       -1
 10
0.0
 20
0.0
 30
0.0
 11
0.0
 21
0.0
 31
0.0
331
6A
 73
     2
 92
        0
100
AcDbBreakPointRef
 71
     0
 72
     0
 91
       -1
 10
0.0
 20
0.0
 30
0.0
 11
0.0
 21
0.0
 31
0.0
331
6B
 73
     2
 92
        0
100
AcDbBreakPointRef
 71
     0
 72
     0
 91
       -1
 10
0.0
 20
0.0
 30
0.0
 11
0.0
 21
0.0
 31
0.0
331
6C
 73
     2
 92
        0
100
AcDbBreakPointRef
 71
     0
 72
     0
 91
       -1
 10
0.0
 20
0.0
 30
0.0
 11
0.0
 21
0.0
 31
0.0
331
6E
 73
     2
 92
        0
100
AcDbBreakPointRef
 71
     0
 72
     0
 91
       -1
 10
0.0
 20
0.0
 30
0.0
 11
0.0
 21
0.0
 31
0.0
331
6F
 73
     2
 92
        0
100
AcDbBreakPointRef
 71
     0
 72
     0
 91
       -1
 10
0.0
 20
0.0
 30
0.0
 11
0.0
 21
0.0
 31
0.0
331
70
 73
     2
 92
        0
100
AcDbBreakPointRef
 71
     0
 72
     0
 91
       -1
 10
0.0
 20
0.0
 30
0.0
 11
0.0
 21
0.0
 31
0.0
331
71
 73
     2
 92
        0
100
AcDbBreakPointRef
 71
     0
 72
     0
 91
       -1
 10
0.0
 20
0.0
 30
0.0
 11
0.0
 21
0.0
 31
0.0
331
72
 73
     2
 92
        0
100
AcDbBreakPointRef
 71
     0
 72
     0
 91
       -1
 10
0.0
 20
0.0
 30
0.0
 11
0.0
 21
0.0
 31
0.0
331
73
 73
     2
 92
        0
100
AcDbBreakPointRef
 71
     0
 72
     0
 91
       -1
 10
0.0
 20
0.0
 30
0.0
 11
0.0
 21
0.0
 31
0.0
331
74
 73
     2
 92
        0
100
AcDbBreakPointRef
 71
     0
 72
     0
 91
       -1
 10
0.0
 20
0.0
 30
0.0
 11
0.0
 21
0.0
 31
0.0
331
17F
 73
     2
 92
        0
100
AcDbBreakPointRef
 71
     0
 72
     0
 91
       -1
 10
0.0
 20
0.0
 30
0.0
 11
0.0
 21
0.0
 31
0.0
331
1B0
 73
     2
 92
        0
100
AcDbBreakPointRef
 71
     0
 72
     0
 91
       -1
 10
0.0
 20
0.0
 30
0.0
 11
0.0
 21
0.0
 31
0.0
331
266
 73
     2
 92
        0
100
AcDbBreakPointRef
 71
     0
 72
     0
 91
       -1
 10
0.0
 20
0.0
 30
0.0
 11
0.0
 21
0.0
 31
0.0
331
268
 73
     2
 92
        0
100
AcDbBreakPointRef
 71
     0
 72
     0
 91
       -1
 10
0.0
 20
0.0
 30
0.0
 11
0.0
 21
0.0
 31
0.0
331
269
 73
     2
 92
        0
100
AcDbBreakPointRef
 71
     0
 72
     0
 91
       -1
 10
0.0
 20
0.0
 30
0.0
 11
0.0
 21
0.0
 31
0.0
331
26A
 73
     2
 92
        0
100
AcDbBreakPointRef
 71
     0
 72
     0
 91
       -1
 10
0.0
 20
0.0
 30
0.0
 11
0.0
 21
0.0
 31
0.0
331
26C
 73
     2
 92
        0
100
AcDbBreakPointRef
 71
     0
 72
     0
 91
       -1
 10
0.0
 20
0.0
 30
0.0
 11
0.0
 21
0.0
 31
0.0
331
26D
 73
     2
 92
        0
100
AcDbBreakPointRef
 71
     0
 72
     0
 91
       -1
 10
0.0
 20
0.0
 30
0.0
 11
0.0
 21
0.0
 31
0.0
331
26F
 73
     2
 92
        0
100
AcDbBreakPointRef
 71
     0
 72
     0
 91
       -1
 10
0.0
 20
0.0
 30
0.0
 11
0.0
 21
0.0
 31
0.0
331
270
 73
     2
 92
        0
100
AcDbBreakPointRef
 71
     0
 72
     0
 91
       -1
 10
0.0
 20
0.0
 30
0.0
 11
0.0
 21
0.0
 31
0.0
331
272
 73
     2
 92
        0
100
AcDbBreakPointRef
 71
     0
 72
     0
 91
       -1
 10
0.0
 20
0.0
 30
0.0
 11
0.0
 21
0.0
 31
0.0
331
0
 73
     2
 92
        0
  0
DIMASSOC
  5
AB
102
{ACAD_REACTORS
330
AA
102
}
330
AA
100
AcDbDimAssoc
330
A9
 90
        2
 70
     0
 71
     1
  1
AcDbOsnapPointRef
 72
     1
331
6C
 73
     0
 91
        0
 40
0.0
 10
0.0
 20
0.0
 30
0.0
 75
     0
  0
BREAKDATA
  5
32D
102
{ACAD_REACTORS
330
180
102
}
330
180
100
AcDbBreakData
 70
     0
330
17F
 90
        2
100
AcDbBreakPointRef
 71
     0
 72
     0
 91
       -1
 10
0.0
 20
0.0
 30
0.0
 11
0.0
 21
0.0
 31
0.0
331
74
 73
     2
 92
        0
100
AcDbBreakPointRef
 71
     0
 72
     0
 91
       -1
 10
0.0
 20
0.0
 30
0.0
 11
0.0
 21
0.0
 31
0.0
331
A9
 73
     2
 92
        0
  0
DIMASSOC
  5
181
102
{ACAD_REACTORS
330
180
102
}
330
180
100
AcDbDimAssoc
330
17F
 90
        3
 70
     0
 71
     1
  1
AcDbOsnapPointRef
 72
     1
331
74
331
80
 73
     0
 91
        0
 40
0.0
 10
0.0
 20
0.0
 30
0.0
 75
     0
  1
AcDbOsnapPointRef
 72
     1
331
74
331
85
 73
     0
 91
        0
 40
0.0
 10
0.0
 20
0.0
 30
0.0
 75
     0
  0
BREAKDATA
  5
38D
102
{ACAD_REACTORS
330
191
102
}
330
191
100
AcDbBreakData
 70
     0
330
190
 90
        2
100
AcDbBreakPointRef
 71
     0
 72
     0
 91
       -1
 10
0.0
 20
0.0
 30
0.0
 11
0.0
 21
0.0
 31
0.0
331
D5
 73
     2
 92
        0
100
AcDbBreakPointRef
 71
     0
 72
     0
 91
       -1
 10
0.0
 20
0.0
 30
0.0
 11
0.0
 21
0.0
 31
0.0
331
1A0
 73
     2
 92
        0
  0
DIMASSOC
  5
192
102
{ACAD_REACTORS
330
191
102
}
330
191
100
AcDbDimAssoc
330
190
 90
        3
 70
     0
 71
     1
  1
AcDbOsnapPointRef
 72
    13
331
D5
331
111
 73
     0
 91
        0
 40
0.0
 10
0.0
 20
0.0
 30
0.0
 75
     0
  1
AcDbOsnapPointRef
 72
     1
331
D5
331
DA
 73
     0
 91
        0
 40
0.0
 10
0.0
 20
0.0
 30
0.0
 75
     0
  0
BREAKDATA
  5
1A3
102
{ACAD_REACTORS
330
1A1
102
}
330
1A1
100
AcDbBreakData
 70
     0
330
1A0
 90
        2
100
AcDbBreakPointRef
 71
     0
 72
     0
 91
       -1
 10
0.0
 20
0.0
 30
0.0
 11
0.0
 21
0.0
 31
0.0
331
D5
 73
     2
 92
        0
100
AcDbBreakPointRef
 71
     0
 72
     0
 91
       -1
 10
0.0
 20
0.0
 30
0.0
 11
0.0
 21
0.0
 31
0.0
331
190
 73
     2
 92
        0
  0
DIMASSOC
  5
1A2
102
{ACAD_REACTORS
330
1A1
102
}
330
1A1
100
AcDbDimAssoc
330
1A0
 90
        3
 70
     0
 71
     1
  1
AcDbOsnapPointRef
 72
    13
331
D5
331
105
 73
     0
 91
        0
 40
0.0
 10
0.0
 20
0.0
 30
0.0
 75
     0
  1
AcDbOsnapPointRef
 72
     1
331
D5
331
102
 73
     0
 91
        0
 40
0.0
 10
0.0
 20
0.0
 30
0.0
 75
     0
  0
BREAKDATA
  5
394
102
{ACAD_REACTORS
330
1B1
102
}
330
1B1
100
AcDbBreakData
 70
     0
330
1B0
 90
        2
100
AcDbBreakPointRef
 71
     0
 72
     0
 91
       -1
 10
0.0
 20
0.0
 30
0.0
 11
0.0
 21
0.0
 31
0.0
331
272
 73
     2
 92
        0
100
AcDbBreakPointRef
 71
     0
 72
     0
 91
       -1
 10
0.0
 20
0.0
 30
0.0
 11
0.0
 21
0.0
 31
0.0
331
273
 73
     2
 92
        0
  0
LAYOUT
  5
21
102
{ACAD_REACTORS
330
22
102
}
330
22
100
AcDbPlotSettings
  1

  2
iR-ADV C2220(開発側)
  4
A3
  6

 40
5.080000000002401
 41
5.080000000002515
 42
5.080000000002399
 43
5.080000000002399
 44
297.0
 45
420.0
 46
0.0
 47
0.0
 48
5.000000000000085
 49
5.0
140
420.0
141
297.0
142
1.0
143
1.0
 70
 11920
 72
     1
 73
     1
 74
     4
  7

 75
    16
 76
     0
 77
     2
 78
   300
147
1.0
148
-163.0801948217729
149
-101.3856760235123
100
AcDbLayout
  1
Model
 70
     1
 71
     0
 10
0.5
 20
0.5
 11
296.5
 21
209.5
 12
0.0
 22
0.0
 32
0.0
 14
0.0
 24
-0.0000000000000284
 34
0.0
 15
297.0000000000001
 25
210.0
 35
0.0
146
0.0
 13
0.0
 23
0.0
 33
0.0
 16
1.0
 26
0.0
 36
0.0
 17
0.0
 27
1.0
 37
0.0
 76
     0
330
1B
331
35
  0
LAYOUT
  5
26
102
{ACAD_REACTORS
330
22
102
}
330
22
100
AcDbPlotSettings
  1

  2
クセロPDF2
  4

  6

 40
0.0
 41
0.0
 42
0.0
 43
0.0
 44
0.0
 45
0.0
 46
0.0
 47
0.0
 48
0.0
 49
0.0
140
0.0
141
0.0
142
1.0
143
1.0
 70
   688
 72
     0
 73
     0
 74
     5
  7
monochrome.ctb
 75
    16
 76
     0
 77
     2
 78
   300
147
1.0
148
0.0
149
0.0
100
AcDbLayout
  1
ﾚｲｱｳﾄ1
 70
     1
 71
     1
 10
-0.0110393610068442
 20
-0.0028022467055191
 11
593.9889606389931
 21
419.9971977532944
 12
0.0
 22
0.0
 32
0.0
 14
0.0
 24
0.0
 34
0.0
 15
594.0
 25
420.0
 35
0.0
146
0.0
 13
0.0
 23
0.0
 33
0.0
 16
1.0
 26
0.0
 36
0.0
 17
0.0
 27
1.0
 37
0.0
 76
     0
330
23
  0
MATERIAL
  5
5D
102
{ACAD_REACTORS
330
C
102
}
330
C
100
AcDbMaterial
  1
ByBlock
 72
     1
 94
      127
  0
MATERIAL
  5
5C
102
{ACAD_REACTORS
330
C
102
}
330
C
100
AcDbMaterial
  1
ByLayer
 72
     1
 94
      127
  0
MATERIAL
  5
B
102
{ACAD_REACTORS
330
C
102
}
330
C
100
AcDbMaterial
  1
Global
 72
     1
 94
      127
  0
MLEADERSTYLE
  5
1E2
102
{ACAD_REACTORS
330
1C6
102
}
330
1C6
100
AcDbMLeaderStyle
170
     2
171
     1
172
     0
 90
        2
 40
0.0
 41
0.0
173
     1
 91
-1056964608
340
F
 92
       -2
290
     1
 42
2.0
291
     1
 43
8.0
  3
Standard
341
0
 44
4.0
300

342
11
174
     1
178
     1
175
     1
176
     0
 93
-1056964608
 45
4.0
292
     0
297
     0
 46
4.0
343
0
 94
-1056964608
 47
1.0
 49
1.0
140
1.0
293
     1
141
0.0
294
     1
177
     0
142
1.0
295
     0
296
     0
143
3.75
1001
ACAD_MLEADERVER
1070
     2
  0
MLINESTYLE
  5
2C
102
{ACAD_REACTORS
330
2D
102
}
330
2D
100
AcDbMlineStyle
  2
STANDARD
 70
     0
  3

 62
   256
 51
90.0
 52
90.0
 71
     2
 49
0.5
 62
   256
  6
BYLAYER
 49
-0.5
 62
   256
  6
BYLAYER
  0
ACDBPLACEHOLDER
  5
8
102
{ACAD_REACTORS
330
9
102
}
330
9
  0
SCALE
  5
5B
102
{ACAD_REACTORS
330
39
102
}
330
39
100
AcDbScale
 70
     0
300
1:1
140
1.0
141
1.0
290
     1
  0
TABLESTYLE
  5
D2
102
{ACAD_REACTORS
330
B8
330
D3
102
}
102
{ACAD_XDICTIONARY
360
39D
102
}
330
D3
100
AcDbTableStyle
  3
部品表
 70
     1
 71
     0
 40
0.06
 41
0.06
280
     0
281
     0
  7
Bom
140
2.5
170
     5
 62
   256
 63
   257
283
     0
 90
        4
 91
        0
  1

274
    -1
284
     1
 64
   256
275
    -2
285
     1
 65
   256
276
    -1
286
     1
 66
   256
277
    -1
287
     1
 67
   256
278
    -2
288
     1
 68
   256
279
    -1
289
     1
 69
   256
  7
Bom
140
2.0
170
     5
 62
   256
 63
   257
283
     0
 90
        4
 91
        0
  1

274
    -1
284
     1
 64
   256
275
    -1
285
     1
 65
   256
276
    -1
286
     1
 66
   256
277
    -1
287
     1
 67
   256
278
    -1
288
     1
 68
   256
279
    -1
289
     1
 69
   256
  7
Bom
140
2.5
170
     5
 62
   256
 63
   257
283
     0
 90
        4
 91
        0
  1

274
    -1
284
     1
 64
   256
275
    -1
285
     1
 65
   256
276
    -1
286
     1
 66
   256
277
    -1
287
     1
 67
   256
278
    -1
288
     1
 68
   256
279
    -1
289
     1
 69
   256
  0
VISUALSTYLE
  5
36
102
{ACAD_REACTORS
330
34
102
}
330
34
100
AcDbVisualStyle
  2
2dWireframe
 70
     4
 71
     0
 72
     2
 73
     0
 90
        0
 40
0.6
 41
30.0
 62
     5
 63
     7
421
 16777215
 74
     1
 91
        4
 64
     7
 65
   257
 75
     1
175
     1
 42
1.0
 92
        0
 66
   257
 43
1.0
 76
     1
 77
     6
 78
     2
 67
     7
 79
     5
170
     0
171
     0
290
     0
174
     0
 93
        1
 44
0.0
173
     0
291
     0
 45
0.0
  0
VISUALSTYLE
  5
1D1
102
{ACAD_REACTORS
330
34
102
}
330
34
100
AcDbVisualStyle
  2
Basic
 70
     7
 71
     1
 72
     0
 73
     1
 90
        0
 40
0.6
 41
30.0
 62
     5
 63
     7
421
 16777215
 74
     0
 91
        4
 64
     7
 65
   257
 75
     1
175
     1
 42
1.0
 92
        8
 66
     7
 43
1.0
 76
     1
 77
     6
 78
     2
 67
     7
 79
     5
170
     0
171
     0
290
     0
174
     0
 93
        1
 44
0.0
173
     0
291
     1
 45
0.0
  0
VISUALSTYLE
  5
1D5
102
{ACAD_REACTORS
330
34
102
}
330
34
100
AcDbVisualStyle
  2
Brighten
 70
    12
 71
     2
 72
     2
 73
     0
 90
        0
 40
0.6
 41
30.0
 62
     5
 63
     7
421
 16777215
 74
     1
 91
        4
 64
     7
 65
   257
 75
     1
175
     1
 42
1.0
 92
        8
 66
     7
 43
1.0
 76
     1
 77
     6
 78
     2
 67
     7
 79
     5
170
     0
171
     0
290
     0
174
     0
 93
        1
 44
50.0
173
     0
291
     1
 45
0.0
  0
VISUALSTYLE
  5
1D9
102
{ACAD_REACTORS
330
34
102
}
330
34
100
AcDbVisualStyle
  2
ColorChange
 70
    16
 71
     2
 72
     2
 73
     3
 90
        0
 40
0.6
 41
30.0
 62
     5
 63
     8
421
  8421504
 74
     1
 91
        4
 64
     7
 65
   257
 75
     1
175
     1
 42
1.0
 92
        8
 66
     8
424
  8421504
 43
1.0
 76
     1
 77
     6
 78
     2
 67
     7
 79
     5
170
     0
171
     0
290
     0
174
     0
 93
        1
 44
0.0
173
     0
291
     1
 45
0.0
  0
VISUALSTYLE
  5
1D3
102
{ACAD_REACTORS
330
34
102
}
330
34
100
AcDbVisualStyle
  2
Conceptual
 70
     9
 71
     3
 72
     2
 73
     0
 90
        0
 40
0.6
 41
30.0
 62
     5
 63
     7
421
 16777215
 74
     2
 91
        2
 64
     7
 65
   257
 75
     1
175
     1
 42
179.0
 92
        8
 66
     7
 43
1.0
 76
     1
 77
     6
 78
     2
 67
     7
 79
     3
170
     0
171
     0
290
     0
174
     0
 93
        1
 44
0.0
173
     0
291
     0
 45
0.0
  0
VISUALSTYLE
  5
1D4
102
{ACAD_REACTORS
330
34
102
}
330
34
100
AcDbVisualStyle
  2
Dim
 70
    11
 71
     2
 72
     2
 73
     0
 90
        0
 40
0.6
 41
30.0
 62
     5
 63
     7
421
 16777215
 74
     1
 91
        4
 64
     7
 65
   257
 75
     1
175
     1
 42
1.0
 92
        8
 66
     7
 43
1.0
 76
     1
 77
     6
 78
     2
 67
     7
 79
     5
170
     0
171
     0
290
     0
174
     0
 93
        1
 44
-50.0
173
     0
291
     1
 45
0.0
  0
VISUALSTYLE
  5
1DC
102
{ACAD_REACTORS
330
34
102
}
330
34
100
AcDbVisualStyle
  2
EdgeColorOff
 70
    22
 71
     2
 72
     2
 73
     0
 90
        0
 40
0.6
 41
30.0
 62
     5
 63
     7
421
 16777215
 74
     1
 91
        4
 64
     7
 65
   257
 75
     1
175
     1
 42
1.0
 92
        8
 66
     7
 43
1.0
 76
     1
 77
     6
 78
     2
 67
     7
 79
     5
170
     0
171
     0
290
     0
174
     0
 93
        1
 44
0.0
173
     0
291
     1
 45
0.0
  0
VISUALSTYLE
  5
1D8
102
{ACAD_REACTORS
330
34
102
}
330
34
100
AcDbVisualStyle
  2
Facepattern
 70
    15
 71
     2
 72
     2
 73
     0
 90
        0
 40
0.6
 41
30.0
 62
     5
 63
     7
421
 16777215
 74
     1
 91
        4
 64
     7
 65
   257
 75
     1
175
     1
 42
1.0
 92
        8
 66
     7
 43
1.0
 76
     1
 77
     6
 78
     2
 67
     7
 79
     5
170
     0
171
     0
290
     0
174
     0
 93
        1
 44
0.0
173
     0
291
     1
 45
0.0
  0
VISUALSTYLE
  5
1CB
102
{ACAD_REACTORS
330
34
102
}
330
34
100
AcDbVisualStyle
  2
Flat
 70
     0
 71
     2
 72
     1
 73
     1
 90
        2
 40
0.6
 41
30.0
 62
     5
 63
     7
421
 16777215
 74
     0
 91
        0
 64
     7
 65
   257
 75
     1
175
     1
 42
1.0
 92
        8
 66
     7
 43
1.0
 76
     1
 77
     6
 78
     2
 67
     7
 79
     5
170
     0
171
     0
290
     0
174
     0
 93
       13
 44
0.0
173
     0
291
     1
 45
0.0
  0
VISUALSTYLE
  5
1CC
102
{ACAD_REACTORS
330
34
102
}
330
34
100
AcDbVisualStyle
  2
FlatWithEdges
 70
     1
 71
     2
 72
     1
 73
     1
 90
        2
 40
0.6
 41
30.0
 62
     5
 63
     7
421
 16777215
 74
     1
 91
        0
 64
     7
 65
   257
 75
     1
175
     1
 42
1.0
 92
        0
 66
   257
 43
1.0
 76
     1
 77
     6
 78
     2
 67
     7
 79
     5
170
     0
171
     0
290
     0
174
     0
 93
       13
 44
0.0
173
     0
291
     1
 45
0.0
  0
VISUALSTYLE
  5
1CD
102
{ACAD_REACTORS
330
34
102
}
330
34
100
AcDbVisualStyle
  2
Gouraud
 70
     2
 71
     2
 72
     2
 73
     1
 90
        2
 40
0.6
 41
30.0
 62
     5
 63
     7
421
 16777215
 74
     0
 91
        0
 64
     7
 65
   257
 75
     1
175
     1
 42
1.0
 92
        0
 66
     7
 43
1.0
 76
     1
 77
     6
 78
     2
 67
     7
 79
     5
170
     0
171
     0
290
     0
174
     0
 93
       13
 44
0.0
173
     0
291
     1
 45
0.0
  0
VISUALSTYLE
  5
1CE
102
{ACAD_REACTORS
330
34
102
}
330
34
100
AcDbVisualStyle
  2
GouraudWithEdges
 70
     3
 71
     2
 72
     2
 73
     1
 90
        2
 40
0.6
 41
30.0
 62
     5
 63
     7
421
 16777215
 74
     1
 91
        0
 64
     7
 65
   257
 75
     1
175
     1
 42
1.0
 92
        0
 66
   257
 43
1.0
 76
     1
 77
     6
 78
     2
 67
     7
 79
     5
170
     0
171
     0
290
     0
174
     0
 93
       13
 44
0.0
173
     0
291
     1
 45
0.0
  0
VISUALSTYLE
  5
1D0
102
{ACAD_REACTORS
330
34
102
}
330
34
100
AcDbVisualStyle
  2
Hidden
 70
     6
 71
     1
 72
     2
 73
     2
 90
        0
 40
0.6
 41
30.0
 62
     5
 63
     7
421
 16777215
 74
     2
 91
        2
 64
     7
 65
   257
 75
     2
175
     1
 42
40.0
 92
        0
 66
   257
 43
1.0
 76
     1
 77
     6
 78
     2
 67
     7
 79
     3
170
     0
171
     0
290
     0
174
     0
 93
        1
 44
0.0
173
     0
291
     0
 45
0.0
  0
VISUALSTYLE
  5
1DA
102
{ACAD_REACTORS
330
34
102
}
330
34
100
AcDbVisualStyle
  2
JitterOff
 70
    20
 71
     2
 72
     2
 73
     0
 90
        0
 40
0.6
 41
30.0
 62
     5
 63
     7
421
 16777215
 74
     1
 91
        4
 64
     7
 65
   257
 75
     1
175
     1
 42
1.0
 92
       10
 66
     7
 43
1.0
 76
     1
 77
     6
 78
     2
 67
     7
 79
     5
170
     0
171
     0
290
     0
174
     0
 93
        1
 44
0.0
173
     0
291
     1
 45
0.0
  0
VISUALSTYLE
  5
1D7
102
{ACAD_REACTORS
330
34
102
}
330
34
100
AcDbVisualStyle
  2
Linepattern
 70
    14
 71
     2
 72
     2
 73
     0
 90
        0
 40
0.6
 41
30.0
 62
     5
 63
     7
421
 16777215
 74
     1
 91
        4
 64
     7
 65
   257
 75
     7
175
     7
 42
1.0
 92
        8
 66
     7
 43
1.0
 76
     1
 77
     6
 78
     2
 67
     7
 79
     5
170
     0
171
     0
290
     0
174
     0
 93
        1
 44
0.0
173
     0
291
     1
 45
0.0
  0
VISUALSTYLE
  5
1DB
102
{ACAD_REACTORS
330
34
102
}
330
34
100
AcDbVisualStyle
  2
OverhangOff
 70
    21
 71
     2
 72
     2
 73
     0
 90
        0
 40
0.6
 41
30.0
 62
     5
 63
     7
421
 16777215
 74
     1
 91
        4
 64
     7
 65
   257
 75
     1
175
     1
 42
1.0
 92
        9
 66
     7
 43
1.0
 76
     1
 77
     6
 78
     2
 67
     7
 79
     5
170
     0
171
     0
290
     0
174
     0
 93
        1
 44
0.0
173
     0
291
     1
 45
0.0
  0
VISUALSTYLE
  5
1D2
102
{ACAD_REACTORS
330
34
102
}
330
34
100
AcDbVisualStyle
  2
Realistic
 70
     8
 71
     2
 72
     3
 73
     0
 90
        2
 40
0.6
 41
30.0
 62
     5
 63
     7
421
 16777215
 74
     0
 91
        0
 64
     7
 65
   257
 75
     1
175
     1
 42
1.0
 92
        8
 66
   257
 43
1.0
 76
     1
 77
     6
 78
     2
 67
     7
 79
     3
170
     0
171
     0
290
     0
174
     0
 93
       13
 44
0.0
173
     0
291
     0
 45
0.0
  0
VISUALSTYLE
  5
1E1
102
{ACAD_REACTORS
330
34
102
}
330
34
100
AcDbVisualStyle
  2
Shaded
 70
    27
 71
     2
 72
     2
 73
     1
 90
        2
 40
0.6
 41
30.0
 62
     5
 63
     7
421
 16777215
 74
     0
 91
        4
 64
     7
 65
   257
 75
     1
175
     1
 42
1.0
 92
        8
 66
   257
 43
1.0
 76
     1
 77
     6
 78
     2
 67
     8
425
  7895160
 79
     3
170
     0
171
     0
290
     0
174
     0
 93
        5
 44
0.0
173
     0
291
     0
 45
0.0
  0
VISUALSTYLE
  5
1E0
102
{ACAD_REACTORS
330
34
102
}
330
34
100
AcDbVisualStyle
  2
Shaded with edges
 70
    26
 71
     2
 72
     2
 73
     1
 90
        2
 40
0.6
 41
30.0
 62
     5
 63
     7
421
 16777215
 74
     1
 91
       10
 64
     7
 65
   257
 75
     2
175
     1
 42
1.0
 92
        8
 66
   257
 43
1.0
 76
     1
 77
     6
 78
     2
 67
     7
 79
     3
170
     0
171
     0
290
     0
174
     0
 93
        5
 44
0.0
173
     0
291
     0
 45
0.0
  0
VISUALSTYLE
  5
1DD
102
{ACAD_REACTORS
330
34
102
}
330
34
100
AcDbVisualStyle
  2
Shades of Gray
 70
    23
 71
     2
 72
     2
 73
     3
 90
        0
 40
0.6
 41
30.0
 62
     5
 63
     7
421
 16777215
 74
     2
 91
        2
 64
     7
 65
     7
 75
     1
175
     1
 42
40.0
 92
        8
 66
     7
 43
1.0
 76
     1
 77
     6
 78
     2
 67
     7
 79
     3
170
     0
171
     0
290
     0
174
     0
 93
        1
 44
0.0
173
     0
291
     0
 45
0.0
  0
VISUALSTYLE
  5
1DE
102
{ACAD_REACTORS
330
34
102
}
330
34
100
AcDbVisualStyle
  2
Sketchy
 70
    24
 71
     1
 72
     2
 73
     2
 90
        0
 40
0.6
 41
30.0
 62
     5
 63
     7
421
 16777215
 74
     2
 91
        2
 64
     7
 65
     7
 75
     1
175
     1
 42
40.0
 92
       11
 66
     7
 43
1.0
 76
     1
 77
     6
 78
     2
 67
     7
 79
     6
170
     0
171
     0
290
     0
174
     0
 93
        1
 44
0.0
173
     0
291
     0
 45
0.0
  0
VISUALSTYLE
  5
1D6
102
{ACAD_REACTORS
330
34
102
}
330
34
100
AcDbVisualStyle
  2
Thicken
 70
    13
 71
     2
 72
     2
 73
     0
 90
        0
 40
0.6
 41
30.0
 62
     5
 63
     7
421
 16777215
 74
     1
 91
        4
 64
     7
 65
   257
 75
     1
175
     1
 42
1.0
 92
       12
 66
     7
 43
1.0
 76
     1
 77
     6
 78
     2
 67
     7
 79
     5
170
     0
171
     0
290
     0
174
     0
 93
        1
 44
0.0
173
     0
291
     1
 45
0.0
  0
VISUALSTYLE
  5
1CF
102
{ACAD_REACTORS
330
34
102
}
330
34
100
AcDbVisualStyle
  2
Wireframe
 70
     5
 71
     0
 72
     2
 73
     0
 90
        0
 40
0.6
 41
30.0
 62
     5
 63
     7
421
 16777215
 74
     1
 91
        4
 64
     7
 65
   257
 75
     1
175
     1
 42
1.0
 92
        0
 66
   257
 43
1.0
 76
     1
 77
     6
 78
     2
 67
     7
 79
     3
170
     0
171
     0
290
     0
174
     0
 93
        1
 44
0.0
173
     0
291
     0
 45
0.0
  0
VISUALSTYLE
  5
1DF
102
{ACAD_REACTORS
330
34
102
}
330
34
100
AcDbVisualStyle
  2
X-Ray
 70
    25
 71
     2
 72
     2
 73
     1
 90
        1
 40
0.5
 41
30.0
 62
     5
 63
     7
421
 16777215
 74
     1
 91
        0
 64
     7
 65
   257
 75
     1
175
     1
 42
1.0
 92
        8
 66
     7
 43
1.0
 76
     1
 77
     6
 78
     2
 67
     7
 79
     3
170
     0
171
     0
290
     0
174
     0
 93
       13
 44
0.0
173
     0
291
     0
 45
0.0
  0
DICTIONARYVAR
  5
1C2
102
{ACAD_REACTORS
330
1C1
102
}
330
1C1
100
DictionaryVariables
280
     0
  1
1:1
  0
DICTIONARYVAR
  5
212
102
{ACAD_REACTORS
330
1C1
102
}
330
1C1
100
DictionaryVariables
280
     0
  1
Standard
  0
DICTIONARYVAR
  5
211
102
{ACAD_REACTORS
330
1C1
102
}
330
1C1
100
DictionaryVariables
280
     0
  1
部品表
  0
DICTIONARYVAR
  5
1C7
102
{ACAD_REACTORS
330
1C1
102
}
330
1C1
100
DictionaryVariables
280
     0
  1
0
  0
DICTIONARY
  5
39D
330
D2
100
AcDbDictionary
280
     1
281
     1
  3
ACAD_ROUNDTRIP_2008_TABLESTYLE_CELLSTYLEMAP
360
39E
  0
CELLSTYLEMAP
  5
39E
102
{ACAD_REACTORS
330
39D
102
}
330
39D
100
AcDbCellStyleMap
 90
        3
300
CELLSTYLE
  1
TABLEFORMAT_BEGIN
 90
        5
170
     1
 91
        0
 92
        0
 62
   257
 93
        1
300
CONTENTFORMAT
  1
CONTENTFORMAT_BEGIN
 90
        0
 91
        0
 92
        4
 93
        0
300

 40
0.0
140
1.0
 94
        5
 62
   256
340
BC
144
2.0
309
CONTENTFORMAT_END
171
     1
301
MARGIN
  1
CELLMARGIN_BEGIN
 40
0.5
 40
0.5
 40
1.5
 40
1.5
 40
1.5
 40
1.5
309
CELLMARGIN_END
 94
        6
 95
        1
302
GRIDFORMAT
  1
GRIDFORMAT_BEGIN
 90
        0
 91
        1
 62
   256
 92
       -1
340
F
 93
        0
 40
0.045
309
GRIDFORMAT_END
 95
        2
302
GRIDFORMAT
  1
GRIDFORMAT_BEGIN
 90
        0
 91
        1
 62
   256
 92
       -1
340
F
 93
        0
 40
0.045
309
GRIDFORMAT_END
 95
        4
302
GRIDFORMAT
  1
GRIDFORMAT_BEGIN
 90
        0
 91
        1
 62
   256
 92
       -1
340
F
 93
        0
 40
0.045
309
GRIDFORMAT_END
 95
        8
302
GRIDFORMAT
  1
GRIDFORMAT_BEGIN
 90
        0
 91
        1
 62
   256
 92
       -1
340
F
 93
        0
 40
0.045
309
GRIDFORMAT_END
 95
       16
302
GRIDFORMAT
  1
GRIDFORMAT_BEGIN
 90
        0
 91
        1
 62
   256
 92
       -1
340
F
 93
        0
 40
0.045
309
GRIDFORMAT_END
 95
       32
302
GRIDFORMAT
  1
GRIDFORMAT_BEGIN
 90
        0
 91
        1
 62
   256
 92
       -1
340
F
 93
        0
 40
0.045
309
GRIDFORMAT_END
309
TABLEFORMAT_END
  1
CELLSTYLE_BEGIN
 90
        1
 91
        1
300
_TITLE
309
CELLSTYLE_END
300
CELLSTYLE
  1
TABLEFORMAT_BEGIN
 90
        5
170
     1
 91
        0
 92
        0
 62
   257
 93
        1
300
CONTENTFORMAT
  1
CONTENTFORMAT_BEGIN
 90
        0
 91
        0
 92
        4
 93
        0
300

 40
0.0
140
1.0
 94
        5
 62
   256
340
BC
144
2.5
309
CONTENTFORMAT_END
171
     1
301
MARGIN
  1
CELLMARGIN_BEGIN
 40
0.5
 40
0.5
 40
1.5
 40
1.5
 40
1.5
 40
1.5
309
CELLMARGIN_END
 94
        6
 95
        1
302
GRIDFORMAT
  1
GRIDFORMAT_BEGIN
 90
        0
 91
        1
 62
   256
 92
       -1
340
F
 93
        0
 40
0.045
309
GRIDFORMAT_END
 95
        2
302
GRIDFORMAT
  1
GRIDFORMAT_BEGIN
 90
        0
 91
        1
 62
   256
 92
       -1
340
F
 93
        0
 40
0.045
309
GRIDFORMAT_END
 95
        4
302
GRIDFORMAT
  1
GRIDFORMAT_BEGIN
 90
        0
 91
        1
 62
   256
 92
       -1
340
F
 93
        0
 40
0.045
309
GRIDFORMAT_END
 95
        8
302
GRIDFORMAT
  1
GRIDFORMAT_BEGIN
 90
        0
 91
        1
 62
   256
 92
       -1
340
F
 93
        0
 40
0.045
309
GRIDFORMAT_END
 95
       16
302
GRIDFORMAT
  1
GRIDFORMAT_BEGIN
 90
        0
 91
        1
 62
   256
 92
       -1
340
F
 93
        0
 40
0.045
309
GRIDFORMAT_END
 95
       32
302
GRIDFORMAT
  1
GRIDFORMAT_BEGIN
 90
        0
 91
        1
 62
   256
 92
       -1
340
F
 93
        0
 40
0.045
309
GRIDFORMAT_END
309
TABLEFORMAT_END
  1
CELLSTYLE_BEGIN
 90
        2
 91
        1
300
_HEADER
309
CELLSTYLE_END
300
CELLSTYLE
  1
TABLEFORMAT_BEGIN
 90
        5
170
     1
 91
        0
 92
        0
 62
   257
 93
        1
300
CONTENTFORMAT
  1
CONTENTFORMAT_BEGIN
 90
        0
 91
        0
 92
        4
 93
        0
300

 40
0.0
140
1.0
 94
        5
 62
   256
340
BC
144
2.5
309
CONTENTFORMAT_END
171
     1
301
MARGIN
  1
CELLMARGIN_BEGIN
 40
0.5
 40
0.5
 40
1.5
 40
1.5
 40
1.5
 40
1.5
309
CELLMARGIN_END
 94
        6
 95
        1
302
GRIDFORMAT
  1
GRIDFORMAT_BEGIN
 90
        0
 91
        1
 62
   256
 92
       -1
340
F
 93
        0
 40
0.045
309
GRIDFORMAT_END
 95
        2
302
GRIDFORMAT
  1
GRIDFORMAT_BEGIN
 90
        0
 91
        1
 62
   256
 92
       -2
340
F
 93
        0
 40
0.045
309
GRIDFORMAT_END
 95
        4
302
GRIDFORMAT
  1
GRIDFORMAT_BEGIN
 90
        0
 91
        1
 62
   256
 92
       -1
340
F
 93
        0
 40
0.045
309
GRIDFORMAT_END
 95
        8
302
GRIDFORMAT
  1
GRIDFORMAT_BEGIN
 90
        0
 91
        1
 62
   256
 92
       -1
340
F
 93
        0
 40
0.045
309
GRIDFORMAT_END
 95
       16
302
GRIDFORMAT
  1
GRIDFORMAT_BEGIN
 90
        0
 91
        1
 62
   256
 92
       -2
340
F
 93
        0
 40
0.045
309
GRIDFORMAT_END
 95
       32
302
GRIDFORMAT
  1
GRIDFORMAT_BEGIN
 90
        0
 91
        1
 62
   256
 92
       -1
340
F
 93
        0
 40
0.045
309
GRIDFORMAT_END
309
TABLEFORMAT_END
  1
CELLSTYLE_BEGIN
 90
        3
 91
        2
300
_DATA
309
CELLSTYLE_END
  0
ENDSEC
  0
EOF
