  0
SECTION
  2
HEADER
  9
$ACADVER
  1
AC1021
  9
$ACADMAINTVER
 70
    25
  9
$DWGCODEPAGE
  3
ANSI_932
  9
$LASTSAVEDBY
  1
liujie
  9
$INSBASE
 10
0.0
 20
0.0
 30
0.0
  9
$EXTMIN
 10
0.0
 20
-0.0000000000000284
 30
0.0
  9
$EXTMAX
 10
297.0000000000001
 20
210.0
 30
0.0
  9
$LIMMIN
 10
0.0
 20
0.0
  9
$LIMMAX
 10
420.0
 20
297.0
  9
$ORTHOMODE
 70
     1
  9
$REGENMODE
 70
     1
  9
$FILLMODE
 70
     1
  9
$QTEXTMODE
 70
     0
  9
$MIRRTEXT
 70
     1
  9
$LTSCALE
 40
1.0
  9
$ATTMODE
 70
     1
  9
$TEXTSIZE
 40
2.5
  9
$TRACEWID
 40
1.0
  9
$TEXTSTYLE
  7
Roman
  9
$CLAYER
  8
DIMS
  9
$CELTYPE
  6
BYLAYER
  9
$CECOLOR
 62
   256
  9
$CELTSCALE
 40
1.0
  9
$DISPSILH
 70
     0
  9
$DIMSCALE
 40
1.0
  9
$DIMASZ
 40
2.5
  9
$DIMEXO
 40
0.65
  9
$DIMDLI
 40
0.5
  9
$DIMRND
 40
0.0
  9
$DIMDLE
 40
0.0
  9
$DIMEXE
 40
0.65
  9
$DIMTP
 40
0.0
  9
$DIMTM
 40
0.0
  9
$DIMTXT
 40
3.0
  9
$DIMCEN
 40
5.0
  9
$DIMTSZ
 40
0.0
  9
$DIMTOL
 70
     0
  9
$DIMLIM
 70
     0
  9
$DIMTIH
 70
     0
  9
$DIMTOH
 70
     0
  9
$DIMSE1
 70
     0
  9
$DIMSE2
 70
     0
  9
$DIMTAD
 70
     1
  9
$DIMZIN
 70
     8
  9
$DIMBLK
  1
Open30
  9
$DIMASO
 70
     1
  9
$DIMSHO
 70
     1
  9
$DIMPOST
  1

  9
$DIMAPOST
  1

  9
$DIMALT
 70
     0
  9
$DIMALTD
 70
     2
  9
$DIMALTF
 40
25.4
  9
$DIMLFAC
 40
1.0
  9
$DIMTOFL
 70
     1
  9
$DIMTVP
 40
0.0
  9
$DIMTIX
 70
     0
  9
$DIMSOXD
 70
     0
  9
$DIMSAH
 70
     0
  9
$DIMBLK1
  1

  9
$DIMBLK2
  1

  9
$DIMSTYLE
  2
STANDARD
  9
$DIMCLRD
 70
   256
  9
$DIMCLRE
 70
   256
  9
$DIMCLRT
 70
     7
  9
$DIMTFAC
 40
1.0
  9
$DIMGAP
 40
0.65
  9
$DIMJUST
 70
     0
  9
$DIMSD1
 70
     0
  9
$DIMSD2
 70
     0
  9
$DIMTOLJ
 70
     1
  9
$DIMTZIN
 70
     8
  9
$DIMALTZ
 70
     0
  9
$DIMALTTZ
 70
     0
  9
$DIMUPT
 70
     0
  9
$DIMDEC
 70
     3
  9
$DIMTDEC
 70
     4
  9
$DIMALTU
 70
     2
  9
$DIMALTTD
 70
     2
  9
$DIMTXSTY
  7
STANDARD
  9
$DIMAUNIT
 70
     0
  9
$DIMADEC
 70
     2
  9
$DIMALTRND
 40
0.0
  9
$DIMAZIN
 70
     2
  9
$DIMDSEP
 70
    46
  9
$DIMATFIT
 70
     3
  9
$DIMFRAC
 70
     0
  9
$DIMLDRBLK
  1
Open30
  9
$DIMLUNIT
 70
     2
  9
$DIMLWD
 70
    -1
  9
$DIMLWE
 70
    -1
  9
$DIMTMOVE
 70
     0
  9
$DIMFXL
 40
1.0
  9
$DIMFXLON
 70
     0
  9
$DIMJOGANG
 40
0.7853981633974483
  9
$DIMTFILL
 70
     0
  9
$DIMTFILLCLR
 70
     0
  9
$DIMARCSYM
 70
     0
  9
$DIMLTYPE
  6
BYLAYER
  9
$DIMLTEX1
  6

  9
$DIMLTEX2
  6

  9
$LUNITS
 70
     2
  9
$LUPREC
 70
     4
  9
$SKETCHINC
 40
1.0
  9
$FILLETRAD
 40
0.1
  9
$AUNITS
 70
     0
  9
$AUPREC
 70
     0
  9
$MENU
  1
.
  9
$ELEVATION
 40
0.0
  9
$PELEVATION
 40
0.0
  9
$THICKNESS
 40
0.0
  9
$LIMCHECK
 70
     0
  9
$CHAMFERA
 40
2.0
  9
$CHAMFERB
 40
2.0
  9
$CHAMFERC
 40
20.0
  9
$CHAMFERD
 40
0.0
  9
$SKPOLY
 70
     0
  9
$TDCREATE
 40
2454036.711772419
  9
$TDUCREATE
 40
2454036.336772419
  9
$TDUPDATE
 40
2459086.596973449
  9
$TDUUPDATE
 40
2459086.221973449
  9
$TDINDWG
 40
0.0150208565
  9
$TDUSRTIMER
 40
0.0011862037
  9
$USRTIMER
 70
     1
  9
$ANGBASE
 50
0.0
  9
$ANGDIR
 70
     0
  9
$PDMODE
 70
     0
  9
$PDSIZE
 40
0.0
  9
$PLINEWID
 40
0.0
  9
$SPLFRAME
 70
     0
  9
$SPLINETYPE
 70
     6
  9
$SPLINESEGS
 70
     8
  9
$HANDSEED
  5
782
  9
$SURFTAB1
 70
     6
  9
$SURFTAB2
 70
     6
  9
$SURFTYPE
 70
     6
  9
$SURFU
 70
     6
  9
$SURFV
 70
     6
  9
$UCSBASE
  2

  9
$UCSNAME
  2

  9
$UCSORG
 10
0.0
 20
0.0
 30
0.0
  9
$UCSXDIR
 10
1.0
 20
0.0
 30
0.0
  9
$UCSYDIR
 10
0.0
 20
1.0
 30
0.0
  9
$UCSORTHOREF
  2

  9
$UCSORTHOVIEW
 70
     0
  9
$UCSORGTOP
 10
0.0
 20
0.0
 30
0.0
  9
$UCSORGBOTTOM
 10
0.0
 20
0.0
 30
0.0
  9
$UCSORGLEFT
 10
0.0
 20
0.0
 30
0.0
  9
$UCSORGRIGHT
 10
0.0
 20
0.0
 30
0.0
  9
$UCSORGFRONT
 10
0.0
 20
0.0
 30
0.0
  9
$UCSORGBACK
 10
0.0
 20
0.0
 30
0.0
  9
$PUCSBASE
  2

  9
$PUCSNAME
  2

  9
$PUCSORG
 10
0.0
 20
0.0
 30
0.0
  9
$PUCSXDIR
 10
1.0
 20
0.0
 30
0.0
  9
$PUCSYDIR
 10
0.0
 20
1.0
 30
0.0
  9
$PUCSORTHOREF
  2

  9
$PUCSORTHOVIEW
 70
     0
  9
$PUCSORGTOP
 10
0.0
 20
0.0
 30
0.0
  9
$PUCSORGBOTTOM
 10
0.0
 20
0.0
 30
0.0
  9
$PUCSORGLEFT
 10
0.0
 20
0.0
 30
0.0
  9
$PUCSORGRIGHT
 10
0.0
 20
0.0
 30
0.0
  9
$PUCSORGFRONT
 10
0.0
 20
0.0
 30
0.0
  9
$PUCSORGBACK
 10
0.0
 20
0.0
 30
0.0
  9
$USERI1
 70
     0
  9
$USERI2
 70
     0
  9
$USERI3
 70
     0
  9
$USERI4
 70
     0
  9
$USERI5
 70
     0
  9
$USERR1
 40
0.0
  9
$USERR2
 40
0.0
  9
$USERR3
 40
0.0
  9
$USERR4
 40
0.0
  9
$USERR5
 40
0.0
  9
$WORLDVIEW
 70
     1
  9
$SHADEDGE
 70
     3
  9
$SHADEDIF
 70
    70
  9
$TILEMODE
 70
     1
  9
$MAXACTVP
 70
    64
  9
$PINSBASE
 10
0.0
 20
0.0
 30
0.0
  9
$PLIMCHECK
 70
     0
  9
$PEXTMIN
 10
0.0
 20
0.0
 30
0.0
  9
$PEXTMAX
 10
594.0
 20
420.0
 30
0.0
  9
$PLIMMIN
 10
0.0
 20
0.0
  9
$PLIMMAX
 10
0.0
 20
0.0
  9
$UNITMODE
 70
     0
  9
$VISRETAIN
 70
     1
  9
$PLINEGEN
 70
     0
  9
$PSLTSCALE
 70
     1
  9
$TREEDEPTH
 70
  3020
  9
$CMLSTYLE
  2
STANDARD
  9
$CMLJUST
 70
     0
  9
$CMLSCALE
 40
20.0
  9
$PROXYGRAPHICS
 70
     1
  9
$MEASUREMENT
 70
     1
  9
$CELWEIGHT
370
    -1
  9
$ENDCAPS
280
     0
  9
$JOINSTYLE
280
     0
  9
$LWDISPLAY
290
     1
  9
$INSUNITS
 70
     4
  9
$HYPERLINKBASE
  1

  9
$STYLESHEET
  1
monochrome.ctb
  9
$XEDIT
290
     1
  9
$CEPSNTYPE
380
     0
  9
$PSTYLEMODE
290
     1
  9
$FINGERPRINTGUID
  2
{82FD4B47-A590-11D2-9A33-0060089B3A3F}
  9
$VERSIONGUID
  2
{9F9256D1-6E4B-4D58-B2EE-145D339BB681}
  9
$EXTNAMES
290
     1
  9
$PSVPSCALE
 40
0.0
  9
$OLESTARTUP
290
     0
  9
$SORTENTS
280
   127
  9
$INDEXCTL
280
     0
  9
$HIDETEXT
280
     1
  9
$XCLIPFRAME
290
     0
  9
$HALOGAP
280
     0
  9
$OBSCOLOR
 70
   257
  9
$OBSLTYPE
280
     0
  9
$INTERSECTIONDISPLAY
280
     0
  9
$INTERSECTIONCOLOR
 70
   257
  9
$DIMASSOC
280
     2
  9
$PROJECTNAME
  1

  9
$CAMERADISPLAY
290
     0
  9
$LENSLENGTH
 40
50.0
  9
$CAMERAHEIGHT
 40
0.0
  9
$STEPSPERSEC
 40
2.0
  9
$STEPSIZE
 40
6.0
  9
$3DDWFPREC
 40
2.0
  9
$PSOLWIDTH
 40
0.25
  9
$PSOLHEIGHT
 40
4.0
  9
$LOFTANG1
 40
1.570796326794897
  9
$LOFTANG2
 40
1.570796326794897
  9
$LOFTMAG1
 40
0.0
  9
$LOFTMAG2
 40
0.0
  9
$LOFTPARAM
 70
     7
  9
$LOFTNORMALS
280
     1
  9
$LATITUDE
 40
37.795
  9
$LONGITUDE
 40
-122.394
  9
$NORTHDIRECTION
 40
0.0
  9
$TIMEZONE
 70
 -8000
  9
$LIGHTGLYPHDISPLAY
280
     1
  9
$TILEMODELIGHTSYNCH
280
     1
  9
$SOLIDHIST
280
     1
  9
$SHOWHIST
280
     1
  9
$DWFFRAME
280
     2
  9
$DGNFRAME
280
     2
  9
$REALWORLDSCALE
290
     1
  9
$INTERFERECOLOR
 62
   256
  9
$CSHADOW
280
     0
  9
$SHADOWPLANELOCATION
 40
0.0
  0
ENDSEC
  0
SECTION
  2
CLASSES
  0
CLASS
  1
ACDBDICTIONARYWDFLT
  2
AcDbDictionaryWithDefault
  3
ObjectDBX Classes
 90
        0
 91
        3
280
     0
281
     0
  0
CLASS
  1
MATERIAL
  2
AcDbMaterial
  3
ObjectDBX Classes
 90
     1153
 91
        3
280
     0
281
     0
  0
CLASS
  1
VISUALSTYLE
  2
AcDbVisualStyle
  3
ObjectDBX Classes
 90
     4095
 91
        3
280
     0
281
     0
  0
CLASS
  1
SUN
  2
AcDbSun
  3
SCENEOE
 90
     1153
 91
        3
280
     0
281
     0
  0
CLASS
  1
SCALE
  2
AcDbScale
  3
ObjectDBX Classes
 90
     1153
 91
        3
280
     0
281
     0
  0
CLASS
  1
DIMASSOC
  2
AcDbDimAssoc
  3
"AcDbDimAssoc|Product Desc:     AcDim ARX App For Dimension|Company:          Autodesk, Inc.|WEB Address:      www.autodesk.com"
 90
        0
 91
        3
280
     0
281
     0
  0
CLASS
  1
DICTIONARYVAR
  2
AcDbDictionaryVar
  3
ObjectDBX Classes
 90
        0
 91
        3
280
     0
281
     0
  0
CLASS
  1
TABLESTYLE
  2
AcDbTableStyle
  3
ObjectDBX Classes
 90
     4095
 91
        3
280
     0
281
     0
  0
CLASS
  1
MLEADERSTYLE
  2
AcDbMLeaderStyle
  3
ACDB_MLEADERSTYLE_CLASS
 90
     4095
 91
        3
280
     0
281
     0
  0
CLASS
  1
CELLSTYLEMAP
  2
AcDbCellStyleMap
  3
ObjectDBX Classes
 90
     1152
 91
        3
280
     0
281
     0
  0
CLASS
  1
SORTENTSTABLE
  2
AcDbSortentsTable
  3
ObjectDBX Classes
 90
        0
 91
        3
280
     0
281
     0
  0
CLASS
  1
ACAD_TABLE
  2
AcDbTable
  3
ObjectDBX Classes
 90
     1025
 91
        3
280
     0
281
     1
  0
CLASS
  1
TABLEGEOMETRY
  2
AcDbTableGeometry
  3
ObjectDBX Classes
 90
     1152
 91
        3
280
     0
281
     0
  0
CLASS
  1
BREAKDATA
  2
AcDbBreakData
  3
ObjectDBX Classes
 90
     1024
 91
        3
280
     0
281
     0
  0
ENDSEC
  0
SECTION
  2
TABLES
  0
TABLE
  2
VPORT
  5
2A
330
0
100
AcDbSymbolTable
 70
     1
  0
VPORT
  5
2F
330
2A
100
AcDbSymbolTableRecord
100
AcDbViewportTableRecord
  2
*Active
 70
     0
 10
0.0
 20
0.0
 11
1.0
 21
1.0
 12
148.5000000000001
 22
105.0
 13
0.0
 23
0.0
 14
10.0
 24
10.0
 15
10.0
 25
10.0
 16
0.0
 26
0.0
 36
1.0
 17
0.0
 27
0.0
 37
0.0
 40
214.2
 41
1.68396770472895
 42
50.0
 43
0.0
 44
0.0
 50
0.0
 51
0.0
 71
    16
 72
   100
 73
     1
 74
     3
 75
     0
 76
     0
 77
     0
 78
     0
281
     0
 65
     1
110
0.0
120
0.0
130
0.0
111
1.0
121
0.0
131
0.0
112
0.0
122
1.0
132
0.0
 79
     0
146
0.0
348
30
 60
     3
 61
     5
292
     1
282
     1
141
0.0
142
0.0
 63
   256
361
31
  0
ENDTAB
  0
TABLE
  2
LTYPE
  5
E
330
0
100
AcDbSymbolTable
 70
     3
  0
LTYPE
  5
F
330
E
100
AcDbSymbolTableRecord
100
AcDbLinetypeTableRecord
  2
BYBLOCK
 70
     0
  3

 72
    65
 73
     0
 40
0.0
  0
LTYPE
  5
10
330
E
100
AcDbSymbolTableRecord
100
AcDbLinetypeTableRecord
  2
BYLAYER
 70
     0
  3

 72
    65
 73
     0
 40
0.0
  0
LTYPE
  5
D
330
E
100
AcDbSymbolTableRecord
100
AcDbLinetypeTableRecord
  2
CONTINUOUS
 70
     0
  3
Solid line
 72
    65
 73
     0
 40
0.0
  0
LTYPE
  5
81
330
E
100
AcDbSymbolTableRecord
100
AcDbLinetypeTableRecord
  2
HIDDEN
 70
     0
  3
Hidden __ __ __ __ __ __ __ __ __ __ __ __ __ __
 72
    65
 73
     2
 40
1.905
 49
1.27
 74
     0
 49
-0.635
 74
     0
  0
LTYPE
  5
4F4
330
E
100
AcDbSymbolTableRecord
100
AcDbLinetypeTableRecord
  2
CENTER
 70
     0
  3
Center ____ _ ____ _ ____ _ ____ _ ____ _ ____
 72
    65
 73
     4
 40
50.8
 49
31.75
 74
     0
 49
-6.35
 74
     0
 49
6.35
 74
     0
 49
-6.35
 74
     0
  0
ENDTAB
  0
TABLE
  2
LAYER
  5
2
102
{ACAD_XDICTIONARY
360
3
102
}
330
0
100
AcDbSymbolTable
 70
     7
  0
LAYER
  5
1
330
2
100
AcDbSymbolTableRecord
100
AcDbLayerTableRecord
  2
0
 70
     0
 62
     7
  6
CONTINUOUS
370
    -3
390
8
347
B
  0
LAYER
  5
59
330
2
100
AcDbSymbolTableRecord
100
AcDbLayerTableRecord
  2
OBJECT
 70
     0
 62
     7
  6
CONTINUOUS
370
    30
390
8
347
B
  0
LAYER
  5
ED
330
2
100
AcDbSymbolTableRecord
100
AcDbLayerTableRecord
  2
DIMS
 70
     0
 62
     6
  6
CONTINUOUS
370
    -3
390
8
347
B
  0
LAYER
  5
F7
330
2
100
AcDbSymbolTableRecord
100
AcDbLayerTableRecord
  2
Defpoints
 70
     0
 62
     2
  6
CONTINUOUS
290
     0
370
    -3
390
8
347
B
  0
LAYER
  5
80
330
2
100
AcDbSymbolTableRecord
100
AcDbLayerTableRecord
  2
Hidden
 70
     0
 62
     4
  6
HIDDEN
370
    -3
390
8
347
B
  0
LAYER
  5
4F2
330
2
100
AcDbSymbolTableRecord
100
AcDbLayerTableRecord
  2
Center
 70
     0
 62
     1
  6
CENTER
370
    -3
390
8
347
B
  0
LAYER
  5
4F8
330
2
100
AcDbSymbolTableRecord
100
AcDbLayerTableRecord
  2
DIM2
 70
     0
 62
     2
  6
CONTINUOUS
370
    -3
390
8
347
B
  0
ENDTAB
  0
TABLE
  2
STYLE
  5
12
330
0
100
AcDbSymbolTable
 70
     3
  0
STYLE
  5
15
330
12
100
AcDbSymbolTableRecord
100
AcDbTextStyleTableRecord
  2
STANDARD
 70
     0
 40
2.5
 41
1.0
 50
0.0
 71
     0
 42
2.5
  3
simplex.shx
  4
bigfont.shx
  0
STYLE
  5
11
330
12
100
AcDbSymbolTableRecord
100
AcDbTextStyleTableRecord
  2
Roman
 70
     0
 40
2.5
 41
0.9
 50
0.0
 71
     0
 42
2.5
  3
romans.shx
  4
bigfont.shx
  0
STYLE
  5
12D
330
12
100
AcDbSymbolTableRecord
100
AcDbTextStyleTableRecord
  2
Bom
 70
     0
 40
2.5
 41
0.8500000000000001
 50
0.0
 71
     0
 42
2.5
  3
romans.shx
  4
bigfont.shx
  0
ENDTAB
  0
TABLE
  2
VIEW
  5
28
330
0
100
AcDbSymbolTable
 70
     0
  0
ENDTAB
  0
TABLE
  2
UCS
  5
29
330
0
100
AcDbSymbolTable
 70
     0
  0
ENDTAB
  0
TABLE
  2
APPID
  5
7
330
0
100
AcDbSymbolTable
 70
     4
  0
APPID
  5
6
330
7
100
AcDbSymbolTableRecord
100
AcDbRegAppTableRecord
  2
ACAD
 70
     0
  0
APPID
  5
1F9
330
7
100
AcDbSymbolTableRecord
100
AcDbRegAppTableRecord
  2
ACAD_MLEADERVER
 70
     0
  0
APPID
  5
390
330
7
100
AcDbSymbolTableRecord
100
AcDbRegAppTableRecord
  2
ENABLE_CUSTOM_SPLIT
 70
     0
  0
APPID
  5
77B
330
7
100
AcDbSymbolTableRecord
100
AcDbRegAppTableRecord
  2
PLOTTRANSPARENCY
 70
     0
  0
ENDTAB
  0
TABLE
  2
DIMSTYLE
  5
14
330
0
100
AcDbSymbolTable
 70
     5
100
AcDbDimStyleTable
  0
DIMSTYLE
105
13
102
{ACAD_REACTORS
330
353
330
4B9
330
4BD
330
4E0
330
5AA
330
5BA
330
5CA
330
6CE
102
}
330
14
100
AcDbSymbolTableRecord
100
AcDbDimStyleTableRecord
  2
STANDARD
 70
     0
 41
2.5
 42
0.65
 43
0.5
 44
0.65
 73
     0
 74
     0
 77
     1
 78
     8
 79
     2
140
3.0
141
5.0
147
0.65
172
     1
176
   256
177
   256
271
     3
178
     7
179
     2
271
     3
284
     8
340
15
341
16
342
16
371
    -1
372
    -1
345
10
  0
DIMSTYLE
105
129
330
14
100
AcDbSymbolTableRecord
100
AcDbDimStyleTableRecord
  2
DIMSTYLE_4
 70
     0
 41
4.0
 42
0.625
 44
0.625
 47
0.5
 71
     1
 73
     0
 74
     0
 77
     1
 78
     8
140
3.0
146
0.7
147
0.625
172
     1
178
     0
271
     3
272
     3
284
     8
289
     0
340
15
  0
DIMSTYLE
105
12A
330
14
100
AcDbSymbolTableRecord
100
AcDbDimStyleTableRecord
  2
DIMSTYLE_6
 70
     0
  3
%%c<> G6
 41
4.0
 42
0.625
 44
0.625
 47
0.025
 48
-0.009
 71
     1
 73
     0
 74
     0
 77
     1
 78
     8
140
3.0
146
0.7
147
0.625
172
     1
178
     0
271
     3
272
     3
284
     8
289
     1
340
15
  0
DIMSTYLE
105
12B
330
14
100
AcDbSymbolTableRecord
100
AcDbDimStyleTableRecord
  2
DIMSTYLE_9
 70
     0
  3
%%c<>
 41
4.0
 42
0.625
 44
0.625
 47
0.03
 48
0.03000000003
 73
     0
 74
     0
 77
     1
 78
     8
140
3.0
146
0.7
147
0.625
172
     1
178
     0
271
     3
272
     3
284
     8
340
15
  0
DIMSTYLE
105
12C
330
14
100
AcDbSymbolTableRecord
100
AcDbDimStyleTableRecord
  2
ISO-25
 70
     0
 41
2.5
 42
0.625
 43
3.75
 44
1.25
 73
     0
 74
     0
 77
     1
 78
     8
140
2.5
141
2.5
143
0.03937007874016
147
0.625
171
     3
172
     1
178
     0
271
     2
272
     2
274
     3
278
    44
283
     0
284
     8
340
15
  0
ENDTAB
  0
TABLE
  2
BLOCK_RECORD
  5
17
330
0
100
AcDbSymbolTable
 70
    24
  0
BLOCK_RECORD
  5
18
102
{ACAD_XDICTIONARY
360
FD
102
}
330
17
100
AcDbSymbolTableRecord
100
AcDbBlockTableRecord
  2
*MODEL_SPACE
340
1B
 70
     0
280
     1
281
     0
  0
BLOCK_RECORD
  5
1D
330
17
100
AcDbSymbolTableRecord
100
AcDbBlockTableRecord
  2
*PAPER_SPACE
340
20
 70
     0
280
     1
281
     0
  0
BLOCK_RECORD
  5
16
330
17
100
AcDbSymbolTableRecord
100
AcDbBlockTableRecord
  2
_Open30
340
0
102
{BLKREFS
331
F3
331
F4
331
2B3
331
2B4
331
35D
331
35E
331
420
331
421
331
432
331
433
331
4C9
331
4CA
331
4D5
331
4D6
331
4E9
331
4EA
331
5B3
331
5B4
331
5C3
331
5C4
331
5D3
331
5D4
331
6D8
331
6D9
331
6F3
331
6F2
331
704
331
703
331
712
331
711
331
723
331
722
102
}
 70
     0
280
     1
281
     0
  0
BLOCK_RECORD
  5
D5
330
17
100
AcDbSymbolTableRecord
100
AcDbBlockTableRecord
  2
A$C15711
340
0
102
{BLKREFS
331
352
102
}
 70
     0
280
     1
281
     0
  0
BLOCK_RECORD
  5
EE
330
17
100
AcDbSymbolTableRecord
100
AcDbBlockTableRecord
  2
*D2
340
0
 70
     0
280
     1
281
     0
  0
BLOCK_RECORD
  5
169
330
17
100
AcDbSymbolTableRecord
100
AcDbBlockTableRecord
  2
*T3
340
0
 70
     0
280
     1
281
     0
  0
BLOCK_RECORD
  5
185
330
17
100
AcDbSymbolTableRecord
100
AcDbBlockTableRecord
  2
*T4
340
0
 70
     0
280
     1
281
     0
  0
BLOCK_RECORD
  5
1B5
330
17
100
AcDbSymbolTableRecord
100
AcDbBlockTableRecord
  2
*T5
340
0
 70
     0
280
     1
281
     0
  0
BLOCK_RECORD
  5
1D9
330
17
100
AcDbSymbolTableRecord
100
AcDbBlockTableRecord
  2
*T6
340
0
 70
     0
280
     1
281
     0
  0
BLOCK_RECORD
  5
2AE
330
17
100
AcDbSymbolTableRecord
100
AcDbBlockTableRecord
  2
*D7
340
0
 70
     0
280
     1
281
     0
  0
BLOCK_RECORD
  5
2BB
330
17
100
AcDbSymbolTableRecord
100
AcDbBlockTableRecord
  2
*T8
340
0
 70
     0
280
     1
281
     0
  0
BLOCK_RECORD
  5
357
330
17
100
AcDbSymbolTableRecord
100
AcDbBlockTableRecord
  2
*D9
340
0
 70
     0
280
     1
281
     0
  0
BLOCK_RECORD
  5
363
330
17
100
AcDbSymbolTableRecord
100
AcDbBlockTableRecord
  2
*T10
340
0
102
{BLKREFS
331
356
102
}
 70
     0
280
     1
281
     0
  0
BLOCK_RECORD
  5
41B
330
17
100
AcDbSymbolTableRecord
100
AcDbBlockTableRecord
  2
*D11
340
0
 70
     0
280
     1
281
     0
  0
BLOCK_RECORD
  5
42B
330
17
100
AcDbSymbolTableRecord
100
AcDbBlockTableRecord
  2
*D12
340
0
 70
     0
280
     1
281
     0
  0
BLOCK_RECORD
  5
4C1
330
17
100
AcDbSymbolTableRecord
100
AcDbBlockTableRecord
  2
*D13
340
0
 70
     0
280
     1
281
     0
  0
BLOCK_RECORD
  5
4CD
330
17
100
AcDbSymbolTableRecord
100
AcDbBlockTableRecord
  2
*D14
340
0
 70
     0
280
     1
281
     0
  0
BLOCK_RECORD
  5
4E3
330
17
100
AcDbSymbolTableRecord
100
AcDbBlockTableRecord
  2
*D15
340
0
 70
     0
280
     1
281
     0
  0
BLOCK_RECORD
  5
5AD
330
17
100
AcDbSymbolTableRecord
100
AcDbBlockTableRecord
  2
*D16
340
0
 70
     0
280
     1
281
     0
  0
BLOCK_RECORD
  5
5BD
330
17
100
AcDbSymbolTableRecord
100
AcDbBlockTableRecord
  2
*D17
340
0
 70
     0
280
     1
281
     0
  0
BLOCK_RECORD
  5
5CD
330
17
100
AcDbSymbolTableRecord
100
AcDbBlockTableRecord
  2
*D18
340
0
 70
     0
280
     1
281
     0
  0
BLOCK_RECORD
  5
6D1
330
17
100
AcDbSymbolTableRecord
100
AcDbBlockTableRecord
  2
*D19
340
0
 70
     0
280
     1
281
     0
  0
BLOCK_RECORD
  5
6EC
330
17
100
AcDbSymbolTableRecord
100
AcDbBlockTableRecord
  2
*D20
340
0
 70
     0
280
     1
281
     0
  0
BLOCK_RECORD
  5
6FD
330
17
100
AcDbSymbolTableRecord
100
AcDbBlockTableRecord
  2
*D21
340
0
 70
     0
280
     1
281
     0
  0
BLOCK_RECORD
  5
70B
330
17
100
AcDbSymbolTableRecord
100
AcDbBlockTableRecord
  2
*D22
340
0
 70
     0
280
     1
281
     0
  0
BLOCK_RECORD
  5
71C
330
17
100
AcDbSymbolTableRecord
100
AcDbBlockTableRecord
  2
*D23
340
0
 70
     0
280
     1
281
     0
  0
ENDTAB
  0
ENDSEC
  0
SECTION
  2
BLOCKS
  0
BLOCK
  5
19
330
18
100
AcDbEntity
  8
0
100
AcDbBlockBegin
  2
*MODEL_SPACE
 70
     0
 10
0.0
 20
0.0
 30
0.0
  3
*MODEL_SPACE
  1
*MODEL_SPACE
  0
ENDBLK
  5
1A
330
18
100
AcDbEntity
  8
0
100
AcDbBlockEnd
  0
BLOCK
  5
1E
330
1D
100
AcDbEntity
 67
     1
  8
0
100
AcDbBlockBegin
  2
*PAPER_SPACE
 70
     0
 10
0.0
 20
0.0
 30
0.0
  3
*PAPER_SPACE
  1
*PAPER_SPACE
  0
ENDBLK
  5
1F
330
1D
100
AcDbEntity
 67
     1
  8
0
100
AcDbBlockEnd
  0
BLOCK
  5
21
330
16
100
AcDbEntity
  8
0
100
AcDbBlockBegin
  2
_Open30
 70
     0
 10
0.0
 20
0.0
 30
0.0
  3
_Open30
  1
_Open30
  0
LINE
  5
22
330
16
100
AcDbEntity
  8
0
  6
ByBlock
 62
     0
370
    -2
100
AcDbLine
 10
-1.0
 20
0.26794919
 30
0.0
 11
0.0
 21
0.0
 31
0.0
  0
LINE
  5
23
330
16
100
AcDbEntity
  8
0
  6
ByBlock
 62
     0
370
    -2
100
AcDbLine
 10
0.0
 20
0.0
 30
0.0
 11
-1.0
 21
-0.26794919
 31
0.0
  0
LINE
  5
24
330
16
100
AcDbEntity
  8
0
  6
ByBlock
 62
     0
370
    -2
100
AcDbLine
 10
0.0
 20
0.0
 30
0.0
 11
-1.0
 21
0.0
 31
0.0
  0
ENDBLK
  5
25
330
16
100
AcDbEntity
  8
0
100
AcDbBlockEnd
  0
BLOCK
  5
D6
330
D5
100
AcDbEntity
  8
0
100
AcDbBlockBegin
  2
A$C15711
 70
     0
 10
0.0
 20
0.0
 30
0.0
  3
A$C15711
  1

  0
LINE
  5
D7
330
D5
100
AcDbEntity
  8
OBJECT
100
AcDbLine
 10
-2.100000000000023
 20
0.3000000000000114
 30
0.0
 11
-4.0
 21
0.3000000000000114
 31
0.0
  0
LINE
  5
D8
330
D5
100
AcDbEntity
  8
OBJECT
100
AcDbLine
 10
-4.0
 20
0.3000000000000114
 30
0.0
 11
-4.0
 21
-0.3000000000000114
 31
0.0
  0
LINE
  5
D9
330
D5
100
AcDbEntity
  8
OBJECT
100
AcDbLine
 10
-2.100000000000023
 20
-0.3000000000000114
 30
0.0
 11
-2.100000000000023
 21
0.3000000000000114
 31
0.0
  0
LINE
  5
DA
330
D5
100
AcDbEntity
  8
OBJECT
100
AcDbLine
 10
-4.0
 20
-0.3000000000000114
 30
0.0
 11
-2.100000000000023
 21
-0.3000000000000114
 31
0.0
  0
LINE
  5
DB
330
D5
100
AcDbEntity
  8
OBJECT
100
AcDbLine
 10
-21.60000000000002
 20
-2.499999999999943
 30
0.0
 11
-21.60000000000002
 21
-4.999999999999943
 31
0.0
  0
LINE
  5
DC
330
D5
100
AcDbEntity
  8
OBJECT
100
AcDbLine
 10
-18.69999999935004
 20
-2.499999999999943
 30
0.0
 11
-21.60000000000002
 21
-2.499999999999943
 31
0.0
  0
LINE
  5
DD
330
D5
100
AcDbEntity
  8
OBJECT
100
AcDbLine
 10
-18.69999999910004
 20
2.500000000000057
 30
0.0
 11
-18.69999999935004
 21
-2.499999999999943
 31
0.0
  0
LINE
  5
DE
330
D5
100
AcDbEntity
  8
OBJECT
100
AcDbLine
 10
-21.60000000000002
 20
2.500000000000057
 30
0.0
 11
-18.69999999910004
 21
2.500000000000057
 31
0.0
  0
LINE
  5
DF
330
D5
100
AcDbEntity
  8
OBJECT
100
AcDbLine
 10
-21.60000000000002
 20
5.000000000000057
 30
0.0
 11
-21.60000000000002
 21
2.500000000000057
 31
0.0
  0
LINE
  5
E0
330
D5
100
AcDbEntity
  8
OBJECT
100
AcDbLine
 10
-21.60000000000002
 20
5.000000000000057
 30
0.0
 11
-12.56497102575105
 21
5.000000000000057
 31
0.0
  0
LINE
  5
E1
330
D5
100
AcDbEntity
  8
OBJECT
100
AcDbLine
 10
-12.56609408405535
 20
-4.999999999999943
 30
0.0
 11
-12.56497102575105
 21
5.000000000000057
 31
0.0
  0
LINE
  5
E2
330
D5
100
AcDbEntity
  8
OBJECT
100
AcDbLine
 10
-12.56609408405535
 20
-4.999999999999943
 30
0.0
 11
-21.60000000000002
 21
-4.999999999999943
 31
0.0
  0
LINE
  5
E3
330
D5
100
AcDbEntity
  8
OBJECT
100
AcDbLine
 10
-11.20000000000005
 20
-4.300000000000011
 30
0.0
 11
-11.20000000000005
 21
4.300000000000011
 31
0.0
  0
LINE
  5
E4
330
D5
100
AcDbEntity
  8
OBJECT
100
AcDbLine
 10
-11.20000000000005
 20
4.300000000000011
 30
0.0
 11
-12.56497102575105
 21
5.000000000000057
 31
0.0
  0
LINE
  5
E5
330
D5
100
AcDbEntity
  8
OBJECT
100
AcDbLine
 10
0.0
 20
4.300000000000011
 30
0.0
 11
-11.20000000000005
 21
4.300000000000011
 31
0.0
  0
LINE
  5
E6
330
D5
100
AcDbEntity
  8
OBJECT
100
AcDbLine
 10
0.0
 20
4.300000000000011
 30
0.0
 11
0.0
 21
-4.300000000000011
 31
0.0
  0
LINE
  5
E7
330
D5
100
AcDbEntity
  8
OBJECT
100
AcDbLine
 10
0.0
 20
-4.300000000000011
 30
0.0
 11
-11.20000000000005
 21
-4.300000000000011
 31
0.0
  0
LINE
  5
E8
330
D5
100
AcDbEntity
  8
OBJECT
100
AcDbLine
 10
-12.56609408405535
 20
-4.999999999999943
 30
0.0
 11
-11.20000000000005
 21
-4.300000000000011
 31
0.0
  0
ENDBLK
  5
E9
330
D5
100
AcDbEntity
  8
0
100
AcDbBlockEnd
  0
BLOCK
  5
EF
330
EE
100
AcDbEntity
  8
0
100
AcDbBlockBegin
  2
*D2
 70
     1
 10
0.0
 20
0.0
 30
0.0
  3
*D2
  1

  0
LINE
  5
F0
330
EE
100
AcDbEntity
  8
DIMS
100
AcDbLine
 10
79.91157183086273
 20
123.5691914211572
 30
0.0
 11
79.91157183086273
 21
146.8773382508734
 31
0.0
  0
LINE
  5
F1
330
EE
100
AcDbEntity
  8
DIMS
100
AcDbLine
 10
184.9115718308629
 20
127.5496478526486
 30
0.0
 11
184.9115718308629
 21
146.8773382508734
 31
0.0
  0
LINE
  5
F2
330
EE
100
AcDbEntity
  8
DIMS
100
AcDbLine
 10
82.41157183086273
 20
146.2273382508734
 30
0.0
 11
182.4115718308629
 21
146.2273382508734
 31
0.0
  0
INSERT
  5
F3
330
EE
100
AcDbEntity
  8
DIMS
100
AcDbBlockReference
  2
_Open30
 10
79.91157183086273
 20
146.2273382508734
 30
0.0
 41
2.5
 42
2.5
 43
2.5
 50
180.0
  0
INSERT
  5
F4
330
EE
100
AcDbEntity
  8
DIMS
100
AcDbBlockReference
  2
_Open30
 10
184.9115718308629
 20
146.2273382508734
 30
0.0
 41
2.5
 42
2.5
 43
2.5
  0
MTEXT
  5
F5
330
EE
100
AcDbEntity
  8
DIMS
 62
     7
100
AcDbMText
 10
132.4115718308628
 20
148.1273382508734
 30
0.0
 40
2.5
 41
0.0
 46
0.0
 71
     5
 72
     1
  1
\A1;L
 73
     1
 44
1.0
  0
POINT
  5
F6
330
EE
100
AcDbEntity
  8
Defpoints
 62
     0
100
AcDbPoint
 10
79.91157183086273
 20
122.9191914211572
 30
0.0
  0
POINT
  5
F8
330
EE
100
AcDbEntity
  8
Defpoints
 62
     0
100
AcDbPoint
 10
184.9115718308629
 20
126.8996478526486
 30
0.0
  0
POINT
  5
F9
330
EE
100
AcDbEntity
  8
Defpoints
 62
     0
100
AcDbPoint
 10
184.9115718308629
 20
146.2273382508734
 30
0.0
  0
ENDBLK
  5
FA
330
EE
100
AcDbEntity
  8
0
100
AcDbBlockEnd
  0
BLOCK
  5
16A
330
169
100
AcDbEntity
  8
0
100
AcDbBlockBegin
  2
*T3
 70
     1
 10
0.0
 20
0.0
 30
0.0
  3
*T3
  1

  0
MTEXT
  5
16B
330
169
100
AcDbEntity
  8
0
100
AcDbMText
 10
14.0
 20
-2.5
 30
0.0
 40
2.5
 41
27.0
 46
0.0
 71
     5
 72
     5
  1
長さL（単位mm）
  7
Bom
 73
     1
 44
1.0
  0
MTEXT
  5
16C
330
169
100
AcDbEntity
  8
0
100
AcDbMText
 10
50.5
 20
-2.5
 30
0.0
 40
2.5
 41
44.0
 46
0.0
 71
     5
 72
     5
  1
名称
  7
Bom
 73
     1
 44
1.0
  0
MTEXT
  5
16D
330
169
100
AcDbEntity
  8
0
100
AcDbMText
 10
90.5
 20
-2.5
 30
0.0
 40
2.5
 41
34.0
 46
0.0
 71
     5
 72
     5
  1
型番
  7
Bom
 73
     1
 44
1.0
  0
MTEXT
  5
16E
330
169
100
AcDbEntity
  8
0
100
AcDbMText
 10
14.0
 20
-7.5
 30
0.0
 40
2.5
 41
27.0
 46
0.0
 71
     5
 72
     5
  1
1000
  7
Bom
 73
     1
 44
1.0
  0
MTEXT
  5
16F
330
169
100
AcDbEntity
  8
0
100
AcDbMText
 10
50.5
 20
-7.5
 30
0.0
 40
2.5
 41
44.0
 46
0.0
 71
     5
 72
     5
  1
I/OケーブルA 1000mm
  7
Bom
 73
     1
 44
1.0
  0
MTEXT
  5
170
330
169
100
AcDbEntity
  8
0
100
AcDbMText
 10
90.5
 20
-7.5
 30
0.0
 40
2.5
 41
34.0
 46
0.0
 71
     5
 72
     5
  1
CMIOA1-1000S
  7
Bom
 73
     1
 44
1.0
  0
MTEXT
  5
171
330
169
100
AcDbEntity
  8
0
100
AcDbMText
 10
14.0
 20
-12.5
 30
0.0
 40
2.5
 41
27.0
 46
0.0
 71
     5
 72
     5
  1
3000
  7
Bom
 73
     1
 44
1.0
  0
MTEXT
  5
172
330
169
100
AcDbEntity
  8
0
100
AcDbMText
 10
50.5
 20
-12.5
 30
0.0
 40
2.5
 41
44.0
 46
0.0
 71
     5
 72
     5
  1
I/OケーブルA 3000mm
  7
Bom
 73
     1
 44
1.0
  0
MTEXT
  5
173
330
169
100
AcDbEntity
  8
0
100
AcDbMText
 10
90.5
 20
-12.5
 30
0.0
 40
2.5
 41
34.0
 46
0.0
 71
     5
 72
     5
  1
CMIOA1-3000S
  7
Bom
 73
     1
 44
1.0
  0
MTEXT
  5
174
330
169
100
AcDbEntity
  8
0
100
AcDbMText
 10
14.0
 20
-17.5
 30
0.0
 40
2.5
 41
27.0
 46
0.0
 71
     5
 72
     5
  1
5000
  7
Bom
 73
     1
 44
1.0
  0
MTEXT
  5
175
330
169
100
AcDbEntity
  8
0
100
AcDbMText
 10
50.5
 20
-17.5
 30
0.0
 40
2.5
 41
44.0
 46
0.0
 71
     5
 72
     5
  1
I/OケーブルA 5000mm
  7
Bom
 73
     1
 44
1.0
  0
MTEXT
  5
176
330
169
100
AcDbEntity
  8
0
100
AcDbMText
 10
90.5
 20
-17.5
 30
0.0
 40
2.5
 41
34.0
 46
0.0
 71
     5
 72
     5
  1
CMIOA1-5000S
  7
Bom
 73
     1
 44
1.0
  0
LINE
  5
177
330
169
100
AcDbEntity
  8
0
  6
ByBlock
100
AcDbLine
 10
0.0
 20
0.0
 30
0.0
 11
108.0
 21
0.0
 31
0.0
  0
LINE
  5
178
330
169
100
AcDbEntity
  8
0
  6
ByBlock
100
AcDbLine
 10
108.0
 20
0.0
 30
0.0
 11
108.0
 21
-20.0
 31
0.0
  0
LINE
  5
179
330
169
100
AcDbEntity
  8
0
  6
ByBlock
100
AcDbLine
 10
0.0
 20
-5.0
 30
0.0
 11
108.0
 21
-5.0
 31
0.0
  0
LINE
  5
17A
330
169
100
AcDbEntity
  8
0
  6
ByBlock
100
AcDbLine
 10
0.0
 20
-10.0
 30
0.0
 11
108.0
 21
-10.0
 31
0.0
  0
LINE
  5
17B
330
169
100
AcDbEntity
  8
0
  6
ByBlock
100
AcDbLine
 10
0.0
 20
-15.0
 30
0.0
 11
108.0
 21
-15.0
 31
0.0
  0
LINE
  5
17C
330
169
100
AcDbEntity
  8
0
  6
ByBlock
100
AcDbLine
 10
0.0
 20
-20.0
 30
0.0
 11
108.0
 21
-20.0
 31
0.0
  0
LINE
  5
17D
330
169
100
AcDbEntity
  8
0
  6
ByBlock
100
AcDbLine
 10
0.0
 20
0.0
 30
0.0
 11
0.0
 21
-20.0
 31
0.0
  0
LINE
  5
17E
330
169
100
AcDbEntity
  8
0
  6
ByBlock
100
AcDbLine
 10
28.0
 20
0.0
 30
0.0
 11
28.0
 21
-20.0
 31
0.0
  0
LINE
  5
17F
330
169
100
AcDbEntity
  8
0
  6
ByBlock
100
AcDbLine
 10
73.0
 20
0.0
 30
0.0
 11
73.0
 21
-20.0
 31
0.0
  0
ENDBLK
  5
180
330
169
100
AcDbEntity
  8
0
100
AcDbBlockEnd
  0
BLOCK
  5
19B
330
185
100
AcDbEntity
  8
0
100
AcDbBlockBegin
  2
*T4
 70
     1
 10
0.0
 20
0.0
 30
0.0
  3
*T4
  1

  0
MTEXT
  5
186
330
185
100
AcDbEntity
  8
0
100
AcDbMText
 10
14.0
 20
-2.5
 30
0.0
 40
2.5
 41
27.0
 46
0.0
 71
     5
 72
     5
  1
長さL（単位mm）
  7
Bom
 73
     1
 44
1.0
  0
MTEXT
  5
187
330
185
100
AcDbEntity
  8
0
100
AcDbMText
 10
50.5
 20
-2.5
 30
0.0
 40
2.5
 41
44.0
 46
0.0
 71
     5
 72
     5
  1
名称
  7
Bom
 73
     1
 44
1.0
  0
MTEXT
  5
188
330
185
100
AcDbEntity
  8
0
100
AcDbMText
 10
90.5
 20
-2.5
 30
0.0
 40
2.5
 41
34.0
 46
0.0
 71
     5
 72
     5
  1
型番
  7
Bom
 73
     1
 44
1.0
  0
MTEXT
  5
189
330
185
100
AcDbEntity
  8
0
100
AcDbMText
 10
14.0
 20
-7.5
 30
0.0
 40
2.5
 41
27.0
 46
0.0
 71
     5
 72
     5
  1
1000
  7
Bom
 73
     1
 44
1.0
  0
MTEXT
  5
18A
330
185
100
AcDbEntity
  8
0
100
AcDbMText
 10
50.5
 20
-7.5
 30
0.0
 40
2.5
 41
44.0
 46
0.0
 71
     5
 72
     5
  1
I/OケーブルA 1000mm
  7
Bom
 73
     1
 44
1.0
  0
MTEXT
  5
18B
330
185
100
AcDbEntity
  8
0
100
AcDbMText
 10
90.5
 20
-7.5
 30
0.0
 40
2.5
 41
34.0
 46
0.0
 71
     5
 72
     5
  1
CMIOA1-1000S
  7
Bom
 73
     1
 44
1.0
  0
MTEXT
  5
18C
330
185
100
AcDbEntity
  8
0
100
AcDbMText
 10
14.0
 20
-12.5
 30
0.0
 40
2.5
 41
27.0
 46
0.0
 71
     5
 72
     5
  1
3000
  7
Bom
 73
     1
 44
1.0
  0
MTEXT
  5
18D
330
185
100
AcDbEntity
  8
0
100
AcDbMText
 10
50.5
 20
-12.5
 30
0.0
 40
2.5
 41
44.0
 46
0.0
 71
     5
 72
     5
  1
I/OケーブルA 3000mm
  7
Bom
 73
     1
 44
1.0
  0
MTEXT
  5
18E
330
185
100
AcDbEntity
  8
0
100
AcDbMText
 10
90.5
 20
-12.5
 30
0.0
 40
2.5
 41
34.0
 46
0.0
 71
     5
 72
     5
  1
CMIOA1-3000S
  7
Bom
 73
     1
 44
1.0
  0
MTEXT
  5
18F
330
185
100
AcDbEntity
  8
0
100
AcDbMText
 10
14.0
 20
-17.5
 30
0.0
 40
2.5
 41
27.0
 46
0.0
 71
     5
 72
     5
  1
5000
  7
Bom
 73
     1
 44
1.0
  0
MTEXT
  5
190
330
185
100
AcDbEntity
  8
0
100
AcDbMText
 10
50.5
 20
-17.5
 30
0.0
 40
2.5
 41
44.0
 46
0.0
 71
     5
 72
     5
  1
I/OケーブルA 5000mm
  7
Bom
 73
     1
 44
1.0
  0
MTEXT
  5
191
330
185
100
AcDbEntity
  8
0
100
AcDbMText
 10
90.5
 20
-17.5
 30
0.0
 40
2.5
 41
34.0
 46
0.0
 71
     5
 72
     5
  1
CMIOA1-5000S
  7
Bom
 73
     1
 44
1.0
  0
LINE
  5
192
330
185
100
AcDbEntity
  8
0
  6
ByBlock
100
AcDbLine
 10
0.0
 20
0.0
 30
0.0
 11
108.0
 21
0.0
 31
0.0
  0
LINE
  5
193
330
185
100
AcDbEntity
  8
0
  6
ByBlock
100
AcDbLine
 10
108.0
 20
0.0
 30
0.0
 11
108.0
 21
-20.0
 31
0.0
  0
LINE
  5
194
330
185
100
AcDbEntity
  8
0
  6
ByBlock
100
AcDbLine
 10
0.0
 20
-5.0
 30
0.0
 11
108.0
 21
-5.0
 31
0.0
  0
LINE
  5
195
330
185
100
AcDbEntity
  8
0
  6
ByBlock
100
AcDbLine
 10
0.0
 20
-10.0
 30
0.0
 11
108.0
 21
-10.0
 31
0.0
  0
LINE
  5
196
330
185
100
AcDbEntity
  8
0
  6
ByBlock
100
AcDbLine
 10
0.0
 20
-15.0
 30
0.0
 11
108.0
 21
-15.0
 31
0.0
  0
LINE
  5
197
330
185
100
AcDbEntity
  8
0
  6
ByBlock
100
AcDbLine
 10
0.0
 20
-20.0
 30
0.0
 11
108.0
 21
-20.0
 31
0.0
  0
LINE
  5
198
330
185
100
AcDbEntity
  8
0
  6
ByBlock
100
AcDbLine
 10
0.0
 20
0.0
 30
0.0
 11
0.0
 21
-20.0
 31
0.0
  0
LINE
  5
199
330
185
100
AcDbEntity
  8
0
  6
ByBlock
100
AcDbLine
 10
28.0
 20
0.0
 30
0.0
 11
28.0
 21
-20.0
 31
0.0
  0
LINE
  5
19A
330
185
100
AcDbEntity
  8
0
  6
ByBlock
100
AcDbLine
 10
73.0
 20
0.0
 30
0.0
 11
73.0
 21
-20.0
 31
0.0
  0
ENDBLK
  5
19C
330
185
100
AcDbEntity
  8
0
100
AcDbBlockEnd
  0
BLOCK
  5
1B6
330
1B5
100
AcDbEntity
  8
0
100
AcDbBlockBegin
  2
*T5
 70
     1
 10
0.0
 20
0.0
 30
0.0
  3
*T5
  1

  0
MTEXT
  5
1B7
330
1B5
100
AcDbEntity
  8
0
100
AcDbMText
 10
14.0
 20
-2.5
 30
0.0
 40
2.5
 41
27.0
 46
0.0
 71
     5
 72
     5
  1
長さL（単位mm）
  7
Bom
 73
     1
 44
1.0
  0
MTEXT
  5
1B8
330
1B5
100
AcDbEntity
  8
0
100
AcDbMText
 10
55.5
 20
-2.5
 30
0.0
 40
2.5
 41
54.0
 46
0.0
 71
     5
 72
     5
  1
名称
  7
Bom
 73
     1
 44
1.0
  0
MTEXT
  5
1B9
330
1B5
100
AcDbEntity
  8
0
100
AcDbMText
 10
102.0
 20
-2.5
 30
0.0
 40
2.5
 41
37.0
 46
0.0
 71
     5
 72
     5
  1
型番
  7
Bom
 73
     1
 44
1.0
  0
MTEXT
  5
1BA
330
1B5
100
AcDbEntity
  8
0
100
AcDbMText
 10
14.0
 20
-7.5
 30
0.0
 40
2.5
 41
27.0
 46
0.0
 71
     5
 72
     5
  1
400
  7
Bom
 73
     1
 44
1.0
  0
MTEXT
  5
1BB
330
1B5
100
AcDbEntity
  8
0
100
AcDbMText
 10
28.5
 20
-7.5
 30
0.0
 40
2.5
 41
54.0
 46
0.0
 71
     4
 72
     5
  1
  インターフェースケーブルA 400mm
  7
Bom
 73
     1
 44
1.0
  0
MTEXT
  5
1BC
330
1B5
100
AcDbEntity
  8
0
100
AcDbMText
 10
102.0
 20
-7.5
 30
0.0
 40
2.5
 41
37.0
 46
0.0
 71
     5
 72
     5
  1
CMIFA1-0400WR
  7
Bom
 73
     1
 44
1.0
  0
MTEXT
  5
1BD
330
1B5
100
AcDbEntity
  8
0
100
AcDbMText
 10
14.0
 20
-12.5
 30
0.0
 40
2.5
 41
27.0
 46
0.0
 71
     5
 72
     5
  1
1000
  7
Bom
 73
     1
 44
1.0
  0
MTEXT
  5
1BE
330
1B5
100
AcDbEntity
  8
0
100
AcDbMText
 10
55.5
 20
-12.5
 30
0.0
 40
2.5
 41
54.0
 46
0.0
 71
     5
 72
     5
  1
インターフェースケーブルA 1000mm
  7
Bom
 73
     1
 44
1.0
  0
MTEXT
  5
1BF
330
1B5
100
AcDbEntity
  8
0
100
AcDbMText
 10
102.0
 20
-12.5
 30
0.0
 40
2.5
 41
37.0
 46
0.0
 71
     5
 72
     5
  1
CMIFA1-1000WR
  7
Bom
 73
     1
 44
1.0
  0
MTEXT
  5
1C0
330
1B5
100
AcDbEntity
  8
0
100
AcDbMText
 10
14.0
 20
-17.5
 30
0.0
 40
2.5
 41
27.0
 46
0.0
 71
     5
 72
     5
  1
2000
  7
Bom
 73
     1
 44
1.0
  0
MTEXT
  5
1C1
330
1B5
100
AcDbEntity
  8
0
100
AcDbMText
 10
55.5
 20
-17.5
 30
0.0
 40
2.5
 41
54.0
 46
0.0
 71
     5
 72
     5
  1
インターフェースケーブルA 2000mm
  7
Bom
 73
     1
 44
1.0
  0
MTEXT
  5
1C2
330
1B5
100
AcDbEntity
  8
0
100
AcDbMText
 10
102.0
 20
-17.5
 30
0.0
 40
2.5
 41
37.0
 46
0.0
 71
     5
 72
     5
  1
CMIFA1-2000WR
  7
Bom
 73
     1
 44
1.0
  0
MTEXT
  5
1C3
330
1B5
100
AcDbEntity
  8
0
100
AcDbMText
 10
14.0
 20
-22.5
 30
0.0
 40
2.5
 41
27.0
 46
0.0
 71
     5
 72
     5
  1
3000
  7
Bom
 73
     1
 44
1.0
  0
MTEXT
  5
1C4
330
1B5
100
AcDbEntity
  8
0
100
AcDbMText
 10
55.5
 20
-22.5
 30
0.0
 40
2.5
 41
54.0
 46
0.0
 71
     5
 72
     5
  1
インターフェースケーブルA 3000mm
  7
Bom
 73
     1
 44
1.0
  0
MTEXT
  5
1C5
330
1B5
100
AcDbEntity
  8
0
100
AcDbMText
 10
102.0
 20
-22.5
 30
0.0
 40
2.5
 41
37.0
 46
0.0
 71
     5
 72
     5
  1
CMIFA1-3000WR
  7
Bom
 73
     1
 44
1.0
  0
MTEXT
  5
1C6
330
1B5
100
AcDbEntity
  8
0
100
AcDbMText
 10
14.0
 20
-27.5
 30
0.0
 40
2.5
 41
27.0
 46
0.0
 71
     5
 72
     5
  1
5000
  7
Bom
 73
     1
 44
1.0
  0
MTEXT
  5
1C7
330
1B5
100
AcDbEntity
  8
0
100
AcDbMText
 10
55.5
 20
-27.5
 30
0.0
 40
2.5
 41
54.0
 46
0.0
 71
     5
 72
     5
  1
インターフェースケーブルA 5000mm
  7
Bom
 73
     1
 44
1.0
  0
MTEXT
  5
1C8
330
1B5
100
AcDbEntity
  8
0
100
AcDbMText
 10
102.0
 20
-27.5
 30
0.0
 40
2.5
 41
37.0
 46
0.0
 71
     5
 72
     5
  1
CMIFA1-5000WR
  7
Bom
 73
     1
 44
1.0
  0
LINE
  5
1C9
330
1B5
100
AcDbEntity
  8
0
  6
ByBlock
100
AcDbLine
 10
0.0
 20
0.0
 30
0.0
 11
121.0
 21
0.0
 31
0.0
  0
LINE
  5
1CA
330
1B5
100
AcDbEntity
  8
0
  6
ByBlock
100
AcDbLine
 10
121.0
 20
0.0
 30
0.0
 11
121.0
 21
-30.0
 31
0.0
  0
LINE
  5
1CB
330
1B5
100
AcDbEntity
  8
0
  6
ByBlock
100
AcDbLine
 10
0.0
 20
-5.0
 30
0.0
 11
121.0
 21
-5.0
 31
0.0
  0
LINE
  5
1CC
330
1B5
100
AcDbEntity
  8
0
  6
ByBlock
100
AcDbLine
 10
0.0
 20
-10.0
 30
0.0
 11
121.0
 21
-10.0
 31
0.0
  0
LINE
  5
1CD
330
1B5
100
AcDbEntity
  8
0
  6
ByBlock
100
AcDbLine
 10
0.0
 20
-15.0
 30
0.0
 11
121.0
 21
-15.0
 31
0.0
  0
LINE
  5
1CE
330
1B5
100
AcDbEntity
  8
0
  6
ByBlock
100
AcDbLine
 10
0.0
 20
-20.0
 30
0.0
 11
121.0
 21
-20.0
 31
0.0
  0
LINE
  5
1CF
330
1B5
100
AcDbEntity
  8
0
  6
ByBlock
100
AcDbLine
 10
0.0
 20
-25.0
 30
0.0
 11
121.0
 21
-25.0
 31
0.0
  0
LINE
  5
1D0
330
1B5
100
AcDbEntity
  8
0
  6
ByBlock
100
AcDbLine
 10
0.0
 20
-30.0
 30
0.0
 11
121.0
 21
-30.0
 31
0.0
  0
LINE
  5
1D1
330
1B5
100
AcDbEntity
  8
0
  6
ByBlock
100
AcDbLine
 10
0.0
 20
0.0
 30
0.0
 11
0.0
 21
-30.0
 31
0.0
  0
LINE
  5
1D2
330
1B5
100
AcDbEntity
  8
0
  6
ByBlock
100
AcDbLine
 10
28.0
 20
0.0
 30
0.0
 11
28.0
 21
-30.0
 31
0.0
  0
LINE
  5
1D3
330
1B5
100
AcDbEntity
  8
0
  6
ByBlock
100
AcDbLine
 10
83.0
 20
0.0
 30
0.0
 11
83.0
 21
-30.0
 31
0.0
  0
ENDBLK
  5
1D4
330
1B5
100
AcDbEntity
  8
0
100
AcDbBlockEnd
  0
BLOCK
  5
1F7
330
1D9
100
AcDbEntity
  8
0
100
AcDbBlockBegin
  2
*T6
 70
     1
 10
0.0
 20
0.0
 30
0.0
  3
*T6
  1

  0
MTEXT
  5
1DA
330
1D9
100
AcDbEntity
  8
0
100
AcDbMText
 10
14.0
 20
-2.5
 30
0.0
 40
2.5
 41
27.0
 46
0.0
 71
     5
 72
     5
  1
長さL（単位mm）
  7
Bom
 73
     1
 44
1.0
  0
MTEXT
  5
1DB
330
1D9
100
AcDbEntity
  8
0
100
AcDbMText
 10
55.5
 20
-2.5
 30
0.0
 40
2.5
 41
54.0
 46
0.0
 71
     5
 72
     5
  1
名称
  7
Bom
 73
     1
 44
1.0
  0
MTEXT
  5
1DC
330
1D9
100
AcDbEntity
  8
0
100
AcDbMText
 10
102.0
 20
-2.5
 30
0.0
 40
2.5
 41
37.0
 46
0.0
 71
     5
 72
     5
  1
型番
  7
Bom
 73
     1
 44
1.0
  0
MTEXT
  5
1DD
330
1D9
100
AcDbEntity
  8
0
100
AcDbMText
 10
14.0
 20
-7.5
 30
0.0
 40
2.5
 41
27.0
 46
0.0
 71
     5
 72
     5
  1
400
  7
Bom
 73
     1
 44
1.0
  0
MTEXT
  5
1DE
330
1D9
100
AcDbEntity
  8
0
100
AcDbMText
 10
28.5
 20
-7.5
 30
0.0
 40
2.5
 41
54.0
 46
0.0
 71
     4
 72
     5
  1
  インターフェースケーブルA 400mm
  7
Bom
 73
     1
 44
1.0
  0
MTEXT
  5
1DF
330
1D9
100
AcDbEntity
  8
0
100
AcDbMText
 10
102.0
 20
-7.5
 30
0.0
 40
2.5
 41
37.0
 46
0.0
 71
     5
 72
     5
  1
CMIFA1-0400WR
  7
Bom
 73
     1
 44
1.0
  0
MTEXT
  5
1E0
330
1D9
100
AcDbEntity
  8
0
100
AcDbMText
 10
14.0
 20
-12.5
 30
0.0
 40
2.5
 41
27.0
 46
0.0
 71
     5
 72
     5
  1
1000
  7
Bom
 73
     1
 44
1.0
  0
MTEXT
  5
1E1
330
1D9
100
AcDbEntity
  8
0
100
AcDbMText
 10
55.5
 20
-12.5
 30
0.0
 40
2.5
 41
54.0
 46
0.0
 71
     5
 72
     5
  1
インターフェースケーブルA 1000mm
  7
Bom
 73
     1
 44
1.0
  0
MTEXT
  5
1E2
330
1D9
100
AcDbEntity
  8
0
100
AcDbMText
 10
102.0
 20
-12.5
 30
0.0
 40
2.5
 41
37.0
 46
0.0
 71
     5
 72
     5
  1
CMIFA1-1000WR
  7
Bom
 73
     1
 44
1.0
  0
MTEXT
  5
1E3
330
1D9
100
AcDbEntity
  8
0
100
AcDbMText
 10
14.0
 20
-17.5
 30
0.0
 40
2.5
 41
27.0
 46
0.0
 71
     5
 72
     5
  1
2000
  7
Bom
 73
     1
 44
1.0
  0
MTEXT
  5
1E4
330
1D9
100
AcDbEntity
  8
0
100
AcDbMText
 10
55.5
 20
-17.5
 30
0.0
 40
2.5
 41
54.0
 46
0.0
 71
     5
 72
     5
  1
インターフェースケーブルA 2000mm
  7
Bom
 73
     1
 44
1.0
  0
MTEXT
  5
1E5
330
1D9
100
AcDbEntity
  8
0
100
AcDbMText
 10
102.0
 20
-17.5
 30
0.0
 40
2.5
 41
37.0
 46
0.0
 71
     5
 72
     5
  1
CMIFA1-2000WR
  7
Bom
 73
     1
 44
1.0
  0
MTEXT
  5
1E6
330
1D9
100
AcDbEntity
  8
0
100
AcDbMText
 10
14.0
 20
-22.5
 30
0.0
 40
2.5
 41
27.0
 46
0.0
 71
     5
 72
     5
  1
3000
  7
Bom
 73
     1
 44
1.0
  0
MTEXT
  5
1E7
330
1D9
100
AcDbEntity
  8
0
100
AcDbMText
 10
55.5
 20
-22.5
 30
0.0
 40
2.5
 41
54.0
 46
0.0
 71
     5
 72
     5
  1
インターフェースケーブルA 3000mm
  7
Bom
 73
     1
 44
1.0
  0
MTEXT
  5
1E8
330
1D9
100
AcDbEntity
  8
0
100
AcDbMText
 10
102.0
 20
-22.5
 30
0.0
 40
2.5
 41
37.0
 46
0.0
 71
     5
 72
     5
  1
CMIFA1-3000WR
  7
Bom
 73
     1
 44
1.0
  0
MTEXT
  5
1E9
330
1D9
100
AcDbEntity
  8
0
100
AcDbMText
 10
14.0
 20
-27.5
 30
0.0
 40
2.5
 41
27.0
 46
0.0
 71
     5
 72
     5
  1
5000
  7
Bom
 73
     1
 44
1.0
  0
MTEXT
  5
1EA
330
1D9
100
AcDbEntity
  8
0
100
AcDbMText
 10
55.5
 20
-27.5
 30
0.0
 40
2.5
 41
54.0
 46
0.0
 71
     5
 72
     5
  1
インターフェースケーブルA 5000mm
  7
Bom
 73
     1
 44
1.0
  0
MTEXT
  5
1EB
330
1D9
100
AcDbEntity
  8
0
100
AcDbMText
 10
102.0
 20
-27.5
 30
0.0
 40
2.5
 41
37.0
 46
0.0
 71
     5
 72
     5
  1
CMIFA1-5000WR
  7
Bom
 73
     1
 44
1.0
  0
LINE
  5
1EC
330
1D9
100
AcDbEntity
  8
0
  6
ByBlock
100
AcDbLine
 10
0.0
 20
0.0
 30
0.0
 11
121.0
 21
0.0
 31
0.0
  0
LINE
  5
1ED
330
1D9
100
AcDbEntity
  8
0
  6
ByBlock
100
AcDbLine
 10
121.0
 20
0.0
 30
0.0
 11
121.0
 21
-30.0
 31
0.0
  0
LINE
  5
1EE
330
1D9
100
AcDbEntity
  8
0
  6
ByBlock
100
AcDbLine
 10
0.0
 20
-5.0
 30
0.0
 11
121.0
 21
-5.0
 31
0.0
  0
LINE
  5
1EF
330
1D9
100
AcDbEntity
  8
0
  6
ByBlock
100
AcDbLine
 10
0.0
 20
-10.0
 30
0.0
 11
121.0
 21
-10.0
 31
0.0
  0
LINE
  5
1F0
330
1D9
100
AcDbEntity
  8
0
  6
ByBlock
100
AcDbLine
 10
0.0
 20
-15.0
 30
0.0
 11
121.0
 21
-15.0
 31
0.0
  0
LINE
  5
1F1
330
1D9
100
AcDbEntity
  8
0
  6
ByBlock
100
AcDbLine
 10
0.0
 20
-20.0
 30
0.0
 11
121.0
 21
-20.0
 31
0.0
  0
LINE
  5
1F2
330
1D9
100
AcDbEntity
  8
0
  6
ByBlock
100
AcDbLine
 10
0.0
 20
-25.0
 30
0.0
 11
121.0
 21
-25.0
 31
0.0
  0
LINE
  5
1F3
330
1D9
100
AcDbEntity
  8
0
  6
ByBlock
100
AcDbLine
 10
0.0
 20
-30.0
 30
0.0
 11
121.0
 21
-30.0
 31
0.0
  0
LINE
  5
1F4
330
1D9
100
AcDbEntity
  8
0
  6
ByBlock
100
AcDbLine
 10
0.0
 20
0.0
 30
0.0
 11
0.0
 21
-30.0
 31
0.0
  0
LINE
  5
1F5
330
1D9
100
AcDbEntity
  8
0
  6
ByBlock
100
AcDbLine
 10
28.0
 20
0.0
 30
0.0
 11
28.0
 21
-30.0
 31
0.0
  0
LINE
  5
1F6
330
1D9
100
AcDbEntity
  8
0
  6
ByBlock
100
AcDbLine
 10
83.0
 20
0.0
 30
0.0
 11
83.0
 21
-30.0
 31
0.0
  0
ENDBLK
  5
1F8
330
1D9
100
AcDbEntity
  8
0
100
AcDbBlockEnd
  0
BLOCK
  5
2AF
330
2AE
100
AcDbEntity
  8
0
100
AcDbBlockBegin
  2
*D7
 70
     1
 10
0.0
 20
0.0
 30
0.0
  3
*D7
  1

  0
LINE
  5
2B0
330
2AE
100
AcDbEntity
  8
DIMS
100
AcDbLine
 10
74.91157183086284
 20
118.5691914211572
 30
0.0
 11
74.91157183086284
 21
141.8773382508734
 31
0.0
  0
LINE
  5
2B1
330
2AE
100
AcDbEntity
  8
DIMS
100
AcDbLine
 10
179.911571830863
 20
122.5496478526486
 30
0.0
 11
179.911571830863
 21
141.8773382508734
 31
0.0
  0
LINE
  5
2B2
330
2AE
100
AcDbEntity
  8
DIMS
100
AcDbLine
 10
77.41157183086284
 20
141.2273382508734
 30
0.0
 11
177.411571830863
 21
141.2273382508734
 31
0.0
  0
INSERT
  5
2B3
330
2AE
100
AcDbEntity
  8
DIMS
100
AcDbBlockReference
  2
_Open30
 10
74.91157183086284
 20
141.2273382508734
 30
0.0
 41
2.5
 42
2.5
 43
2.5
 50
180.0
  0
INSERT
  5
2B4
330
2AE
100
AcDbEntity
  8
DIMS
100
AcDbBlockReference
  2
_Open30
 10
179.911571830863
 20
141.2273382508734
 30
0.0
 41
2.5
 42
2.5
 43
2.5
  0
MTEXT
  5
2B5
330
2AE
100
AcDbEntity
  8
DIMS
 62
     7
100
AcDbMText
 10
127.4115718308629
 20
143.1273382508734
 30
0.0
 40
2.5
 41
0.0
 46
0.0
 71
     5
 72
     1
  1
\A1;L
 73
     1
 44
1.0
  0
POINT
  5
2B6
330
2AE
100
AcDbEntity
  8
Defpoints
 62
     0
100
AcDbPoint
 10
74.91157183086284
 20
117.9191914211572
 30
0.0
  0
POINT
  5
2B7
330
2AE
100
AcDbEntity
  8
Defpoints
 62
     0
100
AcDbPoint
 10
179.911571830863
 20
121.8996478526486
 30
0.0
  0
POINT
  5
2B8
330
2AE
100
AcDbEntity
  8
Defpoints
 62
     0
100
AcDbPoint
 10
179.911571830863
 20
141.2273382508734
 30
0.0
  0
ENDBLK
  5
2B9
330
2AE
100
AcDbEntity
  8
0
100
AcDbBlockEnd
  0
BLOCK
  5
2BC
330
2BB
100
AcDbEntity
  8
0
100
AcDbBlockBegin
  2
*T8
 70
     1
 10
0.0
 20
0.0
 30
0.0
  3
*T8
  1

  0
MTEXT
  5
2BD
330
2BB
100
AcDbEntity
  8
0
100
AcDbMText
 10
14.0
 20
-2.5
 30
0.0
 40
2.5
 41
27.0
 46
0.0
 71
     5
 72
     5
  1
長さL（単位mm）
  7
Bom
 73
     1
 44
1.0
  0
MTEXT
  5
2BE
330
2BB
100
AcDbEntity
  8
0
100
AcDbMText
 10
50.5
 20
-2.5
 30
0.0
 40
2.5
 41
44.0
 46
0.0
 71
     5
 72
     5
  1
名称
  7
Bom
 73
     1
 44
1.0
  0
MTEXT
  5
2BF
330
2BB
100
AcDbEntity
  8
0
100
AcDbMText
 10
92.0
 20
-2.5
 30
0.0
 40
2.5
 41
37.0
 46
0.0
 71
     5
 72
     5
  1
型番
  7
Bom
 73
     1
 44
1.0
  0
MTEXT
  5
2C0
330
2BB
100
AcDbEntity
  8
0
100
AcDbMText
 10
14.0
 20
-7.5
 30
0.0
 40
2.5
 41
27.0
 46
0.0
 71
     5
 72
     5
  1
1000
  7
Bom
 73
     1
 44
1.0
  0
MTEXT
  5
2C1
330
2BB
100
AcDbEntity
  8
0
100
AcDbMText
 10
50.5
 20
-7.5
 30
0.0
 40
2.5
 41
44.0
 46
0.0
 71
     5
 72
     5
  1
通信ケーブルA 1000mm
  7
Bom
 73
     1
 44
1.0
  0
MTEXT
  5
2C2
330
2BB
100
AcDbEntity
  8
0
100
AcDbMText
 10
92.0
 20
-7.5
 30
0.0
 40
2.5
 41
37.0
 46
0.0
 71
     5
 72
     5
  1
CMRSA1-1000W
  7
Bom
 73
     1
 44
1.0
  0
MTEXT
  5
2C3
330
2BB
100
AcDbEntity
  8
0
100
AcDbMText
 10
14.0
 20
-12.5
 30
0.0
 40
2.5
 41
27.0
 46
0.0
 71
     5
 72
     5
  1
2000
  7
Bom
 73
     1
 44
1.0
  0
MTEXT
  5
2C4
330
2BB
100
AcDbEntity
  8
0
100
AcDbMText
 10
50.5
 20
-12.5
 30
0.0
 40
2.5
 41
44.0
 46
0.0
 71
     5
 72
     5
  1
通信ケーブルA 2000mm
  7
Bom
 73
     1
 44
1.0
  0
MTEXT
  5
2C5
330
2BB
100
AcDbEntity
  8
0
100
AcDbMText
 10
92.0
 20
-12.5
 30
0.0
 40
2.5
 41
37.0
 46
0.0
 71
     5
 72
     5
  1
CMRSA1-2000W
  7
Bom
 73
     1
 44
1.0
  0
MTEXT
  5
2C6
330
2BB
100
AcDbEntity
  8
0
100
AcDbMText
 10
14.0
 20
-17.5
 30
0.0
 40
2.5
 41
27.0
 46
0.0
 71
     5
 72
     5
  1
3000
  7
Bom
 73
     1
 44
1.0
  0
MTEXT
  5
2C7
330
2BB
100
AcDbEntity
  8
0
100
AcDbMText
 10
50.5
 20
-17.5
 30
0.0
 40
2.5
 41
44.0
 46
0.0
 71
     5
 72
     5
  1
通信ケーブルA 3000mm
  7
Bom
 73
     1
 44
1.0
  0
MTEXT
  5
2C8
330
2BB
100
AcDbEntity
  8
0
100
AcDbMText
 10
92.0
 20
-17.5
 30
0.0
 40
2.5
 41
37.0
 46
0.0
 71
     5
 72
     5
  1
CMRSA1-3000W
  7
Bom
 73
     1
 44
1.0
  0
MTEXT
  5
2C9
330
2BB
100
AcDbEntity
  8
0
100
AcDbMText
 10
14.0
 20
-22.5
 30
0.0
 40
2.5
 41
27.0
 46
0.0
 71
     5
 72
     5
  1
5000
  7
Bom
 73
     1
 44
1.0
  0
MTEXT
  5
2CA
330
2BB
100
AcDbEntity
  8
0
100
AcDbMText
 10
50.5
 20
-22.5
 30
0.0
 40
2.5
 41
44.0
 46
0.0
 71
     5
 72
     5
  1
通信ケーブルA 5000mm
  7
Bom
 73
     1
 44
1.0
  0
MTEXT
  5
2CB
330
2BB
100
AcDbEntity
  8
0
100
AcDbMText
 10
92.0
 20
-22.5
 30
0.0
 40
2.5
 41
37.0
 46
0.0
 71
     5
 72
     5
  1
CMRSA1-5000W
  7
Bom
 73
     1
 44
1.0
  0
LINE
  5
2CC
330
2BB
100
AcDbEntity
  8
0
  6
ByBlock
100
AcDbLine
 10
0.0
 20
0.0
 30
0.0
 11
111.0
 21
0.0
 31
0.0
  0
LINE
  5
2CD
330
2BB
100
AcDbEntity
  8
0
  6
ByBlock
100
AcDbLine
 10
111.0
 20
0.0
 30
0.0
 11
111.0
 21
-25.0
 31
0.0
  0
LINE
  5
2CE
330
2BB
100
AcDbEntity
  8
0
  6
ByBlock
100
AcDbLine
 10
0.0
 20
-5.0
 30
0.0
 11
111.0
 21
-5.0
 31
0.0
  0
LINE
  5
2CF
330
2BB
100
AcDbEntity
  8
0
  6
ByBlock
100
AcDbLine
 10
0.0
 20
-10.0
 30
0.0
 11
111.0
 21
-10.0
 31
0.0
  0
LINE
  5
2D0
330
2BB
100
AcDbEntity
  8
0
  6
ByBlock
100
AcDbLine
 10
0.0
 20
-15.0
 30
0.0
 11
111.0
 21
-15.0
 31
0.0
  0
LINE
  5
2D1
330
2BB
100
AcDbEntity
  8
0
  6
ByBlock
100
AcDbLine
 10
0.0
 20
-20.0
 30
0.0
 11
111.0
 21
-20.0
 31
0.0
  0
LINE
  5
2D2
330
2BB
100
AcDbEntity
  8
0
  6
ByBlock
100
AcDbLine
 10
0.0
 20
-25.0
 30
0.0
 11
111.0
 21
-25.0
 31
0.0
  0
LINE
  5
2D3
330
2BB
100
AcDbEntity
  8
0
  6
ByBlock
100
AcDbLine
 10
0.0
 20
0.0
 30
0.0
 11
0.0
 21
-25.0
 31
0.0
  0
LINE
  5
2D4
330
2BB
100
AcDbEntity
  8
0
  6
ByBlock
100
AcDbLine
 10
28.0
 20
0.0
 30
0.0
 11
28.0
 21
-25.0
 31
0.0
  0
LINE
  5
2D5
330
2BB
100
AcDbEntity
  8
0
  6
ByBlock
100
AcDbLine
 10
73.0
 20
0.0
 30
0.0
 11
73.0
 21
-25.0
 31
0.0
  0
ENDBLK
  5
2D6
330
2BB
100
AcDbEntity
  8
0
100
AcDbBlockEnd
  0
BLOCK
  5
358
330
357
100
AcDbEntity
  8
0
100
AcDbBlockBegin
  2
*D9
 70
     1
 10
0.0
 20
0.0
 30
0.0
  3
*D9
  1

  0
LINE
  5
35A
330
357
100
AcDbEntity
  8
DIMS
100
AcDbLine
 10
80.0
 20
129.95
 30
0.0
 11
80.0
 21
153.2581468297162
 31
0.0
  0
LINE
  5
35B
330
357
100
AcDbEntity
  8
DIMS
100
AcDbLine
 10
185.0000000000002
 20
133.9304564314914
 30
0.0
 11
185.0000000000002
 21
153.2581468297162
 31
0.0
  0
LINE
  5
35C
330
357
100
AcDbEntity
  8
DIMS
100
AcDbLine
 10
82.5
 20
152.6081468297162
 30
0.0
 11
182.5000000000002
 21
152.6081468297162
 31
0.0
  0
INSERT
  5
35D
330
357
100
AcDbEntity
  8
DIMS
100
AcDbBlockReference
  2
_Open30
 10
80.0
 20
152.6081468297162
 30
0.0
 41
2.5
 42
2.5
 43
2.5
 50
180.0
  0
INSERT
  5
35E
330
357
100
AcDbEntity
  8
DIMS
100
AcDbBlockReference
  2
_Open30
 10
185.0000000000002
 20
152.6081468297162
 30
0.0
 41
2.5
 42
2.5
 43
2.5
  0
MTEXT
  5
35F
330
357
100
AcDbEntity
  8
DIMS
 62
     7
100
AcDbMText
 10
132.5000000000001
 20
154.5081468297162
 30
0.0
 40
2.5
 41
0.0
 46
0.0
 71
     5
 72
     1
  1
\A1;L
 73
     1
 44
1.0
  0
POINT
  5
360
330
357
100
AcDbEntity
  8
Defpoints
 62
     0
100
AcDbPoint
 10
80.0
 20
129.3
 30
0.0
  0
POINT
  5
361
330
357
100
AcDbEntity
  8
Defpoints
 62
     0
100
AcDbPoint
 10
185.0000000000002
 20
133.2804564314914
 30
0.0
  0
POINT
  5
362
330
357
100
AcDbEntity
  8
Defpoints
 62
     0
100
AcDbPoint
 10
185.0000000000002
 20
152.6081468297162
 30
0.0
  0
ENDBLK
  5
359
330
357
100
AcDbEntity
  8
0
100
AcDbBlockEnd
  0
BLOCK
  5
37D
330
363
100
AcDbEntity
  8
0
100
AcDbBlockBegin
  2
*T10
 70
     1
 10
0.0
 20
0.0
 30
0.0
  3
*T10
  1

  0
MTEXT
  5
364
330
363
100
AcDbEntity
  8
0
100
AcDbMText
 10
14.0
 20
-2.5
 30
0.0
 40
2.5
 41
27.0
 46
0.0
 71
     5
 72
     5
  1
長さL（単位mm）
  7
Bom
 73
     1
 44
1.0
  0
MTEXT
  5
365
330
363
100
AcDbEntity
  8
0
100
AcDbMText
 10
50.5
 20
-2.5
 30
0.0
 40
2.5
 41
44.0
 46
0.0
 71
     5
 72
     5
  1
名称
  7
Bom
 73
     1
 44
1.0
  0
MTEXT
  5
366
330
363
100
AcDbEntity
  8
0
100
AcDbMText
 10
92.0
 20
-2.5
 30
0.0
 40
2.5
 41
37.0
 46
0.0
 71
     5
 72
     5
  1
型番
  7
Bom
 73
     1
 44
1.0
  0
MTEXT
  5
367
330
363
100
AcDbEntity
  8
0
100
AcDbMText
 10
14.0
 20
-7.5
 30
0.0
 40
2.5
 41
27.0
 46
0.0
 71
     5
 72
     5
  1
1000
  7
Bom
 73
     1
 44
1.0
  0
MTEXT
  5
368
330
363
100
AcDbEntity
  8
0
100
AcDbMText
 10
50.5
 20
-7.5
 30
0.0
 40
2.5
 41
44.0
 46
0.0
 71
     5
 72
     5
  1
通信ケーブルA 1000mm
  7
Bom
 73
     1
 44
1.0
  0
MTEXT
  5
369
330
363
100
AcDbEntity
  8
0
100
AcDbMText
 10
92.0
 20
-7.5
 30
0.0
 40
2.5
 41
37.0
 46
0.0
 71
     5
 72
     5
  1
CMRSA1-1000W
  7
Bom
 73
     1
 44
1.0
  0
MTEXT
  5
36A
330
363
100
AcDbEntity
  8
0
100
AcDbMText
 10
14.0
 20
-12.5
 30
0.0
 40
2.5
 41
27.0
 46
0.0
 71
     5
 72
     5
  1
2000
  7
Bom
 73
     1
 44
1.0
  0
MTEXT
  5
36B
330
363
100
AcDbEntity
  8
0
100
AcDbMText
 10
50.5
 20
-12.5
 30
0.0
 40
2.5
 41
44.0
 46
0.0
 71
     5
 72
     5
  1
通信ケーブルA 2000mm
  7
Bom
 73
     1
 44
1.0
  0
MTEXT
  5
36C
330
363
100
AcDbEntity
  8
0
100
AcDbMText
 10
92.0
 20
-12.5
 30
0.0
 40
2.5
 41
37.0
 46
0.0
 71
     5
 72
     5
  1
CMRSA1-2000W
  7
Bom
 73
     1
 44
1.0
  0
MTEXT
  5
36D
330
363
100
AcDbEntity
  8
0
100
AcDbMText
 10
14.0
 20
-17.5
 30
0.0
 40
2.5
 41
27.0
 46
0.0
 71
     5
 72
     5
  1
3000
  7
Bom
 73
     1
 44
1.0
  0
MTEXT
  5
36E
330
363
100
AcDbEntity
  8
0
100
AcDbMText
 10
50.5
 20
-17.5
 30
0.0
 40
2.5
 41
44.0
 46
0.0
 71
     5
 72
     5
  1
通信ケーブルA 3000mm
  7
Bom
 73
     1
 44
1.0
  0
MTEXT
  5
36F
330
363
100
AcDbEntity
  8
0
100
AcDbMText
 10
92.0
 20
-17.5
 30
0.0
 40
2.5
 41
37.0
 46
0.0
 71
     5
 72
     5
  1
CMRSA1-3000W
  7
Bom
 73
     1
 44
1.0
  0
MTEXT
  5
370
330
363
100
AcDbEntity
  8
0
100
AcDbMText
 10
14.0
 20
-22.5
 30
0.0
 40
2.5
 41
27.0
 46
0.0
 71
     5
 72
     5
  1
5000
  7
Bom
 73
     1
 44
1.0
  0
MTEXT
  5
371
330
363
100
AcDbEntity
  8
0
100
AcDbMText
 10
50.5
 20
-22.5
 30
0.0
 40
2.5
 41
44.0
 46
0.0
 71
     5
 72
     5
  1
通信ケーブルA 5000mm
  7
Bom
 73
     1
 44
1.0
  0
MTEXT
  5
372
330
363
100
AcDbEntity
  8
0
100
AcDbMText
 10
92.0
 20
-22.5
 30
0.0
 40
2.5
 41
37.0
 46
0.0
 71
     5
 72
     5
  1
CMRSA1-5000W
  7
Bom
 73
     1
 44
1.0
  0
LINE
  5
373
330
363
100
AcDbEntity
  8
0
  6
ByBlock
100
AcDbLine
 10
0.0
 20
0.0
 30
0.0
 11
111.0
 21
0.0
 31
0.0
  0
LINE
  5
374
330
363
100
AcDbEntity
  8
0
  6
ByBlock
100
AcDbLine
 10
111.0
 20
0.0
 30
0.0
 11
111.0
 21
-25.0
 31
0.0
  0
LINE
  5
375
330
363
100
AcDbEntity
  8
0
  6
ByBlock
100
AcDbLine
 10
0.0
 20
-5.0
 30
0.0
 11
111.0
 21
-5.0
 31
0.0
  0
LINE
  5
376
330
363
100
AcDbEntity
  8
0
  6
ByBlock
100
AcDbLine
 10
0.0
 20
-10.0
 30
0.0
 11
111.0
 21
-10.0
 31
0.0
  0
LINE
  5
377
330
363
100
AcDbEntity
  8
0
  6
ByBlock
100
AcDbLine
 10
0.0
 20
-15.0
 30
0.0
 11
111.0
 21
-15.0
 31
0.0
  0
LINE
  5
378
330
363
100
AcDbEntity
  8
0
  6
ByBlock
100
AcDbLine
 10
0.0
 20
-20.0
 30
0.0
 11
111.0
 21
-20.0
 31
0.0
  0
LINE
  5
379
330
363
100
AcDbEntity
  8
0
  6
ByBlock
100
AcDbLine
 10
0.0
 20
-25.0
 30
0.0
 11
111.0
 21
-25.0
 31
0.0
  0
LINE
  5
37A
330
363
100
AcDbEntity
  8
0
  6
ByBlock
100
AcDbLine
 10
0.0
 20
0.0
 30
0.0
 11
0.0
 21
-25.0
 31
0.0
  0
LINE
  5
37B
330
363
100
AcDbEntity
  8
0
  6
ByBlock
100
AcDbLine
 10
28.0
 20
0.0
 30
0.0
 11
28.0
 21
-25.0
 31
0.0
  0
LINE
  5
37C
330
363
100
AcDbEntity
  8
0
  6
ByBlock
100
AcDbLine
 10
73.0
 20
0.0
 30
0.0
 11
73.0
 21
-25.0
 31
0.0
  0
ENDBLK
  5
37E
330
363
100
AcDbEntity
  8
0
100
AcDbBlockEnd
  0
BLOCK
  5
41C
330
41B
100
AcDbEntity
  8
0
100
AcDbBlockBegin
  2
*D11
 70
     1
 10
0.0
 20
0.0
 30
0.0
  3
*D11
  1

  0
LINE
  5
41D
330
41B
100
AcDbEntity
  8
DIMS
100
AcDbLine
 10
12.24999999999997
 20
19.34330242474334
 30
0.0
 11
24.64999999999994
 21
19.34330242474334
 31
0.0
  0
LINE
  5
41E
330
41B
100
AcDbEntity
  8
DIMS
100
AcDbLine
 10
12.24999999999997
 20
9.343302424743314
 30
0.0
 11
24.64999999999994
 21
9.343302424743314
 31
0.0
  0
LINE
  5
41F
330
41B
100
AcDbEntity
  8
DIMS
100
AcDbLine
 10
23.99999999999994
 20
16.84330242474334
 30
0.0
 11
23.99999999999994
 21
11.84330242474331
 31
0.0
  0
INSERT
  5
420
330
41B
100
AcDbEntity
  8
DIMS
100
AcDbBlockReference
  2
_Open30
 10
23.99999999999994
 20
19.34330242474334
 30
0.0
 41
2.5
 42
2.5
 43
2.5
 50
90.0
  0
INSERT
  5
421
330
41B
100
AcDbEntity
  8
DIMS
100
AcDbBlockReference
  2
_Open30
 10
23.99999999999994
 20
9.343302424743314
 30
0.0
 41
2.5
 42
2.5
 43
2.5
 50
270.0
  0
MTEXT
  5
422
330
41B
100
AcDbEntity
  8
DIMS
 62
     7
100
AcDbMText
 10
22.09999999999994
 20
14.34330242474333
 30
0.0
 40
2.5
 41
0.0
 46
0.0
 71
     5
 72
     1
  1
\A1;10
 11
0.0
 21
1.0
 31
0.0
 73
     1
 44
1.0
  0
POINT
  5
423
330
41B
100
AcDbEntity
  8
Defpoints
 62
     0
100
AcDbPoint
 10
11.59999999999997
 20
19.34330242474334
 30
0.0
  0
POINT
  5
424
330
41B
100
AcDbEntity
  8
Defpoints
 62
     0
100
AcDbPoint
 10
11.59999999999997
 20
9.343302424743314
 30
0.0
  0
POINT
  5
425
330
41B
100
AcDbEntity
  8
Defpoints
 62
     0
100
AcDbPoint
 10
23.99999999999994
 20
9.343302424743314
 30
0.0
  0
ENDBLK
  5
426
330
41B
100
AcDbEntity
  8
0
100
AcDbBlockEnd
  0
BLOCK
  5
42C
330
42B
100
AcDbEntity
  8
0
100
AcDbBlockBegin
  2
*D12
 70
     1
 10
0.0
 20
0.0
 30
0.0
  3
*D12
  1

  0
LINE
  5
42D
330
42B
100
AcDbEntity
  8
DIMS
100
AcDbLine
 10
4.999999999999972
 20
19.99330242474334
 30
0.0
 11
4.999999999999972
 21
38.0260467425882
 31
0.0
  0
LINE
  5
42E
330
42B
100
AcDbEntity
  8
DIMS
100
AcDbLine
 10
11.59999999999997
 20
19.99330242474334
 30
0.0
 11
11.59999999999997
 21
38.0260467425882
 31
0.0
  0
LINE
  5
42F
330
42B
100
AcDbEntity
  8
DIMS
100
AcDbLine
 10
4.999999999999972
 20
37.3760467425882
 30
0.0
 11
11.59999999999997
 21
37.3760467425882
 31
0.0
  0
LINE
  5
430
330
42B
100
AcDbEntity
  8
DIMS
100
AcDbLine
 10
2.499999999999972
 20
37.3760467425882
 30
0.0
 11
-0.0000000000000284
 21
37.3760467425882
 31
0.0
  0
LINE
  5
431
330
42B
100
AcDbEntity
  8
DIMS
100
AcDbLine
 10
14.09999999999997
 20
37.3760467425882
 30
0.0
 11
16.59999999999997
 21
37.3760467425882
 31
0.0
  0
INSERT
  5
432
330
42B
100
AcDbEntity
  8
DIMS
100
AcDbBlockReference
  2
_Open30
 10
4.999999999999972
 20
37.3760467425882
 30
0.0
 41
2.5
 42
2.5
 43
2.5
  0
INSERT
  5
433
330
42B
100
AcDbEntity
  8
DIMS
100
AcDbBlockReference
  2
_Open30
 10
11.59999999999997
 20
37.3760467425882
 30
0.0
 41
2.5
 42
2.5
 43
2.5
 50
180.0
  0
MTEXT
  5
434
330
42B
100
AcDbEntity
  8
DIMS
 62
     7
100
AcDbMText
 10
8.299999999999969
 20
39.2760467425882
 30
0.0
 40
2.5
 41
0.0
 46
0.0
 71
     5
 72
     1
  1
\A1;6.6
 73
     1
 44
1.0
  0
POINT
  5
435
330
42B
100
AcDbEntity
  8
Defpoints
 62
     0
100
AcDbPoint
 10
4.999999999999972
 20
19.34330242474334
 30
0.0
  0
POINT
  5
436
330
42B
100
AcDbEntity
  8
Defpoints
 62
     0
100
AcDbPoint
 10
11.59999999999997
 20
19.34330242474334
 30
0.0
  0
POINT
  5
437
330
42B
100
AcDbEntity
  8
Defpoints
 62
     0
100
AcDbPoint
 10
11.59999999999997
 20
37.3760467425882
 30
0.0
  0
ENDBLK
  5
438
330
42B
100
AcDbEntity
  8
0
100
AcDbBlockEnd
  0
BLOCK
  5
4C2
330
4C1
100
AcDbEntity
  8
0
100
AcDbBlockBegin
  2
*D13
 70
     1
 10
0.0
 20
0.0
 30
0.0
  3
*D13
  1

  0
LINE
  5
4C4
330
4C1
100
AcDbEntity
  8
DIMS
100
AcDbLine
 10
37.75000000000001
 20
120.0
 30
0.0
 11
29.1
 21
120.0
 31
0.0
  0
LINE
  5
4C5
330
4C1
100
AcDbEntity
  8
DIMS
100
AcDbLine
 10
37.75000000000001
 20
130.0000000000001
 30
0.0
 11
29.1
 21
130.0000000000001
 31
0.0
  0
LINE
  5
4C6
330
4C1
100
AcDbEntity
  8
DIMS
100
AcDbLine
 10
29.75
 20
120.0
 30
0.0
 11
29.75
 21
130.0000000000001
 31
0.0
  0
LINE
  5
4C7
330
4C1
100
AcDbEntity
  8
DIMS
100
AcDbLine
 10
29.75
 20
117.5
 30
0.0
 11
29.75
 21
115.0
 31
0.0
  0
LINE
  5
4C8
330
4C1
100
AcDbEntity
  8
DIMS
100
AcDbLine
 10
29.75
 20
132.5000000000001
 30
0.0
 11
29.75
 21
135.0000000000001
 31
0.0
  0
INSERT
  5
4C9
330
4C1
100
AcDbEntity
  8
DIMS
100
AcDbBlockReference
  2
_Open30
 10
29.75
 20
120.0
 30
0.0
 41
2.5
 42
2.5
 43
2.5
 50
89.99999999999999
  0
INSERT
  5
4CA
330
4C1
100
AcDbEntity
  8
DIMS
100
AcDbBlockReference
  2
_Open30
 10
29.75
 20
130.0000000000001
 30
0.0
 41
2.5
 42
2.5
 43
2.5
 50
270.0
  0
MTEXT
  5
4CB
330
4C1
100
AcDbEntity
  8
DIMS
 62
     7
100
AcDbMText
 10
27.85
 20
125.0809562352942
 30
0.0
 40
2.5
 41
0.0
 46
0.0
 71
     5
 72
     1
  1
\A1;10
 11
3.552713678800461E-16
 21
1.0
 31
0.0
 73
     1
 44
1.0
  0
POINT
  5
4CC
330
4C1
100
AcDbEntity
  8
Defpoints
 62
     0
100
AcDbPoint
 10
38.40000000000001
 20
120.0
 30
0.0
  0
POINT
  5
6C6
330
4C1
100
AcDbEntity
  8
Defpoints
 62
     0
100
AcDbPoint
 10
38.40000000000001
 20
130.0000000000001
 30
0.0
  0
POINT
  5
6C7
330
4C1
100
AcDbEntity
  8
Defpoints
 62
     0
100
AcDbPoint
 10
29.75
 20
130.0000000000001
 30
0.0
  0
ENDBLK
  5
4C3
330
4C1
100
AcDbEntity
  8
0
100
AcDbBlockEnd
  0
BLOCK
  5
4CE
330
4CD
100
AcDbEntity
  8
0
100
AcDbBlockBegin
  2
*D14
 70
     1
 10
0.0
 20
0.0
 30
0.0
  3
*D14
  1

  0
LINE
  5
4D0
330
4CD
100
AcDbEntity
  8
DIMS
100
AcDbLine
 10
45.0
 20
130.6500000000001
 30
0.0
 11
45.0
 21
153.3000000000001
 31
0.0
  0
LINE
  5
4D1
330
4CD
100
AcDbEntity
  8
DIMS
100
AcDbLine
 10
38.40000000000001
 20
130.6500000000001
 30
0.0
 11
38.40000000000001
 21
153.3000000000001
 31
0.0
  0
LINE
  5
4D2
330
4CD
100
AcDbEntity
  8
DIMS
100
AcDbLine
 10
45.0
 20
152.6500000000001
 30
0.0
 11
38.40000000000001
 21
152.6500000000001
 31
0.0
  0
LINE
  5
4D3
330
4CD
100
AcDbEntity
  8
DIMS
100
AcDbLine
 10
47.5
 20
152.6500000000001
 30
0.0
 11
50.0
 21
152.6500000000001
 31
0.0
  0
LINE
  5
4D4
330
4CD
100
AcDbEntity
  8
DIMS
100
AcDbLine
 10
35.90000000000001
 20
152.6500000000001
 30
0.0
 11
33.40000000000001
 21
152.6500000000001
 31
0.0
  0
INSERT
  5
4D5
330
4CD
100
AcDbEntity
  8
DIMS
100
AcDbBlockReference
  2
_Open30
 10
45.0
 20
152.6500000000001
 30
0.0
 41
2.5
 42
2.5
 43
2.5
 50
180.0
  0
INSERT
  5
4D6
330
4CD
100
AcDbEntity
  8
DIMS
100
AcDbBlockReference
  2
_Open30
 10
38.40000000000001
 20
152.6500000000001
 30
0.0
 41
2.5
 42
2.5
 43
2.5
  0
MTEXT
  5
4D7
330
4CD
100
AcDbEntity
  8
DIMS
 62
     7
100
AcDbMText
 10
41.91662984861625
 20
154.5500000000001
 30
0.0
 40
2.5
 41
0.0
 46
0.0
 71
     5
 72
     1
  1
\A1;6.6
 73
     1
 44
1.0
  0
POINT
  5
4D8
330
4CD
100
AcDbEntity
  8
Defpoints
 62
     0
100
AcDbPoint
 10
45.0
 20
130.0000000000001
 30
0.0
  0
POINT
  5
4D9
330
4CD
100
AcDbEntity
  8
Defpoints
 62
     0
100
AcDbPoint
 10
38.40000000000001
 20
130.0000000000001
 30
0.0
  0
POINT
  5
4DA
330
4CD
100
AcDbEntity
  8
Defpoints
 62
     0
100
AcDbPoint
 10
38.40000000000001
 20
152.6500000000001
 30
0.0
  0
ENDBLK
  5
4CF
330
4CD
100
AcDbEntity
  8
0
100
AcDbBlockEnd
  0
BLOCK
  5
4E4
330
4E3
100
AcDbEntity
  8
0
100
AcDbBlockBegin
  2
*D15
 70
     1
 10
0.0
 20
0.0
 30
0.0
  3
*D15
  1

  0
LINE
  5
4E6
330
4E3
100
AcDbEntity
  8
DIMS
100
AcDbLine
 10
58.39999999999998
 20
130.65
 30
0.0
 11
58.39999999999998
 21
153.3000000000001
 31
0.0
  0
LINE
  5
4E7
330
4E3
100
AcDbEntity
  8
DIMS
100
AcDbLine
 10
80.0
 20
129.95
 30
0.0
 11
80.0
 21
153.3000000000001
 31
0.0
  0
LINE
  5
4E8
330
4E3
100
AcDbEntity
  8
DIMS
100
AcDbLine
 10
60.89999999999998
 20
152.6500000000001
 30
0.0
 11
77.5
 21
152.6500000000001
 31
0.0
  0
INSERT
  5
4E9
330
4E3
100
AcDbEntity
  8
DIMS
100
AcDbBlockReference
  2
_Open30
 10
58.39999999999998
 20
152.6500000000001
 30
0.0
 41
2.5
 42
2.5
 43
2.5
 50
180.0
  0
INSERT
  5
4EA
330
4E3
100
AcDbEntity
  8
DIMS
100
AcDbBlockReference
  2
_Open30
 10
80.0
 20
152.6500000000001
 30
0.0
 41
2.5
 42
2.5
 43
2.5
  0
MTEXT
  5
4EB
330
4E3
100
AcDbEntity
  8
DIMS
 62
     7
100
AcDbMText
 10
69.19999999999999
 20
154.5500000000001
 30
0.0
 40
2.5
 41
0.0
 46
0.0
 71
     5
 72
     1
  1
\A1;21.6
 73
     1
 44
1.0
  0
POINT
  5
4EC
330
4E3
100
AcDbEntity
  8
Defpoints
 62
     0
100
AcDbPoint
 10
58.39999999999998
 20
130.0
 30
0.0
  0
POINT
  5
4ED
330
4E3
100
AcDbEntity
  8
Defpoints
 62
     0
100
AcDbPoint
 10
80.0
 20
129.3
 30
0.0
  0
POINT
  5
4EE
330
4E3
100
AcDbEntity
  8
Defpoints
 62
     0
100
AcDbPoint
 10
80.0
 20
152.6500000000001
 30
0.0
  0
ENDBLK
  5
4E5
330
4E3
100
AcDbEntity
  8
0
100
AcDbBlockEnd
  0
BLOCK
  5
5AE
330
5AD
100
AcDbEntity
  8
0
100
AcDbBlockBegin
  2
*D16
 70
     1
 10
0.0
 20
0.0
 30
0.0
  3
*D16
  1

  0
LINE
  5
5B0
330
5AD
100
AcDbEntity
  8
DIMS
100
AcDbLine
 10
185.0000000000002
 20
133.9304564314914
 30
0.0
 11
185.0000000000002
 21
153.2581468297162
 31
0.0
  0
LINE
  5
5B1
330
5AD
100
AcDbEntity
  8
DIMS
100
AcDbLine
 10
219.0000000000002
 20
134.65
 30
0.0
 11
219.0000000000002
 21
153.2581468297162
 31
0.0
  0
LINE
  5
5B2
330
5AD
100
AcDbEntity
  8
DIMS
100
AcDbLine
 10
187.5000000000002
 20
152.6081468297162
 30
0.0
 11
216.5000000000002
 21
152.6081468297162
 31
0.0
  0
INSERT
  5
5B3
330
5AD
100
AcDbEntity
  8
DIMS
100
AcDbBlockReference
  2
_Open30
 10
185.0000000000002
 20
152.6081468297162
 30
0.0
 41
2.5
 42
2.5
 43
2.5
 50
180.0
  0
INSERT
  5
5B4
330
5AD
100
AcDbEntity
  8
DIMS
100
AcDbBlockReference
  2
_Open30
 10
219.0000000000002
 20
152.6081468297162
 30
0.0
 41
2.5
 42
2.5
 43
2.5
  0
MTEXT
  5
5B5
330
5AD
100
AcDbEntity
  8
DIMS
 62
     7
100
AcDbMText
 10
202.0000000000002
 20
154.5081468297162
 30
0.0
 40
2.5
 41
0.0
 46
0.0
 71
     5
 72
     1
  1
\A1;34
 73
     1
 44
1.0
  0
POINT
  5
5B6
330
5AD
100
AcDbEntity
  8
Defpoints
 62
     0
100
AcDbPoint
 10
185.0000000000002
 20
133.2804564314914
 30
0.0
  0
POINT
  5
5B7
330
5AD
100
AcDbEntity
  8
Defpoints
 62
     0
100
AcDbPoint
 10
219.0000000000002
 20
134.0
 30
0.0
  0
POINT
  5
5B8
330
5AD
100
AcDbEntity
  8
Defpoints
 62
     0
100
AcDbPoint
 10
219.0000000000002
 20
152.6081468297162
 30
0.0
  0
ENDBLK
  5
5AF
330
5AD
100
AcDbEntity
  8
0
100
AcDbBlockEnd
  0
BLOCK
  5
5BE
330
5BD
100
AcDbEntity
  8
0
100
AcDbBlockBegin
  2
*D17
 70
     1
 10
0.0
 20
0.0
 30
0.0
  3
*D17
  1

  0
LINE
  5
5C0
330
5BD
100
AcDbEntity
  8
DIMS
100
AcDbLine
 10
256.5188665336652
 20
108.7500000000008
 30
0.0
 11
269.4188665336652
 21
108.7500000000008
 31
0.0
  0
LINE
  5
5C1
330
5BD
100
AcDbEntity
  8
DIMS
100
AcDbLine
 10
256.5188665336652
 20
141.2500000000008
 30
0.0
 11
269.4188665336652
 21
141.2500000000008
 31
0.0
  0
LINE
  5
5C2
330
5BD
100
AcDbEntity
  8
DIMS
100
AcDbLine
 10
268.7688665336652
 20
111.2500000000008
 30
0.0
 11
268.7688665336652
 21
138.7500000000008
 31
0.0
  0
INSERT
  5
5C3
330
5BD
100
AcDbEntity
  8
DIMS
100
AcDbBlockReference
  2
_Open30
 10
268.7688665336652
 20
108.7500000000008
 30
0.0
 41
2.5
 42
2.5
 43
2.5
 50
270.0
  0
INSERT
  5
5C4
330
5BD
100
AcDbEntity
  8
DIMS
100
AcDbBlockReference
  2
_Open30
 10
268.7688665336652
 20
141.2500000000008
 30
0.0
 41
2.5
 42
2.5
 43
2.5
 50
90.0
  0
MTEXT
  5
5C5
330
5BD
100
AcDbEntity
  8
DIMS
 62
     7
100
AcDbMText
 10
266.8688665336652
 20
124.0829176470596
 30
0.0
 40
2.5
 41
0.0
 46
0.0
 71
     5
 72
     1
  1
\A1;32.5
 11
0.0
 21
1.0
 31
0.0
 73
     1
 44
1.0
  0
POINT
  5
5C6
330
5BD
100
AcDbEntity
  8
Defpoints
 62
     0
100
AcDbPoint
 10
255.8688665336652
 20
108.7500000000008
 30
0.0
  0
POINT
  5
5C7
330
5BD
100
AcDbEntity
  8
Defpoints
 62
     0
100
AcDbPoint
 10
255.8688665336652
 20
141.2500000000008
 30
0.0
  0
POINT
  5
5C8
330
5BD
100
AcDbEntity
  8
Defpoints
 62
     0
100
AcDbPoint
 10
268.7688665336652
 20
141.2500000000008
 30
0.0
  0
ENDBLK
  5
5BF
330
5BD
100
AcDbEntity
  8
0
100
AcDbBlockEnd
  0
BLOCK
  5
5CE
330
5CD
100
AcDbEntity
  8
0
100
AcDbBlockBegin
  2
*D18
 70
     1
 10
0.0
 20
0.0
 30
0.0
  3
*D18
  1

  0
LINE
  5
5D0
330
5CD
100
AcDbEntity
  8
DIMS
100
AcDbLine
 10
243.9999999999995
 20
138.4071905882362
 30
0.0
 11
243.9999999999995
 21
153.8071905882365
 31
0.0
  0
LINE
  5
5D1
330
5CD
100
AcDbEntity
  8
DIMS
100
AcDbLine
 10
258.9999999999986
 20
138.4071905882367
 30
0.0
 11
258.9999999999986
 21
153.8071905882365
 31
0.0
  0
LINE
  5
5D2
330
5CD
100
AcDbEntity
  8
DIMS
100
AcDbLine
 10
246.4999999999995
 20
153.1571905882365
 30
0.0
 11
256.4999999999986
 21
153.1571905882365
 31
0.0
  0
INSERT
  5
5D3
330
5CD
100
AcDbEntity
  8
DIMS
100
AcDbBlockReference
  2
_Open30
 10
243.9999999999995
 20
153.1571905882365
 30
0.0
 41
2.5
 42
2.5
 43
2.5
 50
180.0
  0
INSERT
  5
5D4
330
5CD
100
AcDbEntity
  8
DIMS
100
AcDbBlockReference
  2
_Open30
 10
258.9999999999986
 20
153.1571905882365
 30
0.0
 41
2.5
 42
2.5
 43
2.5
  0
MTEXT
  5
5D5
330
5CD
100
AcDbEntity
  8
DIMS
 62
     7
100
AcDbMText
 10
251.1398870588226
 20
155.0571905882365
 30
0.0
 40
2.5
 41
0.0
 46
0.0
 71
     5
 72
     1
  1
\A1;15
 73
     1
 44
1.0
  0
POINT
  5
5D6
330
5CD
100
AcDbEntity
  8
Defpoints
 62
     0
100
AcDbPoint
 10
243.9999999999995
 20
137.7571905882362
 30
0.0
  0
POINT
  5
5D7
330
5CD
100
AcDbEntity
  8
Defpoints
 62
     0
100
AcDbPoint
 10
258.9999999999986
 20
137.7571905882367
 30
0.0
  0
POINT
  5
5D8
330
5CD
100
AcDbEntity
  8
Defpoints
 62
     0
100
AcDbPoint
 10
258.9999999999986
 20
153.1571905882365
 30
0.0
  0
ENDBLK
  5
5CF
330
5CD
100
AcDbEntity
  8
0
100
AcDbBlockEnd
  0
BLOCK
  5
6D2
330
6D1
100
AcDbEntity
  8
0
100
AcDbBlockBegin
  2
*D19
 70
     1
 10
0.0
 20
0.0
 30
0.0
  3
*D19
  1

  0
LINE
  5
6D4
330
6D1
100
AcDbEntity
  8
DIMS
100
AcDbLine
 10
132.2008987573725
 20
127.0500000000001
 30
0.0
 11
132.2008987573725
 21
140.020386904762
 31
0.0
  0
LINE
  5
6D5
330
6D1
100
AcDbEntity
  8
DIMS
100
AcDbLine
 10
132.2008987573725
 20
127.0500000000001
 30
0.0
 11
132.2008987573725
 21
122.9500000000001
 31
0.0
  0
LINE
  5
6D6
330
6D1
100
AcDbEntity
  8
DIMS
100
AcDbLine
 10
132.2008987573725
 20
129.5500000000001
 30
0.0
 11
132.2008987573725
 21
132.0500000000001
 31
0.0
  0
LINE
  5
6D7
330
6D1
100
AcDbEntity
  8
DIMS
100
AcDbLine
 10
132.2008987573725
 20
120.4500000000001
 30
0.0
 11
132.2008987573725
 21
117.9500000000001
 31
0.0
  0
INSERT
  5
6D8
330
6D1
100
AcDbEntity
  8
DIMS
100
AcDbBlockReference
  2
_Open30
 10
132.2008987573725
 20
127.0500000000001
 30
0.0
 41
2.5
 42
2.5
 43
2.5
 50
270.0
  0
INSERT
  5
6D9
330
6D1
100
AcDbEntity
  8
DIMS
100
AcDbBlockReference
  2
_Open30
 10
132.2008987573725
 20
122.9500000000001
 30
0.0
 41
2.5
 42
2.5
 43
2.5
 50
90.0
  0
MTEXT
  5
6DA
330
6D1
100
AcDbEntity
  8
DIMS
 62
     7
100
AcDbMText
 10
130.3008987573725
 20
136.0351934523811
 30
0.0
 40
2.5
 41
0.0
 46
0.0
 71
     5
 72
     1
  1
\A1;Φ4.1
 11
0.0
 21
1.0
 31
0.0
 73
     1
 44
1.0
  0
POINT
  5
6DB
330
6D1
100
AcDbEntity
  8
Defpoints
 62
     0
100
AcDbPoint
 10
140.25
 20
127.0500000000001
 30
0.0
  0
POINT
  5
6DC
330
6D1
100
AcDbEntity
  8
Defpoints
 62
     0
100
AcDbPoint
 10
140.25
 20
122.9500000000001
 30
0.0
  0
POINT
  5
6E0
330
6D1
100
AcDbEntity
  8
Defpoints
 62
     0
100
AcDbPoint
 10
132.2008987573725
 20
122.9500000000001
 30
0.0
  0
ENDBLK
  5
6D3
330
6D1
100
AcDbEntity
  8
0
100
AcDbBlockEnd
  0
BLOCK
  5
6ED
330
6EC
100
AcDbEntity
  8
0
100
AcDbBlockBegin
  2
*D20
 70
     1
 10
0.0
 20
0.0
 30
0.0
  3
*D20
  1

  0
LINE
  5
6EF
330
6EC
100
AcDbEntity
  8
DIMS
100
AcDbLine
 10
89.91157183086284
 20
115.8691914211571
 30
0.0
 11
89.91157183086284
 21
99.03823529411764
 31
0.0
  0
LINE
  5
6F0
330
6EC
100
AcDbEntity
  8
DIMS
100
AcDbLine
 10
184.9115718308629
 20
110.688734989666
 30
0.0
 11
184.9115718308629
 21
99.03823529411764
 31
0.0
  0
LINE
  5
6F1
330
6EC
100
AcDbEntity
  8
DIMS
100
AcDbLine
 10
92.41157183086284
 20
99.68823529411765
 30
0.0
 11
182.4115718308629
 21
99.68823529411765
 31
0.0
  0
INSERT
  5
6F2
330
6EC
100
AcDbEntity
  8
DIMS
100
AcDbBlockReference
  2
_Open30
 10
89.91157183086284
 20
99.68823529411765
 30
0.0
 41
2.5
 42
2.5
 43
2.5
 50
180.0
  0
INSERT
  5
6F3
330
6EC
100
AcDbEntity
  8
DIMS
100
AcDbBlockReference
  2
_Open30
 10
184.9115718308629
 20
99.68823529411765
 30
0.0
 41
2.5
 42
2.5
 43
2.5
  0
MTEXT
  5
6F4
330
6EC
100
AcDbEntity
  8
DIMS
 62
     7
100
AcDbMText
 10
137.4115718308629
 20
101.5882352941177
 30
0.0
 40
2.5
 41
0.0
 46
0.0
 71
     5
 72
     1
  1
\A1;95
 73
     1
 44
1.0
  0
POINT
  5
6F5
330
6EC
100
AcDbEntity
  8
Defpoints
 62
     0
100
AcDbPoint
 10
89.91157183086284
 20
116.5191914211571
 30
0.0
  0
POINT
  5
6F6
330
6EC
100
AcDbEntity
  8
Defpoints
 62
     0
100
AcDbPoint
 10
184.9115718308629
 20
116.1191914211572
 30
0.0
  0
POINT
  5
6F7
330
6EC
100
AcDbEntity
  8
Defpoints
 62
     0
100
AcDbPoint
 10
184.9115718308629
 20
99.68823529411765
 30
0.0
  0
ENDBLK
  5
6EE
330
6EC
100
AcDbEntity
  8
0
100
AcDbBlockEnd
  0
BLOCK
  5
6FE
330
6FD
100
AcDbEntity
  8
0
100
AcDbBlockBegin
  2
*D21
 70
     1
 10
0.0
 20
0.0
 30
0.0
  3
*D21
  1

  0
LINE
  5
700
330
6FD
100
AcDbEntity
  8
DIMS
100
AcDbLine
 10
234.0000000000002
 20
134.65
 30
0.0
 11
234.0000000000002
 21
147.8
 31
0.0
  0
LINE
  5
701
330
6FD
100
AcDbEntity
  8
DIMS
100
AcDbLine
 10
258.9541222867842
 20
138.9
 30
0.0
 11
258.9541222867842
 21
147.8
 31
0.0
  0
LINE
  5
702
330
6FD
100
AcDbEntity
  8
DIMS
100
AcDbLine
 10
236.5000000000002
 20
147.15
 30
0.0
 11
256.4541222867842
 21
147.15
 31
0.0
  0
INSERT
  5
703
330
6FD
100
AcDbEntity
  8
DIMS
100
AcDbBlockReference
  2
_Open30
 10
234.0000000000002
 20
147.15
 30
0.0
 41
2.5
 42
2.5
 43
2.5
 50
180.0
  0
INSERT
  5
704
330
6FD
100
AcDbEntity
  8
DIMS
100
AcDbBlockReference
  2
_Open30
 10
258.9541222867842
 20
147.15
 30
0.0
 41
2.5
 42
2.5
 43
2.5
  0
MTEXT
  5
705
330
6FD
100
AcDbEntity
  8
DIMS
 62
     7
100
AcDbMText
 10
246.4770611433922
 20
149.05
 30
0.0
 40
2.5
 41
0.0
 46
0.0
 71
     5
 72
     1
  1
\A1;24.954
 73
     1
 44
1.0
  0
POINT
  5
706
330
6FD
100
AcDbEntity
  8
Defpoints
 62
     0
100
AcDbPoint
 10
234.0000000000002
 20
134.0
 30
0.0
  0
POINT
  5
707
330
6FD
100
AcDbEntity
  8
Defpoints
 62
     0
100
AcDbPoint
 10
258.9541222867842
 20
133.9999999999998
 30
0.0
  0
POINT
  5
708
330
6FD
100
AcDbEntity
  8
Defpoints
 62
     0
100
AcDbPoint
 10
258.9541222867842
 20
147.15
 30
0.0
  0
ENDBLK
  5
6FF
330
6FD
100
AcDbEntity
  8
0
100
AcDbBlockEnd
  0
BLOCK
  5
70C
330
70B
100
AcDbEntity
  8
0
100
AcDbBlockBegin
  2
*D22
 70
     1
 10
0.0
 20
0.0
 30
0.0
  3
*D22
  1

  0
LINE
  5
70E
330
70B
100
AcDbEntity
  8
DIMS
100
AcDbLine
 10
234.0000000000002
 20
134.65
 30
0.0
 11
234.0000000000002
 21
154.8
 31
0.0
  0
LINE
  5
70F
330
70B
100
AcDbEntity
  8
DIMS
100
AcDbLine
 10
259.0000000000002
 20
134.65
 30
0.0
 11
259.0000000000002
 21
154.8
 31
0.0
  0
LINE
  5
710
330
70B
100
AcDbEntity
  8
DIMS
100
AcDbLine
 10
236.5000000000002
 20
154.15
 30
0.0
 11
256.5000000000002
 21
154.15
 31
0.0
  0
INSERT
  5
711
330
70B
100
AcDbEntity
  8
DIMS
100
AcDbBlockReference
  2
_Open30
 10
234.0000000000002
 20
154.15
 30
0.0
 41
2.5
 42
2.5
 43
2.5
 50
180.0
  0
INSERT
  5
712
330
70B
100
AcDbEntity
  8
DIMS
100
AcDbBlockReference
  2
_Open30
 10
259.0000000000002
 20
154.15
 30
0.0
 41
2.5
 42
2.5
 43
2.5
  0
MTEXT
  5
713
330
70B
100
AcDbEntity
  8
DIMS
 62
     7
100
AcDbMText
 10
246.5000000000002
 20
156.05
 30
0.0
 40
2.5
 41
0.0
 46
0.0
 71
     5
 72
     1
  1
\A1;25
 73
     1
 44
1.0
  0
POINT
  5
714
330
70B
100
AcDbEntity
  8
Defpoints
 62
     0
100
AcDbPoint
 10
234.0000000000002
 20
134.0
 30
0.0
  0
POINT
  5
715
330
70B
100
AcDbEntity
  8
Defpoints
 62
     0
100
AcDbPoint
 10
259.0000000000002
 20
134.0
 30
0.0
  0
POINT
  5
716
330
70B
100
AcDbEntity
  8
Defpoints
 62
     0
100
AcDbPoint
 10
259.0000000000002
 20
154.15
 30
0.0
  0
ENDBLK
  5
70D
330
70B
100
AcDbEntity
  8
0
100
AcDbBlockEnd
  0
BLOCK
  5
71D
330
71C
100
AcDbEntity
  8
0
100
AcDbBlockBegin
  2
*D23
 70
     1
 10
0.0
 20
0.0
 30
0.0
  3
*D23
  1

  0
LINE
  5
71F
330
71C
100
AcDbEntity
  8
DIMS
100
AcDbLine
 10
234.0000000000002
 20
134.65
 30
0.0
 11
234.0000000000002
 21
152.5500000000009
 31
0.0
  0
LINE
  5
720
330
71C
100
AcDbEntity
  8
DIMS
100
AcDbLine
 10
258.9999999999994
 20
138.9000000000008
 30
0.0
 11
258.9999999999994
 21
152.5500000000009
 31
0.0
  0
LINE
  5
721
330
71C
100
AcDbEntity
  8
DIMS
100
AcDbLine
 10
236.5000000000002
 20
151.9000000000009
 30
0.0
 11
256.4999999999994
 21
151.9000000000009
 31
0.0
  0
INSERT
  5
722
330
71C
100
AcDbEntity
  8
DIMS
100
AcDbBlockReference
  2
_Open30
 10
234.0000000000002
 20
151.9000000000009
 30
0.0
 41
2.5
 42
2.5
 43
2.5
 50
180.0
  0
INSERT
  5
723
330
71C
100
AcDbEntity
  8
DIMS
100
AcDbBlockReference
  2
_Open30
 10
258.9999999999994
 20
151.9000000000009
 30
0.0
 41
2.5
 42
2.5
 43
2.5
  0
MTEXT
  5
724
330
71C
100
AcDbEntity
  8
DIMS
 62
     7
100
AcDbMText
 10
246.4999999999998
 20
153.8000000000009
 30
0.0
 40
2.5
 41
0.0
 46
0.0
 71
     5
 72
     1
  1
\A1;25
 73
     1
 44
1.0
  0
POINT
  5
725
330
71C
100
AcDbEntity
  8
Defpoints
 62
     0
100
AcDbPoint
 10
234.0000000000002
 20
124.9999999999998
 30
0.0
  0
POINT
  5
726
330
71C
100
AcDbEntity
  8
Defpoints
 62
     0
100
AcDbPoint
 10
258.9999999999994
 20
125.0000000000008
 30
0.0
  0
POINT
  5
727
330
71C
100
AcDbEntity
  8
Defpoints
 62
     0
100
AcDbPoint
 10
258.9999999999994
 20
151.9000000000009
 30
0.0
  0
ENDBLK
  5
71E
330
71C
100
AcDbEntity
  8
0
100
AcDbBlockEnd
  0
ENDSEC
  0
SECTION
  2
ENTITIES
  0
LWPOLYLINE
  5
141
330
18
100
AcDbEntity
  8
Defpoints
100
AcDbPolyline
 90
        3
 70
     0
 43
0.0
 10
5.0
 20
200.0
 10
5.0
 20
205.0
 10
10.0
 20
205.0
  0
LWPOLYLINE
  5
142
330
18
100
AcDbEntity
  8
Defpoints
100
AcDbPolyline
 90
        3
 70
     0
 43
0.0
 10
287.0000000000001
 20
205.0
 10
292.0000000000001
 20
205.0
 10
292.0000000000001
 20
200.0
  0
LWPOLYLINE
  5
143
330
18
100
AcDbEntity
  8
Defpoints
100
AcDbPolyline
 90
        3
 70
     0
 43
0.0
 10
292.0000000000001
 20
9.999999999999972
 10
292.0000000000001
 20
4.999999999999972
 10
287.0000000000001
 20
4.999999999999972
  0
LWPOLYLINE
  5
144
330
18
100
AcDbEntity
  8
Defpoints
100
AcDbPolyline
 90
        3
 70
     0
 43
0.0
 10
10.0
 20
5.0
 10
5.0
 20
5.0
 10
5.0
 20
10.0
  0
LWPOLYLINE
  5
145
330
18
100
AcDbEntity
  8
Defpoints
100
AcDbPolyline
 90
        3
 70
     0
 43
0.0
 10
10.0
 20
0.0
 10
0.0
 20
0.0
 10
0.0
 20
10.0
  0
LWPOLYLINE
  5
146
330
18
100
AcDbEntity
  8
Defpoints
100
AcDbPolyline
 90
        3
 70
     0
 43
0.0
 10
297.0000000000001
 20
9.999999999999972
 10
297.0000000000001
 20
-0.0000000000000284
 10
287.0000000000001
 20
-0.0000000000000284
  0
LWPOLYLINE
  5
147
330
18
100
AcDbEntity
  8
Defpoints
100
AcDbPolyline
 90
        3
 70
     0
 43
0.0
 10
287.0000000000001
 20
210.0
 10
297.0000000000001
 20
210.0
 10
297.0000000000001
 20
200.0
  0
LWPOLYLINE
  5
148
330
18
100
AcDbEntity
  8
Defpoints
100
AcDbPolyline
 90
        3
 70
     0
 43
0.0
 10
0.0
 20
200.0
 10
0.0
 20
210.0
 10
10.0
 20
210.0
  0
LINE
  5
2DA
330
18
100
AcDbEntity
  8
OBJECT
100
AcDbLine
 10
222.3999999999997
 20
124.9999999999996
 30
0.0
 11
222.3999999999997
 21
117.8699999999998
 31
0.0
  0
LINE
  5
2DB
330
18
100
AcDbEntity
  8
OBJECT
100
AcDbLine
 10
185.0
 20
125.0000000000001
 30
0.0
 11
185.0000000000001
 21
117.7195435685088
 31
0.0
  0
LINE
  5
2DC
330
18
100
AcDbEntity
  8
OBJECT
100
AcDbLine
 10
188.5
 20
125.0000000000001
 30
0.0
 11
188.5000000000001
 21
120.7499999999999
 31
0.0
  0
LINE
  5
2DD
330
18
100
AcDbEntity
  8
OBJECT
100
AcDbLine
 10
194.5000000000001
 20
125.0000000000001
 30
0.0
 11
194.5000000000001
 21
118.2499999999999
 31
0.0
  0
LINE
  5
2DE
330
18
100
AcDbEntity
  8
OBJECT
100
AcDbLine
 10
190.0
 20
125.0000000000001
 30
0.0
 11
190.0000000000001
 21
120.7499999999999
 31
0.0
  0
LINE
  5
2DF
330
18
100
AcDbEntity
  8
OBJECT
100
AcDbLine
 10
193.0000000000001
 20
125.0000000000001
 30
0.0
 11
193.0000000000001
 21
118.2499999999999
 31
0.0
  0
LINE
  5
2E0
330
18
100
AcDbEntity
  8
OBJECT
100
AcDbLine
 10
197.5000000000001
 20
125.0000000000001
 30
0.0
 11
197.5000000000001
 21
115.7499999999999
 31
0.0
  0
LINE
  5
2E1
330
18
100
AcDbEntity
  8
OBJECT
100
AcDbLine
 10
199.0000000000001
 20
125.0000000000001
 30
0.0
 11
199.0000000000001
 21
115.7499999999999
 31
0.0
  0
LINE
  5
2E2
330
18
100
AcDbEntity
  8
OBJECT
100
AcDbLine
 10
204.0000000000001
 20
125.0000000000001
 30
0.0
 11
204.0000000000001
 21
117.4999999999999
 31
0.0
  0
LINE
  5
2E3
330
18
100
AcDbEntity
  8
OBJECT
100
AcDbLine
 10
203.0000000000001
 20
125.0000000000001
 30
0.0
 11
203.0000000000001
 21
117.4999999999999
 31
0.0
  0
LINE
  5
2E4
330
18
100
AcDbEntity
  8
OBJECT
100
AcDbLine
 10
212.0000000000002
 20
125.0000000000001
 30
0.0
 11
212.0000000000002
 21
117.4999999999999
 31
0.0
  0
LINE
  5
2E5
330
18
100
AcDbEntity
  8
OBJECT
100
AcDbLine
 10
213.0000000000002
 20
125.0000000000001
 30
0.0
 11
213.0000000000002
 21
117.4999999999999
 31
0.0
  0
LINE
  5
2E6
330
18
100
AcDbEntity
  8
OBJECT
100
AcDbLine
 10
219.0000000000002
 20
125.0000000000003
 30
0.0
 11
219.0000000000002
 21
116.0000000000001
 31
0.0
  0
LWPOLYLINE
  5
2E7
330
18
100
AcDbEntity
  8
OBJECT
100
AcDbPolyline
 90
        4
 70
     0
 43
0.0
 10
187.7999999999995
 20
113.7500000000005
 10
180.5000000000002
 20
113.7500000000005
 10
180.5000000000002
 20
110.7500000000005
 10
190.9199999999994
 20
110.7500000000005
  0
ARC
  5
2E8
330
18
100
AcDbEntity
  8
OBJECT
100
AcDbCircle
 10
177.4999999999999
 20
112.2500000000005
 30
0.0
 40
6.499999999999694
100
AcDbArc
 50
157.3801350519555
 51
177.3546396584369
  0
HATCH
  5
2E9
330
18
100
AcDbEntity
  8
OBJECT
100
AcDbHatch
 10
0.0
 20
0.0
 30
0.0
210
0.0
220
0.0
230
1.0
  2
ANSI31
 70
     0
 71
     0
 91
        1
 92
        7
 72
     0
 73
     1
 93
        4
 10
171.5000000000002
 20
114.844227741767
 10
171.5000000000002
 20
109.8442277417672
 10
180.5000000000002
 20
109.8442277417672
 10
180.5000000000002
 20
114.8442277417672
 97
        0
 75
     0
 76
     1
 52
135.0
 41
0.2
 77
     0
 78
     1
 53
180.0
 43
342.7943252187293
 44
-766.906833170649
 45
-0.0000000000000003
 46
-0.635
 79
     0
 47
0.0370096015122687
 98
        1
 10
175.4928008342374
 20
112.09346793409
  0
LWPOLYLINE
  5
2EA
330
18
100
AcDbEntity
  8
OBJECT
100
AcDbPolyline
 90
        6
 70
     0
 43
0.0
 10
171.5000000000002
 20
111.9500000000006
 10
171.5000000000002
 20
109.7500000000005
 10
180.5000000000002
 20
109.7500000000005
 10
180.5000000000002
 20
114.7500000000005
 10
171.5000000000002
 20
114.7500000000005
 10
171.5000000000002
 20
112.5490120115079
  0
LINE
  5
2EB
330
18
100
AcDbEntity
  8
OBJECT
100
AcDbLine
 10
172.0000000000002
 20
111.9500000000006
 30
0.0
 11
171.0069267677011
 21
111.9500000000006
 31
0.0
  0
LINE
  5
2EC
330
18
100
AcDbEntity
  8
OBJECT
100
AcDbLine
 10
172.0000000000002
 20
112.5480101436027
 30
0.0
 11
171.0069267677011
 21
112.5500000000005
 31
0.0
  0
LINE
  5
2ED
330
18
100
AcDbEntity
  8
OBJECT
100
AcDbLine
 10
172.0000000000002
 20
111.9500000000006
 30
0.0
 11
172.0000000000002
 21
112.5480101436027
 31
0.0
  0
ARC
  5
2EE
330
18
100
AcDbEntity
  8
OBJECT
100
AcDbCircle
 10
177.4999999999999
 20
112.2500000000005
 30
0.0
 40
6.499999999999694
100
AcDbArc
 50
182.6453603415631
 51
202.6198649480445
  0
LINE
  5
2EF
330
18
100
AcDbEntity
  8
OBJECT
100
AcDbLine
 10
215.5000000000002
 20
108.7499999999999
 30
0.0
 11
194.2083253112494
 21
108.7499999999999
 31
0.0
  0
LINE
  5
2F0
330
18
100
AcDbEntity
  8
OBJECT
100
AcDbLine
 10
185.9206738512447
 20
115.5570443738032
 30
0.0
 11
192.128999162494
 21
109.5875008052943
 31
0.0
  0
ARC
  5
2F1
330
18
100
AcDbEntity
  8
OBJECT
100
AcDbCircle
 10
194.2083253112494
 20
111.7499999999999
 30
0.0
 40
3.0
100
AcDbArc
 50
226.1233027140743
 51
270.0
  0
ARC
  5
2F2
330
18
100
AcDbEntity
  8
OBJECT
100
AcDbCircle
 10
188.0000000000001
 20
117.7195435685088
 30
0.0
 40
3.0
100
AcDbArc
 50
180.0
 51
226.1233027140772
  0
ARC
  5
2F3
330
18
100
AcDbEntity
  8
OBJECT
100
AcDbCircle
 10
193.7500000000001
 20
118.2499999999999
 30
0.0
 40
0.75
100
AcDbArc
 50
180.0
 51
0.0
  0
ARC
  5
2F4
330
18
100
AcDbEntity
  8
OBJECT
100
AcDbCircle
 10
189.2500000000001
 20
120.7499999999999
 30
0.0
 40
0.75
100
AcDbArc
 50
180.0
 51
0.0
  0
LINE
  5
2F5
330
18
100
AcDbEntity
  8
OBJECT
100
AcDbLine
 10
211.5000000000002
 20
116.9999999999999
 30
0.0
 11
204.5000000000001
 21
116.9999999999999
 31
0.0
  0
LINE
  5
2F6
330
18
100
AcDbEntity
  8
OBJECT
100
AcDbLine
 10
211.5000000000002
 20
115.9999999999999
 30
0.0
 11
204.5000000000001
 21
115.9999999999999
 31
0.0
  0
ARC
  5
2F7
330
18
100
AcDbEntity
  8
OBJECT
100
AcDbCircle
 10
204.5000000000001
 20
117.4999999999999
 30
0.0
 40
0.5
100
AcDbArc
 50
180.0
 51
270.0
  0
ARC
  5
2F8
330
18
100
AcDbEntity
  8
OBJECT
100
AcDbCircle
 10
204.5000000000001
 20
117.4999999999999
 30
0.0
 40
1.5
100
AcDbArc
 50
180.0
 51
269.9999999999956
  0
ARC
  5
2F9
330
18
100
AcDbEntity
  8
OBJECT
100
AcDbCircle
 10
198.2500000000001
 20
115.7499999999999
 30
0.0
 40
0.75
100
AcDbArc
 50
180.0
 51
0.0
  0
ARC
  5
2FA
330
18
100
AcDbEntity
  8
OBJECT
100
AcDbCircle
 10
211.5000000000002
 20
117.4999999999999
 30
0.0
 40
0.5
100
AcDbArc
 50
270.0
 51
0.0
  0
ARC
  5
2FB
330
18
100
AcDbEntity
  8
OBJECT
100
AcDbCircle
 10
211.5000000000002
 20
117.4999999999999
 30
0.0
 40
1.5
100
AcDbArc
 50
269.9999999999913
 51
0.0
  0
LINE
  5
2FC
330
18
100
AcDbEntity
  8
OBJECT
100
AcDbLine
 10
218.0000000000002
 20
110.9500000000008
 30
0.0
 11
218.0000000000002
 21
113.5500000000005
 31
0.0
  0
LINE
  5
2FD
330
18
100
AcDbEntity
  8
OBJECT
100
AcDbLine
 10
217.8000000000002
 20
110.7500000000005
 30
0.0
 11
217.8000000000004
 21
113.7500000000005
 31
0.0
  0
LINE
  5
2FE
330
18
100
AcDbEntity
  8
OBJECT
100
AcDbLine
 10
217.0000000000002
 20
116.0000000000001
 30
0.0
 11
217.0000000000002
 21
111.6999999999999
 31
0.0
  0
LINE
  5
2FF
330
18
100
AcDbEntity
  8
OBJECT
100
AcDbLine
 10
216.2999999999895
 20
110.7500000000005
 30
0.0
 11
217.8000000000002
 21
110.7500000000005
 31
0.0
  0
LINE
  5
300
330
18
100
AcDbEntity
  8
Hidden
 48
0.2
100
AcDbLine
 10
216.2999999999895
 20
111.0500000000006
 30
0.0
 11
217.8000000000002
 21
111.0500000000007
 31
0.0
  0
LINE
  5
301
330
18
100
AcDbEntity
  8
OBJECT
100
AcDbLine
 10
217.8000000000002
 20
110.7500000000005
 30
0.0
 11
218.0000000000002
 21
110.9500000000008
 31
0.0
  0
LINE
  5
302
330
18
100
AcDbEntity
  8
OBJECT
100
AcDbLine
 10
217.0000000000002
 20
111.6999999999999
 30
0.0
 11
215.5000000000002
 21
111.7000000000001
 31
0.0
  0
LINE
  5
303
330
18
100
AcDbEntity
  8
OBJECT
100
AcDbLine
 10
216.2999999999895
 20
109.5999999999998
 30
0.0
 11
215.4999999999895
 21
109.5999999999998
 31
0.0
  0
LINE
  5
304
330
18
100
AcDbEntity
  8
OBJECT
100
AcDbLine
 10
215.5000000000002
 20
111.6999999999999
 30
0.0
 11
215.5000000000002
 21
108.7499999999999
 31
0.0
  0
LINE
  5
305
330
18
100
AcDbEntity
  8
OBJECT
100
AcDbLine
 10
215.4999999999895
 20
111.7000000000001
 30
0.0
 11
215.4999999999895
 21
109.5999999999998
 31
0.0
  0
LINE
  5
306
330
18
100
AcDbEntity
  8
OBJECT
100
AcDbLine
 10
216.2999999999895
 20
111.6999999999999
 30
0.0
 11
216.2999999999895
 21
109.5999999999998
 31
0.0
  0
LINE
  5
307
330
18
100
AcDbEntity
  8
OBJECT
100
AcDbLine
 10
221.4000000000001
 20
116.8699999999995
 30
0.0
 11
219.0000000000002
 21
116.8699999999995
 31
0.0
  0
LINE
  5
308
330
18
100
AcDbEntity
  8
OBJECT
100
AcDbLine
 10
219.0000000000002
 20
116.0000000000001
 30
0.0
 11
217.0000000000002
 21
116.0000000000001
 31
0.0
  0
LINE
  5
309
330
18
100
AcDbEntity
  8
OBJECT
100
AcDbLine
 10
217.0000000000002
 20
113.7500000000005
 30
0.0
 11
217.8000000000002
 21
113.7500000000005
 31
0.0
  0
LINE
  5
30A
330
18
100
AcDbEntity
  8
Hidden
 48
0.2
100
AcDbLine
 10
217.0000000000002
 20
113.4500000000004
 30
0.0
 11
217.8000000000004
 21
113.4500000000006
 31
0.0
  0
LINE
  5
30B
330
18
100
AcDbEntity
  8
OBJECT
100
AcDbLine
 10
218.0000000000002
 20
113.5500000000005
 30
0.0
 11
217.8000000000002
 21
113.7500000000005
 31
0.0
  0
ARC
  5
30C
330
18
100
AcDbEntity
  8
OBJECT
100
AcDbCircle
 10
221.4000000000001
 20
117.8699999999998
 30
0.0
 40
1.0
100
AcDbArc
 50
270.0
 51
0.0
  0
POINT
  5
30D
330
18
100
AcDbEntity
  8
OBJECT
100
AcDbPoint
 10
199.1399999999999
 20
125.0
 30
0.0
  0
LINE
  5
30E
330
18
100
AcDbEntity
  8
OBJECT
100
AcDbLine
 10
80.0
 20
125.0
 30
0.0
 11
90.0
 21
125.0
 31
0.0
  0
LINE
  5
30F
330
18
100
AcDbEntity
  8
OBJECT
100
AcDbLine
 10
80.00000000000006
 20
123.5
 30
0.0
 11
90.0
 21
123.5
 31
0.0
  0
LINE
  5
310
330
18
100
AcDbEntity
  8
OBJECT
100
AcDbLine
 10
80.0
 20
126.5
 30
0.0
 11
90.0
 21
126.5
 31
0.0
  0
LINE
  5
311
330
18
100
AcDbEntity
  8
OBJECT
100
AcDbLine
 10
90.0
 20
127.1
 30
0.0
 11
90.0
 21
122.8999999999999
 31
0.0
  0
LINE
  5
312
330
18
100
AcDbEntity
  8
OBJECT
100
AcDbLine
 10
96.0
 20
127.5
 30
0.0
 11
90.0
 21
127.1
 31
0.0
  0
LINE
  5
313
330
18
100
AcDbEntity
  8
OBJECT
100
AcDbLine
 10
96.0
 20
122.5
 30
0.0
 11
90.0
 21
122.8999999999999
 31
0.0
  0
LINE
  5
314
330
18
100
AcDbEntity
  8
OBJECT
100
AcDbLine
 10
102.0
 20
127.5
 30
0.0
 11
102.0
 21
122.5
 31
0.0
  0
LINE
  5
315
330
18
100
AcDbEntity
  8
OBJECT
100
AcDbLine
 10
96.0
 20
127.5
 30
0.0
 11
102.0
 21
127.5
 31
0.0
  0
LINE
  5
316
330
18
100
AcDbEntity
  8
OBJECT
100
AcDbLine
 10
96.0
 20
122.5
 30
0.0
 11
102.0
 21
122.5
 31
0.0
  0
LINE
  5
317
330
18
100
AcDbEntity
  8
OBJECT
100
AcDbLine
 10
178.5000000000001
 20
127.5
 30
0.0
 11
178.5
 21
122.5
 31
0.0
  0
LINE
  5
318
102
{ACAD_REACTORS
102
}
330
18
100
AcDbEntity
  8
OBJECT
100
AcDbLine
 10
185.0000000000001
 20
122.5
 30
0.0
 11
178.5
 21
122.5
 31
0.0
  0
LINE
  5
319
102
{ACAD_REACTORS
330
6D0
102
}
330
18
100
AcDbEntity
  8
OBJECT
100
AcDbLine
 10
102.0
 20
127.0500000000001
 30
0.0
 11
178.5
 21
127.0500000000001
 31
0.0
  0
LINE
  5
31A
102
{ACAD_REACTORS
330
6D0
102
}
330
18
100
AcDbEntity
  8
OBJECT
100
AcDbLine
 10
102.0
 20
122.9500000000001
 30
0.0
 11
178.5
 21
122.9500000000001
 31
0.0
  0
LINE
  5
31B
330
18
100
AcDbEntity
  8
OBJECT
100
AcDbLine
 10
222.3999999999997
 20
125.0000000000005
 30
0.0
 11
222.3999999999997
 21
132.1300000000004
 31
0.0
  0
LINE
  5
31C
330
18
100
AcDbEntity
  8
OBJECT
100
AcDbLine
 10
185.0000000000001
 20
125.0000000000001
 30
0.0
 11
185.0000000000002
 21
132.2804564314914
 31
0.0
  0
LINE
  5
31D
330
18
100
AcDbEntity
  8
OBJECT
100
AcDbLine
 10
197.5000000000002
 20
125.0000000000001
 30
0.0
 11
197.5000000000002
 21
134.2500000000003
 31
0.0
  0
LINE
  5
31E
330
18
100
AcDbEntity
  8
OBJECT
100
AcDbLine
 10
199.0000000000002
 20
125.0000000000001
 30
0.0
 11
199.0000000000002
 21
134.2500000000003
 31
0.0
  0
LINE
  5
31F
330
18
100
AcDbEntity
  8
OBJECT
100
AcDbLine
 10
204.0000000000002
 20
125.0000000000001
 30
0.0
 11
204.0000000000002
 21
132.5000000000003
 31
0.0
  0
LINE
  5
320
330
18
100
AcDbEntity
  8
OBJECT
100
AcDbLine
 10
203.0000000000002
 20
125.0000000000001
 30
0.0
 11
203.0000000000002
 21
132.5000000000003
 31
0.0
  0
LINE
  5
321
330
18
100
AcDbEntity
  8
OBJECT
100
AcDbLine
 10
212.0000000000002
 20
125.0
 30
0.0
 11
212.0000000000002
 21
132.5000000000003
 31
0.0
  0
LINE
  5
322
330
18
100
AcDbEntity
  8
OBJECT
100
AcDbLine
 10
213.0000000000002
 20
125.0
 30
0.0
 11
213.0000000000002
 21
132.5000000000003
 31
0.0
  0
LINE
  5
323
102
{ACAD_REACTORS
330
5AC
102
}
330
18
100
AcDbEntity
  8
OBJECT
100
AcDbLine
 10
219.0000000000002
 20
124.9999999999998
 30
0.0
 11
219.0000000000002
 21
134.0
 31
0.0
  0
LWPOLYLINE
  5
324
330
18
100
AcDbEntity
  8
OBJECT
100
AcDbPolyline
 90
        4
 70
     0
 43
0.0
 10
187.7999999999996
 20
136.2499999999996
 10
180.5000000000002
 20
136.2499999999996
 10
180.5000000000002
 20
139.2499999999996
 10
190.9199999999996
 20
139.2499999999996
  0
ARC
  5
325
330
18
100
AcDbEntity
  8
OBJECT
100
AcDbCircle
 10
177.4999999999999
 20
137.7499999999996
 30
0.0
 40
6.499999999999694
100
AcDbArc
 50
182.6453603415631
 51
202.6198649480443
  0
HATCH
  5
326
330
18
100
AcDbEntity
  8
OBJECT
100
AcDbHatch
 10
0.0
 20
0.0
 30
0.0
210
0.0
220
0.0
230
1.0
  2
ANSI31
 70
     0
 71
     0
 91
        1
 92
        7
 72
     0
 73
     1
 93
        4
 10
171.5000000000002
 20
135.1557722582332
 10
171.5000000000002
 20
140.155772258233
 10
180.5000000000002
 20
140.155772258233
 10
180.5000000000002
 20
135.155772258233
 97
        0
 75
     0
 76
     1
 52
135.0
 41
0.2
 77
     0
 78
     1
 53
180.0
 43
-301.9114120320509
 44
-22.82234799208375
 45
-0.0000000000000001
 46
-0.635
 79
     0
 47
0.0370096015122687
 98
        1
 10
175.4928008342374
 20
137.9065320659102
  0
LWPOLYLINE
  5
327
330
18
100
AcDbEntity
  8
OBJECT
100
AcDbPolyline
 90
        6
 70
     0
 43
0.0
 10
171.5000000000002
 20
138.0499999999996
 10
171.5000000000002
 20
140.2499999999996
 10
180.5000000000002
 20
140.2499999999996
 10
180.5000000000002
 20
135.2499999999996
 10
171.5000000000002
 20
135.2499999999996
 10
171.5000000000002
 20
137.4509879884923
  0
LINE
  5
328
330
18
100
AcDbEntity
  8
OBJECT
100
AcDbLine
 10
172.0000000000002
 20
138.0499999999996
 30
0.0
 11
171.0069267677012
 21
138.0499999999996
 31
0.0
  0
LINE
  5
329
330
18
100
AcDbEntity
  8
OBJECT
100
AcDbLine
 10
172.0000000000002
 20
137.4519898563975
 30
0.0
 11
171.0069267677012
 21
137.4499999999997
 31
0.0
  0
LINE
  5
32A
330
18
100
AcDbEntity
  8
OBJECT
100
AcDbLine
 10
172.0000000000002
 20
138.0499999999996
 30
0.0
 11
172.0000000000002
 21
137.4519898563975
 31
0.0
  0
ARC
  5
32B
330
18
100
AcDbEntity
  8
OBJECT
100
AcDbCircle
 10
177.4999999999999
 20
137.7499999999996
 30
0.0
 40
6.499999999999694
100
AcDbArc
 50
157.3801350519552
 51
177.3546396584369
  0
LINE
  5
32C
330
18
100
AcDbEntity
  8
OBJECT
100
AcDbLine
 10
215.5000000000002
 20
141.2500000000003
 30
0.0
 11
194.2083253112494
 21
141.2500000000003
 31
0.0
  0
LINE
  5
32D
330
18
100
AcDbEntity
  8
OBJECT
100
AcDbLine
 10
215.5000000000004
 20
142.2499999999998
 30
0.0
 11
193.0000000000001
 21
142.2500000000003
 31
0.0
  0
LINE
  5
32E
330
18
100
AcDbEntity
  8
OBJECT
100
AcDbLine
 10
185.9206738512448
 20
134.4429556261969
 30
0.0
 11
192.128999162494
 21
140.4124991947059
 31
0.0
  0
LINE
  5
32F
330
18
100
AcDbEntity
  8
OBJECT
100
AcDbLine
 10
193.0000000000001
 20
142.2499999999998
 30
0.0
 11
193.0000000000001
 21
140.9958969285452
 31
0.0
  0
ARC
  5
330
330
18
100
AcDbEntity
  8
OBJECT
100
AcDbCircle
 10
194.2083253112494
 20
138.2500000000003
 30
0.0
 40
3.0
100
AcDbArc
 50
90.0
 51
133.876697285926
  0
ARC
  5
331
330
18
100
AcDbEntity
  8
OBJECT
100
AcDbCircle
 10
188.0000000000002
 20
132.2804564314914
 30
0.0
 40
3.0
100
AcDbArc
 50
133.8766972859249
 51
180.0
  0
LINE
  5
332
330
18
100
AcDbEntity
  8
OBJECT
100
AcDbLine
 10
211.5000000000002
 20
133.0000000000003
 30
0.0
 11
204.5000000000002
 21
133.0000000000003
 31
0.0
  0
LINE
  5
333
330
18
100
AcDbEntity
  8
OBJECT
100
AcDbLine
 10
211.5000000000002
 20
134.0000000000003
 30
0.0
 11
204.5000000000002
 21
134.0000000000003
 31
0.0
  0
ARC
  5
334
330
18
100
AcDbEntity
  8
OBJECT
100
AcDbCircle
 10
204.5000000000002
 20
132.5000000000003
 30
0.0
 40
0.5
100
AcDbArc
 50
90.0
 51
180.0
  0
ARC
  5
335
330
18
100
AcDbEntity
  8
OBJECT
100
AcDbCircle
 10
204.5000000000002
 20
132.5000000000003
 30
0.0
 40
1.5
100
AcDbArc
 50
90.0000000000087
 51
180.0
  0
ARC
  5
336
330
18
100
AcDbEntity
  8
OBJECT
100
AcDbCircle
 10
198.2500000000002
 20
134.2500000000003
 30
0.0
 40
0.75
100
AcDbArc
 50
0.0
 51
180.0
  0
ARC
  5
337
330
18
100
AcDbEntity
  8
OBJECT
100
AcDbCircle
 10
211.5000000000002
 20
132.5000000000003
 30
0.0
 40
0.5
100
AcDbArc
 50
0.0
 51
90.0
  0
ARC
  5
338
330
18
100
AcDbEntity
  8
OBJECT
100
AcDbCircle
 10
211.5000000000002
 20
132.5000000000003
 30
0.0
 40
1.5
100
AcDbArc
 50
0.0
 51
90.0
  0
LINE
  5
339
330
18
100
AcDbEntity
  8
OBJECT
100
AcDbLine
 10
218.0000000000002
 20
139.0499999999993
 30
0.0
 11
218.0000000000002
 21
136.4499999999996
 31
0.0
  0
LINE
  5
33A
330
18
100
AcDbEntity
  8
OBJECT
100
AcDbLine
 10
217.8000000000004
 20
139.2499999999996
 30
0.0
 11
217.8000000000004
 21
136.2499999999996
 31
0.0
  0
LINE
  5
33B
330
18
100
AcDbEntity
  8
OBJECT
100
AcDbLine
 10
217.0000000000002
 20
134.0
 30
0.0
 11
217.0000000000002
 21
138.3000000000002
 31
0.0
  0
LINE
  5
33C
330
18
100
AcDbEntity
  8
OBJECT
100
AcDbLine
 10
216.2999999999895
 20
139.2499999999996
 30
0.0
 11
217.8000000000004
 21
139.2499999999996
 31
0.0
  0
LINE
  5
33D
330
18
100
AcDbEntity
  8
Hidden
 48
0.2
100
AcDbLine
 10
216.2999999999895
 20
138.9499999999995
 30
0.0
 11
217.8000000000004
 21
138.9499999999994
 31
0.0
  0
LINE
  5
33E
330
18
100
AcDbEntity
  8
OBJECT
100
AcDbLine
 10
217.8000000000004
 20
139.2499999999996
 30
0.0
 11
218.0000000000002
 21
139.0499999999993
 31
0.0
  0
LINE
  5
33F
330
18
100
AcDbEntity
  8
OBJECT
100
AcDbLine
 10
217.0000000000002
 20
138.3000000000002
 30
0.0
 11
215.5000000000002
 21
138.3
 31
0.0
  0
LINE
  5
340
330
18
100
AcDbEntity
  8
OBJECT
100
AcDbLine
 10
215.5000000000002
 20
141.2499999999998
 30
0.0
 11
215.5000000000002
 21
142.2499999999998
 31
0.0
  0
LINE
  5
341
330
18
100
AcDbEntity
  8
OBJECT
100
AcDbLine
 10
216.2999999999895
 20
140.4000000000004
 30
0.0
 11
215.4999999999895
 21
140.4000000000004
 31
0.0
  0
LINE
  5
342
330
18
100
AcDbEntity
  8
OBJECT
100
AcDbLine
 10
215.5000000000002
 20
138.3000000000002
 30
0.0
 11
215.5000000000002
 21
141.2500000000003
 31
0.0
  0
LINE
  5
343
330
18
100
AcDbEntity
  8
OBJECT
100
AcDbLine
 10
215.4999999999895
 20
138.3
 30
0.0
 11
215.4999999999895
 21
140.4000000000004
 31
0.0
  0
LINE
  5
344
330
18
100
AcDbEntity
  8
OBJECT
100
AcDbLine
 10
216.2999999999895
 20
138.3000000000002
 30
0.0
 11
216.2999999999895
 21
140.4000000000004
 31
0.0
  0
LINE
  5
345
330
18
100
AcDbEntity
  8
OBJECT
100
AcDbLine
 10
221.4000000000001
 20
133.1300000000006
 30
0.0
 11
219.0000000000002
 21
133.1300000000006
 31
0.0
  0
LINE
  5
346
330
18
100
AcDbEntity
  8
OBJECT
100
AcDbLine
 10
219.0000000000002
 20
134.0
 30
0.0
 11
217.0000000000002
 21
134.0
 31
0.0
  0
LINE
  5
347
330
18
100
AcDbEntity
  8
OBJECT
100
AcDbLine
 10
217.0000000000002
 20
136.2499999999996
 30
0.0
 11
217.8000000000002
 21
136.2499999999996
 31
0.0
  0
LINE
  5
348
330
18
100
AcDbEntity
  8
Hidden
 48
0.2
100
AcDbLine
 10
217.0000000000002
 20
136.5499999999998
 30
0.0
 11
217.8000000000004
 21
136.5499999999995
 31
0.0
  0
LINE
  5
349
330
18
100
AcDbEntity
  8
OBJECT
100
AcDbLine
 10
218.0000000000002
 20
136.4499999999996
 30
0.0
 11
217.8000000000002
 21
136.2499999999996
 31
0.0
  0
ARC
  5
34A
330
18
100
AcDbEntity
  8
OBJECT
100
AcDbCircle
 10
221.4000000000001
 20
132.1300000000004
 30
0.0
 40
1.0
100
AcDbArc
 50
0.0
 51
90.0
  0
LINE
  5
34B
330
18
100
AcDbEntity
  8
OBJECT
100
AcDbLine
 10
185.0000000000001
 20
127.5
 30
0.0
 11
178.5000000000001
 21
127.5
 31
0.0
  0
LINE
  5
34C
330
18
100
AcDbEntity
  8
OBJECT
100
AcDbLine
 10
188.5000000000001
 20
125.0
 30
0.0
 11
188.5000000000002
 21
129.2500000000002
 31
0.0
  0
LINE
  5
34D
330
18
100
AcDbEntity
  8
OBJECT
100
AcDbLine
 10
194.5000000000002
 20
124.9999999999999
 30
0.0
 11
194.5000000000002
 21
131.7500000000002
 31
0.0
  0
LINE
  5
34E
330
18
100
AcDbEntity
  8
OBJECT
100
AcDbLine
 10
190.0000000000001
 20
125.0
 30
0.0
 11
190.0000000000002
 21
129.2500000000002
 31
0.0
  0
LINE
  5
34F
330
18
100
AcDbEntity
  8
OBJECT
100
AcDbLine
 10
193.0000000000002
 20
125.0
 30
0.0
 11
193.0000000000002
 21
131.8164789488663
 31
0.0
  0
ARC
  5
350
330
18
100
AcDbEntity
  8
OBJECT
100
AcDbCircle
 10
193.7500000000002
 20
131.7500000000002
 30
0.0
 40
0.75
100
AcDbArc
 50
0.0
 51
180.0
  0
ARC
  5
351
330
18
100
AcDbEntity
  8
OBJECT
100
AcDbCircle
 10
189.2500000000002
 20
129.2500000000002
 30
0.0
 40
0.75
100
AcDbArc
 50
359.9999999999978
 51
180.0
  0
INSERT
  5
352
102
{ACAD_REACTORS
330
355
330
4E2
102
}
330
18
100
AcDbEntity
  8
0
100
AcDbBlockReference
  2
A$C15711
 10
80.0
 20
125.0
 30
0.0
  0
DIMENSION
  5
353
102
{ACAD_REACTORS
330
355
102
}
102
{ACAD_XDICTIONARY
360
354
102
}
330
18
100
AcDbEntity
  8
DIMS
100
AcDbDimension
  2
*D9
 10
185.0000000000002
 20
152.6081468297162
 30
0.0
 11
132.5000000000001
 21
154.5081468297162
 31
0.0
 70
    32
  1
L
 71
     5
 42
105.0000000000002
 73
     0
 74
     0
 75
     0
  3
STANDARD
100
AcDbAlignedDimension
 13
80.0
 23
129.3
 33
0.0
 14
185.0000000000002
 24
133.2804564314914
 34
0.0
100
AcDbRotatedDimension
  0
ACAD_TABLE
  5
356
330
18
100
AcDbEntity
  8
0
 92
     4604
310
FC1100001F000000880000001D000000000000000000F03F00000000000000000000000000000000504E4E4E4EEE55400000000000000000000000000000F03F0000000000000000483B440D6BEE534000000000000000000000000000000000000000000000F03F0000000000000000000000000000000000000000000000
310
000000000000000000000000000000F03F0C0000001200000000000000E4000000260000003333333333930A400000000000000EC0000000000000000000000000000000000000000000000000000000000000F03F000000000000F03F00000000000000000000000000000000779555304C0008FF58534D4F6D006D0009FF
310
000009000000010000000000000000000440343333333333EB3F0000000000000000000000000000F03F0000000000000000000000000000000000000000000000000000000000000000000000000000000072006F006D0061006E0073002E007300680078000000000062006900670066006F006E0074002E007300680078
310
000000D80000002600000049922449921C48400000000000000EC0000000000000000000000000000000000000000000000000000000000000F03F000000000000F03F000000000000000000000000000000000D54F0790000000002000000010000000000000000000440343333333333EB3F000000000000000000000000
310
0000F03F0000000000000000000000000000000000000000000000000000000000000000000000000000000072006F006D0061006E0073002E007300680078000000000062006900670066006F006E0074002E007300680078000000D8000000260000007CC5577CC56E56400000000000000EC00000000000000000000000
310
00000000000000000000000000000000000000F03F000000000000F03F000000000000000000000000000000008B576A750000000002000000010000000000000000000440343333333333EB3F0000000000000000000000000000F03F00000000000000000000000000000000000000000000000000000000000000000000
310
00000000000072006F006D0061006E0073002E007300680078000000000062006900670066006F006E0074002E007300680078000000DC00000026000000DBB66DDBB69A234000000000008021C0000000000000000000000000000000000000000000000000000000000000F03F000000000000F03F000000000000000000
310
0000000000000031003000300030000000000004000000010000000000000000000440343333333333EB3F0000000000000000000000000000F03F0000000000000000000000000000000000000000000000000000000000000000000000000000000072006F006D0061006E0073002E007300680078000000000062006900
310
670066006F006E0074002E007300680078000000F000000026000000866118862131414000000000008021C0000000000000000000000000000000000000000000000000000000000000F03F000000000000F03F000000000000000000000000000000001A90E14FB130FC30D630EB304100200031003000300030006D006D
310
00000000000E000000010000000000000000000440343333333333EB3F0000000000000000000000000000F03F0000000000000000000000000000000000000000000000000000000000000000000000000000000072006F006D0061006E0073002E007300680078000000000062006900670066006F006E0074002E007300
310
680078000000EC000000260000009FE7799EC7C5534000000000008021C0000000000000000000000000000000000000000000000000000000000000F03F000000000000F03F0000000000000000000000000000000043004D0052005300410031002D0031003000300030005700000000000C000000010000000000000000
310
000440343333333333EB3F0000000000000000000000000000F03F0000000000000000000000000000000000000000000000000000000000000000000000000000000072006F006D0061006E0073002E007300680078000000000062006900670066006F006E0074002E007300680078000000DC0000002600000085611886
310
61E423400000000000802BC0000000000000000000000000000000000000000000000000000000000000F03F000000000000F03F0000000000000000000000000000000032003000300030000000000004000000010000000000000000000440343333333333EB3F0000000000000000000000000000F03F00000000000000
310
00000000000000000000000000000000000000000000000000000000000000000072006F006D0061006E0073002E007300680078000000000062006900670066006F006E0074002E007300680078000000F00000002600000086611886213141400000000000802BC000000000000000000000000000000000000000000000
310
0000000000000000F03F000000000000F03F000000000000000000000000000000001A90E14FB130FC30D630EB304100200032003000300030006D006D00000000000E000000010000000000000000000440343333333333EB3F0000000000000000000000000000F03F000000000000000000000000000000000000000000
310
0000000000000000000000000000000000000072006F006D0061006E0073002E007300680078000000000062006900670066006F006E0074002E007300680078000000EC000000260000009FE7799EC7C553400000000000802BC0000000000000000000000000000000000000000000000000000000000000F03F00000000
310
0000F03F0000000000000000000000000000000043004D0052005300410031002D0032003000300030005700000000000C000000010000000000000000000440343333333333EB3F0000000000000000000000000000F03F000000000000000000000000000000000000000000000000000000000000000000000000000000
310
0072006F006D0061006E0073002E007300680078000000000062006900670066006F006E0074002E007300680078000000DC000000260000008561188661E423400000000000C032C0000000000000000000000000000000000000000000000000000000000000F03F000000000000F03F0000000000000000000000000000
310
000033003000300030000000000004000000010000000000000000000440343333333333EB3F0000000000000000000000000000F03F0000000000000000000000000000000000000000000000000000000000000000000000000000000072006F006D0061006E0073002E007300680078000000000062006900670066006F
310
006E0074002E007300680078000000F00000002600000086611886213141400000000000C032C0000000000000000000000000000000000000000000000000000000000000F03F000000000000F03F000000000000000000000000000000001A90E14FB130FC30D630EB304100200033003000300030006D006D0000000000
310
0E000000010000000000000000000440343333333333EB3F0000000000000000000000000000F03F0000000000000000000000000000000000000000000000000000000000000000000000000000000072006F006D0061006E0073002E007300680078000000000062006900670066006F006E0074002E0073006800780000
310
00EC000000260000009FE7799EC7C553400000000000C032C0000000000000000000000000000000000000000000000000000000000000F03F000000000000F03F0000000000000000000000000000000043004D0052005300410031002D0033003000300030005700000000000C0000000100000000000000000004403433
310
33333333EB3F0000000000000000000000000000F03F0000000000000000000000000000000000000000000000000000000000000000000000000000000072006F006D0061006E0073002E007300680078000000000062006900670066006F006E0074002E007300680078000000DC000000260000008561188661E4234000
310
00000000C037C0000000000000000000000000000000000000000000000000000000000000F03F000000000000F03F0000000000000000000000000000000035003000300030000000000004000000010000000000000000000440343333333333EB3F0000000000000000000000000000F03F000000000000000000000000
310
0000000000000000000000000000000000000000000000000000000072006F006D0061006E0073002E007300680078000000000062006900670066006F006E0074002E007300680078000000F00000002600000086611886213141400000000000C037C0000000000000000000000000000000000000000000000000000000
310
000000F03F000000000000F03F000000000000000000000000000000001A90E14FB130FC30D630EB304100200035003000300030006D006D00000000000E000000010000000000000000000440343333333333EB3F0000000000000000000000000000F03F0000000000000000000000000000000000000000000000000000
310
000000000000000000000000000072006F006D0061006E0073002E007300680078000000000062006900670066006F006E0074002E007300680078000000EC000000260000009FE7799EC7C553400000000000C037C0000000000000000000000000000000000000000000000000000000000000F03F000000000000F03F00
310
00000000000000000000000000000043004D0052005300410031002D0035003000300030005700000000000C000000010000000000000000000440343333333333EB3F0000000000000000000000000000F03F0000000000000000000000000000000000000000000000000000000000000000000000000000000072006F00
310
6D0061006E0073002E007300680078000000000062006900670066006F006E0074002E0073006800780000000C00000012000000FE7F00005400000020000000020000000000000000000000000000000000000000000000000000000000000000C05B40000000000000000000000000000000000000000000000000000000
310
0000000000000000000000F03F5400000020000000020000000000000000C05B40000000000000000000000000000000000000000000C05B4000000000000039C0000000000000000000000000000000000000000000000000000000000000F03F540000002000000002000000000000000000000000000000000014C00000
310
0000000000000000000000C05B4000000000000014C0000000000000000000000000000000000000000000000000000000000000F03F540000002000000002000000000000000000000000000000000024C000000000000000000000000000C05B4000000000000024C0000000000000000000000000000000000000000000
310
000000000000000000F03F54000000200000000200000000000000000000000000000000002EC000000000000000000000000000C05B400000000000002EC0000000000000000000000000000000000000000000000000000000000000F03F540000002000000002000000000000000000000000000000000034C000000000
310
000000000000000000C05B4000000000000034C0000000000000000000000000000000000000000000000000000000000000F03F540000002000000002000000000000000000000000000000000039C000000000000000000000000000C05B4000000000000039C00000000000000000000000000000000000000000000000
310
00000000000000F03F540000002000000002000000000000000000000000000000000000000000000000000000000000000000000000000000000039C0000000000000000000000000000000000000000000000000000000000000F03F5400000020000000020000000000000000003C400000000000000000000000000000
310
00000000000000003C4000000000000039C0000000000000000000000000000000000000000000000000000000000000F03F540000002000000002000000000000000040524000000000000000000000000000000000000000000040524000000000000039C000000000000000000000000000000000000000000000000000
310
0000000000F03F080000001F000000880000001D000000000000000000F03F0000000000000000000000000000000000000000000000000000000000000000000000000000F03F0000000000000000000000000000000000000000000000000000000000000000000000000000F03F00000000000000000000000000000000
310
00000000000000000000000000000000000000000000F03F080000001F000000
100
AcDbBlockReference
  2
*T10
 10
87.72352941176473
 20
79.72528392470588
 30
0.0
100
AcDbTable
342
162
343
363
 11
1.0
 21
0.0
 31
0.0
 90
       54
 91
        5
 92
        3
 93
        1
 94
        0
 95
        0
 96
        0
280
     1
141
5.0
141
5.0
141
5.0
141
5.0
141
5.0
142
28.0
142
45.0
142
38.0
171
     1
172
     0
173
     0
174
     0
175
     1
176
     1
 91
        0
178
     0
145
0.0
 92
        0
301
CELL_VALUE
 93
        6
 90
        4
  1
長さL（単位mm）
 94
        0
300

302
長さL（単位mm）
304
ACVALUE_END
171
     1
172
     0
173
     0
174
     0
175
     1
176
     1
 91
        0
178
     0
145
0.0
 92
        0
301
CELL_VALUE
 93
        6
 90
        4
  1
名称
 94
        0
300

302
名称
304
ACVALUE_END
171
     1
172
     0
173
     0
174
     0
175
     1
176
     1
 91
        0
178
     0
145
0.0
 92
        0
301
CELL_VALUE
 93
        6
 90
        4
  1
型番
 94
        0
300

302
型番
304
ACVALUE_END
171
     1
172
     6
173
     0
174
     0
175
     1
176
     1
 91
     6144
178
     0
145
0.0
275
    -1
276
    -1
 92
        0
301
CELL_VALUE
 93
        6
 90
        4
  1
1000
 94
        0
300

302
1000
304
ACVALUE_END
171
     1
172
    14
173
     0
174
     0
175
     1
176
     1
 91
    14336
178
     8
145
0.0
275
    -1
276
    -1
 92
        0
301
CELL_VALUE
 93
        6
 90
        4
  1
通信ケーブルA 1000mm
 94
        0
300

302
通信ケーブルA 1000mm
304
ACVALUE_END
171
     1
172
    12
173
     0
174
     0
175
     1
176
     1
 91
    12288
178
     8
145
0.0
276
    -1
 92
        0
301
CELL_VALUE
 93
        6
 90
        4
  1
CMRSA1-1000W
 94
        0
300

302
CMRSA1-1000W
304
ACVALUE_END
171
     1
172
     7
173
     0
174
     0
175
     1
176
     1
 91
     7168
178
     1
145
0.0
275
    -1
276
    -1
 92
        0
301
CELL_VALUE
 93
        6
 90
        4
  1
2000
 94
        0
300

302
2000
304
ACVALUE_END
171
     1
172
    15
173
     0
174
     0
175
     1
176
     1
 91
    15360
178
     9
145
0.0
275
    -1
276
    -1
 92
        0
301
CELL_VALUE
 93
        6
 90
        4
  1
通信ケーブルA 2000mm
 94
        0
300

302
通信ケーブルA 2000mm
304
ACVALUE_END
171
     1
172
    13
173
     0
174
     0
175
     1
176
     1
 91
    13312
178
     9
145
0.0
276
    -1
 92
        0
301
CELL_VALUE
 93
        6
 90
        4
  1
CMRSA1-2000W
 94
        0
300

302
CMRSA1-2000W
304
ACVALUE_END
171
     1
172
     7
173
     0
174
     0
175
     1
176
     1
 91
     7168
178
     1
145
0.0
275
    -1
276
    -1
 92
        0
301
CELL_VALUE
 93
        6
 90
        4
  1
3000
 94
        0
300

302
3000
304
ACVALUE_END
171
     1
172
    15
173
     0
174
     0
175
     1
176
     1
 91
    15360
178
     9
145
0.0
275
    -1
276
    -1
 92
        0
301
CELL_VALUE
 93
        6
 90
        4
  1
通信ケーブルA 3000mm
 94
        0
300

302
通信ケーブルA 3000mm
304
ACVALUE_END
171
     1
172
    13
173
     0
174
     0
175
     1
176
     1
 91
    13312
178
     9
145
0.0
276
    -1
 92
        0
301
CELL_VALUE
 93
        6
 90
        4
  1
CMRSA1-3000W
 94
        0
300

302
CMRSA1-3000W
304
ACVALUE_END
171
     1
172
     3
173
     0
174
     0
175
     1
176
     1
 91
     3072
178
     1
145
0.0
275
    -1
 92
        0
301
CELL_VALUE
 93
        6
 90
        4
  1
5000
 94
        0
300

302
5000
304
ACVALUE_END
171
     1
172
    11
173
     0
174
     0
175
     1
176
     1
 91
    11264
178
     9
145
0.0
275
    -1
 92
        0
301
CELL_VALUE
 93
        6
 90
        4
  1
通信ケーブルA 5000mm
 94
        0
300

302
通信ケーブルA 5000mm
304
ACVALUE_END
171
     1
172
     9
173
     0
174
     0
175
     1
176
     1
 91
     9216
178
     9
145
0.0
 92
        0
301
CELL_VALUE
 93
        6
 90
        4
  1
CMRSA1-5000W
 94
        0
300

302
CMRSA1-5000W
304
ACVALUE_END
  0
LINE
  5
43C
102
{ACAD_REACTORS
330
4BB
102
}
330
18
100
AcDbEntity
  8
OBJECT
100
AcDbLine
 10
38.40000000000001
 20
120.8999999999001
 30
0.0
 11
38.40000000000001
 21
120.0
 31
0.0
  0
LINE
  5
43D
330
18
100
AcDbEntity
  8
OBJECT
100
AcDbLine
 10
44.20000000069999
 20
120.9
 30
0.0
 11
38.40000000000001
 21
120.8999999999001
 31
0.0
  0
LINE
  5
43E
330
18
100
AcDbEntity
  8
OBJECT
100
AcDbLine
 10
44.20000000069999
 20
120.9
 30
0.0
 11
44.20000000069999
 21
122.49999999955
 31
0.0
  0
LINE
  5
43F
330
18
100
AcDbEntity
  8
OBJECT
100
AcDbLine
 10
45.0
 20
120.0
 30
0.0
 11
38.40000000000001
 21
120.0
 31
0.0
  0
LINE
  5
440
330
18
100
AcDbEntity
  8
OBJECT
100
AcDbLine
 10
45.0
 20
122.5
 30
0.0
 11
44.20000000069999
 21
122.49999999955
 31
0.0
  0
LINE
  5
441
330
18
100
AcDbEntity
  8
OBJECT
100
AcDbLine
 10
45.0
 20
122.5
 30
0.0
 11
45.0
 21
120.0
 31
0.0
  0
LINE
  5
442
330
18
100
AcDbEntity
  8
OBJECT
100
AcDbLine
 10
38.40000000000001
 20
129.1000000002
 30
0.0
 11
44.20000000069999
 21
129.1
 31
0.0
  0
LINE
  5
443
330
18
100
AcDbEntity
  8
OBJECT
100
AcDbLine
 10
38.40000000000001
 20
129.1000000002
 30
0.0
 11
38.40000000000001
 21
130.0000000000001
 31
0.0
  0
LINE
  5
444
330
18
100
AcDbEntity
  8
OBJECT
100
AcDbLine
 10
44.20000000069999
 20
129.1
 30
0.0
 11
44.20000000069999
 21
127.50000000045
 31
0.0
  0
LINE
  5
445
330
18
100
AcDbEntity
  8
OBJECT
100
AcDbLine
 10
45.0
 20
127.5
 30
0.0
 11
44.20000000069999
 21
127.50000000045
 31
0.0
  0
LINE
  5
446
102
{ACAD_REACTORS
330
4BB
102
}
330
18
100
AcDbEntity
  8
OBJECT
100
AcDbLine
 10
38.40000000000001
 20
130.0000000000001
 30
0.0
 11
45.0
 21
130.0000000000001
 31
0.0
  0
LINE
  5
447
330
18
100
AcDbEntity
  8
OBJECT
100
AcDbLine
 10
45.0
 20
130.0000000000001
 30
0.0
 11
45.0
 21
127.5
 31
0.0
  0
LINE
  5
448
330
18
100
AcDbEntity
  8
OBJECT
100
AcDbLine
 10
44.20000000000002
 20
127.50000000045
 30
0.0
 11
44.20000000000002
 21
122.49999999955
 31
0.0
  0
LINE
  5
449
330
18
100
AcDbEntity
  8
OBJECT
100
AcDbLine
 10
45.0
 20
127.5
 30
0.0
 11
45.0
 21
122.5
 31
0.0
  0
LINE
  5
44E
330
18
100
AcDbEntity
  8
OBJECT
100
AcDbLine
 10
41.46918663213326
 20
127.2500000000001
 30
0.0
 11
41.46918663213326
 21
127.7500000042103
 31
0.0
  0
LINE
  5
453
330
18
100
AcDbEntity
  8
OBJECT
100
AcDbLine
 10
41.96918663213326
 20
122.75
 30
0.0
 11
41.96918663213326
 21
122.2500000000001
 31
0.0
  0
LINE
  5
456
330
18
100
AcDbEntity
  8
OBJECT
100
AcDbLine
 10
41.46918663213326
 20
122.2500000000001
 30
0.0
 11
41.46918663213326
 21
122.75
 31
0.0
  0
LINE
  5
459
330
18
100
AcDbEntity
  8
OBJECT
100
AcDbLine
 10
41.46918663213326
 20
124.7500000000001
 30
0.0
 11
41.46918663213326
 21
125.2500000042103
 31
0.0
  0
LINE
  5
45C
330
18
100
AcDbEntity
  8
OBJECT
100
AcDbLine
 10
41.96918663213326
 20
127.7500000000193
 30
0.0
 11
41.96918663213326
 21
127.2500000000001
 31
0.0
  0
LINE
  5
463
330
18
100
AcDbEntity
  8
OBJECT
100
AcDbLine
 10
41.96918663213326
 20
125.2500000000193
 30
0.0
 11
41.96918663213326
 21
124.7500000000001
 31
0.0
  0
LINE
  5
46D
330
18
100
AcDbEntity
  8
OBJECT
100
AcDbLine
 10
41.56918663163326
 20
127.85
 30
0.0
 11
41.86918663215374
 21
127.85
 31
0.0
  0
LINE
  5
47D
330
18
100
AcDbEntity
  8
OBJECT
100
AcDbLine
 10
41.8691866321355
 20
127.1500000000001
 30
0.0
 11
41.5691866321355
 21
127.1500000000001
 31
0.0
  0
LINE
  5
480
330
18
100
AcDbEntity
  8
OBJECT
100
AcDbLine
 10
41.86918663213326
 20
122.1500000000001
 30
0.0
 11
41.56918663213326
 21
122.1500000000001
 31
0.0
  0
LINE
  5
485
330
18
100
AcDbEntity
  8
OBJECT
100
AcDbLine
 10
41.56918663163326
 20
125.35
 30
0.0
 11
41.86918663215374
 21
125.35
 31
0.0
  0
LINE
  5
48A
330
18
100
AcDbEntity
  8
OBJECT
100
AcDbLine
 10
41.56918663213326
 20
122.85
 30
0.0
 11
41.86918663213326
 21
122.85
 31
0.0
  0
LINE
  5
48C
330
18
100
AcDbEntity
  8
OBJECT
100
AcDbLine
 10
39.40000000025
 20
122.5999999994001
 30
0.0
 11
38.40000000000001
 21
122.59999999965
 31
0.0
  0
LINE
  5
48D
330
18
100
AcDbEntity
  8
OBJECT
100
AcDbLine
 10
39.40000000025
 20
122.5999999994001
 30
0.0
 11
39.40000000025
 21
127.4000000003501
 31
0.0
  0
LINE
  5
48E
330
18
100
AcDbEntity
  8
OBJECT
100
AcDbLine
 10
38.40000000000001
 20
127.4000000003501
 30
0.0
 11
39.40000000025
 21
127.4000000003501
 31
0.0
  0
LINE
  5
48F
330
18
100
AcDbEntity
  8
OBJECT
100
AcDbLine
 10
39.90000000100002
 20
120.9
 30
0.0
 11
39.9000000005
 21
129.1
 31
0.0
  0
LINE
  5
490
330
18
100
AcDbEntity
  8
OBJECT
100
AcDbLine
 10
38.40000000000001
 20
120.8999999998
 30
0.0
 11
38.40000000000001
 21
122.59999999965
 31
0.0
  0
LINE
  5
491
330
18
100
AcDbEntity
  8
OBJECT
100
AcDbLine
 10
38.40000000000001
 20
127.4000000003501
 30
0.0
 11
38.40000000000001
 21
129.1000000001
 31
0.0
  0
LINE
  5
492
330
18
100
AcDbEntity
  8
OBJECT
100
AcDbLine
 10
39.40000000000001
 20
124.1999999994334
 30
0.0
 11
38.79999999999998
 21
124.2000000000001
 31
0.0
  0
LINE
  5
493
330
18
100
AcDbEntity
  8
OBJECT
100
AcDbLine
 10
38.79999999999998
 20
124.2000000000001
 30
0.0
 11
38.79999999999998
 21
125.8000000000001
 31
0.0
  0
LINE
  5
494
330
18
100
AcDbEntity
  8
OBJECT
100
AcDbLine
 10
38.79999999999998
 20
125.8000000000001
 30
0.0
 11
39.40000000000001
 21
125.8000000003167
 31
0.0
  0
LINE
  5
495
330
18
100
AcDbEntity
  8
OBJECT
100
AcDbLine
 10
45.15000000000001
 20
125.3000000000001
 30
0.0
 11
45.0
 21
125.3000000000322
 31
0.0
  0
LINE
  5
496
330
18
100
AcDbEntity
  8
OBJECT
100
AcDbLine
 10
45.15000000000001
 20
125.3000000000001
 30
0.0
 11
45.15000000000001
 21
124.7000000000001
 31
0.0
  0
LINE
  5
497
330
18
100
AcDbEntity
  8
OBJECT
100
AcDbLine
 10
45.0
 20
124.6999999999679
 30
0.0
 11
45.15000000000001
 21
124.7000000000001
 31
0.0
  0
LINE
  5
498
330
18
100
AcDbEntity
  8
OBJECT
100
AcDbLine
 10
42.39555225107941
 20
121.9875000021052
 30
0.0
 11
42.39555225107941
 21
121.5000000021051
 31
0.0
  0
LINE
  5
499
330
18
100
AcDbEntity
  8
OBJECT
100
AcDbLine
 10
42.39555225107941
 20
123.4500000021052
 30
0.0
 11
41.16918663213326
 21
123.4500000021052
 31
0.0
  0
LINE
  5
49A
330
18
100
AcDbEntity
  8
OBJECT
100
AcDbLine
 10
42.96918663213322
 20
121.9875000021052
 30
0.0
 11
42.39555225107941
 21
121.9875000021052
 31
0.0
  0
LINE
  5
49B
330
18
100
AcDbEntity
  8
OBJECT
100
AcDbLine
 10
42.96918663213322
 20
122.9625000021051
 30
0.0
 11
42.39555225107941
 21
122.9625000021051
 31
0.0
  0
LINE
  5
49C
330
18
100
AcDbEntity
  8
OBJECT
100
AcDbLine
 10
42.96918663213322
 20
122.9625000021051
 30
0.0
 11
42.96918663213322
 21
121.9875000021052
 31
0.0
  0
LINE
  5
49D
330
18
100
AcDbEntity
  8
OBJECT
100
AcDbLine
 10
42.96918663213322
 20
121.9875000021052
 30
0.0
 11
42.96918663213322
 21
122.9625000021051
 31
0.0
  0
LINE
  5
49E
330
18
100
AcDbEntity
  8
OBJECT
100
AcDbLine
 10
42.39555225107941
 20
122.9625000021051
 30
0.0
 11
42.39555225107941
 21
123.4500000021052
 31
0.0
  0
LINE
  5
49F
330
18
100
AcDbEntity
  8
OBJECT
100
AcDbLine
 10
41.16918663213326
 20
121.5000000021051
 30
0.0
 11
42.39555225107941
 21
121.5000000021051
 31
0.0
  0
LINE
  5
4A0
330
18
100
AcDbEntity
  8
OBJECT
100
AcDbLine
 10
41.16918663213326
 20
123.4500000021052
 30
0.0
 11
41.16918663213326
 21
121.5000000021051
 31
0.0
  0
LINE
  5
4A1
330
18
100
AcDbEntity
  8
OBJECT
100
AcDbLine
 10
41.16918663213326
 20
124.0000000021051
 30
0.0
 11
42.39555225107941
 21
124.0000000021051
 31
0.0
  0
LINE
  5
4A2
330
18
100
AcDbEntity
  8
OBJECT
100
AcDbLine
 10
42.39555225107941
 20
124.4875000021052
 30
0.0
 11
42.39555225107941
 21
124.0000000021051
 31
0.0
  0
LINE
  5
4A3
330
18
100
AcDbEntity
  8
OBJECT
100
AcDbLine
 10
42.96918663213322
 20
124.4875000021052
 30
0.0
 11
42.39555225107941
 21
124.4875000021052
 31
0.0
  0
LINE
  5
4A4
330
18
100
AcDbEntity
  8
OBJECT
100
AcDbLine
 10
42.96918663213322
 20
124.4875000021052
 30
0.0
 11
42.96918663213322
 21
125.4625000021051
 31
0.0
  0
LINE
  5
4A5
330
18
100
AcDbEntity
  8
OBJECT
100
AcDbLine
 10
42.96918663213322
 20
125.4625000021051
 30
0.0
 11
42.96918663213322
 21
124.4875000021052
 31
0.0
  0
LINE
  5
4AA
330
18
100
AcDbEntity
  8
OBJECT
100
AcDbLine
 10
41.86918663213541
 20
124.6500000000001
 30
0.0
 11
41.56918663213541
 21
124.6500000000001
 31
0.0
  0
LINE
  5
4AB
330
18
100
AcDbEntity
  8
OBJECT
100
AcDbLine
 10
41.16918663213326
 20
125.9500000021052
 30
0.0
 11
41.16918663213326
 21
124.0000000021051
 31
0.0
  0
LINE
  5
4AC
330
18
100
AcDbEntity
  8
OBJECT
100
AcDbLine
 10
42.39555225107941
 20
125.9500000021052
 30
0.0
 11
41.16918663213326
 21
125.9500000021052
 31
0.0
  0
LINE
  5
4AD
330
18
100
AcDbEntity
  8
OBJECT
100
AcDbLine
 10
42.96918663213322
 20
125.4625000021051
 30
0.0
 11
42.39555225107941
 21
125.4625000021051
 31
0.0
  0
LINE
  5
4AE
330
18
100
AcDbEntity
  8
OBJECT
100
AcDbLine
 10
42.39555225107941
 20
125.4625000021051
 30
0.0
 11
42.39555225107941
 21
125.9500000021052
 31
0.0
  0
LINE
  5
4AF
330
18
100
AcDbEntity
  8
OBJECT
100
AcDbLine
 10
42.96918663213322
 20
127.9625000021051
 30
0.0
 11
42.96918663213322
 21
126.9875000021052
 31
0.0
  0
LINE
  5
4B0
330
18
100
AcDbEntity
  8
OBJECT
100
AcDbLine
 10
42.96918663213322
 20
126.9875000021052
 30
0.0
 11
42.96918663213322
 21
127.9625000021051
 31
0.0
  0
LINE
  5
4B1
330
18
100
AcDbEntity
  8
OBJECT
100
AcDbLine
 10
41.16918663213326
 20
128.4500000021052
 30
0.0
 11
41.16918663213326
 21
126.5000000021051
 31
0.0
  0
LINE
  5
4B2
330
18
100
AcDbEntity
  8
OBJECT
100
AcDbLine
 10
41.16918663213326
 20
126.5000000021051
 30
0.0
 11
42.39555225107941
 21
126.5000000021051
 31
0.0
  0
LINE
  5
4B3
330
18
100
AcDbEntity
  8
OBJECT
100
AcDbLine
 10
42.96918663213322
 20
126.9875000021052
 30
0.0
 11
42.39555225107941
 21
126.9875000021052
 31
0.0
  0
LINE
  5
4B4
330
18
100
AcDbEntity
  8
OBJECT
100
AcDbLine
 10
42.39555225107941
 20
126.9875000021052
 30
0.0
 11
42.39555225107941
 21
126.5000000021051
 31
0.0
  0
LINE
  5
4B5
330
18
100
AcDbEntity
  8
OBJECT
100
AcDbLine
 10
42.39555225107941
 20
127.9625000021051
 30
0.0
 11
42.39555225107941
 21
128.4500000021052
 31
0.0
  0
LINE
  5
4B6
330
18
100
AcDbEntity
  8
OBJECT
100
AcDbLine
 10
42.39555225107941
 20
128.4500000021052
 30
0.0
 11
41.16918663213326
 21
128.4500000021052
 31
0.0
  0
LINE
  5
4B7
330
18
100
AcDbEntity
  8
OBJECT
100
AcDbLine
 10
42.96918663213322
 20
127.9625000021051
 30
0.0
 11
42.39555225107941
 21
127.9625000021051
 31
0.0
  0
MTEXT
  5
4B8
330
18
100
AcDbEntity
  8
DIMS
100
AcDbMText
 10
38.08100894117647
 20
114.1836678597021
 30
0.0
 40
2.0
 41
18.52306547619048
 46
6.666666666666667
 71
     1
 72
     1
  1
{XARR-03VF\P（JST）}
  7
Bom
 73
     1
 44
1.0
1001
ACAD
1000
ACAD_MTEXT_DEFINED_HEIGHT_BEGIN
1070
    46
1040
6.666666666666667
1000
ACAD_MTEXT_DEFINED_HEIGHT_END
  0
DIMENSION
  5
4B9
102
{ACAD_REACTORS
330
4BB
102
}
102
{ACAD_XDICTIONARY
360
4BA
102
}
330
18
100
AcDbEntity
  8
DIMS
100
AcDbDimension
  2
*D13
 10
29.75
 20
130.0000000000001
 30
0.0
 11
29.75
 21
125.0809562352942
 31
0.0
 70
   160
 71
     5
 42
10.00000000000011
 73
     0
 74
     1
 75
     1
  3
STANDARD
100
AcDbAlignedDimension
 13
38.40000000000001
 23
120.0
 33
0.0
 14
38.40000000000001
 24
130.0000000000001
 34
0.0
 50
-90.00000000000001
100
AcDbRotatedDimension
1001
ENABLE_CUSTOM_SPLIT
1070
     1
  0
DIMENSION
  5
4BD
102
{ACAD_XDICTIONARY
360
4BE
102
}
330
18
100
AcDbEntity
  8
DIMS
100
AcDbDimension
  2
*D14
 10
38.40000000000001
 20
152.6500000000001
 30
0.0
 11
41.91662984861625
 21
152.6500000000001
 31
0.0
 70
   160
 71
     5
 42
6.599999999999994
 73
     0
 74
     1
 75
     1
 52
-270.0
  3
STANDARD
100
AcDbAlignedDimension
 13
45.0
 23
130.0000000000001
 33
0.0
 14
38.40000000000001
 24
130.0000000000001
 34
0.0
 50
180.0
100
AcDbRotatedDimension
1001
ENABLE_CUSTOM_SPLIT
1070
     1
  0
DIMENSION
  5
4E0
102
{ACAD_REACTORS
330
4E2
102
}
102
{ACAD_XDICTIONARY
360
4E1
102
}
330
18
100
AcDbEntity
  8
DIMS
100
AcDbDimension
  2
*D15
 10
80.0
 20
152.6500000000001
 30
0.0
 11
69.19999999999999
 21
154.5500000000001
 31
0.0
 70
    32
 71
     5
 42
21.60000000000002
 73
     0
 74
     0
 75
     0
  3
STANDARD
100
AcDbAlignedDimension
 13
58.39999999999998
 23
130.0
 33
0.0
 14
80.0
 24
129.3
 34
0.0
100
AcDbRotatedDimension
1001
ENABLE_CUSTOM_SPLIT
1070
     1
  0
CIRCLE
  5
557
330
18
100
AcDbEntity
  8
OBJECT
100
AcDbCircle
 10
249.8333333333324
 20
129.3779487179503
 30
0.0
 40
0.5
  0
CIRCLE
  5
558
330
18
100
AcDbEntity
  8
OBJECT
100
AcDbCircle
 10
249.8333333333324
 20
129.3779487179503
 30
0.0
 40
0.7
  0
LINE
  5
559
330
18
100
AcDbEntity
  8
OBJECT
100
AcDbLine
 10
246.9999999999989
 20
134.0000000000011
 30
0.0
 11
246.9999999999989
 21
116.0000000000011
 31
0.0
  0
LINE
  5
55A
330
18
100
AcDbEntity
  8
OBJECT
100
AcDbLine
 10
255.9999999999989
 20
134.0000000000016
 30
0.0
 11
255.9999999999989
 21
116.0000000000016
 31
0.0
  0
LINE
  5
55B
102
{ACAD_REACTORS
102
}
330
18
100
AcDbEntity
  8
OBJECT
100
AcDbLine
 10
243.9999999999994
 20
138.2500000000008
 30
0.0
 11
243.9999999999994
 21
111.7500000000008
 31
0.0
  0
LINE
  5
55C
330
18
100
AcDbEntity
  8
OBJECT
100
AcDbLine
 10
258.9999999999986
 20
138.2500000000014
 30
0.0
 11
258.9999999999986
 21
111.7500000000014
 31
0.0
  0
LINE
  5
55D
330
18
100
AcDbEntity
  8
OBJECT
100
AcDbLine
 10
247.6320623513939
 20
130.7511809938889
 30
0.0
 11
247.6320623513939
 21
119.2488190061144
 31
0.0
  0
LINE
  5
55E
330
18
100
AcDbEntity
  8
OBJECT
100
AcDbLine
 10
248.4320623513941
 20
130.7511809938889
 30
0.0
 11
248.432062351394
 21
119.2488190061144
 31
0.0
  0
LINE
  5
55F
330
18
100
AcDbEntity
  8
OBJECT
100
AcDbLine
 10
255.452062351394
 20
131.6300000000016
 30
0.0
 11
255.452062351394
 21
118.3700000000016
 31
0.0
  0
LINE
  5
560
330
18
100
AcDbEntity
  8
OBJECT
100
AcDbLine
 10
254.6520623513939
 20
131.6300000000016
 30
0.0
 11
254.6520623513939
 21
118.3700000000016
 31
0.0
  0
ARC
  5
561
330
18
100
AcDbEntity
  8
OBJECT
100
AcDbCircle
 10
246.9999999999995
 20
138.2500000000009
 30
0.0
 40
3.0
100
AcDbArc
 50
90.0
 51
180.0
  0
CIRCLE
  5
562
330
18
100
AcDbEntity
  8
Hidden
 48
0.2
100
AcDbCircle
 10
251.4999999999989
 20
137.4950000000017
 30
0.0
 40
1.225
  0
CIRCLE
  5
563
330
18
100
AcDbEntity
  8
OBJECT
100
AcDbCircle
 10
251.4999999999989
 20
137.4950000000017
 30
0.0
 40
1.525
  0
LWPOLYLINE
  5
564
330
18
100
AcDbEntity
  8
OBJECT
100
AcDbPolyline
 90
        6
 70
     0
 43
0.0
 10
257.799999999999
 20
134.0000000000016
 10
257.799999999999
 20
138.9000000000016
 42
0.414213562373095
 10
256.299999999999
 20
140.4000000000016
 10
246.6999999999991
 20
140.4000000000016
 42
0.414213562373095
 10
245.1999999999991
 20
138.9000000000016
 10
245.1999999999991
 20
134.0000000000011
  0
LINE
  5
565
330
18
100
AcDbEntity
  8
OBJECT
100
AcDbLine
 10
251.9999999999989
 20
142.2500000000014
 30
0.0
 11
251.4999999999989
 21
142.2500000000014
 31
0.0
  0
ARC
  5
566
330
18
100
AcDbEntity
  8
OBJECT
100
AcDbCircle
 10
258.4999999999986
 20
137.8000000000019
 30
0.0
 40
0.5
100
AcDbArc
 50
0.0
 51
90.0
  0
LINE
  5
567
330
18
100
AcDbEntity
  8
OBJECT
100
AcDbLine
 10
257.7453166964728
 20
138.3000000000019
 30
0.0
 11
258.4999999999986
 21
138.3000000000018
 31
0.0
  0
LINE
  5
568
330
18
100
AcDbEntity
  8
OBJECT
100
AcDbLine
 10
251.9999999999989
 20
142.2500000000014
 30
0.0
 11
251.9999999999989
 21
141.2500000000014
 31
0.0
  0
LINE
  5
569
330
18
100
AcDbEntity
  8
OBJECT
100
AcDbLine
 10
251.9999999999989
 20
141.2500000000014
 30
0.0
 11
255.9999999999986
 21
141.2500000000014
 31
0.0
  0
ARC
  5
56A
330
18
100
AcDbEntity
  8
OBJECT
100
AcDbCircle
 10
255.9999999999986
 20
138.2500000000015
 30
0.0
 40
3.0
100
AcDbArc
 50
0.0
 51
90.0
  0
LINE
  5
56B
330
18
100
AcDbEntity
  8
OBJECT
100
AcDbLine
 10
245.1453166964728
 20
138.300000000001
 30
0.0
 11
244.4999999999994
 21
138.3000000000009
 31
0.0
  0
ARC
  5
56C
330
18
100
AcDbEntity
  8
OBJECT
100
AcDbCircle
 10
244.4999999999994
 20
137.800000000001
 30
0.0
 40
0.5
100
AcDbArc
 50
90.0
 51
180.0
  0
POINT
  5
56D
330
18
100
AcDbEntity
  8
Center
100
AcDbPoint
 10
251.4999999999989
 20
137.4950000000016
 30
0.0
 50
180.0
  0
LINE
  5
56E
330
18
100
AcDbEntity
  8
OBJECT
100
AcDbLine
 10
251.4999999999989
 20
142.2500000000014
 30
0.0
 11
251.4999999999989
 21
141.2500000000014
 31
0.0
  0
LINE
  5
56F
330
18
100
AcDbEntity
  8
OBJECT
100
AcDbLine
 10
250.9999999999989
 20
142.2500000000008
 30
0.0
 11
250.9999999999989
 21
141.2500000000008
 31
0.0
  0
LINE
  5
570
330
18
100
AcDbEntity
  8
OBJECT
100
AcDbLine
 10
251.4999999999989
 20
142.2500000000008
 30
0.0
 11
251.4999999999989
 21
141.2500000000008
 31
0.0
  0
LINE
  5
571
330
18
100
AcDbEntity
  8
OBJECT
100
AcDbLine
 10
250.9999999999989
 20
142.2500000000008
 30
0.0
 11
251.4999999999989
 21
142.2500000000008
 31
0.0
  0
LINE
  5
572
330
18
100
AcDbEntity
  8
OBJECT
100
AcDbLine
 10
251.4999999999989
 20
141.2500000000008
 30
0.0
 11
251.4999999999989
 21
140.4000000000014
 31
0.0
  0
LINE
  5
573
330
18
100
AcDbEntity
  8
OBJECT
100
AcDbLine
 10
250.9999999999989
 20
141.2500000000008
 30
0.0
 11
246.9999999999995
 21
141.2500000000008
 31
0.0
  0
LINE
  5
575
330
18
100
AcDbEntity
  8
OBJECT
100
AcDbLine
 10
253.8265029799957
 20
132.3186471115572
 30
0.0
 11
249.0065029799957
 21
131.4398281054447
 31
0.0
  0
LINE
  5
576
330
18
100
AcDbEntity
  8
OBJECT
100
AcDbLine
 10
253.6830065555405
 20
133.1056723819067
 30
0.0
 11
248.8630065555405
 21
132.2268533757942
 31
0.0
  0
ARC
  5
578
330
18
100
AcDbEntity
  8
OBJECT
100
AcDbCircle
 10
253.9520623513941
 20
131.6300000000016
 30
0.0
 40
0.7
100
AcDbArc
 50
0.0
 51
100.3330971471904
  0
CIRCLE
  5
579
330
18
100
AcDbEntity
  8
OBJECT
100
AcDbCircle
 10
253.1666666666659
 20
130.5548053193624
 30
0.0
 40
0.5
  0
CIRCLE
  5
57A
330
18
100
AcDbEntity
  8
OBJECT
100
AcDbCircle
 10
253.1666666666659
 20
130.5548053193624
 30
0.0
 40
0.7
  0
ARC
  5
57B
330
18
100
AcDbEntity
  8
OBJECT
100
AcDbCircle
 10
253.9520623513941
 20
131.6300000000016
 30
0.0
 40
1.5
100
AcDbArc
 50
0.0
 51
100.3330971471865
  0
LINE
  5
57C
330
18
100
AcDbEntity
  8
OBJECT
100
AcDbLine
 10
258.9999999999986
 20
134.0000000000016
 30
0.0
 11
255.9999999999989
 21
134.0000000000016
 31
0.0
  0
LINE
  5
57D
330
18
100
AcDbEntity
  8
OBJECT
100
AcDbLine
 10
243.9999999999994
 20
134.0000000000011
 30
0.0
 11
246.9999999999989
 21
134.0000000000011
 31
0.0
  0
ARC
  5
57E
330
18
100
AcDbEntity
  8
OBJECT
100
AcDbCircle
 10
249.1320623513939
 20
130.7511809938889
 30
0.0
 40
0.7
100
AcDbArc
 50
100.3330971471904
 51
180.0
  0
ARC
  5
580
330
18
100
AcDbEntity
  8
OBJECT
100
AcDbCircle
 10
249.1320623513939
 20
130.7511809938889
 30
0.0
 40
1.5
100
AcDbArc
 50
100.3330971471865
 51
180.0
  0
ARC
  5
581
330
18
100
AcDbEntity
  8
OBJECT
100
AcDbCircle
 10
246.9999999999995
 20
111.7500000000009
 30
0.0
 40
3.0
100
AcDbArc
 50
180.0
 51
270.0
  0
LWPOLYLINE
  5
582
330
18
100
AcDbEntity
  8
OBJECT
100
AcDbPolyline
 90
        6
 70
     0
 43
0.0
 10
245.1999999999991
 20
116.0000000000011
 10
245.1999999999991
 20
111.1000000000018
 42
0.414213562373095
 10
246.6999999999991
 20
109.6000000000018
 10
256.299999999999
 20
109.6000000000016
 42
0.414213562373095
 10
257.799999999999
 20
111.1000000000016
 10
257.799999999999
 20
116.0000000000016
  0
CIRCLE
  5
583
330
18
100
AcDbEntity
  8
OBJECT
100
AcDbCircle
 10
253.1666666666659
 20
122.3074297215301
 30
0.0
 40
0.5
  0
CIRCLE
  5
584
330
18
100
AcDbEntity
  8
OBJECT
100
AcDbCircle
 10
253.1666666666659
 20
122.3074297215301
 30
0.0
 40
0.7
  0
CIRCLE
  5
585
330
18
100
AcDbEntity
  8
OBJECT
100
AcDbCircle
 10
253.1666666666659
 20
125.0000000000016
 30
0.0
 40
0.5
  0
CIRCLE
  5
586
330
18
100
AcDbEntity
  8
OBJECT
100
AcDbCircle
 10
253.1666666666659
 20
125.0000000000016
 30
0.0
 40
0.7
  0
CIRCLE
  5
587
330
18
100
AcDbEntity
  8
OBJECT
100
AcDbCircle
 10
253.1666666666659
 20
127.805680120085
 30
0.0
 40
0.5
  0
CIRCLE
  5
588
330
18
100
AcDbEntity
  8
OBJECT
100
AcDbCircle
 10
253.1666666666659
 20
127.805680120085
 30
0.0
 40
0.7
  0
CIRCLE
  5
589
330
18
100
AcDbEntity
  8
OBJECT
100
AcDbCircle
 10
249.8333333333324
 20
123.6784615384632
 30
0.0
 40
0.5
  0
CIRCLE
  5
58A
330
18
100
AcDbEntity
  8
OBJECT
100
AcDbCircle
 10
249.8333333333324
 20
123.6784615384632
 30
0.0
 40
0.7
  0
POINT
  5
58B
330
18
100
AcDbEntity
  8
OBJECT
100
AcDbPoint
 10
251.4999999999989
 20
125.0000000000016
 30
0.0
 50
180.0
  0
POINT
  5
58C
330
18
100
AcDbEntity
  8
OBJECT
100
AcDbPoint
 10
251.4999999999989
 20
125.0000000000016
 30
0.0
 50
180.0
  0
POINT
  5
58D
330
18
100
AcDbEntity
  8
OBJECT
100
AcDbPoint
 10
251.4999999999989
 20
125.0000000000016
 30
0.0
 50
180.0
  0
CIRCLE
  5
58E
330
18
100
AcDbEntity
  8
OBJECT
100
AcDbCircle
 10
249.8333333333324
 20
126.5282051282067
 30
0.0
 40
0.5
  0
CIRCLE
  5
58F
330
18
100
AcDbEntity
  8
OBJECT
100
AcDbCircle
 10
249.8333333333324
 20
126.5282051282067
 30
0.0
 40
0.7
  0
LINE
  5
591
330
18
100
AcDbEntity
  8
OBJECT
100
AcDbLine
 10
253.6830065555405
 20
116.8943276180966
 30
0.0
 11
248.8630065555405
 21
117.7731466242091
 31
0.0
  0
LINE
  5
592
330
18
100
AcDbEntity
  8
OBJECT
100
AcDbLine
 10
253.8265029799957
 20
117.681352888446
 30
0.0
 11
249.0065029799957
 21
118.5601718945585
 31
0.0
  0
ARC
  5
593
330
18
100
AcDbEntity
  8
OBJECT
100
AcDbCircle
 10
253.9520623513941
 20
118.3700000000016
 30
0.0
 40
0.7
100
AcDbArc
 50
259.6669028528096
 51
0.0
  0
ARC
  5
594
330
18
100
AcDbEntity
  8
OBJECT
100
AcDbCircle
 10
253.9520623513941
 20
118.3700000000016
 30
0.0
 40
1.5
100
AcDbArc
 50
259.6669028528135
 51
0.0
  0
CIRCLE
  5
595
330
18
100
AcDbEntity
  8
OBJECT
100
AcDbCircle
 10
253.1666666666659
 20
119.5583045222526
 30
0.0
 40
0.7
  0
CIRCLE
  5
596
330
18
100
AcDbEntity
  8
OBJECT
100
AcDbCircle
 10
253.1666666666659
 20
119.5583045222526
 30
0.0
 40
0.5
  0
LINE
  5
597
102
{ACAD_REACTORS
102
}
330
18
100
AcDbEntity
  8
OBJECT
100
AcDbLine
 10
258.9999999999986
 20
116.0000000000016
 30
0.0
 11
255.9999999999989
 21
116.0000000000016
 31
0.0
  0
LINE
  5
598
330
18
100
AcDbEntity
  8
OBJECT
100
AcDbLine
 10
243.9999999999994
 20
116.0000000000011
 30
0.0
 11
246.9999999999989
 21
116.0000000000011
 31
0.0
  0
ARC
  5
599
330
18
100
AcDbEntity
  8
OBJECT
100
AcDbCircle
 10
249.1320623513939
 20
119.2488190061144
 30
0.0
 40
0.7
100
AcDbArc
 50
180.0
 51
259.6669028528096
  0
CIRCLE
  5
59A
330
18
100
AcDbEntity
  8
OBJECT
100
AcDbCircle
 10
249.8333333333324
 20
120.8287179487196
 30
0.0
 40
0.7
  0
CIRCLE
  5
59B
330
18
100
AcDbEntity
  8
OBJECT
100
AcDbCircle
 10
249.8333333333324
 20
120.8287179487196
 30
0.0
 40
0.5
  0
ARC
  5
59C
330
18
100
AcDbEntity
  8
OBJECT
100
AcDbCircle
 10
249.1320623513939
 20
119.2488190061144
 30
0.0
 40
1.5
100
AcDbArc
 50
180.0
 51
259.6669028528135
  0
ARC
  5
59D
330
18
100
AcDbEntity
  8
OBJECT
100
AcDbCircle
 10
255.9999999999986
 20
111.7500000000015
 30
0.0
 40
3.0
100
AcDbArc
 50
270.0
 51
0.0
  0
CIRCLE
  5
59E
330
18
100
AcDbEntity
  8
Hidden
 48
0.2
100
AcDbCircle
 10
251.4999999999989
 20
112.5050000000018
 30
0.0
 40
1.225
  0
CIRCLE
  5
59F
330
18
100
AcDbEntity
  8
OBJECT
100
AcDbCircle
 10
251.4999999999989
 20
112.5050000000018
 30
0.0
 40
1.525
  0
LINE
  5
5A0
330
18
100
AcDbEntity
  8
OBJECT
100
AcDbLine
 10
251.4999999999989
 20
108.7500000000013
 30
0.0
 11
255.9999999999986
 21
108.7500000000014
 31
0.0
  0
ARC
  5
5A1
330
18
100
AcDbEntity
  8
OBJECT
100
AcDbCircle
 10
258.4999999999986
 20
112.2000000000015
 30
0.0
 40
0.5
100
AcDbArc
 50
270.0
 51
0.0
  0
LINE
  5
5A2
330
18
100
AcDbEntity
  8
OBJECT
100
AcDbLine
 10
257.7453166964728
 20
111.7000000000015
 30
0.0
 11
258.4999999999986
 21
111.7000000000014
 31
0.0
  0
ARC
  5
5A3
330
18
100
AcDbEntity
  8
OBJECT
100
AcDbCircle
 10
244.4999999999994
 20
112.200000000001
 30
0.0
 40
0.5
100
AcDbArc
 50
180.0
 51
270.0
  0
LINE
  5
5A4
330
18
100
AcDbEntity
  8
OBJECT
100
AcDbLine
 10
245.1453166964728
 20
111.7000000000009
 30
0.0
 11
244.4999999999994
 21
111.7000000000009
 31
0.0
  0
POINT
  5
5A5
330
18
100
AcDbEntity
  8
Center
100
AcDbPoint
 10
251.4999999999989
 20
112.5050000000016
 30
0.0
 50
180.0
  0
LINE
  5
5A6
330
18
100
AcDbEntity
  8
OBJECT
100
AcDbLine
 10
251.4999999999989
 20
108.7500000000013
 30
0.0
 11
251.5026867041097
 21
109.6000000000015
 31
0.0
  0
LINE
  5
5A7
330
18
100
AcDbEntity
  8
OBJECT
100
AcDbLine
 10
251.4999999999989
 20
108.7500000000007
 30
0.0
 11
246.9999999999995
 21
108.7500000000008
 31
0.0
  0
DIMENSION
  5
5AA
102
{ACAD_REACTORS
330
5AC
102
}
102
{ACAD_XDICTIONARY
360
5AB
102
}
330
18
100
AcDbEntity
  8
DIMS
100
AcDbDimension
  2
*D16
 10
219.0000000000002
 20
152.6081468297162
 30
0.0
 11
202.0000000000002
 21
154.5081468297162
 31
0.0
 70
    32
 71
     5
 42
34.0
 73
     0
 74
     0
 75
     0
  3
STANDARD
100
AcDbAlignedDimension
 13
185.0000000000002
 23
133.2804564314914
 33
0.0
 14
219.0000000000002
 24
134.0
 34
0.0
100
AcDbRotatedDimension
1001
ENABLE_CUSTOM_SPLIT
1070
     1
  0
DIMENSION
  5
5BA
102
{ACAD_XDICTIONARY
360
5BB
102
}
330
18
100
AcDbEntity
  8
DIMS
100
AcDbDimension
  2
*D17
 10
268.7688665336652
 20
141.2500000000008
 30
0.0
 11
268.7688665336652
 21
124.0829176470596
 31
0.0
 70
   160
 71
     5
 42
32.50000000000003
 73
     0
 74
     0
 75
     0
  3
STANDARD
100
AcDbAlignedDimension
 13
255.8688665336652
 23
108.7500000000008
 33
0.0
 14
255.8688665336652
 24
141.2500000000008
 34
0.0
 50
-90.00000000000001
100
AcDbRotatedDimension
1001
ENABLE_CUSTOM_SPLIT
1070
     1
  0
DIMENSION
  5
5CA
102
{ACAD_XDICTIONARY
360
5CB
102
}
330
18
100
AcDbEntity
  8
DIMS
100
AcDbDimension
  2
*D18
 10
258.9999999999986
 20
153.1571905882365
 30
0.0
 11
251.1398870588226
 21
153.1571905882365
 31
0.0
 70
   160
 71
     5
 42
14.99999999999909
 73
     0
 74
     0
 75
     0
 52
-270.0
  3
STANDARD
100
AcDbAlignedDimension
 13
243.9999999999995
 23
137.7571905882362
 33
0.0
 14
258.9999999999986
 24
137.7571905882367
 34
0.0
 50
180.0
100
AcDbRotatedDimension
1001
ENABLE_CUSTOM_SPLIT
1070
     1
  0
TEXT
  5
6A8
330
18
100
AcDbEntity
  8
DIMS
100
AcDbText
 10
237.2522032941176
 20
100.6763836235294
 30
0.0
 40
2.5
  1
D-sub　メス
 41
0.85
  7
Bom
100
AcDbText
  0
MTEXT
  5
6C5
330
18
100
AcDbEntity
  8
DIMS
100
AcDbMText
 10
193.8634752245593
 20
103.343891466143
 30
0.0
 40
2.0
 41
18.52306547619048
 46
5.333333333333334
 71
     1
 72
     1
  1
{MHDPPK09-BK\P（MH）}
  7
Bom
 73
     1
 44
1.0
1001
ACAD
1000
ACAD_MTEXT_DEFINED_HEIGHT_BEGIN
1070
    46
1040
5.333333333333334
1000
ACAD_MTEXT_DEFINED_HEIGHT_END
  0
DIMENSION
  5
6CE
102
{ACAD_REACTORS
330
6D0
102
}
102
{ACAD_XDICTIONARY
360
6CF
102
}
330
18
100
AcDbEntity
  8
DIMS
100
AcDbDimension
  2
*D19
 10
132.2008987573725
 20
122.9500000000001
 30
0.0
 11
132.2008987573725
 21
136.0351934523811
 31
0.0
 70
   160
  1
Φ<>
 71
     5
 42
4.099999999999994
 73
     0
 74
     0
 75
     0
  3
STANDARD
100
AcDbAlignedDimension
 13
140.25
 23
127.0500000000001
 33
0.0
 14
140.25
 24
122.9500000000001
 34
0.0
 50
90.0
100
AcDbRotatedDimension
1001
ENABLE_CUSTOM_SPLIT
1070
     1
  0
ARC
  5
72B
330
18
100
AcDbEntity
  8
OBJECT
100
AcDbCircle
 10
41.86918663213326
 20
122.75
 30
0.0
 40
0.1
100
AcDbArc
 50
0.0
 51
90.0
  0
ARC
  5
72C
330
18
100
AcDbEntity
  8
OBJECT
100
AcDbCircle
 10
41.56918663213326
 20
122.75
 30
0.0
 40
0.1
100
AcDbArc
 50
90.0
 51
180.0
  0
ARC
  5
72D
330
18
100
AcDbEntity
  8
OBJECT
100
AcDbCircle
 10
41.86918663213326
 20
122.2500000000001
 30
0.0
 40
0.1
100
AcDbArc
 50
270.0
 51
0.0
  0
ARC
  5
72E
330
18
100
AcDbEntity
  8
OBJECT
100
AcDbCircle
 10
41.56918663213326
 20
122.2500000000001
 30
0.0
 40
0.1
100
AcDbArc
 50
180.0
 51
270.0
  0
ARC
  5
74E
330
18
100
AcDbEntity
  8
OBJECT
100
AcDbCircle
 10
41.56918663213541
 20
125.25
 30
0.0
 40
0.1
100
AcDbArc
 50
90.0
 51
180.0
  0
ARC
  5
74F
330
18
100
AcDbEntity
  8
OBJECT
100
AcDbCircle
 10
41.86918663213541
 20
125.25
 30
0.0
 40
0.1
100
AcDbArc
 50
0.0
 51
90.0
  0
ARC
  5
750
330
18
100
AcDbEntity
  8
OBJECT
100
AcDbCircle
 10
41.86918663213541
 20
124.7500000000001
 30
0.0
 40
0.1
100
AcDbArc
 50
270.0
 51
0.0
  0
ARC
  5
751
330
18
100
AcDbEntity
  8
OBJECT
100
AcDbCircle
 10
41.56918663213541
 20
124.7500000000001
 30
0.0
 40
0.1
100
AcDbArc
 50
180.0
 51
270.0
  0
ARC
  5
771
330
18
100
AcDbEntity
  8
OBJECT
100
AcDbCircle
 10
41.5691866321355
 20
127.75
 30
0.0
 40
0.1
100
AcDbArc
 50
90.0
 51
180.0
  0
ARC
  5
772
330
18
100
AcDbEntity
  8
OBJECT
100
AcDbCircle
 10
41.8691866321355
 20
127.75
 30
0.0
 40
0.1
100
AcDbArc
 50
0.0
 51
90.0
  0
ARC
  5
773
330
18
100
AcDbEntity
  8
OBJECT
100
AcDbCircle
 10
41.8691866321355
 20
127.2500000000001
 30
0.0
 40
0.1
100
AcDbArc
 50
270.0
 51
0.0
  0
ARC
  5
774
330
18
100
AcDbEntity
  8
OBJECT
100
AcDbCircle
 10
41.5691866321355
 20
127.2500000000001
 30
0.0
 40
0.1
100
AcDbArc
 50
180.0
 51
270.0
  0
ENDSEC
  0
SECTION
  2
OBJECTS
  0
DICTIONARY
  5
A
330
0
100
AcDbDictionary
281
     1
  3
ACAD_COLOR
350
2D
  3
ACAD_DETAILVIEWSTYLE
350
104
  3
ACAD_GROUP
350
2B
  3
ACAD_LAYOUT
350
1C
  3
ACAD_MATERIAL
350
C
  3
ACAD_MLEADERSTYLE
350
102
  3
ACAD_MLINESTYLE
350
27
  3
ACAD_PLOTSETTINGS
350
2C
  3
ACAD_PLOTSTYLENAME
350
9
  3
ACAD_SCALELIST
350
33
  3
ACAD_SECTIONVIEWSTYLE
350
105
  3
ACAD_TABLESTYLE
350
101
  3
ACAD_VISUALSTYLE
350
2E
  3
ACDB_RECOMPOSE_DATA
350
781
  3
AcDbVariableDictionary
350
FF
  3
APPDATA
350
11F
  0
SUN
  5
31
330
2F
100
AcDbSun
 90
        1
290
     0
 63
     7
421
 16777215
 40
1.0
291
     1
 91
  2455826
 92
 54000000
292
     0
 70
     2
 71
   256
280
     1
  0
DICTIONARY
  5
3
330
2
100
AcDbDictionary
280
     1
281
     1
  3
ACAD_LAYERSTATES
360
4
  3
ACLYDICTIONARY
360
5
  0
DICTIONARY
  5
FD
330
18
100
AcDbDictionary
280
     1
281
     1
  3
DIM_BOUNDING_BOXES_V1
360
FE
  0
DICTIONARY
  5
354
330
353
100
AcDbDictionary
280
     1
281
     1
  3
ACAD_DIMASSOC
360
355
  0
DICTIONARY
  5
4BA
330
4B9
100
AcDbDictionary
280
     1
281
     1
  3
ACAD_CUSTOM_BREAKDATA
360
6C8
  3
ACAD_DIMASSOC
360
4BB
  0
DICTIONARY
  5
4BE
330
4BD
100
AcDbDictionary
280
     1
281
     1
  3
ACAD_CUSTOM_BREAKDATA
360
4DF
  0
DICTIONARY
  5
4E1
330
4E0
100
AcDbDictionary
280
     1
281
     1
  3
ACAD_CUSTOM_BREAKDATA
360
4EF
  3
ACAD_DIMASSOC
360
4E2
  0
DICTIONARY
  5
5AB
330
5AA
100
AcDbDictionary
280
     1
281
     1
  3
ACAD_CUSTOM_BREAKDATA
360
5B9
  3
ACAD_DIMASSOC
360
5AC
  0
DICTIONARY
  5
5BB
330
5BA
100
AcDbDictionary
280
     1
281
     1
  3
ACAD_CUSTOM_BREAKDATA
360
5C9
  0
DICTIONARY
  5
5CB
330
5CA
100
AcDbDictionary
280
     1
281
     1
  3
ACAD_CUSTOM_BREAKDATA
360
5D9
  0
DICTIONARY
  5
6CF
330
6CE
100
AcDbDictionary
280
     1
281
     1
  3
ACAD_CUSTOM_BREAKDATA
360
6DF
  3
ACAD_DIMASSOC
360
6D0
  0
DICTIONARY
  5
2D
102
{ACAD_REACTORS
330
A
102
}
330
A
100
AcDbDictionary
281
     1
  0
DICTIONARY
  5
104
102
{ACAD_REACTORS
330
A
102
}
330
A
100
AcDbDictionary
281
     1
  0
DICTIONARY
  5
2B
102
{ACAD_REACTORS
330
A
102
}
330
A
100
AcDbDictionary
281
     1
  0
DICTIONARY
  5
1C
102
{ACAD_REACTORS
330
A
102
}
330
A
100
AcDbDictionary
281
     1
  3
Model
350
1B
  3
ﾚｲｱｳﾄ1
350
20
  0
DICTIONARY
  5
C
102
{ACAD_REACTORS
330
A
102
}
330
A
100
AcDbDictionary
281
     1
  3
ByBlock
350
57
  3
ByLayer
350
56
  3
Global
350
B
  0
DICTIONARY
  5
102
102
{ACAD_REACTORS
330
A
102
}
330
A
100
AcDbDictionary
281
     1
  3
Standard
350
11E
  0
DICTIONARY
  5
27
102
{ACAD_REACTORS
330
A
102
}
330
A
100
AcDbDictionary
281
     1
  3
STANDARD
350
26
  0
DICTIONARY
  5
2C
102
{ACAD_REACTORS
330
A
102
}
330
A
100
AcDbDictionary
281
     1
  0
ACDBDICTIONARYWDFLT
  5
9
102
{ACAD_REACTORS
330
A
102
}
330
A
100
AcDbDictionary
281
     1
  3
Normal
350
8
100
AcDbDictionaryWithDefault
340
8
  0
DICTIONARY
  5
33
102
{ACAD_REACTORS
330
A
102
}
330
A
100
AcDbDictionary
281
     1
  3
*A1
350
55
  0
DICTIONARY
  5
105
102
{ACAD_REACTORS
330
A
102
}
330
A
100
AcDbDictionary
281
     1
  0
DICTIONARY
  5
101
102
{ACAD_REACTORS
330
A
102
}
330
A
100
AcDbDictionary
281
     1
  3
Standard
350
11D
  3
部品表
350
162
  0
DICTIONARY
  5
2E
102
{ACAD_REACTORS
330
A
102
}
330
A
100
AcDbDictionary
281
     1
  3
2dWireframe
350
30
  3
Basic
350
10C
  3
Brighten
350
110
  3
ColorChange
350
114
  3
Conceptual
350
10E
  3
Dim
350
10F
  3
EdgeColorOff
350
117
  3
Facepattern
350
113
  3
Flat
350
106
  3
FlatWithEdges
350
107
  3
Gouraud
350
108
  3
GouraudWithEdges
350
109
  3
Hidden
350
10B
  3
JitterOff
350
115
  3
Linepattern
350
112
  3
OverhangOff
350
116
  3
Realistic
350
10D
  3
Shaded
350
11C
  3
Shaded with edges
350
11B
  3
Shades of Gray
350
118
  3
Sketchy
350
119
  3
Thicken
350
111
  3
Wireframe
350
10A
  3
X-Ray
350
11A
  0
XRECORD
  5
781
102
{ACAD_REACTORS
330
A
102
}
330
A
100
AcDbXrecord
280
     1
 90
        1
330
11D
330
162
  0
DICTIONARY
  5
FF
102
{ACAD_REACTORS
330
A
102
}
330
A
100
AcDbDictionary
281
     1
  3
CANNOSCALE
350
100
  3
CMLEADERSTYLE
350
14E
  3
CTABLESTYLE
350
14D
  3
XCLIPFRAME
350
103
  0
DICTIONARY
  5
11F
102
{ACAD_REACTORS
330
A
102
}
330
A
100
AcDbDictionary
281
     1
  0
DICTIONARY
  5
4
102
{ACAD_REACTORS
330
3
102
}
330
3
100
AcDbDictionary
281
     1
  0
DICTIONARY
  5
5
102
{ACAD_REACTORS
330
3
102
}
330
3
100
AcDbDictionary
281
     1
1001
ACAD
1000
<All
  0
DICTIONARY
  5
FE
102
{ACAD_REACTORS
330
FD
102
}
330
FD
100
AcDbDictionary
281
     1
  0
DIMASSOC
  5
355
102
{ACAD_REACTORS
330
354
102
}
330
354
100
AcDbDimAssoc
330
353
 90
        0
 70
     0
 71
     1
  0
BREAKDATA
  5
6C8
102
{ACAD_REACTORS
330
4BA
102
}
330
4BA
100
AcDbBreakData
 70
     0
330
4B9
 90
       16
100
AcDbBreakPointRef
 71
     0
 72
     0
 91
       -1
 10
0.0
 20
0.0
 30
0.0
 11
0.0
 21
0.0
 31
0.0
331
43C
 73
     2
 92
        0
100
AcDbBreakPointRef
 71
     0
 72
     0
 91
       -1
 10
0.0
 20
0.0
 30
0.0
 11
0.0
 21
0.0
 31
0.0
331
43D
 73
     2
 92
        0
100
AcDbBreakPointRef
 71
     0
 72
     0
 91
       -1
 10
0.0
 20
0.0
 30
0.0
 11
0.0
 21
0.0
 31
0.0
331
43F
 73
     2
 92
        0
100
AcDbBreakPointRef
 71
     0
 72
     0
 91
       -1
 10
0.0
 20
0.0
 30
0.0
 11
0.0
 21
0.0
 31
0.0
331
442
 73
     2
 92
        0
100
AcDbBreakPointRef
 71
     0
 72
     0
 91
       -1
 10
0.0
 20
0.0
 30
0.0
 11
0.0
 21
0.0
 31
0.0
331
443
 73
     2
 92
        0
100
AcDbBreakPointRef
 71
     0
 72
     0
 91
       -1
 10
0.0
 20
0.0
 30
0.0
 11
0.0
 21
0.0
 31
0.0
331
446
 73
     2
 92
        0
100
AcDbBreakPointRef
 71
     0
 72
     0
 91
       -1
 10
0.0
 20
0.0
 30
0.0
 11
0.0
 21
0.0
 31
0.0
331
48C
 73
     2
 92
        0
100
AcDbBreakPointRef
 71
     0
 72
     0
 91
       -1
 10
0.0
 20
0.0
 30
0.0
 11
0.0
 21
0.0
 31
0.0
331
48D
 73
     2
 92
        0
100
AcDbBreakPointRef
 71
     0
 72
     0
 91
       -1
 10
0.0
 20
0.0
 30
0.0
 11
0.0
 21
0.0
 31
0.0
331
48E
 73
     2
 92
        0
100
AcDbBreakPointRef
 71
     0
 72
     0
 91
       -1
 10
0.0
 20
0.0
 30
0.0
 11
0.0
 21
0.0
 31
0.0
331
490
 73
     2
 92
        0
100
AcDbBreakPointRef
 71
     0
 72
     0
 91
       -1
 10
0.0
 20
0.0
 30
0.0
 11
0.0
 21
0.0
 31
0.0
331
491
 73
     2
 92
        0
100
AcDbBreakPointRef
 71
     0
 72
     0
 91
       -1
 10
0.0
 20
0.0
 30
0.0
 11
0.0
 21
0.0
 31
0.0
331
492
 73
     2
 92
        0
100
AcDbBreakPointRef
 71
     0
 72
     0
 91
       -1
 10
0.0
 20
0.0
 30
0.0
 11
0.0
 21
0.0
 31
0.0
331
493
 73
     2
 92
        0
100
AcDbBreakPointRef
 71
     0
 72
     0
 91
       -1
 10
0.0
 20
0.0
 30
0.0
 11
0.0
 21
0.0
 31
0.0
331
494
 73
     2
 92
        0
100
AcDbBreakPointRef
 71
     0
 72
     0
 91
       -1
 10
0.0
 20
0.0
 30
0.0
 11
0.0
 21
0.0
 31
0.0
331
4B8
 73
     2
 92
        0
100
AcDbBreakPointRef
 71
     0
 72
     0
 91
       -1
 10
0.0
 20
0.0
 30
0.0
 11
0.0
 21
0.0
 31
0.0
331
4BD
 73
     2
 92
        0
  0
DIMASSOC
  5
4BB
102
{ACAD_REACTORS
330
4BA
102
}
330
4BA
100
AcDbDimAssoc
330
4B9
 90
        3
 70
     0
 71
     1
  1
AcDbOsnapPointRef
 72
     1
331
43C
 73
     0
 91
        0
 40
0.0
 10
0.0
 20
0.0
 30
0.0
 75
     0
  1
AcDbOsnapPointRef
 72
    13
331
446
 73
     0
 91
        0
 40
0.0
 10
0.0
 20
0.0
 30
0.0
 75
     0
  0
BREAKDATA
  5
4DF
102
{ACAD_REACTORS
330
4BE
102
}
330
4BE
100
AcDbBreakData
 70
     0
330
4BD
 90
       27
100
AcDbBreakPointRef
 71
     0
 72
     0
 91
       -1
 10
0.0
 20
0.0
 30
0.0
 11
0.0
 21
0.0
 31
0.0
331
442
 73
     2
 92
        0
100
AcDbBreakPointRef
 71
     0
 72
     0
 91
       -1
 10
0.0
 20
0.0
 30
0.0
 11
0.0
 21
0.0
 31
0.0
331
443
 73
     2
 92
        0
100
AcDbBreakPointRef
 71
     0
 72
     0
 91
       -1
 10
0.0
 20
0.0
 30
0.0
 11
0.0
 21
0.0
 31
0.0
331
444
 73
     2
 92
        0
100
AcDbBreakPointRef
 71
     0
 72
     0
 91
       -1
 10
0.0
 20
0.0
 30
0.0
 11
0.0
 21
0.0
 31
0.0
331
446
 73
     2
 92
        0
100
AcDbBreakPointRef
 71
     0
 72
     0
 91
       -1
 10
0.0
 20
0.0
 30
0.0
 11
0.0
 21
0.0
 31
0.0
331
447
 73
     2
 92
        0
100
AcDbBreakPointRef
 71
     0
 72
     0
 91
       -1
 10
0.0
 20
0.0
 30
0.0
 11
0.0
 21
0.0
 31
0.0
331
0
 73
     2
 92
        0
100
AcDbBreakPointRef
 71
     0
 72
     0
 91
       -1
 10
0.0
 20
0.0
 30
0.0
 11
0.0
 21
0.0
 31
0.0
331
44E
 73
     2
 92
        0
100
AcDbBreakPointRef
 71
     0
 72
     0
 91
       -1
 10
0.0
 20
0.0
 30
0.0
 11
0.0
 21
0.0
 31
0.0
331
0
 73
     2
 92
        0
100
AcDbBreakPointRef
 71
     0
 72
     0
 91
       -1
 10
0.0
 20
0.0
 30
0.0
 11
0.0
 21
0.0
 31
0.0
331
45C
 73
     2
 92
        0
100
AcDbBreakPointRef
 71
     0
 72
     0
 91
       -1
 10
0.0
 20
0.0
 30
0.0
 11
0.0
 21
0.0
 31
0.0
331
0
 73
     2
 92
        0
100
AcDbBreakPointRef
 71
     0
 72
     0
 91
       -1
 10
0.0
 20
0.0
 30
0.0
 11
0.0
 21
0.0
 31
0.0
331
0
 73
     2
 92
        0
100
AcDbBreakPointRef
 71
     0
 72
     0
 91
       -1
 10
0.0
 20
0.0
 30
0.0
 11
0.0
 21
0.0
 31
0.0
331
0
 73
     2
 92
        0
100
AcDbBreakPointRef
 71
     0
 72
     0
 91
       -1
 10
0.0
 20
0.0
 30
0.0
 11
0.0
 21
0.0
 31
0.0
331
0
 73
     2
 92
        0
100
AcDbBreakPointRef
 71
     0
 72
     0
 91
       -1
 10
0.0
 20
0.0
 30
0.0
 11
0.0
 21
0.0
 31
0.0
331
46D
 73
     2
 92
        0
100
AcDbBreakPointRef
 71
     0
 72
     0
 91
       -1
 10
0.0
 20
0.0
 30
0.0
 11
0.0
 21
0.0
 31
0.0
331
0
 73
     2
 92
        0
100
AcDbBreakPointRef
 71
     0
 72
     0
 91
       -1
 10
0.0
 20
0.0
 30
0.0
 11
0.0
 21
0.0
 31
0.0
331
0
 73
     2
 92
        0
100
AcDbBreakPointRef
 71
     0
 72
     0
 91
       -1
 10
0.0
 20
0.0
 30
0.0
 11
0.0
 21
0.0
 31
0.0
331
0
 73
     2
 92
        0
100
AcDbBreakPointRef
 71
     0
 72
     0
 91
       -1
 10
0.0
 20
0.0
 30
0.0
 11
0.0
 21
0.0
 31
0.0
331
48F
 73
     2
 92
        0
100
AcDbBreakPointRef
 71
     0
 72
     0
 91
       -1
 10
0.0
 20
0.0
 30
0.0
 11
0.0
 21
0.0
 31
0.0
331
491
 73
     2
 92
        0
100
AcDbBreakPointRef
 71
     0
 72
     0
 91
       -1
 10
0.0
 20
0.0
 30
0.0
 11
0.0
 21
0.0
 31
0.0
331
4AF
 73
     2
 92
        0
100
AcDbBreakPointRef
 71
     0
 72
     0
 91
       -1
 10
0.0
 20
0.0
 30
0.0
 11
0.0
 21
0.0
 31
0.0
331
4B0
 73
     2
 92
        0
100
AcDbBreakPointRef
 71
     0
 72
     0
 91
       -1
 10
0.0
 20
0.0
 30
0.0
 11
0.0
 21
0.0
 31
0.0
331
4B1
 73
     2
 92
        0
100
AcDbBreakPointRef
 71
     0
 72
     0
 91
       -1
 10
0.0
 20
0.0
 30
0.0
 11
0.0
 21
0.0
 31
0.0
331
4B5
 73
     2
 92
        0
100
AcDbBreakPointRef
 71
     0
 72
     0
 91
       -1
 10
0.0
 20
0.0
 30
0.0
 11
0.0
 21
0.0
 31
0.0
331
4B6
 73
     2
 92
        0
100
AcDbBreakPointRef
 71
     0
 72
     0
 91
       -1
 10
0.0
 20
0.0
 30
0.0
 11
0.0
 21
0.0
 31
0.0
331
4B7
 73
     2
 92
        0
100
AcDbBreakPointRef
 71
     0
 72
     0
 91
       -1
 10
0.0
 20
0.0
 30
0.0
 11
0.0
 21
0.0
 31
0.0
331
4B9
 73
     2
 92
        0
100
AcDbBreakPointRef
 71
     0
 72
     0
 91
       -1
 10
0.0
 20
0.0
 30
0.0
 11
0.0
 21
0.0
 31
0.0
331
0
 73
     2
 92
        0
  0
BREAKDATA
  5
4EF
102
{ACAD_REACTORS
330
4E1
102
}
330
4E1
100
AcDbBreakData
 70
     0
330
4E0
 90
        3
100
AcDbBreakPointRef
 71
     0
 72
     0
 91
       -1
 10
0.0
 20
0.0
 30
0.0
 11
0.0
 21
0.0
 31
0.0
331
352
 73
     2
 92
        0
100
AcDbBreakPointRef
 71
     0
 72
     0
 91
       -1
 10
0.0
 20
0.0
 30
0.0
 11
0.0
 21
0.0
 31
0.0
331
353
 73
     2
 92
        0
100
AcDbBreakPointRef
 71
     0
 72
     0
 91
       -1
 10
0.0
 20
0.0
 30
0.0
 11
0.0
 21
0.0
 31
0.0
331
0
 73
     2
 92
        0
  0
DIMASSOC
  5
4E2
102
{ACAD_REACTORS
330
4E1
102
}
330
4E1
100
AcDbDimAssoc
330
4E0
 90
        2
 70
     0
 71
     1
  1
AcDbOsnapPointRef
 72
    13
331
352
331
E6
 73
     0
 91
        0
 40
0.0
 10
0.0
 20
0.0
 30
0.0
 75
     0
  0
BREAKDATA
  5
5B9
102
{ACAD_REACTORS
330
5AB
102
}
330
5AB
100
AcDbBreakData
 70
     0
330
5AA
 90
       45
100
AcDbBreakPointRef
 71
     0
 72
     0
 91
       -1
 10
0.0
 20
0.0
 30
0.0
 11
0.0
 21
0.0
 31
0.0
331
31B
 73
     2
 92
        0
100
AcDbBreakPointRef
 71
     0
 72
     0
 91
       -1
 10
0.0
 20
0.0
 30
0.0
 11
0.0
 21
0.0
 31
0.0
331
31C
 73
     2
 92
        0
100
AcDbBreakPointRef
 71
     0
 72
     0
 91
       -1
 10
0.0
 20
0.0
 30
0.0
 11
0.0
 21
0.0
 31
0.0
331
31D
 73
     2
 92
        0
100
AcDbBreakPointRef
 71
     0
 72
     0
 91
       -1
 10
0.0
 20
0.0
 30
0.0
 11
0.0
 21
0.0
 31
0.0
331
31E
 73
     2
 92
        0
100
AcDbBreakPointRef
 71
     0
 72
     0
 91
       -1
 10
0.0
 20
0.0
 30
0.0
 11
0.0
 21
0.0
 31
0.0
331
31F
 73
     2
 92
        0
100
AcDbBreakPointRef
 71
     0
 72
     0
 91
       -1
 10
0.0
 20
0.0
 30
0.0
 11
0.0
 21
0.0
 31
0.0
331
320
 73
     2
 92
        0
100
AcDbBreakPointRef
 71
     0
 72
     0
 91
       -1
 10
0.0
 20
0.0
 30
0.0
 11
0.0
 21
0.0
 31
0.0
331
321
 73
     2
 92
        0
100
AcDbBreakPointRef
 71
     0
 72
     0
 91
       -1
 10
0.0
 20
0.0
 30
0.0
 11
0.0
 21
0.0
 31
0.0
331
322
 73
     2
 92
        0
100
AcDbBreakPointRef
 71
     0
 72
     0
 91
       -1
 10
0.0
 20
0.0
 30
0.0
 11
0.0
 21
0.0
 31
0.0
331
323
 73
     2
 92
        0
100
AcDbBreakPointRef
 71
     0
 72
     0
 91
       -1
 10
0.0
 20
0.0
 30
0.0
 11
0.0
 21
0.0
 31
0.0
331
324
 73
     2
 92
        0
100
AcDbBreakPointRef
 71
     0
 72
     0
 91
       -1
 10
0.0
 20
0.0
 30
0.0
 11
0.0
 21
0.0
 31
0.0
331
32C
 73
     2
 92
        0
100
AcDbBreakPointRef
 71
     0
 72
     0
 91
       -1
 10
0.0
 20
0.0
 30
0.0
 11
0.0
 21
0.0
 31
0.0
331
32D
 73
     2
 92
        0
100
AcDbBreakPointRef
 71
     0
 72
     0
 91
       -1
 10
0.0
 20
0.0
 30
0.0
 11
0.0
 21
0.0
 31
0.0
331
32E
 73
     2
 92
        0
100
AcDbBreakPointRef
 71
     0
 72
     0
 91
       -1
 10
0.0
 20
0.0
 30
0.0
 11
0.0
 21
0.0
 31
0.0
331
32F
 73
     2
 92
        0
100
AcDbBreakPointRef
 71
     0
 72
     0
 91
       -1
 10
0.0
 20
0.0
 30
0.0
 11
0.0
 21
0.0
 31
0.0
331
330
 73
     2
 92
        0
100
AcDbBreakPointRef
 71
     0
 72
     0
 91
       -1
 10
0.0
 20
0.0
 30
0.0
 11
0.0
 21
0.0
 31
0.0
331
331
 73
     2
 92
        0
100
AcDbBreakPointRef
 71
     0
 72
     0
 91
       -1
 10
0.0
 20
0.0
 30
0.0
 11
0.0
 21
0.0
 31
0.0
331
332
 73
     2
 92
        0
100
AcDbBreakPointRef
 71
     0
 72
     0
 91
       -1
 10
0.0
 20
0.0
 30
0.0
 11
0.0
 21
0.0
 31
0.0
331
333
 73
     2
 92
        0
100
AcDbBreakPointRef
 71
     0
 72
     0
 91
       -1
 10
0.0
 20
0.0
 30
0.0
 11
0.0
 21
0.0
 31
0.0
331
334
 73
     2
 92
        0
100
AcDbBreakPointRef
 71
     0
 72
     0
 91
       -1
 10
0.0
 20
0.0
 30
0.0
 11
0.0
 21
0.0
 31
0.0
331
335
 73
     2
 92
        0
100
AcDbBreakPointRef
 71
     0
 72
     0
 91
       -1
 10
0.0
 20
0.0
 30
0.0
 11
0.0
 21
0.0
 31
0.0
331
336
 73
     2
 92
        0
100
AcDbBreakPointRef
 71
     0
 72
     0
 91
       -1
 10
0.0
 20
0.0
 30
0.0
 11
0.0
 21
0.0
 31
0.0
331
337
 73
     2
 92
        0
100
AcDbBreakPointRef
 71
     0
 72
     0
 91
       -1
 10
0.0
 20
0.0
 30
0.0
 11
0.0
 21
0.0
 31
0.0
331
338
 73
     2
 92
        0
100
AcDbBreakPointRef
 71
     0
 72
     0
 91
       -1
 10
0.0
 20
0.0
 30
0.0
 11
0.0
 21
0.0
 31
0.0
331
339
 73
     2
 92
        0
100
AcDbBreakPointRef
 71
     0
 72
     0
 91
       -1
 10
0.0
 20
0.0
 30
0.0
 11
0.0
 21
0.0
 31
0.0
331
33A
 73
     2
 92
        0
100
AcDbBreakPointRef
 71
     0
 72
     0
 91
       -1
 10
0.0
 20
0.0
 30
0.0
 11
0.0
 21
0.0
 31
0.0
331
33B
 73
     2
 92
        0
100
AcDbBreakPointRef
 71
     0
 72
     0
 91
       -1
 10
0.0
 20
0.0
 30
0.0
 11
0.0
 21
0.0
 31
0.0
331
33C
 73
     2
 92
        0
100
AcDbBreakPointRef
 71
     0
 72
     0
 91
       -1
 10
0.0
 20
0.0
 30
0.0
 11
0.0
 21
0.0
 31
0.0
331
33D
 73
     2
 92
        0
100
AcDbBreakPointRef
 71
     0
 72
     0
 91
       -1
 10
0.0
 20
0.0
 30
0.0
 11
0.0
 21
0.0
 31
0.0
331
33E
 73
     2
 92
        0
100
AcDbBreakPointRef
 71
     0
 72
     0
 91
       -1
 10
0.0
 20
0.0
 30
0.0
 11
0.0
 21
0.0
 31
0.0
331
33F
 73
     2
 92
        0
100
AcDbBreakPointRef
 71
     0
 72
     0
 91
       -1
 10
0.0
 20
0.0
 30
0.0
 11
0.0
 21
0.0
 31
0.0
331
340
 73
     2
 92
        0
100
AcDbBreakPointRef
 71
     0
 72
     0
 91
       -1
 10
0.0
 20
0.0
 30
0.0
 11
0.0
 21
0.0
 31
0.0
331
341
 73
     2
 92
        0
100
AcDbBreakPointRef
 71
     0
 72
     0
 91
       -1
 10
0.0
 20
0.0
 30
0.0
 11
0.0
 21
0.0
 31
0.0
331
342
 73
     2
 92
        0
100
AcDbBreakPointRef
 71
     0
 72
     0
 91
       -1
 10
0.0
 20
0.0
 30
0.0
 11
0.0
 21
0.0
 31
0.0
331
343
 73
     2
 92
        0
100
AcDbBreakPointRef
 71
     0
 72
     0
 91
       -1
 10
0.0
 20
0.0
 30
0.0
 11
0.0
 21
0.0
 31
0.0
331
344
 73
     2
 92
        0
100
AcDbBreakPointRef
 71
     0
 72
     0
 91
       -1
 10
0.0
 20
0.0
 30
0.0
 11
0.0
 21
0.0
 31
0.0
331
345
 73
     2
 92
        0
100
AcDbBreakPointRef
 71
     0
 72
     0
 91
       -1
 10
0.0
 20
0.0
 30
0.0
 11
0.0
 21
0.0
 31
0.0
331
346
 73
     2
 92
        0
100
AcDbBreakPointRef
 71
     0
 72
     0
 91
       -1
 10
0.0
 20
0.0
 30
0.0
 11
0.0
 21
0.0
 31
0.0
331
347
 73
     2
 92
        0
100
AcDbBreakPointRef
 71
     0
 72
     0
 91
       -1
 10
0.0
 20
0.0
 30
0.0
 11
0.0
 21
0.0
 31
0.0
331
348
 73
     2
 92
        0
100
AcDbBreakPointRef
 71
     0
 72
     0
 91
       -1
 10
0.0
 20
0.0
 30
0.0
 11
0.0
 21
0.0
 31
0.0
331
349
 73
     2
 92
        0
100
AcDbBreakPointRef
 71
     0
 72
     0
 91
       -1
 10
0.0
 20
0.0
 30
0.0
 11
0.0
 21
0.0
 31
0.0
331
34A
 73
     2
 92
        0
100
AcDbBreakPointRef
 71
     0
 72
     0
 91
       -1
 10
0.0
 20
0.0
 30
0.0
 11
0.0
 21
0.0
 31
0.0
331
34D
 73
     2
 92
        0
100
AcDbBreakPointRef
 71
     0
 72
     0
 91
       -1
 10
0.0
 20
0.0
 30
0.0
 11
0.0
 21
0.0
 31
0.0
331
34F
 73
     2
 92
        0
100
AcDbBreakPointRef
 71
     0
 72
     0
 91
       -1
 10
0.0
 20
0.0
 30
0.0
 11
0.0
 21
0.0
 31
0.0
331
350
 73
     2
 92
        0
100
AcDbBreakPointRef
 71
     0
 72
     0
 91
       -1
 10
0.0
 20
0.0
 30
0.0
 11
0.0
 21
0.0
 31
0.0
331
353
 73
     2
 92
        0
  0
DIMASSOC
  5
5AC
102
{ACAD_REACTORS
330
5AB
102
}
330
5AB
100
AcDbDimAssoc
330
5AA
 90
        2
 70
     0
 71
     1
  1
AcDbOsnapPointRef
 72
     1
331
323
 73
     0
 91
        0
 40
0.0
 10
0.0
 20
0.0
 30
0.0
 75
     0
  0
BREAKDATA
  5
5C9
102
{ACAD_REACTORS
330
5BB
102
}
330
5BB
100
AcDbBreakData
 70
     0
330
5BA
 90
       17
100
AcDbBreakPointRef
 71
     0
 72
     0
 91
       -1
 10
0.0
 20
0.0
 30
0.0
 11
0.0
 21
0.0
 31
0.0
331
559
 73
     2
 92
        0
100
AcDbBreakPointRef
 71
     0
 72
     0
 91
       -1
 10
0.0
 20
0.0
 30
0.0
 11
0.0
 21
0.0
 31
0.0
331
55B
 73
     2
 92
        0
100
AcDbBreakPointRef
 71
     0
 72
     0
 91
       -1
 10
0.0
 20
0.0
 30
0.0
 11
0.0
 21
0.0
 31
0.0
331
55D
 73
     2
 92
        0
100
AcDbBreakPointRef
 71
     0
 72
     0
 91
       -1
 10
0.0
 20
0.0
 30
0.0
 11
0.0
 21
0.0
 31
0.0
331
561
 73
     2
 92
        0
100
AcDbBreakPointRef
 71
     0
 72
     0
 91
       -1
 10
0.0
 20
0.0
 30
0.0
 11
0.0
 21
0.0
 31
0.0
331
564
 73
     2
 92
        0
100
AcDbBreakPointRef
 71
     0
 72
     0
 91
       -1
 10
0.0
 20
0.0
 30
0.0
 11
0.0
 21
0.0
 31
0.0
331
56B
 73
     2
 92
        0
100
AcDbBreakPointRef
 71
     0
 72
     0
 91
       -1
 10
0.0
 20
0.0
 30
0.0
 11
0.0
 21
0.0
 31
0.0
331
56C
 73
     2
 92
        0
100
AcDbBreakPointRef
 71
     0
 72
     0
 91
       -1
 10
0.0
 20
0.0
 30
0.0
 11
0.0
 21
0.0
 31
0.0
331
573
 73
     2
 92
        0
100
AcDbBreakPointRef
 71
     0
 72
     0
 91
       -1
 10
0.0
 20
0.0
 30
0.0
 11
0.0
 21
0.0
 31
0.0
331
57D
 73
     2
 92
        0
100
AcDbBreakPointRef
 71
     0
 72
     0
 91
       -1
 10
0.0
 20
0.0
 30
0.0
 11
0.0
 21
0.0
 31
0.0
331
580
 73
     2
 92
        0
100
AcDbBreakPointRef
 71
     0
 72
     0
 91
       -1
 10
0.0
 20
0.0
 30
0.0
 11
0.0
 21
0.0
 31
0.0
331
581
 73
     2
 92
        0
100
AcDbBreakPointRef
 71
     0
 72
     0
 91
       -1
 10
0.0
 20
0.0
 30
0.0
 11
0.0
 21
0.0
 31
0.0
331
582
 73
     2
 92
        0
100
AcDbBreakPointRef
 71
     0
 72
     0
 91
       -1
 10
0.0
 20
0.0
 30
0.0
 11
0.0
 21
0.0
 31
0.0
331
598
 73
     2
 92
        0
100
AcDbBreakPointRef
 71
     0
 72
     0
 91
       -1
 10
0.0
 20
0.0
 30
0.0
 11
0.0
 21
0.0
 31
0.0
331
59C
 73
     2
 92
        0
100
AcDbBreakPointRef
 71
     0
 72
     0
 91
       -1
 10
0.0
 20
0.0
 30
0.0
 11
0.0
 21
0.0
 31
0.0
331
5A3
 73
     2
 92
        0
100
AcDbBreakPointRef
 71
     0
 72
     0
 91
       -1
 10
0.0
 20
0.0
 30
0.0
 11
0.0
 21
0.0
 31
0.0
331
5A4
 73
     2
 92
        0
100
AcDbBreakPointRef
 71
     0
 72
     0
 91
       -1
 10
0.0
 20
0.0
 30
0.0
 11
0.0
 21
0.0
 31
0.0
331
5A7
 73
     2
 92
        0
  0
BREAKDATA
  5
5D9
102
{ACAD_REACTORS
330
5CB
102
}
330
5CB
100
AcDbBreakData
 70
     0
330
5CA
 90
       15
100
AcDbBreakPointRef
 71
     0
 72
     0
 91
       -1
 10
0.0
 20
0.0
 30
0.0
 11
0.0
 21
0.0
 31
0.0
331
55B
 73
     2
 92
        0
100
AcDbBreakPointRef
 71
     0
 72
     0
 91
       -1
 10
0.0
 20
0.0
 30
0.0
 11
0.0
 21
0.0
 31
0.0
331
55C
 73
     2
 92
        0
100
AcDbBreakPointRef
 71
     0
 72
     0
 91
       -1
 10
0.0
 20
0.0
 30
0.0
 11
0.0
 21
0.0
 31
0.0
331
581
 73
     2
 92
        0
100
AcDbBreakPointRef
 71
     0
 72
     0
 91
       -1
 10
0.0
 20
0.0
 30
0.0
 11
0.0
 21
0.0
 31
0.0
331
582
 73
     2
 92
        0
100
AcDbBreakPointRef
 71
     0
 72
     0
 91
       -1
 10
0.0
 20
0.0
 30
0.0
 11
0.0
 21
0.0
 31
0.0
331
59D
 73
     2
 92
        0
100
AcDbBreakPointRef
 71
     0
 72
     0
 91
       -1
 10
0.0
 20
0.0
 30
0.0
 11
0.0
 21
0.0
 31
0.0
331
59E
 73
     2
 92
        0
100
AcDbBreakPointRef
 71
     0
 72
     0
 91
       -1
 10
0.0
 20
0.0
 30
0.0
 11
0.0
 21
0.0
 31
0.0
331
59F
 73
     2
 92
        0
100
AcDbBreakPointRef
 71
     0
 72
     0
 91
       -1
 10
0.0
 20
0.0
 30
0.0
 11
0.0
 21
0.0
 31
0.0
331
5A0
 73
     2
 92
        0
100
AcDbBreakPointRef
 71
     0
 72
     0
 91
       -1
 10
0.0
 20
0.0
 30
0.0
 11
0.0
 21
0.0
 31
0.0
331
5A1
 73
     2
 92
        0
100
AcDbBreakPointRef
 71
     0
 72
     0
 91
       -1
 10
0.0
 20
0.0
 30
0.0
 11
0.0
 21
0.0
 31
0.0
331
5A2
 73
     2
 92
        0
100
AcDbBreakPointRef
 71
     0
 72
     0
 91
       -1
 10
0.0
 20
0.0
 30
0.0
 11
0.0
 21
0.0
 31
0.0
331
5A3
 73
     2
 92
        0
100
AcDbBreakPointRef
 71
     0
 72
     0
 91
       -1
 10
0.0
 20
0.0
 30
0.0
 11
0.0
 21
0.0
 31
0.0
331
5A4
 73
     2
 92
        0
100
AcDbBreakPointRef
 71
     0
 72
     0
 91
       -1
 10
0.0
 20
0.0
 30
0.0
 11
0.0
 21
0.0
 31
0.0
331
5A6
 73
     2
 92
        0
100
AcDbBreakPointRef
 71
     0
 72
     0
 91
       -1
 10
0.0
 20
0.0
 30
0.0
 11
0.0
 21
0.0
 31
0.0
331
5A7
 73
     2
 92
        0
100
AcDbBreakPointRef
 71
     0
 72
     0
 91
       -1
 10
0.0
 20
0.0
 30
0.0
 11
0.0
 21
0.0
 31
0.0
331
5BA
 73
     2
 92
        0
  0
BREAKDATA
  5
6DF
102
{ACAD_REACTORS
330
6CF
102
}
330
6CF
100
AcDbBreakData
 70
     0
330
6CE
 90
        2
100
AcDbBreakPointRef
 71
     0
 72
     0
 91
       -1
 10
0.0
 20
0.0
 30
0.0
 11
0.0
 21
0.0
 31
0.0
331
319
 73
     2
 92
        0
100
AcDbBreakPointRef
 71
     0
 72
     0
 91
       -1
 10
0.0
 20
0.0
 30
0.0
 11
0.0
 21
0.0
 31
0.0
331
31A
 73
     2
 92
        0
  0
DIMASSOC
  5
6D0
102
{ACAD_REACTORS
330
6CF
102
}
330
6CF
100
AcDbDimAssoc
330
6CE
 90
        3
 70
     0
 71
     1
  1
AcDbOsnapPointRef
 72
     2
331
319
 73
     0
 91
        0
 40
0.5
 10
0.0
 20
0.0
 30
0.0
 75
     0
  1
AcDbOsnapPointRef
 72
     2
331
31A
 73
     0
 91
        0
 40
0.5
 10
0.0
 20
0.0
 30
0.0
 75
     0
  0
LAYOUT
  5
1B
102
{ACAD_REACTORS
330
1C
102
}
330
1C
100
AcDbPlotSettings
  1

  2
iR-ADV C2220(開発側)
  4
A3
  6

 40
5.080000000002401
 41
5.080000000002515
 42
5.080000000002399
 43
5.080000000002399
 44
297.0
 45
420.0
 46
0.0
 47
0.0
 48
5.000000000000085
 49
5.0
140
420.0
141
297.0
142
1.0
143
1.0
 70
 11920
 72
     1
 73
     1
 74
     4
  7

 75
    16
 76
     0
 77
     2
 78
   300
147
1.0
148
-163.0801948217729
149
-101.3856760235123
100
AcDbLayout
  1
Model
 70
     1
 71
     0
 10
0.0
 20
0.0
 11
12.0
 21
9.0
 12
0.0
 22
0.0
 32
0.0
 14
0.0
 24
-0.0000000000000284
 34
0.0
 15
297.0000000000001
 25
210.0
 35
0.0
146
0.0
 13
0.0
 23
0.0
 33
0.0
 16
1.0
 26
0.0
 36
0.0
 17
0.0
 27
1.0
 37
0.0
 76
     0
330
18
331
2F
  0
LAYOUT
  5
20
102
{ACAD_REACTORS
330
1C
102
}
330
1C
100
AcDbPlotSettings
  1

  2
クセロPDF2
  4

  6

 40
0.0
 41
0.0
 42
0.0
 43
0.0
 44
0.0
 45
0.0
 46
0.0
 47
0.0
 48
0.0
 49
0.0
140
0.0
141
0.0
142
1.0
143
1.0
 70
   688
 72
     0
 73
     0
 74
     5
  7
monochrome.ctb
 75
    16
 76
     0
 77
     2
 78
   300
147
1.0
148
0.0
149
0.0
100
AcDbLayout
  1
ﾚｲｱｳﾄ1
 70
     1
 71
     1
 10
-0.0110393610068442
 20
-0.0028022467055191
 11
593.9889606389931
 21
419.9971977532944
 12
0.0
 22
0.0
 32
0.0
 14
0.0
 24
0.0
 34
0.0
 15
594.0
 25
420.0
 35
0.0
146
0.0
 13
0.0
 23
0.0
 33
0.0
 16
1.0
 26
0.0
 36
0.0
 17
0.0
 27
1.0
 37
0.0
 76
     0
330
1D
  0
MATERIAL
  5
57
102
{ACAD_REACTORS
330
C
102
}
330
C
100
AcDbMaterial
  1
ByBlock
 72
     1
 94
      127
  0
MATERIAL
  5
56
102
{ACAD_REACTORS
330
C
102
}
330
C
100
AcDbMaterial
  1
ByLayer
 72
     1
 94
      127
  0
MATERIAL
  5
B
102
{ACAD_REACTORS
330
C
102
}
330
C
100
AcDbMaterial
  1
Global
 72
     1
 94
      127
  0
MLEADERSTYLE
  5
11E
102
{ACAD_REACTORS
330
102
102
}
330
102
100
AcDbMLeaderStyle
170
     2
171
     1
172
     0
 90
        2
 40
0.0
 41
0.0
173
     1
 91
-1056964608
340
F
 92
       -2
290
     1
 42
2.0
291
     1
 43
8.0
  3
Standard
341
0
 44
4.0
300

342
15
174
     1
178
     1
175
     1
176
     0
 93
-1056964608
 45
4.0
292
     0
297
     0
 46
4.0
343
0
 94
-1056964608
 47
1.0
 49
1.0
140
1.0
293
     1
141
0.0
294
     1
177
     0
142
1.0
295
     0
296
     0
143
3.75
1001
ACAD_MLEADERVER
1070
     2
  0
MLINESTYLE
  5
26
102
{ACAD_REACTORS
330
27
102
}
330
27
100
AcDbMlineStyle
  2
STANDARD
 70
     0
  3

 62
   256
 51
90.0
 52
90.0
 71
     2
 49
0.5
 62
   256
  6
BYLAYER
 49
-0.5
 62
   256
  6
BYLAYER
  0
ACDBPLACEHOLDER
  5
8
102
{ACAD_REACTORS
330
9
102
}
330
9
  0
SCALE
  5
55
102
{ACAD_REACTORS
330
33
102
}
330
33
100
AcDbScale
 70
     0
300
1:1
140
1.0
141
1.0
290
     1
  0
TABLESTYLE
  5
11D
102
{ACAD_REACTORS
330
101
102
}
102
{ACAD_XDICTIONARY
360
77D
102
}
330
101
100
AcDbTableStyle
  3
Standard
 70
     0
 71
     0
 40
0.06
 41
0.06
280
     0
281
     0
  7
STANDARD
140
4.5
170
     2
 62
     0
 63
   257
283
     0
 90
        4
 91
        0
  1

274
    -2
284
     1
 64
     0
275
    -2
285
     1
 65
     0
276
    -2
286
     1
 66
     0
277
    -2
287
     1
 67
     0
278
    -2
288
     1
 68
     0
279
    -2
289
     1
 69
     0
  7
STANDARD
140
6.0
170
     5
 62
     0
 63
   257
283
     0
 90
        4
 91
        0
  1

274
    -2
284
     1
 64
     0
275
    -2
285
     1
 65
     0
276
    -2
286
     1
 66
     0
277
    -2
287
     1
 67
     0
278
    -2
288
     1
 68
     0
279
    -2
289
     1
 69
     0
  7
STANDARD
140
4.5
170
     5
 62
     0
 63
   257
283
     0
 90
        4
 91
        0
  1

274
    -2
284
     1
 64
     0
275
    -2
285
     1
 65
     0
276
    -2
286
     1
 66
     0
277
    -2
287
     1
 67
     0
278
    -2
288
     1
 68
     0
279
    -2
289
     1
 69
     0
  0
TABLESTYLE
  5
162
102
{ACAD_REACTORS
330
101
330
356
102
}
102
{ACAD_XDICTIONARY
360
77F
102
}
330
101
100
AcDbTableStyle
  3
部品表
 70
     0
 71
     0
 40
0.06
 41
0.06
280
     0
281
     0
  7
Bom
140
2.5
170
     5
 62
   256
 63
   257
283
     0
 90
        4
 91
        0
  1

274
    -1
284
     1
 64
   256
275
    -2
285
     1
 65
   256
276
    -1
286
     1
 66
   256
277
    -1
287
     1
 67
   256
278
    -2
288
     1
 68
   256
279
    -1
289
     1
 69
   256
  7
Bom
140
2.0
170
     5
 62
   256
 63
   257
283
     0
 90
        4
 91
        0
  1

274
    -1
284
     1
 64
   256
275
    -1
285
     1
 65
   256
276
    -1
286
     1
 66
   256
277
    -1
287
     1
 67
   256
278
    -1
288
     1
 68
   256
279
    -1
289
     1
 69
   256
  7
Bom
140
2.5
170
     5
 62
   256
 63
   257
283
     0
 90
        4
 91
        0
  1

274
    -1
284
     1
 64
   256
275
    -1
285
     1
 65
   256
276
    -1
286
     1
 66
   256
277
    -1
287
     1
 67
   256
278
    -1
288
     1
 68
   256
279
    -1
289
     1
 69
   256
  0
VISUALSTYLE
  5
30
102
{ACAD_REACTORS
330
2E
102
}
330
2E
100
AcDbVisualStyle
  2
2dWireframe
 70
     4
 71
     0
 72
     2
 73
     0
 90
        0
 40
0.6
 41
30.0
 62
     5
 63
     7
421
 16777215
 74
     1
 91
        4
 64
     7
 65
   257
 75
     1
175
     1
 42
1.0
 92
        0
 66
   257
 43
1.0
 76
     1
 77
     6
 78
     2
 67
     7
 79
     5
170
     0
171
     0
290
     0
174
     0
 93
        1
 44
0.0
173
     0
291
     0
 45
0.0
  0
VISUALSTYLE
  5
10C
102
{ACAD_REACTORS
330
2E
102
}
330
2E
100
AcDbVisualStyle
  2
Basic
 70
     7
 71
     1
 72
     0
 73
     1
 90
        0
 40
0.6
 41
30.0
 62
     5
 63
     7
421
 16777215
 74
     0
 91
        4
 64
     7
 65
   257
 75
     1
175
     1
 42
1.0
 92
        8
 66
     7
 43
1.0
 76
     1
 77
     6
 78
     2
 67
     7
 79
     5
170
     0
171
     0
290
     0
174
     0
 93
        1
 44
0.0
173
     0
291
     1
 45
0.0
  0
VISUALSTYLE
  5
110
102
{ACAD_REACTORS
330
2E
102
}
330
2E
100
AcDbVisualStyle
  2
Brighten
 70
    12
 71
     2
 72
     2
 73
     0
 90
        0
 40
0.6
 41
30.0
 62
     5
 63
     7
421
 16777215
 74
     1
 91
        4
 64
     7
 65
   257
 75
     1
175
     1
 42
1.0
 92
        8
 66
     7
 43
1.0
 76
     1
 77
     6
 78
     2
 67
     7
 79
     5
170
     0
171
     0
290
     0
174
     0
 93
        1
 44
50.0
173
     0
291
     1
 45
0.0
  0
VISUALSTYLE
  5
114
102
{ACAD_REACTORS
330
2E
102
}
330
2E
100
AcDbVisualStyle
  2
ColorChange
 70
    16
 71
     2
 72
     2
 73
     3
 90
        0
 40
0.6
 41
30.0
 62
     5
 63
     8
421
  8421504
 74
     1
 91
        4
 64
     7
 65
   257
 75
     1
175
     1
 42
1.0
 92
        8
 66
     8
424
  8421504
 43
1.0
 76
     1
 77
     6
 78
     2
 67
     7
 79
     5
170
     0
171
     0
290
     0
174
     0
 93
        1
 44
0.0
173
     0
291
     1
 45
0.0
  0
VISUALSTYLE
  5
10E
102
{ACAD_REACTORS
330
2E
102
}
330
2E
100
AcDbVisualStyle
  2
Conceptual
 70
     9
 71
     3
 72
     2
 73
     0
 90
        0
 40
0.6
 41
30.0
 62
     5
 63
     7
421
 16777215
 74
     2
 91
        2
 64
     7
 65
   257
 75
     1
175
     1
 42
179.0
 92
        8
 66
     7
 43
1.0
 76
     1
 77
     6
 78
     2
 67
     7
 79
     3
170
     0
171
     0
290
     0
174
     0
 93
        1
 44
0.0
173
     0
291
     0
 45
0.0
  0
VISUALSTYLE
  5
10F
102
{ACAD_REACTORS
330
2E
102
}
330
2E
100
AcDbVisualStyle
  2
Dim
 70
    11
 71
     2
 72
     2
 73
     0
 90
        0
 40
0.6
 41
30.0
 62
     5
 63
     7
421
 16777215
 74
     1
 91
        4
 64
     7
 65
   257
 75
     1
175
     1
 42
1.0
 92
        8
 66
     7
 43
1.0
 76
     1
 77
     6
 78
     2
 67
     7
 79
     5
170
     0
171
     0
290
     0
174
     0
 93
        1
 44
-50.0
173
     0
291
     1
 45
0.0
  0
VISUALSTYLE
  5
117
102
{ACAD_REACTORS
330
2E
102
}
330
2E
100
AcDbVisualStyle
  2
EdgeColorOff
 70
    22
 71
     2
 72
     2
 73
     0
 90
        0
 40
0.6
 41
30.0
 62
     5
 63
     7
421
 16777215
 74
     1
 91
        4
 64
     7
 65
   257
 75
     1
175
     1
 42
1.0
 92
        8
 66
     7
 43
1.0
 76
     1
 77
     6
 78
     2
 67
     7
 79
     5
170
     0
171
     0
290
     0
174
     0
 93
        1
 44
0.0
173
     0
291
     1
 45
0.0
  0
VISUALSTYLE
  5
113
102
{ACAD_REACTORS
330
2E
102
}
330
2E
100
AcDbVisualStyle
  2
Facepattern
 70
    15
 71
     2
 72
     2
 73
     0
 90
        0
 40
0.6
 41
30.0
 62
     5
 63
     7
421
 16777215
 74
     1
 91
        4
 64
     7
 65
   257
 75
     1
175
     1
 42
1.0
 92
        8
 66
     7
 43
1.0
 76
     1
 77
     6
 78
     2
 67
     7
 79
     5
170
     0
171
     0
290
     0
174
     0
 93
        1
 44
0.0
173
     0
291
     1
 45
0.0
  0
VISUALSTYLE
  5
106
102
{ACAD_REACTORS
330
2E
102
}
330
2E
100
AcDbVisualStyle
  2
Flat
 70
     0
 71
     2
 72
     1
 73
     1
 90
        2
 40
0.6
 41
30.0
 62
     5
 63
     7
421
 16777215
 74
     0
 91
        0
 64
     7
 65
   257
 75
     1
175
     1
 42
1.0
 92
        8
 66
     7
 43
1.0
 76
     1
 77
     6
 78
     2
 67
     7
 79
     5
170
     0
171
     0
290
     0
174
     0
 93
       13
 44
0.0
173
     0
291
     1
 45
0.0
  0
VISUALSTYLE
  5
107
102
{ACAD_REACTORS
330
2E
102
}
330
2E
100
AcDbVisualStyle
  2
FlatWithEdges
 70
     1
 71
     2
 72
     1
 73
     1
 90
        2
 40
0.6
 41
30.0
 62
     5
 63
     7
421
 16777215
 74
     1
 91
        0
 64
     7
 65
   257
 75
     1
175
     1
 42
1.0
 92
        0
 66
   257
 43
1.0
 76
     1
 77
     6
 78
     2
 67
     7
 79
     5
170
     0
171
     0
290
     0
174
     0
 93
       13
 44
0.0
173
     0
291
     1
 45
0.0
  0
VISUALSTYLE
  5
108
102
{ACAD_REACTORS
330
2E
102
}
330
2E
100
AcDbVisualStyle
  2
Gouraud
 70
     2
 71
     2
 72
     2
 73
     1
 90
        2
 40
0.6
 41
30.0
 62
     5
 63
     7
421
 16777215
 74
     0
 91
        0
 64
     7
 65
   257
 75
     1
175
     1
 42
1.0
 92
        0
 66
     7
 43
1.0
 76
     1
 77
     6
 78
     2
 67
     7
 79
     5
170
     0
171
     0
290
     0
174
     0
 93
       13
 44
0.0
173
     0
291
     1
 45
0.0
  0
VISUALSTYLE
  5
109
102
{ACAD_REACTORS
330
2E
102
}
330
2E
100
AcDbVisualStyle
  2
GouraudWithEdges
 70
     3
 71
     2
 72
     2
 73
     1
 90
        2
 40
0.6
 41
30.0
 62
     5
 63
     7
421
 16777215
 74
     1
 91
        0
 64
     7
 65
   257
 75
     1
175
     1
 42
1.0
 92
        0
 66
   257
 43
1.0
 76
     1
 77
     6
 78
     2
 67
     7
 79
     5
170
     0
171
     0
290
     0
174
     0
 93
       13
 44
0.0
173
     0
291
     1
 45
0.0
  0
VISUALSTYLE
  5
10B
102
{ACAD_REACTORS
330
2E
102
}
330
2E
100
AcDbVisualStyle
  2
Hidden
 70
     6
 71
     1
 72
     2
 73
     2
 90
        0
 40
0.6
 41
30.0
 62
     5
 63
     7
421
 16777215
 74
     2
 91
        2
 64
     7
 65
   257
 75
     2
175
     1
 42
40.0
 92
        0
 66
   257
 43
1.0
 76
     1
 77
     6
 78
     2
 67
     7
 79
     3
170
     0
171
     0
290
     0
174
     0
 93
        1
 44
0.0
173
     0
291
     0
 45
0.0
  0
VISUALSTYLE
  5
115
102
{ACAD_REACTORS
330
2E
102
}
330
2E
100
AcDbVisualStyle
  2
JitterOff
 70
    20
 71
     2
 72
     2
 73
     0
 90
        0
 40
0.6
 41
30.0
 62
     5
 63
     7
421
 16777215
 74
     1
 91
        4
 64
     7
 65
   257
 75
     1
175
     1
 42
1.0
 92
       10
 66
     7
 43
1.0
 76
     1
 77
     6
 78
     2
 67
     7
 79
     5
170
     0
171
     0
290
     0
174
     0
 93
        1
 44
0.0
173
     0
291
     1
 45
0.0
  0
VISUALSTYLE
  5
112
102
{ACAD_REACTORS
330
2E
102
}
330
2E
100
AcDbVisualStyle
  2
Linepattern
 70
    14
 71
     2
 72
     2
 73
     0
 90
        0
 40
0.6
 41
30.0
 62
     5
 63
     7
421
 16777215
 74
     1
 91
        4
 64
     7
 65
   257
 75
     7
175
     7
 42
1.0
 92
        8
 66
     7
 43
1.0
 76
     1
 77
     6
 78
     2
 67
     7
 79
     5
170
     0
171
     0
290
     0
174
     0
 93
        1
 44
0.0
173
     0
291
     1
 45
0.0
  0
VISUALSTYLE
  5
116
102
{ACAD_REACTORS
330
2E
102
}
330
2E
100
AcDbVisualStyle
  2
OverhangOff
 70
    21
 71
     2
 72
     2
 73
     0
 90
        0
 40
0.6
 41
30.0
 62
     5
 63
     7
421
 16777215
 74
     1
 91
        4
 64
     7
 65
   257
 75
     1
175
     1
 42
1.0
 92
        9
 66
     7
 43
1.0
 76
     1
 77
     6
 78
     2
 67
     7
 79
     5
170
     0
171
     0
290
     0
174
     0
 93
        1
 44
0.0
173
     0
291
     1
 45
0.0
  0
VISUALSTYLE
  5
10D
102
{ACAD_REACTORS
330
2E
102
}
330
2E
100
AcDbVisualStyle
  2
Realistic
 70
     8
 71
     2
 72
     3
 73
     0
 90
        2
 40
0.6
 41
30.0
 62
     5
 63
     7
421
 16777215
 74
     0
 91
        0
 64
     7
 65
   257
 75
     1
175
     1
 42
1.0
 92
        8
 66
   257
 43
1.0
 76
     1
 77
     6
 78
     2
 67
     7
 79
     3
170
     0
171
     0
290
     0
174
     0
 93
       13
 44
0.0
173
     0
291
     0
 45
0.0
  0
VISUALSTYLE
  5
11C
102
{ACAD_REACTORS
330
2E
102
}
330
2E
100
AcDbVisualStyle
  2
Shaded
 70
    27
 71
     2
 72
     2
 73
     1
 90
        2
 40
0.6
 41
30.0
 62
     5
 63
     7
421
 16777215
 74
     0
 91
        4
 64
     7
 65
   257
 75
     1
175
     1
 42
1.0
 92
        8
 66
   257
 43
1.0
 76
     1
 77
     6
 78
     2
 67
     8
425
  7895160
 79
     3
170
     0
171
     0
290
     0
174
     0
 93
        5
 44
0.0
173
     0
291
     0
 45
0.0
  0
VISUALSTYLE
  5
11B
102
{ACAD_REACTORS
330
2E
102
}
330
2E
100
AcDbVisualStyle
  2
Shaded with edges
 70
    26
 71
     2
 72
     2
 73
     1
 90
        2
 40
0.6
 41
30.0
 62
     5
 63
     7
421
 16777215
 74
     1
 91
       10
 64
     7
 65
   257
 75
     2
175
     1
 42
1.0
 92
        8
 66
   257
 43
1.0
 76
     1
 77
     6
 78
     2
 67
     7
 79
     3
170
     0
171
     0
290
     0
174
     0
 93
        5
 44
0.0
173
     0
291
     0
 45
0.0
  0
VISUALSTYLE
  5
118
102
{ACAD_REACTORS
330
2E
102
}
330
2E
100
AcDbVisualStyle
  2
Shades of Gray
 70
    23
 71
     2
 72
     2
 73
     3
 90
        0
 40
0.6
 41
30.0
 62
     5
 63
     7
421
 16777215
 74
     2
 91
        2
 64
     7
 65
     7
 75
     1
175
     1
 42
40.0
 92
        8
 66
     7
 43
1.0
 76
     1
 77
     6
 78
     2
 67
     7
 79
     3
170
     0
171
     0
290
     0
174
     0
 93
        1
 44
0.0
173
     0
291
     0
 45
0.0
  0
VISUALSTYLE
  5
119
102
{ACAD_REACTORS
330
2E
102
}
330
2E
100
AcDbVisualStyle
  2
Sketchy
 70
    24
 71
     1
 72
     2
 73
     2
 90
        0
 40
0.6
 41
30.0
 62
     5
 63
     7
421
 16777215
 74
     2
 91
        2
 64
     7
 65
     7
 75
     1
175
     1
 42
40.0
 92
       11
 66
     7
 43
1.0
 76
     1
 77
     6
 78
     2
 67
     7
 79
     6
170
     0
171
     0
290
     0
174
     0
 93
        1
 44
0.0
173
     0
291
     0
 45
0.0
  0
VISUALSTYLE
  5
111
102
{ACAD_REACTORS
330
2E
102
}
330
2E
100
AcDbVisualStyle
  2
Thicken
 70
    13
 71
     2
 72
     2
 73
     0
 90
        0
 40
0.6
 41
30.0
 62
     5
 63
     7
421
 16777215
 74
     1
 91
        4
 64
     7
 65
   257
 75
     1
175
     1
 42
1.0
 92
       12
 66
     7
 43
1.0
 76
     1
 77
     6
 78
     2
 67
     7
 79
     5
170
     0
171
     0
290
     0
174
     0
 93
        1
 44
0.0
173
     0
291
     1
 45
0.0
  0
VISUALSTYLE
  5
10A
102
{ACAD_REACTORS
330
2E
102
}
330
2E
100
AcDbVisualStyle
  2
Wireframe
 70
     5
 71
     0
 72
     2
 73
     0
 90
        0
 40
0.6
 41
30.0
 62
     5
 63
     7
421
 16777215
 74
     1
 91
        4
 64
     7
 65
   257
 75
     1
175
     1
 42
1.0
 92
        0
 66
   257
 43
1.0
 76
     1
 77
     6
 78
     2
 67
     7
 79
     3
170
     0
171
     0
290
     0
174
     0
 93
        1
 44
0.0
173
     0
291
     0
 45
0.0
  0
VISUALSTYLE
  5
11A
102
{ACAD_REACTORS
330
2E
102
}
330
2E
100
AcDbVisualStyle
  2
X-Ray
 70
    25
 71
     2
 72
     2
 73
     1
 90
        1
 40
0.5
 41
30.0
 62
     5
 63
     7
421
 16777215
 74
     1
 91
        0
 64
     7
 65
   257
 75
     1
175
     1
 42
1.0
 92
        8
 66
     7
 43
1.0
 76
     1
 77
     6
 78
     2
 67
     7
 79
     3
170
     0
171
     0
290
     0
174
     0
 93
       13
 44
0.0
173
     0
291
     0
 45
0.0
  0
DICTIONARYVAR
  5
100
102
{ACAD_REACTORS
330
FF
102
}
330
FF
100
DictionaryVariables
280
     0
  1
1:1
  0
DICTIONARYVAR
  5
14E
102
{ACAD_REACTORS
330
FF
102
}
330
FF
100
DictionaryVariables
280
     0
  1
Standard
  0
DICTIONARYVAR
  5
14D
102
{ACAD_REACTORS
330
FF
102
}
330
FF
100
DictionaryVariables
280
     0
  1
Standard
  0
DICTIONARYVAR
  5
103
102
{ACAD_REACTORS
330
FF
102
}
330
FF
100
DictionaryVariables
280
     0
  1
0
  0
DICTIONARY
  5
77D
330
11D
100
AcDbDictionary
280
     1
281
     1
  3
ACAD_ROUNDTRIP_2008_TABLESTYLE_CELLSTYLEMAP
360
77E
  0
DICTIONARY
  5
77F
330
162
100
AcDbDictionary
280
     1
281
     1
  3
ACAD_ROUNDTRIP_2008_TABLESTYLE_CELLSTYLEMAP
360
780
  0
CELLSTYLEMAP
  5
77E
102
{ACAD_REACTORS
330
77D
102
}
330
77D
100
AcDbCellStyleMap
 90
        3
300
CELLSTYLE
  1
TABLEFORMAT_BEGIN
 90
        5
170
     1
 91
        0
 92
    32768
 62
   257
 93
        1
300
CONTENTFORMAT
  1
CONTENTFORMAT_BEGIN
 90
        0
 91
        0
 92
        4
 93
        0
300

 40
0.0
140
1.0
 94
        5
 62
     0
340
15
144
6.0
309
CONTENTFORMAT_END
171
     1
301
MARGIN
  1
CELLMARGIN_BEGIN
 40
1.5
 40
1.5
 40
1.5
 40
1.5
 40
1.5
 40
1.5
309
CELLMARGIN_END
 94
        6
 95
        1
302
GRIDFORMAT
  1
GRIDFORMAT_BEGIN
 90
        0
 91
        1
 62
     0
 92
       -2
340
F
 93
        0
 40
0.045
309
GRIDFORMAT_END
 95
        2
302
GRIDFORMAT
  1
GRIDFORMAT_BEGIN
 90
        0
 91
        1
 62
     0
 92
       -2
340
F
 93
        0
 40
0.045
309
GRIDFORMAT_END
 95
        4
302
GRIDFORMAT
  1
GRIDFORMAT_BEGIN
 90
        0
 91
        1
 62
     0
 92
       -2
340
F
 93
        0
 40
0.045
309
GRIDFORMAT_END
 95
        8
302
GRIDFORMAT
  1
GRIDFORMAT_BEGIN
 90
        0
 91
        1
 62
     0
 92
       -2
340
F
 93
        0
 40
0.045
309
GRIDFORMAT_END
 95
       16
302
GRIDFORMAT
  1
GRIDFORMAT_BEGIN
 90
        0
 91
        1
 62
     0
 92
       -2
340
F
 93
        0
 40
0.045
309
GRIDFORMAT_END
 95
       32
302
GRIDFORMAT
  1
GRIDFORMAT_BEGIN
 90
        0
 91
        1
 62
     0
 92
       -2
340
F
 93
        0
 40
0.045
309
GRIDFORMAT_END
309
TABLEFORMAT_END
  1
CELLSTYLE_BEGIN
 90
        1
 91
        1
300
_TITLE
309
CELLSTYLE_END
300
CELLSTYLE
  1
TABLEFORMAT_BEGIN
 90
        5
170
     1
 91
        0
 92
        0
 62
   257
 93
        1
300
CONTENTFORMAT
  1
CONTENTFORMAT_BEGIN
 90
        0
 91
        0
 92
        4
 93
        0
300

 40
0.0
140
1.0
 94
        5
 62
     0
340
15
144
4.5
309
CONTENTFORMAT_END
171
     1
301
MARGIN
  1
CELLMARGIN_BEGIN
 40
1.5
 40
1.5
 40
1.5
 40
1.5
 40
1.5
 40
1.5
309
CELLMARGIN_END
 94
        6
 95
        1
302
GRIDFORMAT
  1
GRIDFORMAT_BEGIN
 90
        0
 91
        1
 62
     0
 92
       -2
340
F
 93
        0
 40
0.045
309
GRIDFORMAT_END
 95
        2
302
GRIDFORMAT
  1
GRIDFORMAT_BEGIN
 90
        0
 91
        1
 62
     0
 92
       -2
340
F
 93
        0
 40
0.045
309
GRIDFORMAT_END
 95
        4
302
GRIDFORMAT
  1
GRIDFORMAT_BEGIN
 90
        0
 91
        1
 62
     0
 92
       -2
340
F
 93
        0
 40
0.045
309
GRIDFORMAT_END
 95
        8
302
GRIDFORMAT
  1
GRIDFORMAT_BEGIN
 90
        0
 91
        1
 62
     0
 92
       -2
340
F
 93
        0
 40
0.045
309
GRIDFORMAT_END
 95
       16
302
GRIDFORMAT
  1
GRIDFORMAT_BEGIN
 90
        0
 91
        1
 62
     0
 92
       -2
340
F
 93
        0
 40
0.045
309
GRIDFORMAT_END
 95
       32
302
GRIDFORMAT
  1
GRIDFORMAT_BEGIN
 90
        0
 91
        1
 62
     0
 92
       -2
340
F
 93
        0
 40
0.045
309
GRIDFORMAT_END
309
TABLEFORMAT_END
  1
CELLSTYLE_BEGIN
 90
        2
 91
        1
300
_HEADER
309
CELLSTYLE_END
300
CELLSTYLE
  1
TABLEFORMAT_BEGIN
 90
        5
170
     1
 91
        0
 92
        0
 62
   257
 93
        1
300
CONTENTFORMAT
  1
CONTENTFORMAT_BEGIN
 90
        0
 91
        0
 92
        4
 93
        0
300

 40
0.0
140
1.0
 94
        2
 62
     0
340
15
144
4.5
309
CONTENTFORMAT_END
171
     1
301
MARGIN
  1
CELLMARGIN_BEGIN
 40
1.5
 40
1.5
 40
1.5
 40
1.5
 40
1.5
 40
1.5
309
CELLMARGIN_END
 94
        6
 95
        1
302
GRIDFORMAT
  1
GRIDFORMAT_BEGIN
 90
        0
 91
        1
 62
     0
 92
       -2
340
F
 93
        0
 40
0.045
309
GRIDFORMAT_END
 95
        2
302
GRIDFORMAT
  1
GRIDFORMAT_BEGIN
 90
        0
 91
        1
 62
     0
 92
       -2
340
F
 93
        0
 40
0.045
309
GRIDFORMAT_END
 95
        4
302
GRIDFORMAT
  1
GRIDFORMAT_BEGIN
 90
        0
 91
        1
 62
     0
 92
       -2
340
F
 93
        0
 40
0.045
309
GRIDFORMAT_END
 95
        8
302
GRIDFORMAT
  1
GRIDFORMAT_BEGIN
 90
        0
 91
        1
 62
     0
 92
       -2
340
F
 93
        0
 40
0.045
309
GRIDFORMAT_END
 95
       16
302
GRIDFORMAT
  1
GRIDFORMAT_BEGIN
 90
        0
 91
        1
 62
     0
 92
       -2
340
F
 93
        0
 40
0.045
309
GRIDFORMAT_END
 95
       32
302
GRIDFORMAT
  1
GRIDFORMAT_BEGIN
 90
        0
 91
        1
 62
     0
 92
       -2
340
F
 93
        0
 40
0.045
309
GRIDFORMAT_END
309
TABLEFORMAT_END
  1
CELLSTYLE_BEGIN
 90
        3
 91
        2
300
_DATA
309
CELLSTYLE_END
  0
CELLSTYLEMAP
  5
780
102
{ACAD_REACTORS
330
77F
102
}
330
77F
100
AcDbCellStyleMap
 90
        3
300
CELLSTYLE
  1
TABLEFORMAT_BEGIN
 90
        5
170
     1
 91
        0
 92
        0
 62
   257
 93
        1
300
CONTENTFORMAT
  1
CONTENTFORMAT_BEGIN
 90
        0
 91
        0
 92
        4
 93
        0
300

 40
0.0
140
1.0
 94
        5
 62
   256
340
12D
144
2.0
309
CONTENTFORMAT_END
171
     1
301
MARGIN
  1
CELLMARGIN_BEGIN
 40
0.5
 40
0.5
 40
1.5
 40
1.5
 40
1.5
 40
1.5
309
CELLMARGIN_END
 94
        6
 95
        1
302
GRIDFORMAT
  1
GRIDFORMAT_BEGIN
 90
        0
 91
        1
 62
   256
 92
       -1
340
F
 93
        0
 40
0.045
309
GRIDFORMAT_END
 95
        2
302
GRIDFORMAT
  1
GRIDFORMAT_BEGIN
 90
        0
 91
        1
 62
   256
 92
       -1
340
F
 93
        0
 40
0.045
309
GRIDFORMAT_END
 95
        4
302
GRIDFORMAT
  1
GRIDFORMAT_BEGIN
 90
        0
 91
        1
 62
   256
 92
       -1
340
F
 93
        0
 40
0.045
309
GRIDFORMAT_END
 95
        8
302
GRIDFORMAT
  1
GRIDFORMAT_BEGIN
 90
        0
 91
        1
 62
   256
 92
       -1
340
F
 93
        0
 40
0.045
309
GRIDFORMAT_END
 95
       16
302
GRIDFORMAT
  1
GRIDFORMAT_BEGIN
 90
        0
 91
        1
 62
   256
 92
       -1
340
F
 93
        0
 40
0.045
309
GRIDFORMAT_END
 95
       32
302
GRIDFORMAT
  1
GRIDFORMAT_BEGIN
 90
        0
 91
        1
 62
   256
 92
       -1
340
F
 93
        0
 40
0.045
309
GRIDFORMAT_END
309
TABLEFORMAT_END
  1
CELLSTYLE_BEGIN
 90
        1
 91
        1
300
_TITLE
309
CELLSTYLE_END
300
CELLSTYLE
  1
TABLEFORMAT_BEGIN
 90
        5
170
     1
 91
        0
 92
        0
 62
   257
 93
        1
300
CONTENTFORMAT
  1
CONTENTFORMAT_BEGIN
 90
        0
 91
        0
 92
        4
 93
        0
300

 40
0.0
140
1.0
 94
        5
 62
   256
340
12D
144
2.5
309
CONTENTFORMAT_END
171
     1
301
MARGIN
  1
CELLMARGIN_BEGIN
 40
0.5
 40
0.5
 40
1.5
 40
1.5
 40
1.5
 40
1.5
309
CELLMARGIN_END
 94
        6
 95
        1
302
GRIDFORMAT
  1
GRIDFORMAT_BEGIN
 90
        0
 91
        1
 62
   256
 92
       -1
340
F
 93
        0
 40
0.045
309
GRIDFORMAT_END
 95
        2
302
GRIDFORMAT
  1
GRIDFORMAT_BEGIN
 90
        0
 91
        1
 62
   256
 92
       -1
340
F
 93
        0
 40
0.045
309
GRIDFORMAT_END
 95
        4
302
GRIDFORMAT
  1
GRIDFORMAT_BEGIN
 90
        0
 91
        1
 62
   256
 92
       -1
340
F
 93
        0
 40
0.045
309
GRIDFORMAT_END
 95
        8
302
GRIDFORMAT
  1
GRIDFORMAT_BEGIN
 90
        0
 91
        1
 62
   256
 92
       -1
340
F
 93
        0
 40
0.045
309
GRIDFORMAT_END
 95
       16
302
GRIDFORMAT
  1
GRIDFORMAT_BEGIN
 90
        0
 91
        1
 62
   256
 92
       -1
340
F
 93
        0
 40
0.045
309
GRIDFORMAT_END
 95
       32
302
GRIDFORMAT
  1
GRIDFORMAT_BEGIN
 90
        0
 91
        1
 62
   256
 92
       -1
340
F
 93
        0
 40
0.045
309
GRIDFORMAT_END
309
TABLEFORMAT_END
  1
CELLSTYLE_BEGIN
 90
        2
 91
        1
300
_HEADER
309
CELLSTYLE_END
300
CELLSTYLE
  1
TABLEFORMAT_BEGIN
 90
        5
170
     1
 91
        0
 92
        0
 62
   257
 93
        1
300
CONTENTFORMAT
  1
CONTENTFORMAT_BEGIN
 90
        0
 91
        0
 92
        4
 93
        0
300

 40
0.0
140
1.0
 94
        5
 62
   256
340
12D
144
2.5
309
CONTENTFORMAT_END
171
     1
301
MARGIN
  1
CELLMARGIN_BEGIN
 40
0.5
 40
0.5
 40
1.5
 40
1.5
 40
1.5
 40
1.5
309
CELLMARGIN_END
 94
        6
 95
        1
302
GRIDFORMAT
  1
GRIDFORMAT_BEGIN
 90
        0
 91
        1
 62
   256
 92
       -1
340
F
 93
        0
 40
0.045
309
GRIDFORMAT_END
 95
        2
302
GRIDFORMAT
  1
GRIDFORMAT_BEGIN
 90
        0
 91
        1
 62
   256
 92
       -2
340
F
 93
        0
 40
0.045
309
GRIDFORMAT_END
 95
        4
302
GRIDFORMAT
  1
GRIDFORMAT_BEGIN
 90
        0
 91
        1
 62
   256
 92
       -1
340
F
 93
        0
 40
0.045
309
GRIDFORMAT_END
 95
        8
302
GRIDFORMAT
  1
GRIDFORMAT_BEGIN
 90
        0
 91
        1
 62
   256
 92
       -1
340
F
 93
        0
 40
0.045
309
GRIDFORMAT_END
 95
       16
302
GRIDFORMAT
  1
GRIDFORMAT_BEGIN
 90
        0
 91
        1
 62
   256
 92
       -2
340
F
 93
        0
 40
0.045
309
GRIDFORMAT_END
 95
       32
302
GRIDFORMAT
  1
GRIDFORMAT_BEGIN
 90
        0
 91
        1
 62
   256
 92
       -1
340
F
 93
        0
 40
0.045
309
GRIDFORMAT_END
309
TABLEFORMAT_END
  1
CELLSTYLE_BEGIN
 90
        3
 91
        2
300
_DATA
309
CELLSTYLE_END
  0
ENDSEC
  0
EOF
