  0
SECTION
  2
HEADER
  9
$ACADVER
  1
AC1021
  9
$ACADMAINTVER
 70
    25
  9
$DWGCODEPAGE
  3
ANSI_932
  9
$LASTSAVEDBY
  1
liujie
  9
$INSBASE
 10
0.0
 20
0.0
 30
0.0
  9
$EXTMIN
 10
0.0
 20
-0.0000000000000284
 30
0.0
  9
$EXTMAX
 10
297.0000000000002
 20
210.0
 30
0.0
  9
$LIMMIN
 10
0.0
 20
0.0
  9
$LIMMAX
 10
420.0
 20
297.0
  9
$ORTHOMODE
 70
     1
  9
$REGENMODE
 70
     1
  9
$FILLMODE
 70
     1
  9
$QTEXTMODE
 70
     0
  9
$MIRRTEXT
 70
     1
  9
$LTSCALE
 40
1.0
  9
$ATTMODE
 70
     1
  9
$TEXTSIZE
 40
2.5
  9
$TRACEWID
 40
1.0
  9
$TEXTSTYLE
  7
STANDARD
  9
$CLAYER
  8
DIMS
  9
$CELTYPE
  6
BYLAYER
  9
$CECOLOR
 62
   256
  9
$CELTSCALE
 40
1.0
  9
$DISPSILH
 70
     0
  9
$DIMSCALE
 40
1.0
  9
$DIMASZ
 40
2.5
  9
$DIMEXO
 40
0.65
  9
$DIMDLI
 40
1.0
  9
$DIMRND
 40
0.0
  9
$DIMDLE
 40
0.0
  9
$DIMEXE
 40
0.65
  9
$DIMTP
 40
0.0
  9
$DIMTM
 40
0.0
  9
$DIMTXT
 40
3.0
  9
$DIMCEN
 40
5.0
  9
$DIMTSZ
 40
0.0
  9
$DIMTOL
 70
     0
  9
$DIMLIM
 70
     0
  9
$DIMTIH
 70
     0
  9
$DIMTOH
 70
     0
  9
$DIMSE1
 70
     0
  9
$DIMSE2
 70
     0
  9
$DIMTAD
 70
     1
  9
$DIMZIN
 70
     8
  9
$DIMBLK
  1
Open30
  9
$DIMASO
 70
     1
  9
$DIMSHO
 70
     1
  9
$DIMPOST
  1

  9
$DIMAPOST
  1

  9
$DIMALT
 70
     0
  9
$DIMALTD
 70
     2
  9
$DIMALTF
 40
25.4
  9
$DIMLFAC
 40
1.0
  9
$DIMTOFL
 70
     1
  9
$DIMTVP
 40
0.0
  9
$DIMTIX
 70
     0
  9
$DIMSOXD
 70
     0
  9
$DIMSAH
 70
     0
  9
$DIMBLK1
  1

  9
$DIMBLK2
  1

  9
$DIMSTYLE
  2
STANDARD
  9
$DIMCLRD
 70
   256
  9
$DIMCLRE
 70
   256
  9
$DIMCLRT
 70
     7
  9
$DIMTFAC
 40
1.0
  9
$DIMGAP
 40
0.65
  9
$DIMJUST
 70
     0
  9
$DIMSD1
 70
     0
  9
$DIMSD2
 70
     0
  9
$DIMTOLJ
 70
     1
  9
$DIMTZIN
 70
     0
  9
$DIMALTZ
 70
     0
  9
$DIMALTTZ
 70
     0
  9
$DIMUPT
 70
     0
  9
$DIMDEC
 70
     3
  9
$DIMTDEC
 70
     4
  9
$DIMALTU
 70
     2
  9
$DIMALTTD
 70
     2
  9
$DIMTXSTY
  7
STANDARD
  9
$DIMAUNIT
 70
     0
  9
$DIMADEC
 70
     2
  9
$DIMALTRND
 40
0.0
  9
$DIMAZIN
 70
     2
  9
$DIMDSEP
 70
    46
  9
$DIMATFIT
 70
     3
  9
$DIMFRAC
 70
     0
  9
$DIMLDRBLK
  1
Open30
  9
$DIMLUNIT
 70
     2
  9
$DIMLWD
 70
    -1
  9
$DIMLWE
 70
    -1
  9
$DIMTMOVE
 70
     0
  9
$DIMFXL
 40
1.0
  9
$DIMFXLON
 70
     0
  9
$DIMJOGANG
 40
0.7853981633974483
  9
$DIMTFILL
 70
     0
  9
$DIMTFILLCLR
 70
     0
  9
$DIMARCSYM
 70
     0
  9
$DIMLTYPE
  6
BYLAYER
  9
$DIMLTEX1
  6

  9
$DIMLTEX2
  6

  9
$LUNITS
 70
     2
  9
$LUPREC
 70
     4
  9
$SKETCHINC
 40
1.0
  9
$FILLETRAD
 40
10.0
  9
$AUNITS
 70
     0
  9
$AUPREC
 70
     0
  9
$MENU
  1
.
  9
$ELEVATION
 40
0.0
  9
$PELEVATION
 40
0.0
  9
$THICKNESS
 40
0.0
  9
$LIMCHECK
 70
     0
  9
$CHAMFERA
 40
2.0
  9
$CHAMFERB
 40
2.0
  9
$CHAMFERC
 40
20.0
  9
$CHAMFERD
 40
0.0
  9
$SKPOLY
 70
     0
  9
$TDCREATE
 40
2454036.711772419
  9
$TDUCREATE
 40
2454036.336772419
  9
$TDUPDATE
 40
2459086.579253993
  9
$TDUUPDATE
 40
2459086.204253993
  9
$TDINDWG
 40
0.0056918634
  9
$TDUSRTIMER
 40
0.0005589352
  9
$USRTIMER
 70
     1
  9
$ANGBASE
 50
0.0
  9
$ANGDIR
 70
     0
  9
$PDMODE
 70
     0
  9
$PDSIZE
 40
0.0
  9
$PLINEWID
 40
0.0
  9
$SPLFRAME
 70
     0
  9
$SPLINETYPE
 70
     6
  9
$SPLINESEGS
 70
     8
  9
$HANDSEED
  5
215
  9
$SURFTAB1
 70
     6
  9
$SURFTAB2
 70
     6
  9
$SURFTYPE
 70
     6
  9
$SURFU
 70
     6
  9
$SURFV
 70
     6
  9
$UCSBASE
  2

  9
$UCSNAME
  2

  9
$UCSORG
 10
0.0
 20
0.0
 30
0.0
  9
$UCSXDIR
 10
1.0
 20
0.0
 30
0.0
  9
$UCSYDIR
 10
0.0
 20
1.0
 30
0.0
  9
$UCSORTHOREF
  2

  9
$UCSORTHOVIEW
 70
     0
  9
$UCSORGTOP
 10
0.0
 20
0.0
 30
0.0
  9
$UCSORGBOTTOM
 10
0.0
 20
0.0
 30
0.0
  9
$UCSORGLEFT
 10
0.0
 20
0.0
 30
0.0
  9
$UCSORGRIGHT
 10
0.0
 20
0.0
 30
0.0
  9
$UCSORGFRONT
 10
0.0
 20
0.0
 30
0.0
  9
$UCSORGBACK
 10
0.0
 20
0.0
 30
0.0
  9
$PUCSBASE
  2

  9
$PUCSNAME
  2

  9
$PUCSORG
 10
0.0
 20
0.0
 30
0.0
  9
$PUCSXDIR
 10
1.0
 20
0.0
 30
0.0
  9
$PUCSYDIR
 10
0.0
 20
1.0
 30
0.0
  9
$PUCSORTHOREF
  2

  9
$PUCSORTHOVIEW
 70
     0
  9
$PUCSORGTOP
 10
0.0
 20
0.0
 30
0.0
  9
$PUCSORGBOTTOM
 10
0.0
 20
0.0
 30
0.0
  9
$PUCSORGLEFT
 10
0.0
 20
0.0
 30
0.0
  9
$PUCSORGRIGHT
 10
0.0
 20
0.0
 30
0.0
  9
$PUCSORGFRONT
 10
0.0
 20
0.0
 30
0.0
  9
$PUCSORGBACK
 10
0.0
 20
0.0
 30
0.0
  9
$USERI1
 70
     0
  9
$USERI2
 70
     0
  9
$USERI3
 70
     0
  9
$USERI4
 70
     0
  9
$USERI5
 70
     0
  9
$USERR1
 40
0.0
  9
$USERR2
 40
0.0
  9
$USERR3
 40
0.0
  9
$USERR4
 40
0.0
  9
$USERR5
 40
0.0
  9
$WORLDVIEW
 70
     1
  9
$SHADEDGE
 70
     3
  9
$SHADEDIF
 70
    70
  9
$TILEMODE
 70
     1
  9
$MAXACTVP
 70
    64
  9
$PINSBASE
 10
0.0
 20
0.0
 30
0.0
  9
$PLIMCHECK
 70
     0
  9
$PEXTMIN
 10
0.0
 20
0.0
 30
0.0
  9
$PEXTMAX
 10
594.0
 20
420.0
 30
0.0
  9
$PLIMMIN
 10
0.0
 20
0.0
  9
$PLIMMAX
 10
0.0
 20
0.0
  9
$UNITMODE
 70
     0
  9
$VISRETAIN
 70
     1
  9
$PLINEGEN
 70
     0
  9
$PSLTSCALE
 70
     1
  9
$TREEDEPTH
 70
  3020
  9
$CMLSTYLE
  2
STANDARD
  9
$CMLJUST
 70
     0
  9
$CMLSCALE
 40
20.0
  9
$PROXYGRAPHICS
 70
     1
  9
$MEASUREMENT
 70
     1
  9
$CELWEIGHT
370
    -1
  9
$ENDCAPS
280
     0
  9
$JOINSTYLE
280
     0
  9
$LWDISPLAY
290
     1
  9
$INSUNITS
 70
     4
  9
$HYPERLINKBASE
  1

  9
$STYLESHEET
  1
monochrome.ctb
  9
$XEDIT
290
     1
  9
$CEPSNTYPE
380
     0
  9
$PSTYLEMODE
290
     1
  9
$FINGERPRINTGUID
  2
{82FD4B47-A590-11D2-9A33-0060089B3A3F}
  9
$VERSIONGUID
  2
{9F9256D1-6E4B-4D58-B2EE-145D339BB681}
  9
$EXTNAMES
290
     1
  9
$PSVPSCALE
 40
0.0
  9
$OLESTARTUP
290
     0
  9
$SORTENTS
280
   127
  9
$INDEXCTL
280
     0
  9
$HIDETEXT
280
     1
  9
$XCLIPFRAME
290
     0
  9
$HALOGAP
280
     0
  9
$OBSCOLOR
 70
   257
  9
$OBSLTYPE
280
     0
  9
$INTERSECTIONDISPLAY
280
     0
  9
$INTERSECTIONCOLOR
 70
   257
  9
$DIMASSOC
280
     2
  9
$PROJECTNAME
  1

  9
$CAMERADISPLAY
290
     0
  9
$LENSLENGTH
 40
50.0
  9
$CAMERAHEIGHT
 40
0.0
  9
$STEPSPERSEC
 40
2.0
  9
$STEPSIZE
 40
6.0
  9
$3DDWFPREC
 40
2.0
  9
$PSOLWIDTH
 40
0.25
  9
$PSOLHEIGHT
 40
4.0
  9
$LOFTANG1
 40
1.570796326794897
  9
$LOFTANG2
 40
1.570796326794897
  9
$LOFTMAG1
 40
0.0
  9
$LOFTMAG2
 40
0.0
  9
$LOFTPARAM
 70
     7
  9
$LOFTNORMALS
280
     1
  9
$LATITUDE
 40
37.795
  9
$LONGITUDE
 40
-122.394
  9
$NORTHDIRECTION
 40
0.0
  9
$TIMEZONE
 70
 -8000
  9
$LIGHTGLYPHDISPLAY
280
     1
  9
$TILEMODELIGHTSYNCH
280
     1
  9
$SOLIDHIST
280
     1
  9
$SHOWHIST
280
     1
  9
$DWFFRAME
280
     2
  9
$DGNFRAME
280
     2
  9
$REALWORLDSCALE
290
     1
  9
$INTERFERECOLOR
 62
   256
  9
$CSHADOW
280
     0
  9
$SHADOWPLANELOCATION
 40
0.0
  0
ENDSEC
  0
SECTION
  2
CLASSES
  0
CLASS
  1
ACDBDICTIONARYWDFLT
  2
AcDbDictionaryWithDefault
  3
ObjectDBX Classes
 90
        0
 91
        3
280
     0
281
     0
  0
CLASS
  1
MATERIAL
  2
AcDbMaterial
  3
ObjectDBX Classes
 90
     1153
 91
        3
280
     0
281
     0
  0
CLASS
  1
VISUALSTYLE
  2
AcDbVisualStyle
  3
ObjectDBX Classes
 90
     4095
 91
        3
280
     0
281
     0
  0
CLASS
  1
SUN
  2
AcDbSun
  3
SCENEOE
 90
     1153
 91
        3
280
     0
281
     0
  0
CLASS
  1
SCALE
  2
AcDbScale
  3
ObjectDBX Classes
 90
     1153
 91
        3
280
     0
281
     0
  0
CLASS
  1
DIMASSOC
  2
AcDbDimAssoc
  3
"AcDbDimAssoc|Product Desc:     AcDim ARX App For Dimension|Company:          Autodesk, Inc.|WEB Address:      www.autodesk.com"
 90
        0
 91
        3
280
     0
281
     0
  0
CLASS
  1
BREAKDATA
  2
AcDbBreakData
  3
ObjectDBX Classes
 90
     1024
 91
        3
280
     0
281
     0
  0
CLASS
  1
ACAD_TABLE
  2
AcDbTable
  3
ObjectDBX Classes
 90
     1025
 91
        3
280
     0
281
     1
  0
CLASS
  1
TABLESTYLE
  2
AcDbTableStyle
  3
ObjectDBX Classes
 90
     4095
 91
        3
280
     0
281
     0
  0
CLASS
  1
DICTIONARYVAR
  2
AcDbDictionaryVar
  3
ObjectDBX Classes
 90
        0
 91
        3
280
     0
281
     0
  0
CLASS
  1
CELLSTYLEMAP
  2
AcDbCellStyleMap
  3
ObjectDBX Classes
 90
     1152
 91
        3
280
     0
281
     0
  0
CLASS
  1
TABLEGEOMETRY
  2
AcDbTableGeometry
  3
ObjectDBX Classes
 90
     1152
 91
        3
280
     0
281
     0
  0
CLASS
  1
MLEADERSTYLE
  2
AcDbMLeaderStyle
  3
ACDB_MLEADERSTYLE_CLASS
 90
     4095
 91
        3
280
     0
281
     0
  0
ENDSEC
  0
SECTION
  2
TABLES
  0
TABLE
  2
VPORT
  5
30
330
0
100
AcDbSymbolTable
 70
     1
  0
VPORT
  5
35
330
30
100
AcDbSymbolTableRecord
100
AcDbViewportTableRecord
  2
*Active
 70
     0
 10
0.0
 20
0.0
 11
1.0
 21
1.0
 12
148.5000000000001
 22
105.0
 13
0.0
 23
0.0
 14
10.0
 24
10.0
 15
10.0
 25
10.0
 16
0.0
 26
0.0
 36
1.0
 17
0.0
 27
0.0
 37
0.0
 40
214.2
 41
1.68396770472895
 42
50.0
 43
0.0
 44
0.0
 50
0.0
 51
0.0
 71
    16
 72
   100
 73
     1
 74
     3
 75
     0
 76
     0
 77
     0
 78
     0
281
     0
 65
     1
110
0.0
120
0.0
130
0.0
111
1.0
121
0.0
131
0.0
112
0.0
122
1.0
132
0.0
 79
     0
146
0.0
348
36
 60
     3
 61
     5
292
     1
282
     1
141
0.0
142
0.0
 63
   256
361
37
  0
ENDTAB
  0
TABLE
  2
LTYPE
  5
E
330
0
100
AcDbSymbolTable
 70
     1
  0
LTYPE
  5
F
330
E
100
AcDbSymbolTableRecord
100
AcDbLinetypeTableRecord
  2
BYBLOCK
 70
     0
  3

 72
    65
 73
     0
 40
0.0
  0
LTYPE
  5
10
330
E
100
AcDbSymbolTableRecord
100
AcDbLinetypeTableRecord
  2
BYLAYER
 70
     0
  3

 72
    65
 73
     0
 40
0.0
  0
LTYPE
  5
D
330
E
100
AcDbSymbolTableRecord
100
AcDbLinetypeTableRecord
  2
CONTINUOUS
 70
     0
  3
Solid line
 72
    65
 73
     0
 40
0.0
  0
ENDTAB
  0
TABLE
  2
LAYER
  5
2
102
{ACAD_XDICTIONARY
360
3
102
}
330
0
100
AcDbSymbolTable
 70
     4
  0
LAYER
  5
1F
330
2
100
AcDbSymbolTableRecord
100
AcDbLayerTableRecord
  2
0
 70
     0
 62
     7
  6
CONTINUOUS
370
    -3
390
8
347
B
  0
LAYER
  5
5F
330
2
100
AcDbSymbolTableRecord
100
AcDbLayerTableRecord
  2
OBJECT
 70
     0
 62
     7
  6
CONTINUOUS
370
    30
390
8
347
B
  0
LAYER
  5
1
330
2
100
AcDbSymbolTableRecord
100
AcDbLayerTableRecord
  2
DIMS
 70
     0
 62
     6
  6
CONTINUOUS
370
    -3
390
8
347
B
  0
LAYER
  5
90
330
2
100
AcDbSymbolTableRecord
100
AcDbLayerTableRecord
  2
Defpoints
 70
     0
 62
     2
  6
CONTINUOUS
290
     0
370
    -3
390
8
347
B
  0
ENDTAB
  0
TABLE
  2
STYLE
  5
12
330
0
100
AcDbSymbolTable
 70
     2
  0
STYLE
  5
11
330
12
100
AcDbSymbolTableRecord
100
AcDbTextStyleTableRecord
  2
STANDARD
 70
     0
 40
2.5
 41
1.0
 50
0.0
 71
     0
 42
2.5
  3
simplex.shx
  4
bigfont.shx
  0
STYLE
  5
12D
330
12
100
AcDbSymbolTableRecord
100
AcDbTextStyleTableRecord
  2
Bom
 70
     0
 40
2.5
 41
0.9
 50
0.0
 71
     0
 42
2.5
  3
romans.shx
  4
bigfont.shx
  0
ENDTAB
  0
TABLE
  2
VIEW
  5
2E
330
0
100
AcDbSymbolTable
 70
     0
  0
ENDTAB
  0
TABLE
  2
UCS
  5
2F
330
0
100
AcDbSymbolTable
 70
     0
  0
ENDTAB
  0
TABLE
  2
APPID
  5
7
330
0
100
AcDbSymbolTable
 70
     4
  0
APPID
  5
6
330
7
100
AcDbSymbolTableRecord
100
AcDbRegAppTableRecord
  2
ACAD
 70
     0
  0
APPID
  5
A1
330
7
100
AcDbSymbolTableRecord
100
AcDbRegAppTableRecord
  2
ENABLE_CUSTOM_SPLIT
 70
     0
  0
APPID
  5
1B8
330
7
100
AcDbSymbolTableRecord
100
AcDbRegAppTableRecord
  2
ACAD_MLEADERVER
 70
     0
  0
APPID
  5
1DE
330
7
100
AcDbSymbolTableRecord
100
AcDbRegAppTableRecord
  2
PLOTTRANSPARENCY
 70
     0
  0
ENDTAB
  0
TABLE
  2
DIMSTYLE
  5
14
330
0
100
AcDbSymbolTable
 70
     6
100
AcDbDimStyleTable
  0
DIMSTYLE
105
13
102
{ACAD_REACTORS
330
91
330
B3
330
146
330
156
330
1BD
102
}
330
14
100
AcDbSymbolTableRecord
100
AcDbDimStyleTableRecord
  2
STANDARD
 70
     0
 41
2.5
 42
0.65
 43
1.0
 44
0.65
 73
     0
 74
     0
 77
     1
 78
     8
 79
     2
140
3.0
141
5.0
147
0.65
172
     1
176
   256
177
   256
271
     3
178
     7
179
     2
271
     3
340
11
341
19
342
19
371
    -1
372
    -1
345
10
  0
DIMSTYLE
105
18
330
14
100
AcDbSymbolTableRecord
100
AcDbDimStyleTableRecord
  2
DIMSTYLE_9
 70
     0
  3
%%c<>
 41
4.0
 42
0.625
 44
0.625
 47
0.03
 48
0.03000000003
 73
     0
 74
     0
 77
     1
 78
     8
140
3.0
146
0.7
147
0.625
172
     1
178
     0
271
     3
272
     3
284
     8
340
11
  0
DIMSTYLE
105
17
330
14
100
AcDbSymbolTableRecord
100
AcDbDimStyleTableRecord
  2
ISO-25
 70
     0
 41
2.5
 42
0.625
 43
3.75
 44
1.25
 73
     0
 74
     0
 77
     1
 78
     8
140
2.5
141
2.5
143
0.03937007874016
147
0.625
171
     3
172
     1
178
     0
271
     2
272
     2
274
     3
278
    44
283
     0
284
     8
340
11
  0
DIMSTYLE
105
16
330
14
100
AcDbSymbolTableRecord
100
AcDbDimStyleTableRecord
  2
DIMSTYLE_3
 70
     0
  3
□<>
 41
4.0
 42
0.625
 44
0.625
 47
0.3
 48
0.3000000003
 73
     0
 74
     0
 77
     1
 78
     8
140
3.0
147
0.625
172
     1
178
     0
271
     3
272
     3
284
     8
340
11
  0
DIMSTYLE
105
15
330
14
100
AcDbSymbolTableRecord
100
AcDbDimStyleTableRecord
  2
DIMSTYLE_4
 70
     0
 41
4.0
 42
0.625
 44
0.625
 47
0.5
 71
     1
 73
     0
 74
     0
 77
     1
 78
     8
140
3.0
146
0.7
147
0.625
172
     1
178
     0
271
     3
272
     3
284
     8
289
     0
340
11
  0
DIMSTYLE
105
193
330
14
100
AcDbSymbolTableRecord
100
AcDbDimStyleTableRecord
  2
DIMSTYLE_6
 70
     0
  3
%%c<> G6
 41
4.0
 42
0.625
 44
0.625
 47
0.025
 48
-0.009
 71
     1
 73
     0
 74
     0
 77
     1
 78
     8
140
3.0
146
0.7
147
0.625
172
     1
178
     0
271
     3
272
     3
284
     8
289
     1
340
11
  0
ENDTAB
  0
TABLE
  2
BLOCK_RECORD
  5
1A
330
0
100
AcDbSymbolTable
 70
    12
  0
BLOCK_RECORD
  5
1B
102
{ACAD_XDICTIONARY
360
1C
102
}
330
1A
100
AcDbSymbolTableRecord
100
AcDbBlockTableRecord
  2
*MODEL_SPACE
340
21
 70
     0
280
     1
281
     0
  0
BLOCK_RECORD
  5
23
330
1A
100
AcDbSymbolTableRecord
100
AcDbBlockTableRecord
  2
*PAPER_SPACE
340
26
 70
     0
280
     1
281
     0
  0
BLOCK_RECORD
  5
19
330
1A
100
AcDbSymbolTableRecord
100
AcDbBlockTableRecord
  2
_Open30
340
0
102
{BLKREFS
331
9A
331
9B
331
AB
331
AC
331
BC
331
BD
331
151
331
152
331
15F
331
160
331
1C7
331
1C8
331
1F3
331
1F2
331
203
331
0
331
203
331
202
331
0
102
}
 70
     0
280
     1
281
     0
  0
BLOCK_RECORD
  5
7C
330
1A
100
AcDbSymbolTableRecord
100
AcDbBlockTableRecord
  2
XADRP-08V_b
340
0
102
{BLKREFS
331
7B
102
}
 70
     4
280
     1
281
     1
  0
BLOCK_RECORD
  5
95
330
1A
100
AcDbSymbolTableRecord
100
AcDbBlockTableRecord
  2
*D2
340
0
 70
     0
280
     1
281
     0
  0
BLOCK_RECORD
  5
A6
330
1A
100
AcDbSymbolTableRecord
100
AcDbBlockTableRecord
  2
*D3
340
0
 70
     0
280
     1
281
     0
  0
BLOCK_RECORD
  5
B7
330
1A
100
AcDbSymbolTableRecord
100
AcDbBlockTableRecord
  2
*D4
340
0
 70
     0
280
     1
281
     0
  0
BLOCK_RECORD
  5
C4
330
1A
100
AcDbSymbolTableRecord
100
AcDbBlockTableRecord
  2
XADRP-08V_l
340
0
102
{BLKREFS
331
C3
102
}
 70
     4
280
     1
281
     1
  0
BLOCK_RECORD
  5
12A
330
1A
100
AcDbSymbolTableRecord
100
AcDbBlockTableRecord
  2
*T6
340
0
102
{BLKREFS
331
129
102
}
 70
     0
280
     1
281
     0
  0
BLOCK_RECORD
  5
14A
330
1A
100
AcDbSymbolTableRecord
100
AcDbBlockTableRecord
  2
*D7
340
0
 70
     0
280
     1
281
     0
  0
BLOCK_RECORD
  5
15A
330
1A
100
AcDbSymbolTableRecord
100
AcDbBlockTableRecord
  2
*D8
340
0
 70
     0
280
     1
281
     0
  0
BLOCK_RECORD
  5
1C0
330
1A
100
AcDbSymbolTableRecord
100
AcDbBlockTableRecord
  2
*D9
340
0
 70
     0
280
     1
281
     0
  0
BLOCK_RECORD
  5
1EC
330
1A
100
AcDbSymbolTableRecord
100
AcDbBlockTableRecord
  2
*D10
340
0
 70
     0
280
     1
281
     0
  0
BLOCK_RECORD
  5
1FC
330
1A
100
AcDbSymbolTableRecord
100
AcDbBlockTableRecord
  2
*D11
340
0
 70
     0
280
     1
281
     0
  0
ENDTAB
  0
ENDSEC
  0
SECTION
  2
BLOCKS
  0
BLOCK
  5
1E
330
1B
100
AcDbEntity
  8
0
100
AcDbBlockBegin
  2
*MODEL_SPACE
 70
     0
 10
0.0
 20
0.0
 30
0.0
  3
*MODEL_SPACE
  1
*MODEL_SPACE
  0
ENDBLK
  5
20
330
1B
100
AcDbEntity
  8
0
100
AcDbBlockEnd
  0
BLOCK
  5
24
330
23
100
AcDbEntity
 67
     1
  8
0
100
AcDbBlockBegin
  2
*PAPER_SPACE
 70
     0
 10
0.0
 20
0.0
 30
0.0
  3
*PAPER_SPACE
  1
*PAPER_SPACE
  0
ENDBLK
  5
25
330
23
100
AcDbEntity
 67
     1
  8
0
100
AcDbBlockEnd
  0
BLOCK
  5
27
330
19
100
AcDbEntity
  8
0
100
AcDbBlockBegin
  2
_Open30
 70
     0
 10
0.0
 20
0.0
 30
0.0
  3
_Open30
  1
_Open30
  0
LINE
  5
28
330
19
100
AcDbEntity
  8
0
  6
ByBlock
 62
     0
370
    -2
100
AcDbLine
 10
-1.0
 20
0.26794919
 30
0.0
 11
0.0
 21
0.0
 31
0.0
  0
LINE
  5
29
330
19
100
AcDbEntity
  8
0
  6
ByBlock
 62
     0
370
    -2
100
AcDbLine
 10
0.0
 20
0.0
 30
0.0
 11
-1.0
 21
-0.26794919
 31
0.0
  0
LINE
  5
2A
330
19
100
AcDbEntity
  8
0
  6
ByBlock
 62
     0
370
    -2
100
AcDbLine
 10
0.0
 20
0.0
 30
0.0
 11
-1.0
 21
0.0
 31
0.0
  0
ENDBLK
  5
2B
330
19
100
AcDbEntity
  8
0
100
AcDbBlockEnd
  0
BLOCK
  5
7D
330
7C
100
AcDbEntity
  8
0
100
AcDbBlockBegin
  2
XADRP-08V_b
 70
     0
 10
0.0
 20
0.0
 30
0.0
  3
XADRP-08V_b
  1

  0
LINE
  5
7E
330
7C
100
AcDbEntity
  8
OBJECT
100
AcDbLine
 10
-3.75
 20
-3.5
 30
0.0
 11
-7.350000000000023
 21
-3.5
 31
0.0
  0
LINE
  5
7F
330
7C
100
AcDbEntity
  8
OBJECT
100
AcDbLine
 10
-7.350000000000023
 20
-3.5
 30
0.0
 11
-7.350000000000023
 21
0.0
 31
0.0
  0
LINE
  5
80
330
7C
100
AcDbEntity
  8
OBJECT
100
AcDbLine
 10
-7.350000000000023
 20
0.0
 30
0.0
 11
7.350000000000023
 21
0.0
 31
0.0
  0
LINE
  5
81
330
7C
100
AcDbEntity
  8
OBJECT
100
AcDbLine
 10
7.350000000000023
 20
0.0
 30
0.0
 11
7.350000000000023
 21
-3.5
 31
0.0
  0
LINE
  5
82
330
7C
100
AcDbEntity
  8
OBJECT
100
AcDbLine
 10
7.350000000000023
 20
-3.5
 30
0.0
 11
3.75
 21
-3.5
 31
0.0
  0
LINE
  5
83
330
7C
100
AcDbEntity
  8
OBJECT
100
AcDbLine
 10
3.75
 20
-3.5
 30
0.0
 11
3.75
 21
-1.200000000000017
 31
0.0
  0
LINE
  5
84
330
7C
100
AcDbEntity
  8
OBJECT
100
AcDbLine
 10
3.75
 20
-1.200000000000017
 30
0.0
 11
-3.75
 21
-1.200000000000017
 31
0.0
  0
LINE
  5
85
330
7C
100
AcDbEntity
  8
OBJECT
100
AcDbLine
 10
-3.75
 20
-1.200000000000017
 30
0.0
 11
-3.75
 21
-3.5
 31
0.0
  0
LINE
  5
86
330
7C
100
AcDbEntity
  8
OBJECT
100
AcDbLine
 10
0.7499999999999432
 20
-10.30000000000001
 30
0.0
 11
-0.7500000000000568
 21
-10.30000000000001
 31
0.0
  0
LINE
  5
87
330
7C
100
AcDbEntity
  8
OBJECT
100
AcDbLine
 10
0.7499999999999432
 20
-12.00000000000006
 30
0.0
 11
0.7499999999999432
 21
-10.30000000000001
 31
0.0
  0
LINE
  5
88
330
7C
100
AcDbEntity
  8
OBJECT
100
AcDbLine
 10
-0.7500000000000568
 20
-12.00000000000006
 30
0.0
 11
0.7499999999999432
 21
-12.00000000000006
 31
0.0
  0
LINE
  5
89
330
7C
100
AcDbEntity
  8
OBJECT
100
AcDbLine
 10
-0.7500000000000568
 20
-10.30000000000001
 30
0.0
 11
-0.7500000000000568
 21
-12.00000000000006
 31
0.0
  0
LINE
  5
8A
330
7C
100
AcDbEntity
  8
OBJECT
100
AcDbLine
 10
-5.550000000000011
 20
-3.5
 30
0.0
 11
-5.550000000000011
 21
-12.00000000000003
 31
0.0
  0
LINE
  5
8B
330
7C
100
AcDbEntity
  8
OBJECT
100
AcDbLine
 10
5.550000000000011
 20
-3.5
 30
0.0
 11
5.550000000000011
 21
-12.00000000000003
 31
0.0
  0
LINE
  5
8C
330
7C
100
AcDbEntity
  8
OBJECT
100
AcDbLine
 10
-0.7500000000000568
 20
-12.00000000000003
 30
0.0
 11
-5.550000000000011
 21
-12.00000000000003
 31
0.0
  0
LINE
  5
8D
330
7C
100
AcDbEntity
  8
OBJECT
100
AcDbLine
 10
5.550000000000011
 20
-12.00000000000003
 30
0.0
 11
0.7499999999999432
 21
-12.00000000000003
 31
0.0
  0
ENDBLK
  5
8E
330
7C
100
AcDbEntity
  8
0
100
AcDbBlockEnd
  0
BLOCK
  5
96
330
95
100
AcDbEntity
  8
0
100
AcDbBlockBegin
  2
*D2
 70
     1
 10
0.0
 20
0.0
 30
0.0
  3
*D2
  1

  0
LINE
  5
97
330
95
100
AcDbEntity
  8
DIMS
100
AcDbLine
 10
107.0000000000001
 20
133.0
 30
0.0
 11
107.0000000000001
 21
147.242834401106
 31
0.0
  0
LINE
  5
98
330
95
100
AcDbEntity
  8
DIMS
100
AcDbLine
 10
238.9999999999999
 20
127.3959795856545
 30
0.0
 11
238.9999999999999
 21
147.242834401106
 31
0.0
  0
LINE
  5
99
330
95
100
AcDbEntity
  8
DIMS
100
AcDbLine
 10
109.5000000000001
 20
146.592834401106
 30
0.0
 11
236.4999999999999
 21
146.592834401106
 31
0.0
  0
INSERT
  5
9A
330
95
100
AcDbEntity
  8
DIMS
100
AcDbBlockReference
  2
_Open30
 10
107.0000000000001
 20
146.592834401106
 30
0.0
 41
2.5
 42
2.5
 43
2.5
 50
180.0
  0
INSERT
  5
9B
330
95
100
AcDbEntity
  8
DIMS
100
AcDbBlockReference
  2
_Open30
 10
238.9999999999999
 20
146.592834401106
 30
0.0
 41
2.5
 42
2.5
 43
2.5
  0
MTEXT
  5
9C
330
95
100
AcDbEntity
  8
DIMS
 62
     7
100
AcDbMText
 10
172.8831474313045
 20
148.492834401106
 30
0.0
 40
2.5
 41
0.0
 46
0.0
 71
     5
 72
     1
  1
\A1;L
 73
     1
 44
1.0
  0
POINT
  5
9D
330
95
100
AcDbEntity
  8
Defpoints
 62
     0
100
AcDbPoint
 10
107.0000000000001
 20
132.35
 30
0.0
  0
POINT
  5
9E
330
95
100
AcDbEntity
  8
Defpoints
 62
     0
100
AcDbPoint
 10
238.9999999999999
 20
126.7459795856545
 30
0.0
  0
POINT
  5
9F
330
95
100
AcDbEntity
  8
Defpoints
 62
     0
100
AcDbPoint
 10
238.9999999999999
 20
146.592834401106
 30
0.0
  0
ENDBLK
  5
A0
330
95
100
AcDbEntity
  8
0
100
AcDbBlockEnd
  0
BLOCK
  5
A7
330
A6
100
AcDbEntity
  8
0
100
AcDbBlockBegin
  2
*D3
 70
     1
 10
0.0
 20
0.0
 30
0.0
  3
*D3
  1

  0
LINE
  5
A8
330
A6
100
AcDbEntity
  8
DIMS
100
AcDbLine
 10
166.1875195559683
 20
124.2736154127817
 30
0.0
 11
166.1875195559683
 21
138.1815023175436
 31
0.0
  0
LINE
  5
A9
330
A6
100
AcDbEntity
  8
DIMS
100
AcDbLine
 10
166.1875195559683
 20
121.7736154127817
 30
0.0
 11
166.1875195559683
 21
121.1736154127816
 31
0.0
  0
LINE
  5
AA
330
A6
100
AcDbEntity
  8
DIMS
100
AcDbLine
 10
166.1875195559683
 20
121.7736154127817
 30
0.0
 11
166.1875195559683
 21
119.2736154127817
 31
0.0
  0
INSERT
  5
AB
330
A6
100
AcDbEntity
  8
DIMS
100
AcDbBlockReference
  2
_Open30
 10
166.1875195559683
 20
124.2736154127817
 30
0.0
 41
2.5
 42
2.5
 43
2.5
 50
90.0
  0
INSERT
  5
AC
330
A6
100
AcDbEntity
  8
DIMS
100
AcDbBlockReference
  2
_Open30
 10
166.1875195559683
 20
118.6736154127816
 30
0.0
 41
2.5
 42
2.5
 43
2.5
 50
270.0
  0
MTEXT
  5
AD
330
A6
100
AcDbEntity
  8
DIMS
 62
     7
100
AcDbMText
 10
164.2875195559683
 20
133.7275588651627
 30
0.0
 40
2.5
 41
0.0
 46
0.0
 71
     5
 72
     1
  1
\A1;Φ5.9
 11
0.0
 21
1.0
 31
0.0
 73
     1
 44
1.0
  0
POINT
  5
AE
330
A6
100
AcDbEntity
  8
Defpoints
 62
     0
100
AcDbPoint
 10
171.280960957174
 20
124.2736154127817
 30
0.0
  0
POINT
  5
AF
330
A6
100
AcDbEntity
  8
Defpoints
 62
     0
100
AcDbPoint
 10
171.280960957174
 20
118.6736154127816
 30
0.0
  0
POINT
  5
B0
330
A6
100
AcDbEntity
  8
Defpoints
 62
     0
100
AcDbPoint
 10
166.1875195559683
 20
118.6736154127816
 30
0.0
  0
ENDBLK
  5
B2
330
A6
100
AcDbEntity
  8
0
100
AcDbBlockEnd
  0
BLOCK
  5
B8
330
B7
100
AcDbEntity
  8
0
100
AcDbBlockBegin
  2
*D4
 70
     1
 10
0.0
 20
0.0
 30
0.0
  3
*D4
  1

  0
LINE
  5
B9
330
B7
100
AcDbEntity
  8
DIMS
100
AcDbLine
 10
95.00000000000006
 20
131.1999999999999
 30
0.0
 11
95.00000000000006
 21
147.2428344011059
 31
0.0
  0
LINE
  5
BA
330
B7
100
AcDbEntity
  8
DIMS
100
AcDbLine
 10
107.0000000000001
 20
132.9999999999999
 30
0.0
 11
107.0000000000001
 21
147.2428344011059
 31
0.0
  0
LINE
  5
BB
330
B7
100
AcDbEntity
  8
DIMS
100
AcDbLine
 10
97.50000000000006
 20
146.5928344011059
 30
0.0
 11
104.5000000000001
 21
146.5928344011059
 31
0.0
  0
INSERT
  5
BC
330
B7
100
AcDbEntity
  8
DIMS
100
AcDbBlockReference
  2
_Open30
 10
95.00000000000006
 20
146.5928344011059
 30
0.0
 41
2.5
 42
2.5
 43
2.5
 50
180.0
  0
INSERT
  5
BD
330
B7
100
AcDbEntity
  8
DIMS
100
AcDbBlockReference
  2
_Open30
 10
107.0000000000001
 20
146.5928344011059
 30
0.0
 41
2.5
 42
2.5
 43
2.5
  0
MTEXT
  5
BE
330
B7
100
AcDbEntity
  8
DIMS
 62
     7
100
AcDbMText
 10
101.0000000000001
 20
148.4928344011059
 30
0.0
 40
2.5
 41
0.0
 46
0.0
 71
     5
 72
     1
  1
\A1;12
 73
     1
 44
1.0
  0
POINT
  5
BF
330
B7
100
AcDbEntity
  8
Defpoints
 62
     0
100
AcDbPoint
 10
95.00000000000006
 20
130.5499999999999
 30
0.0
  0
POINT
  5
C0
330
B7
100
AcDbEntity
  8
Defpoints
 62
     0
100
AcDbPoint
 10
107.0000000000001
 20
132.3499999999999
 30
0.0
  0
POINT
  5
C1
330
B7
100
AcDbEntity
  8
Defpoints
 62
     0
100
AcDbPoint
 10
107.0000000000001
 20
146.5928344011059
 30
0.0
  0
ENDBLK
  5
C2
330
B7
100
AcDbEntity
  8
0
100
AcDbBlockEnd
  0
BLOCK
  5
C5
330
C4
100
AcDbEntity
  8
0
100
AcDbBlockBegin
  2
XADRP-08V_l
 70
     0
 10
0.0
 20
0.0
 30
0.0
  3
XADRP-08V_l
  1

  0
LINE
  5
C6
330
C4
100
AcDbEntity
  8
OBJECT
100
AcDbLine
 10
-0.7500000000000568
 20
-1.100000000000023
 30
0.0
 11
-5.550000000000011
 21
-1.100000000000023
 31
0.0
  0
LINE
  5
C7
330
C4
100
AcDbEntity
  8
OBJECT
100
AcDbLine
 10
-0.7500000000000568
 20
-0.6000000000000227
 30
0.0
 11
-0.7500000000000568
 21
-1.100000000000023
 31
0.0
  0
LINE
  5
C8
330
C4
100
AcDbEntity
  8
OBJECT
100
AcDbLine
 10
5.550000000000011
 20
-1.100000000000023
 30
0.0
 11
0.7499999999999432
 21
-1.100000000000023
 31
0.0
  0
LINE
  5
C9
330
C4
100
AcDbEntity
  8
OBJECT
100
AcDbLine
 10
5.550000000000011
 20
-2.650000000000063
 30
0.0
 11
5.550000000000011
 21
-1.100000000000023
 31
0.0
  0
LINE
  5
CA
330
C4
100
AcDbEntity
  8
OBJECT
100
AcDbLine
 10
-5.550000000000011
 20
-2.650000000000063
 30
0.0
 11
5.550000000000011
 21
-2.650000000000063
 31
0.0
  0
LINE
  5
CB
330
C4
100
AcDbEntity
  8
OBJECT
100
AcDbLine
 10
-5.550000000000011
 20
-1.100000000000023
 30
0.0
 11
-5.550000000000011
 21
-2.650000000000063
 31
0.0
  0
LINE
  5
CC
330
C4
100
AcDbEntity
  8
OBJECT
100
AcDbLine
 10
0.7499999999999432
 20
-0.6000000000000227
 30
0.0
 11
0.7499999999999432
 21
-1.100000000000023
 31
0.0
  0
LINE
  5
CD
330
C4
100
AcDbEntity
  8
OBJECT
100
AcDbLine
 10
-0.7500000000000568
 20
-0.6000000000000227
 30
0.0
 11
0.7499999999999432
 21
-0.6000000000000227
 31
0.0
  0
LINE
  5
CE
330
C4
100
AcDbEntity
  8
OBJECT
100
AcDbLine
 10
4.900000000000034
 20
-8.800000000000011
 30
0.0
 11
5.550000000000011
 21
-8.800000000000011
 31
0.0
  0
LINE
  5
CF
330
C4
100
AcDbEntity
  8
OBJECT
100
AcDbLine
 10
4.900000000000034
 20
-9.300000000000011
 30
0.0
 11
4.900000000000034
 21
-8.800000000000011
 31
0.0
  0
LINE
  5
D0
330
C4
100
AcDbEntity
  8
OBJECT
100
AcDbLine
 10
4.900000000000034
 20
-9.300000000000011
 30
0.0
 11
4.199999999999989
 21
-9.300000000000011
 31
0.0
  0
LINE
  5
D1
330
C4
100
AcDbEntity
  8
OBJECT
100
AcDbLine
 10
4.199999999999989
 20
-9.300000000000011
 30
0.0
 11
4.199999999999989
 21
-8.800000000000011
 31
0.0
  0
LINE
  5
D2
330
C4
100
AcDbEntity
  8
OBJECT
100
AcDbLine
 10
-4.199999999999989
 20
-8.800000000000011
 30
0.0
 11
4.199999999999989
 21
-8.800000000000011
 31
0.0
  0
LINE
  5
D3
330
C4
100
AcDbEntity
  8
OBJECT
100
AcDbLine
 10
-4.199999999999989
 20
-9.300000000000011
 30
0.0
 11
-4.199999999999989
 21
-8.800000000000011
 31
0.0
  0
LINE
  5
D4
330
C4
100
AcDbEntity
  8
OBJECT
100
AcDbLine
 10
-4.199999999999989
 20
-9.300000000000011
 30
0.0
 11
-4.900000000000034
 21
-9.300000000000011
 31
0.0
  0
LINE
  5
D5
330
C4
100
AcDbEntity
  8
OBJECT
100
AcDbLine
 10
-4.900000000000034
 20
-9.300000000000011
 30
0.0
 11
-4.900000000000034
 21
-8.800000000000011
 31
0.0
  0
LINE
  5
D6
330
C4
100
AcDbEntity
  8
OBJECT
100
AcDbLine
 10
-5.550000000000011
 20
-8.800000000000011
 30
0.0
 11
-4.900000000000034
 21
-8.800000000000011
 31
0.0
  0
LINE
  5
D7
330
C4
100
AcDbEntity
  8
OBJECT
100
AcDbLine
 10
5.550000000000011
 20
-7.250000000000028
 30
0.0
 11
-5.550000000000011
 21
-7.250000000000028
 31
0.0
  0
LINE
  5
D8
330
C4
100
AcDbEntity
  8
OBJECT
100
AcDbLine
 10
-5.550000000000011
 20
-7.250000000000028
 30
0.0
 11
-5.550000000000011
 21
-8.800000000000011
 31
0.0
  0
LINE
  5
D9
330
C4
100
AcDbEntity
  8
OBJECT
100
AcDbLine
 10
5.550000000000011
 20
-8.800000000000011
 30
0.0
 11
5.550000000000011
 21
-7.250000000000028
 31
0.0
  0
LINE
  5
DA
330
C4
100
AcDbEntity
  8
OBJECT
100
AcDbLine
 10
-3.400000000000034
 20
-4.050000000000011
 30
0.0
 11
-3.400000000000034
 21
-3.350000000000023
 31
0.0
  0
LINE
  5
DB
330
C4
100
AcDbEntity
  8
OBJECT
100
AcDbLine
 10
-3.400000000000034
 20
-3.350000000000023
 30
0.0
 11
-4.099999999999966
 21
-3.350000000000023
 31
0.0
  0
LINE
  5
DC
330
C4
100
AcDbEntity
  8
OBJECT
100
AcDbLine
 10
-4.099999999999966
 20
-3.350000000000023
 30
0.0
 11
-4.099999999999966
 21
-4.050000000000011
 31
0.0
  0
LINE
  5
DD
330
C4
100
AcDbEntity
  8
OBJECT
100
AcDbLine
 10
-4.099999999999966
 20
-4.050000000000011
 30
0.0
 11
-3.400000000000034
 21
-4.050000000000011
 31
0.0
  0
LINE
  5
DE
330
C4
100
AcDbEntity
  8
OBJECT
100
AcDbLine
 10
-4.099999999999966
 20
-6.550000000000011
 30
0.0
 11
-3.400000000000034
 21
-6.550000000000011
 31
0.0
  0
LINE
  5
DF
330
C4
100
AcDbEntity
  8
OBJECT
100
AcDbLine
 10
-3.400000000000034
 20
-6.550000000000011
 30
0.0
 11
-3.400000000000034
 21
-5.849999999999994
 31
0.0
  0
LINE
  5
E0
330
C4
100
AcDbEntity
  8
OBJECT
100
AcDbLine
 10
-3.400000000000034
 20
-5.849999999999994
 30
0.0
 11
-4.099999999999966
 21
-5.849999999999994
 31
0.0
  0
LINE
  5
E1
330
C4
100
AcDbEntity
  8
OBJECT
100
AcDbLine
 10
-4.099999999999966
 20
-5.849999999999994
 30
0.0
 11
-4.099999999999966
 21
-6.550000000000011
 31
0.0
  0
LINE
  5
E2
330
C4
100
AcDbEntity
  8
OBJECT
100
AcDbLine
 10
-0.9000000000000341
 20
-4.050000000000011
 30
0.0
 11
-0.9000000000000341
 21
-3.350000000000023
 31
0.0
  0
LINE
  5
E3
330
C4
100
AcDbEntity
  8
OBJECT
100
AcDbLine
 10
-0.9000000000000341
 20
-3.350000000000023
 30
0.0
 11
-1.599999999999966
 21
-3.350000000000023
 31
0.0
  0
LINE
  5
E4
330
C4
100
AcDbEntity
  8
OBJECT
100
AcDbLine
 10
-1.599999999999966
 20
-3.350000000000023
 30
0.0
 11
-1.599999999999966
 21
-4.050000000000011
 31
0.0
  0
LINE
  5
E5
330
C4
100
AcDbEntity
  8
OBJECT
100
AcDbLine
 10
-1.599999999999966
 20
-4.050000000000011
 30
0.0
 11
-0.9000000000000341
 21
-4.050000000000011
 31
0.0
  0
LINE
  5
E6
330
C4
100
AcDbEntity
  8
OBJECT
100
AcDbLine
 10
-1.599999999999966
 20
-6.550000000000011
 30
0.0
 11
-0.9000000000000341
 21
-6.550000000000011
 31
0.0
  0
LINE
  5
E7
330
C4
100
AcDbEntity
  8
OBJECT
100
AcDbLine
 10
-0.9000000000000341
 20
-6.550000000000011
 30
0.0
 11
-0.9000000000000341
 21
-5.849999999999994
 31
0.0
  0
LINE
  5
E8
330
C4
100
AcDbEntity
  8
OBJECT
100
AcDbLine
 10
-0.9000000000000341
 20
-5.849999999999994
 30
0.0
 11
-1.599999999999966
 21
-5.849999999999994
 31
0.0
  0
LINE
  5
E9
330
C4
100
AcDbEntity
  8
OBJECT
100
AcDbLine
 10
-1.599999999999966
 20
-5.849999999999994
 30
0.0
 11
-1.599999999999966
 21
-6.550000000000011
 31
0.0
  0
LINE
  5
EA
330
C4
100
AcDbEntity
  8
OBJECT
100
AcDbLine
 10
1.599999999999966
 20
-4.050000000000011
 30
0.0
 11
1.599999999999966
 21
-3.350000000000023
 31
0.0
  0
LINE
  5
EB
330
C4
100
AcDbEntity
  8
OBJECT
100
AcDbLine
 10
1.599999999999966
 20
-3.350000000000023
 30
0.0
 11
0.9000000000000341
 21
-3.350000000000023
 31
0.0
  0
LINE
  5
EC
330
C4
100
AcDbEntity
  8
OBJECT
100
AcDbLine
 10
0.9000000000000341
 20
-3.350000000000023
 30
0.0
 11
0.9000000000000341
 21
-4.050000000000011
 31
0.0
  0
LINE
  5
ED
330
C4
100
AcDbEntity
  8
OBJECT
100
AcDbLine
 10
0.9000000000000341
 20
-4.050000000000011
 30
0.0
 11
1.599999999999966
 21
-4.050000000000011
 31
0.0
  0
LINE
  5
EE
330
C4
100
AcDbEntity
  8
OBJECT
100
AcDbLine
 10
0.9000000000000341
 20
-6.550000000000011
 30
0.0
 11
1.599999999999966
 21
-6.550000000000011
 31
0.0
  0
LINE
  5
EF
330
C4
100
AcDbEntity
  8
OBJECT
100
AcDbLine
 10
1.599999999999966
 20
-6.550000000000011
 30
0.0
 11
1.599999999999966
 21
-5.849999999999994
 31
0.0
  0
LINE
  5
F0
330
C4
100
AcDbEntity
  8
OBJECT
100
AcDbLine
 10
1.599999999999966
 20
-5.849999999999994
 30
0.0
 11
0.9000000000000341
 21
-5.849999999999994
 31
0.0
  0
LINE
  5
F1
330
C4
100
AcDbEntity
  8
OBJECT
100
AcDbLine
 10
0.9000000000000341
 20
-5.849999999999994
 30
0.0
 11
0.9000000000000341
 21
-6.550000000000011
 31
0.0
  0
LINE
  5
F2
330
C4
100
AcDbEntity
  8
OBJECT
100
AcDbLine
 10
4.099999999999966
 20
-4.050000000000011
 30
0.0
 11
4.099999999999966
 21
-3.350000000000023
 31
0.0
  0
LINE
  5
F3
330
C4
100
AcDbEntity
  8
OBJECT
100
AcDbLine
 10
4.099999999999966
 20
-3.350000000000023
 30
0.0
 11
3.400000000000034
 21
-3.350000000000023
 31
0.0
  0
LINE
  5
F4
330
C4
100
AcDbEntity
  8
OBJECT
100
AcDbLine
 10
3.400000000000034
 20
-3.350000000000023
 30
0.0
 11
3.400000000000034
 21
-4.050000000000011
 31
0.0
  0
LINE
  5
F5
330
C4
100
AcDbEntity
  8
OBJECT
100
AcDbLine
 10
3.400000000000034
 20
-4.050000000000011
 30
0.0
 11
4.099999999999966
 21
-4.050000000000011
 31
0.0
  0
LINE
  5
F6
330
C4
100
AcDbEntity
  8
OBJECT
100
AcDbLine
 10
3.400000000000034
 20
-6.550000000000011
 30
0.0
 11
4.099999999999966
 21
-6.550000000000011
 31
0.0
  0
LINE
  5
F7
330
C4
100
AcDbEntity
  8
OBJECT
100
AcDbLine
 10
4.099999999999966
 20
-6.550000000000011
 30
0.0
 11
4.099999999999966
 21
-5.849999999999994
 31
0.0
  0
LINE
  5
F8
330
C4
100
AcDbEntity
  8
OBJECT
100
AcDbLine
 10
4.099999999999966
 20
-5.849999999999994
 30
0.0
 11
3.400000000000034
 21
-5.849999999999994
 31
0.0
  0
LINE
  5
F9
330
C4
100
AcDbEntity
  8
OBJECT
100
AcDbLine
 10
3.400000000000034
 20
-5.849999999999994
 30
0.0
 11
3.400000000000034
 21
-6.550000000000011
 31
0.0
  0
LINE
  5
FA
330
C4
100
AcDbEntity
  8
OBJECT
100
AcDbLine
 10
-5.550000000000011
 20
-2.650000000000034
 30
0.0
 11
-5.550000000000011
 21
-7.250000000000028
 31
0.0
  0
LINE
  5
FB
330
C4
100
AcDbEntity
  8
OBJECT
100
AcDbLine
 10
5.550000000000011
 20
-7.250000000000028
 30
0.0
 11
5.550000000000011
 21
-2.650000000000034
 31
0.0
  0
LINE
  5
FC
330
C4
100
AcDbEntity
  8
OBJECT
100
AcDbLine
 10
2.5
 20
-9.400000000000034
 30
0.0
 11
2.5
 21
-10.90000000000001
 31
0.0
  0
LINE
  5
FD
330
C4
100
AcDbEntity
  8
OBJECT
100
AcDbLine
 10
-2.5
 20
-10.90000000000001
 30
0.0
 11
2.5
 21
-10.90000000000001
 31
0.0
  0
LINE
  5
FE
330
C4
100
AcDbEntity
  8
OBJECT
100
AcDbLine
 10
-2.5
 20
-9.400000000000034
 30
0.0
 11
-2.5
 21
-10.90000000000001
 31
0.0
  0
LINE
  5
FF
330
C4
100
AcDbEntity
  8
OBJECT
100
AcDbLine
 10
-2.5
 20
-9.400000000000034
 30
0.0
 11
2.5
 21
-9.400000000000034
 31
0.0
  0
LINE
  5
100
330
C4
100
AcDbEntity
  8
OBJECT
100
AcDbLine
 10
-4.199999999999989
 20
-11.40000000000001
 30
0.0
 11
-4.900000000000034
 21
-11.40000000000001
 31
0.0
  0
LINE
  5
101
330
C4
100
AcDbEntity
  8
OBJECT
100
AcDbLine
 10
-4.199999999999989
 20
-11.40000000000001
 30
0.0
 11
-4.199999999999989
 21
-9.300000000000011
 31
0.0
  0
LINE
  5
102
330
C4
100
AcDbEntity
  8
OBJECT
100
AcDbLine
 10
-4.900000000000034
 20
-11.40000000000001
 30
0.0
 11
-4.900000000000034
 21
-9.300000000000011
 31
0.0
  0
LINE
  5
103
330
C4
100
AcDbEntity
  8
OBJECT
100
AcDbLine
 10
4.199999999999989
 20
-11.40000000000001
 30
0.0
 11
4.900000000000034
 21
-11.40000000000001
 31
0.0
  0
LINE
  5
104
330
C4
100
AcDbEntity
  8
OBJECT
100
AcDbLine
 10
4.900000000000034
 20
-11.40000000000001
 30
0.0
 11
4.900000000000034
 21
-9.300000000000011
 31
0.0
  0
LINE
  5
105
330
C4
100
AcDbEntity
  8
OBJECT
100
AcDbLine
 10
4.199999999999989
 20
-11.40000000000001
 30
0.0
 11
4.199999999999989
 21
-9.300000000000011
 31
0.0
  0
LINE
  5
106
330
C4
100
AcDbEntity
  8
OBJECT
100
AcDbLine
 10
-1.25
 20
-11.40000000000001
 30
0.0
 11
1.249999999999943
 21
-11.40000000000001
 31
0.0
  0
LINE
  5
107
330
C4
100
AcDbEntity
  8
OBJECT
100
AcDbLine
 10
1.249999999999943
 20
-11.40000000000001
 30
0.0
 11
1.249999999999943
 21
-10.90000000000001
 31
0.0
  0
LINE
  5
108
330
C4
100
AcDbEntity
  8
OBJECT
100
AcDbLine
 10
-1.25
 20
-11.40000000000001
 30
0.0
 11
-1.25
 21
-10.90000000000001
 31
0.0
  0
LINE
  5
109
330
C4
100
AcDbEntity
  8
OBJECT
100
AcDbLine
 10
-7.350000000000023
 20
0.0
 30
0.0
 11
-7.350000000000023
 21
-3.200000000000017
 31
0.0
  0
LINE
  5
10A
330
C4
100
AcDbEntity
  8
OBJECT
100
AcDbLine
 10
-3.75
 20
0.0
 30
0.0
 11
-7.350000000000023
 21
0.0
 31
0.0
  0
LINE
  5
10B
330
C4
100
AcDbEntity
  8
OBJECT
100
AcDbLine
 10
-3.75
 20
-1.099999999999994
 30
0.0
 11
-3.75
 21
0.0
 31
0.0
  0
LINE
  5
10C
330
C4
100
AcDbEntity
  8
OBJECT
100
AcDbLine
 10
-7.350000000000023
 20
-3.200000000000017
 30
0.0
 11
-5.550000000000011
 21
-3.200000000000017
 31
0.0
  0
LINE
  5
10D
330
C4
100
AcDbEntity
  8
OBJECT
100
AcDbLine
 10
3.75
 20
-1.099999999999994
 30
0.0
 11
3.75
 21
0.0
 31
0.0
  0
LINE
  5
10E
330
C4
100
AcDbEntity
  8
OBJECT
100
AcDbLine
 10
7.350000000000023
 20
0.0
 30
0.0
 11
3.75
 21
0.0
 31
0.0
  0
LINE
  5
10F
330
C4
100
AcDbEntity
  8
OBJECT
100
AcDbLine
 10
7.350000000000023
 20
-3.200000000000017
 30
0.0
 11
7.350000000000023
 21
0.0
 31
0.0
  0
LINE
  5
110
330
C4
100
AcDbEntity
  8
OBJECT
100
AcDbLine
 10
5.550000000000011
 20
-3.200000000000017
 30
0.0
 11
7.350000000000023
 21
-3.200000000000017
 31
0.0
  0
LINE
  5
111
330
C4
100
AcDbEntity
  8
OBJECT
100
AcDbLine
 10
7.350000000000023
 20
-9.900000000000034
 30
0.0
 11
7.350000000000023
 21
-6.700000000000017
 31
0.0
  0
LINE
  5
112
330
C4
100
AcDbEntity
  8
OBJECT
100
AcDbLine
 10
4.900000000000034
 20
-9.900000000000034
 30
0.0
 11
7.350000000000023
 21
-9.900000000000034
 31
0.0
  0
LINE
  5
113
330
C4
100
AcDbEntity
  8
OBJECT
100
AcDbLine
 10
7.350000000000023
 20
-6.700000000000017
 30
0.0
 11
5.550000000000011
 21
-6.700000000000017
 31
0.0
  0
LINE
  5
114
330
C4
100
AcDbEntity
  8
OBJECT
100
AcDbLine
 10
-7.350000000000023
 20
-9.900000000000034
 30
0.0
 11
-4.900000000000034
 21
-9.900000000000034
 31
0.0
  0
LINE
  5
115
330
C4
100
AcDbEntity
  8
OBJECT
100
AcDbLine
 10
-5.550000000000011
 20
-6.700000000000017
 30
0.0
 11
-7.350000000000023
 21
-6.700000000000017
 31
0.0
  0
LINE
  5
116
330
C4
100
AcDbEntity
  8
OBJECT
100
AcDbLine
 10
-7.350000000000023
 20
-6.700000000000017
 30
0.0
 11
-7.350000000000023
 21
-9.900000000000034
 31
0.0
  0
LINE
  5
117
330
C4
100
AcDbEntity
  8
OBJECT
100
AcDbLine
 10
3.75
 20
-10.90000000000001
 30
0.0
 11
3.75
 21
-8.800000000000011
 31
0.0
  0
LINE
  5
118
330
C4
100
AcDbEntity
  8
OBJECT
100
AcDbLine
 10
2.5
 20
-8.800000000000011
 30
0.0
 11
2.5
 21
-9.400000000000034
 31
0.0
  0
LINE
  5
119
330
C4
100
AcDbEntity
  8
OBJECT
100
AcDbLine
 10
2.5
 20
-10.90000000000001
 30
0.0
 11
3.75
 21
-10.90000000000001
 31
0.0
  0
LINE
  5
11A
330
C4
100
AcDbEntity
  8
OBJECT
100
AcDbLine
 10
-3.75
 20
-10.90000000000001
 30
0.0
 11
-3.75
 21
-8.800000000000011
 31
0.0
  0
LINE
  5
11B
330
C4
100
AcDbEntity
  8
OBJECT
100
AcDbLine
 10
-2.5
 20
-9.400000000000034
 30
0.0
 11
-2.5
 21
-8.800000000000011
 31
0.0
  0
LINE
  5
11C
330
C4
100
AcDbEntity
  8
OBJECT
100
AcDbLine
 10
-3.75
 20
-10.90000000000001
 30
0.0
 11
-2.5
 21
-10.90000000000001
 31
0.0
  0
LINE
  5
11D
330
C4
100
AcDbEntity
  8
OBJECT
100
AcDbLine
 10
-6.25
 20
-4.300000000000011
 30
0.0
 11
-6.25
 21
-5.700000000000017
 31
0.0
  0
LINE
  5
11E
330
C4
100
AcDbEntity
  8
OBJECT
100
AcDbLine
 10
-6.25
 20
-4.300000000000011
 30
0.0
 11
-5.550000000000011
 21
-4.300000000000011
 31
0.0
  0
LINE
  5
11F
330
C4
100
AcDbEntity
  8
OBJECT
100
AcDbLine
 10
-6.25
 20
-5.700000000000017
 30
0.0
 11
-5.550000000000011
 21
-5.700000000000017
 31
0.0
  0
LINE
  5
120
330
C4
100
AcDbEntity
  8
OBJECT
100
AcDbLine
 10
5.550000000000011
 20
-5.700000000000017
 30
0.0
 11
6.25
 21
-5.700000000000017
 31
0.0
  0
LINE
  5
121
330
C4
100
AcDbEntity
  8
OBJECT
100
AcDbLine
 10
5.550000000000011
 20
-4.300000000000011
 30
0.0
 11
6.25
 21
-4.300000000000011
 31
0.0
  0
LINE
  5
122
330
C4
100
AcDbEntity
  8
OBJECT
100
AcDbLine
 10
6.25
 20
-4.300000000000011
 30
0.0
 11
6.25
 21
-5.700000000000017
 31
0.0
  0
LINE
  5
123
330
C4
100
AcDbEntity
  8
OBJECT
100
AcDbLine
 10
3.75
 20
0.0
 30
0.0
 11
-3.75
 21
0.0
 31
0.0
  0
LINE
  5
124
330
C4
100
AcDbEntity
  8
OBJECT
100
AcDbLine
 10
-3.75
 20
-11.40000000000001
 30
0.0
 11
-1.25
 21
-11.40000000000001
 31
0.0
  0
LINE
  5
125
330
C4
100
AcDbEntity
  8
OBJECT
100
AcDbLine
 10
-3.75
 20
-11.40000000000001
 30
0.0
 11
-3.75
 21
-10.90000000000001
 31
0.0
  0
LINE
  5
126
330
C4
100
AcDbEntity
  8
OBJECT
100
AcDbLine
 10
1.249999999999943
 20
-11.40000000000001
 30
0.0
 11
3.75
 21
-11.40000000000001
 31
0.0
  0
LINE
  5
127
330
C4
100
AcDbEntity
  8
OBJECT
100
AcDbLine
 10
3.75
 20
-11.40000000000001
 30
0.0
 11
3.75
 21
-10.90000000000001
 31
0.0
  0
ENDBLK
  5
128
330
C4
100
AcDbEntity
  8
0
100
AcDbBlockEnd
  0
BLOCK
  5
12B
330
12A
100
AcDbEntity
  8
0
100
AcDbBlockBegin
  2
*T6
 70
     1
 10
0.0
 20
0.0
 30
0.0
  3
*T6
  1

  0
MTEXT
  5
12C
330
12A
100
AcDbEntity
  8
0
100
AcDbMText
 10
14.0
 20
-2.5
 30
0.0
 40
2.5
 41
27.0
 46
0.0
 71
     5
 72
     5
  1
長さL（単位mm）
  7
Bom
 73
     1
 44
1.0
  0
MTEXT
  5
12E
330
12A
100
AcDbEntity
  8
0
100
AcDbMText
 10
50.5
 20
-2.5
 30
0.0
 40
2.5
 41
44.0
 46
0.0
 71
     5
 72
     5
  1
名称
  7
Bom
 73
     1
 44
1.0
  0
MTEXT
  5
12F
330
12A
100
AcDbEntity
  8
0
100
AcDbMText
 10
90.5
 20
-2.5
 30
0.0
 40
2.5
 41
34.0
 46
0.0
 71
     5
 72
     5
  1
型番
  7
Bom
 73
     1
 44
1.0
  0
MTEXT
  5
130
330
12A
100
AcDbEntity
  8
0
100
AcDbMText
 10
14.0
 20
-7.5
 30
0.0
 40
2.5
 41
27.0
 46
0.0
 71
     5
 72
     5
  1
1000
  7
Bom
 73
     1
 44
1.0
  0
MTEXT
  5
131
330
12A
100
AcDbEntity
  8
0
100
AcDbMText
 10
50.5
 20
-7.5
 30
0.0
 40
2.5
 41
44.0
 46
0.0
 71
     5
 72
     5
  1
電源ケーブルA 1000mm
  7
Bom
 73
     1
 44
1.0
  0
MTEXT
  5
132
330
12A
100
AcDbEntity
  8
0
100
AcDbMText
 10
90.5
 20
-7.5
 30
0.0
 40
2.5
 41
34.0
 46
0.0
 71
     5
 72
     5
  1
CMPWA1-1000S
  7
Bom
 73
     1
 44
1.0
  0
MTEXT
  5
133
330
12A
100
AcDbEntity
  8
0
100
AcDbMText
 10
14.0
 20
-12.5
 30
0.0
 40
2.5
 41
27.0
 46
0.0
 71
     5
 72
     5
  1
3000
  7
Bom
 73
     1
 44
1.0
  0
MTEXT
  5
134
330
12A
100
AcDbEntity
  8
0
100
AcDbMText
 10
50.5
 20
-12.5
 30
0.0
 40
2.5
 41
44.0
 46
0.0
 71
     5
 72
     5
  1
電源ケーブルA 3000mm
  7
Bom
 73
     1
 44
1.0
  0
MTEXT
  5
135
330
12A
100
AcDbEntity
  8
0
100
AcDbMText
 10
90.5
 20
-12.5
 30
0.0
 40
2.5
 41
34.0
 46
0.0
 71
     5
 72
     5
  1
CMPWA1-3000S
  7
Bom
 73
     1
 44
1.0
  0
MTEXT
  5
136
330
12A
100
AcDbEntity
  8
0
100
AcDbMText
 10
14.0
 20
-17.5
 30
0.0
 40
2.5
 41
27.0
 46
0.0
 71
     5
 72
     5
  1
5000
  7
Bom
 73
     1
 44
1.0
  0
MTEXT
  5
137
330
12A
100
AcDbEntity
  8
0
100
AcDbMText
 10
50.5
 20
-17.5
 30
0.0
 40
2.5
 41
44.0
 46
0.0
 71
     5
 72
     5
  1
電源ケーブルA 5000mm
  7
Bom
 73
     1
 44
1.0
  0
MTEXT
  5
138
330
12A
100
AcDbEntity
  8
0
100
AcDbMText
 10
90.5
 20
-17.5
 30
0.0
 40
2.5
 41
34.0
 46
0.0
 71
     5
 72
     5
  1
CMPWA1-5000S
  7
Bom
 73
     1
 44
1.0
  0
LINE
  5
139
330
12A
100
AcDbEntity
  8
0
  6
ByBlock
100
AcDbLine
 10
0.0
 20
0.0
 30
0.0
 11
108.0
 21
0.0
 31
0.0
  0
LINE
  5
13A
330
12A
100
AcDbEntity
  8
0
  6
ByBlock
100
AcDbLine
 10
108.0
 20
0.0
 30
0.0
 11
108.0
 21
-20.0
 31
0.0
  0
LINE
  5
13B
330
12A
100
AcDbEntity
  8
0
  6
ByBlock
100
AcDbLine
 10
0.0
 20
-5.0
 30
0.0
 11
108.0
 21
-5.0
 31
0.0
  0
LINE
  5
13C
330
12A
100
AcDbEntity
  8
0
  6
ByBlock
100
AcDbLine
 10
0.0
 20
-10.0
 30
0.0
 11
108.0
 21
-10.0
 31
0.0
  0
LINE
  5
13D
330
12A
100
AcDbEntity
  8
0
  6
ByBlock
100
AcDbLine
 10
0.0
 20
-15.0
 30
0.0
 11
108.0
 21
-15.0
 31
0.0
  0
LINE
  5
13E
330
12A
100
AcDbEntity
  8
0
  6
ByBlock
100
AcDbLine
 10
0.0
 20
-20.0
 30
0.0
 11
108.0
 21
-20.0
 31
0.0
  0
LINE
  5
13F
330
12A
100
AcDbEntity
  8
0
  6
ByBlock
100
AcDbLine
 10
0.0
 20
0.0
 30
0.0
 11
0.0
 21
-20.0
 31
0.0
  0
LINE
  5
140
330
12A
100
AcDbEntity
  8
0
  6
ByBlock
100
AcDbLine
 10
28.0
 20
0.0
 30
0.0
 11
28.0
 21
-20.0
 31
0.0
  0
LINE
  5
141
330
12A
100
AcDbEntity
  8
0
  6
ByBlock
100
AcDbLine
 10
73.0
 20
0.0
 30
0.0
 11
73.0
 21
-20.0
 31
0.0
  0
ENDBLK
  5
142
330
12A
100
AcDbEntity
  8
0
100
AcDbBlockEnd
  0
BLOCK
  5
14B
330
14A
100
AcDbEntity
  8
0
100
AcDbBlockBegin
  2
*D7
 70
     1
 10
0.0
 20
0.0
 30
0.0
  3
*D7
  1

  0
LINE
  5
14C
330
14A
100
AcDbEntity
  8
DIMS
100
AcDbLine
 10
55.00000000000014
 20
130.55
 30
0.0
 11
55.00000000000014
 21
147.242834401106
 31
0.0
  0
LINE
  5
14D
330
14A
100
AcDbEntity
  8
DIMS
100
AcDbLine
 10
66.4
 20
133.0
 30
0.0
 11
66.4
 21
147.242834401106
 31
0.0
  0
LINE
  5
14E
330
14A
100
AcDbEntity
  8
DIMS
100
AcDbLine
 10
55.00000000000014
 20
146.592834401106
 30
0.0
 11
66.4
 21
146.592834401106
 31
0.0
  0
LINE
  5
14F
330
14A
100
AcDbEntity
  8
DIMS
100
AcDbLine
 10
52.50000000000014
 20
146.592834401106
 30
0.0
 11
50.00000000000014
 21
146.592834401106
 31
0.0
  0
LINE
  5
150
330
14A
100
AcDbEntity
  8
DIMS
100
AcDbLine
 10
68.9
 20
146.592834401106
 30
0.0
 11
71.4
 21
146.592834401106
 31
0.0
  0
INSERT
  5
151
330
14A
100
AcDbEntity
  8
DIMS
100
AcDbBlockReference
  2
_Open30
 10
55.00000000000014
 20
146.592834401106
 30
0.0
 41
2.5
 42
2.5
 43
2.5
  0
INSERT
  5
152
330
14A
100
AcDbEntity
  8
DIMS
100
AcDbBlockReference
  2
_Open30
 10
66.4
 20
146.592834401106
 30
0.0
 41
2.5
 42
2.5
 43
2.5
 50
180.0
  0
MTEXT
  5
153
330
14A
100
AcDbEntity
  8
DIMS
 62
     7
100
AcDbMText
 10
60.57565122258829
 20
148.492834401106
 30
0.0
 40
2.5
 41
0.0
 46
0.0
 71
     5
 72
     1
  1
\A1;11.4
 73
     1
 44
1.0
  0
POINT
  5
154
330
14A
100
AcDbEntity
  8
Defpoints
 62
     0
100
AcDbPoint
 10
55.00000000000014
 20
129.9
 30
0.0
  0
POINT
  5
1D8
330
14A
100
AcDbEntity
  8
Defpoints
 62
     0
100
AcDbPoint
 10
66.4
 20
132.35
 30
0.0
  0
POINT
  5
1D9
330
14A
100
AcDbEntity
  8
Defpoints
 62
     0
100
AcDbPoint
 10
66.4
 20
146.592834401106
 30
0.0
  0
ENDBLK
  5
155
330
14A
100
AcDbEntity
  8
0
100
AcDbBlockEnd
  0
BLOCK
  5
15B
330
15A
100
AcDbEntity
  8
0
100
AcDbBlockBegin
  2
*D8
 70
     1
 10
0.0
 20
0.0
 30
0.0
  3
*D8
  1

  0
LINE
  5
15C
330
15A
100
AcDbEntity
  8
DIMS
100
AcDbLine
 10
55.85000000000003
 20
132.35
 30
0.0
 11
47.87616453415951
 21
132.35
 31
0.0
  0
LINE
  5
15D
330
15A
100
AcDbEntity
  8
DIMS
100
AcDbLine
 10
55.85000000000003
 20
117.65
 30
0.0
 11
47.87616453415951
 21
117.65
 31
0.0
  0
LINE
  5
15E
330
15A
100
AcDbEntity
  8
DIMS
100
AcDbLine
 10
48.52616453415951
 20
129.85
 30
0.0
 11
48.52616453415951
 21
120.15
 31
0.0
  0
INSERT
  5
15F
330
15A
100
AcDbEntity
  8
DIMS
100
AcDbBlockReference
  2
_Open30
 10
48.52616453415951
 20
132.35
 30
0.0
 41
2.5
 42
2.5
 43
2.5
 50
90.0
  0
INSERT
  5
160
330
15A
100
AcDbEntity
  8
DIMS
100
AcDbBlockReference
  2
_Open30
 10
48.52616453415951
 20
117.65
 30
0.0
 41
2.5
 42
2.5
 43
2.5
 50
270.0
  0
MTEXT
  5
161
330
15A
100
AcDbEntity
  8
DIMS
 62
     7
100
AcDbMText
 10
46.62616453415951
 20
125.0
 30
0.0
 40
2.5
 41
0.0
 46
0.0
 71
     5
 72
     1
  1
\A1;14.7
 11
0.0
 21
1.0
 31
0.0
 73
     1
 44
1.0
  0
POINT
  5
162
330
15A
100
AcDbEntity
  8
Defpoints
 62
     0
100
AcDbPoint
 10
56.50000000000003
 20
132.35
 30
0.0
  0
POINT
  5
163
330
15A
100
AcDbEntity
  8
Defpoints
 62
     0
100
AcDbPoint
 10
56.50000000000003
 20
117.65
 30
0.0
  0
POINT
  5
164
330
15A
100
AcDbEntity
  8
Defpoints
 62
     0
100
AcDbPoint
 10
48.52616453415951
 20
117.65
 30
0.0
  0
ENDBLK
  5
165
330
15A
100
AcDbEntity
  8
0
100
AcDbBlockEnd
  0
BLOCK
  5
1C1
330
1C0
100
AcDbEntity
  8
0
100
AcDbBlockBegin
  2
*D9
 70
     1
 10
0.0
 20
0.0
 30
0.0
  3
*D9
  1

  0
LINE
  5
1C3
330
1C0
100
AcDbEntity
  8
DIMS
100
AcDbLine
 10
154.1277731604731
 20
127.95
 30
0.0
 11
154.1277731604731
 21
141.8634672619048
 31
0.0
  0
LINE
  5
1C4
330
1C0
100
AcDbEntity
  8
DIMS
100
AcDbLine
 10
154.1277731604731
 20
127.95
 30
0.0
 11
154.1277731604731
 21
122.0499999999999
 31
0.0
  0
LINE
  5
1C5
330
1C0
100
AcDbEntity
  8
DIMS
100
AcDbLine
 10
154.1277731604731
 20
130.45
 30
0.0
 11
154.1277731604731
 21
132.95
 31
0.0
  0
LINE
  5
1C6
330
1C0
100
AcDbEntity
  8
DIMS
100
AcDbLine
 10
154.1277731604731
 20
119.5499999999999
 30
0.0
 11
154.1277731604731
 21
117.0499999999999
 31
0.0
  0
INSERT
  5
1C7
330
1C0
100
AcDbEntity
  8
DIMS
100
AcDbBlockReference
  2
_Open30
 10
154.1277731604731
 20
127.95
 30
0.0
 41
2.5
 42
2.5
 43
2.5
 50
270.0
  0
INSERT
  5
1C8
330
1C0
100
AcDbEntity
  8
DIMS
100
AcDbBlockReference
  2
_Open30
 10
154.1277731604731
 20
122.0499999999999
 30
0.0
 41
2.5
 42
2.5
 43
2.5
 50
90.0
  0
MTEXT
  5
1C9
330
1C0
100
AcDbEntity
  8
DIMS
 62
     7
100
AcDbMText
 10
152.227773160473
 20
137.4095238095238
 30
0.0
 40
2.5
 41
0.0
 46
0.0
 71
     5
 72
     1
  1
\A1;Φ5.9
 11
0.0
 21
1.0
 31
0.0
 73
     1
 44
1.0
  0
POINT
  5
1CA
330
1C0
100
AcDbEntity
  8
Defpoints
 62
     0
100
AcDbPoint
 10
134.9999999999999
 20
127.95
 30
0.0
  0
POINT
  5
1CE
330
1C0
100
AcDbEntity
  8
Defpoints
 62
     0
100
AcDbPoint
 10
134.9999999999999
 20
122.0499999999999
 30
0.0
  0
POINT
  5
1D4
330
1C0
100
AcDbEntity
  8
Defpoints
 62
     0
100
AcDbPoint
 10
154.1277731604731
 20
122.0499999999999
 30
0.0
  0
ENDBLK
  5
1C2
330
1C0
100
AcDbEntity
  8
0
100
AcDbBlockEnd
  0
BLOCK
  5
1ED
330
1EC
100
AcDbEntity
  8
0
100
AcDbBlockBegin
  2
*D10
 70
     1
 10
0.0
 20
0.0
 30
0.0
  3
*D10
  1

  0
LINE
  5
1EF
330
1EC
100
AcDbEntity
  8
DIMS
100
AcDbLine
 10
124.280960957174
 20
117.8236154127816
 30
0.0
 11
124.280960957174
 21
106.3736154127816
 31
0.0
  0
LINE
  5
1F0
330
1EC
100
AcDbEntity
  8
DIMS
100
AcDbLine
 10
224.280960957174
 20
117.7736154127816
 30
0.0
 11
224.280960957174
 21
106.3736154127816
 31
0.0
  0
LINE
  5
1F1
330
1EC
100
AcDbEntity
  8
DIMS
100
AcDbLine
 10
126.780960957174
 20
107.0236154127816
 30
0.0
 11
221.780960957174
 21
107.0236154127816
 31
0.0
  0
INSERT
  5
1F2
330
1EC
100
AcDbEntity
  8
DIMS
100
AcDbBlockReference
  2
_Open30
 10
124.280960957174
 20
107.0236154127816
 30
0.0
 41
2.5
 42
2.5
 43
2.5
 50
180.0
  0
INSERT
  5
1F3
330
1EC
100
AcDbEntity
  8
DIMS
100
AcDbBlockReference
  2
_Open30
 10
224.280960957174
 20
107.0236154127816
 30
0.0
 41
2.5
 42
2.5
 43
2.5
  0
MTEXT
  5
1F4
330
1EC
100
AcDbEntity
  8
DIMS
 62
     7
100
AcDbMText
 10
174.280960957174
 20
108.9236154127816
 30
0.0
 40
2.5
 41
0.0
 46
0.0
 71
     5
 72
     1
  1
\A1;100
 73
     1
 44
1.0
  0
POINT
  5
1F5
330
1EC
100
AcDbEntity
  8
Defpoints
 62
     0
100
AcDbPoint
 10
124.280960957174
 20
118.4736154127816
 30
0.0
  0
POINT
  5
1F6
330
1EC
100
AcDbEntity
  8
Defpoints
 62
     0
100
AcDbPoint
 10
224.280960957174
 20
118.4236154127816
 30
0.0
  0
POINT
  5
1F7
330
1EC
100
AcDbEntity
  8
Defpoints
 62
     0
100
AcDbPoint
 10
224.280960957174
 20
107.0236154127816
 30
0.0
  0
ENDBLK
  5
1EE
330
1EC
100
AcDbEntity
  8
0
100
AcDbBlockEnd
  0
BLOCK
  5
1FD
330
1FC
100
AcDbEntity
  8
0
100
AcDbBlockBegin
  2
*D11
 70
     1
 10
0.0
 20
0.0
 30
0.0
  3
*D11
  1

  0
LINE
  5
1FF
330
1FC
100
AcDbEntity
  8
DIMS
100
AcDbLine
 10
136.930960957174
 20
124.9736154127817
 30
0.0
 11
145.580960957174
 21
124.9736154127817
 31
0.0
  0
LINE
  5
200
330
1FC
100
AcDbEntity
  8
DIMS
100
AcDbLine
 10
136.930960957174
 20
117.9736154127816
 30
0.0
 11
145.580960957174
 21
117.9736154127816
 31
0.0
  0
LINE
  5
201
330
1FC
100
AcDbEntity
  8
DIMS
100
AcDbLine
 10
144.930960957174
 20
122.4736154127817
 30
0.0
 11
144.930960957174
 21
120.4736154127816
 31
0.0
  0
INSERT
  5
202
330
1FC
100
AcDbEntity
  8
DIMS
100
AcDbBlockReference
  2
_Open30
 10
144.930960957174
 20
124.9736154127817
 30
0.0
 41
2.5
 42
2.5
 43
2.5
 50
90.0
  0
INSERT
  5
203
330
1FC
100
AcDbEntity
  8
DIMS
100
AcDbBlockReference
  2
_Open30
 10
144.930960957174
 20
117.9736154127816
 30
0.0
 41
2.5
 42
2.5
 43
2.5
 50
270.0
  0
MTEXT
  5
204
330
1FC
100
AcDbEntity
  8
DIMS
 62
     7
100
AcDbMText
 10
143.030960957174
 20
121.4736154127816
 30
0.0
 40
2.5
 41
0.0
 46
0.0
 71
     5
 72
     1
  1
\A1;7
 11
0.0
 21
1.0
 31
0.0
 73
     1
 44
1.0
  0
POINT
  5
205
330
1FC
100
AcDbEntity
  8
Defpoints
 62
     0
100
AcDbPoint
 10
136.280960957174
 20
124.9736154127817
 30
0.0
  0
POINT
  5
206
330
1FC
100
AcDbEntity
  8
Defpoints
 62
     0
100
AcDbPoint
 10
136.280960957174
 20
117.9736154127816
 30
0.0
  0
POINT
  5
207
330
1FC
100
AcDbEntity
  8
Defpoints
 62
     0
100
AcDbPoint
 10
144.930960957174
 20
117.9736154127816
 30
0.0
  0
ENDBLK
  5
1FE
330
1FC
100
AcDbEntity
  8
0
100
AcDbBlockEnd
  0
ENDSEC
  0
SECTION
  2
ENTITIES
  0
LINE
  5
5E
330
1B
100
AcDbEntity
  8
OBJECT
100
AcDbLine
 10
222.9999999999999
 20
123.1459795856545
 30
0.0
 11
238.9999999999999
 21
123.1459795856545
 31
0.0
  0
LINE
  5
60
330
1B
100
AcDbEntity
  8
OBJECT
100
AcDbLine
 10
222.9999999999999
 20
124.3459795856545
 30
0.0
 11
238.9999999999999
 21
124.3459795856545
 31
0.0
  0
LINE
  5
61
330
1B
100
AcDbEntity
  8
OBJECT
100
AcDbLine
 10
222.9999999999999
 20
125.5459795856545
 30
0.0
 11
238.9999999999999
 21
125.5459795856545
 31
0.0
  0
LINE
  5
62
102
{ACAD_REACTORS
330
93
102
}
330
1B
100
AcDbEntity
  8
OBJECT
100
AcDbLine
 10
222.9999999999999
 20
126.7459795856545
 30
0.0
 11
238.9999999999999
 21
126.7459795856545
 31
0.0
  0
LINE
  5
63
330
1B
100
AcDbEntity
  8
OBJECT
100
AcDbLine
 10
107.0000000000001
 20
127.9999999999999
 30
0.0
 11
110.2000000000001
 21
127.9999999999999
 31
0.0
  0
LINE
  5
64
330
1B
100
AcDbEntity
  8
OBJECT
100
AcDbLine
 10
107.0000000000001
 20
125.9999999999999
 30
0.0
 11
110.2000000000001
 21
125.9999999999999
 31
0.0
  0
LINE
  5
65
330
1B
100
AcDbEntity
  8
OBJECT
100
AcDbLine
 10
110.2000000000001
 20
125.9999999999999
 30
0.0
 11
123.0
 21
125.579931371735
 31
0.0
  0
LINE
  5
66
330
1B
100
AcDbEntity
  8
OBJECT
100
AcDbLine
 10
110.2000000000001
 20
127.9999999999999
 30
0.0
 11
123.0
 21
126.7361162527312
 31
0.0
  0
LINE
  5
67
330
1B
100
AcDbEntity
  8
OBJECT
100
AcDbLine
 10
107.0000000000001
 20
121.9999999999998
 30
0.0
 11
110.2000000000001
 21
121.9999999999998
 31
0.0
  0
LINE
  5
68
330
1B
100
AcDbEntity
  8
OBJECT
100
AcDbLine
 10
107.0000000000001
 20
123.9999999999999
 30
0.0
 11
110.2000000000001
 21
123.9999999999999
 31
0.0
  0
LINE
  5
69
330
1B
100
AcDbEntity
  8
OBJECT
100
AcDbLine
 10
110.2000000000001
 20
123.9999999999999
 30
0.0
 11
123.0
 21
124.4200686282647
 31
0.0
  0
LINE
  5
6A
330
1B
100
AcDbEntity
  8
OBJECT
100
AcDbLine
 10
110.2000000000001
 20
121.9999999999998
 30
0.0
 11
123.0
 21
123.2638837472686
 31
0.0
  0
LINE
  5
6B
102
{ACAD_REACTORS
102
}
330
1B
100
AcDbEntity
  8
OBJECT
100
AcDbLine
 10
123.0
 20
128.0
 30
0.0
 11
123.0
 21
121.9999999999999
 31
0.0
  0
LINE
  5
6C
330
1B
100
AcDbEntity
  8
OBJECT
100
AcDbLine
 10
128.9999999999999
 20
128.5
 30
0.0
 11
123.0
 21
128.0
 31
0.0
  0
LINE
  5
6D
330
1B
100
AcDbEntity
  8
OBJECT
100
AcDbLine
 10
128.9999999999999
 20
121.4999999999999
 30
0.0
 11
123.0
 21
121.9999999999999
 31
0.0
  0
LINE
  5
6F
102
{ACAD_REACTORS
102
}
330
1B
100
AcDbEntity
  8
OBJECT
100
AcDbLine
 10
134.9999999999999
 20
128.5
 30
0.0
 11
134.9999999999999
 21
121.4999999999999
 31
0.0
  0
LINE
  5
70
330
1B
100
AcDbEntity
  8
OBJECT
100
AcDbLine
 10
128.9999999999999
 20
128.5
 30
0.0
 11
134.9999999999999
 21
128.5
 31
0.0
  0
LINE
  5
71
330
1B
100
AcDbEntity
  8
OBJECT
100
AcDbLine
 10
128.9999999999999
 20
121.4999999999999
 30
0.0
 11
134.9999999999999
 21
121.4999999999999
 31
0.0
  0
LINE
  5
72
102
{ACAD_REACTORS
102
}
330
1B
100
AcDbEntity
  8
OBJECT
100
AcDbLine
 10
222.9999999999999
 20
127.9
 30
0.0
 11
222.9999999999999
 21
121.9499999999999
 31
0.0
  0
LINE
  5
73
330
1B
100
AcDbEntity
  8
OBJECT
100
AcDbLine
 10
216.9999999999999
 20
128.55
 30
0.0
 11
222.9999999999999
 21
128.05
 31
0.0
  0
LINE
  5
74
330
1B
100
AcDbEntity
  8
OBJECT
100
AcDbLine
 10
216.9999999999999
 20
121.4499999999999
 30
0.0
 11
222.9999999999999
 21
121.9499999999999
 31
0.0
  0
LINE
  5
76
330
1B
100
AcDbEntity
  8
OBJECT
100
AcDbLine
 10
210.9999999999999
 20
128.55
 30
0.0
 11
210.9999999999999
 21
121.4499999999999
 31
0.0
  0
LINE
  5
77
330
1B
100
AcDbEntity
  8
OBJECT
100
AcDbLine
 10
216.9999999999999
 20
128.55
 30
0.0
 11
210.9999999999999
 21
128.55
 31
0.0
  0
LINE
  5
78
330
1B
100
AcDbEntity
  8
OBJECT
100
AcDbLine
 10
216.9999999999999
 20
121.4499999999999
 30
0.0
 11
210.9999999999999
 21
121.4499999999999
 31
0.0
  0
LINE
  5
79
102
{ACAD_REACTORS
330
1BF
102
}
330
1B
100
AcDbEntity
  8
OBJECT
100
AcDbLine
 10
134.9999999999999
 20
127.95
 30
0.0
 11
210.9999999999999
 21
127.95
 31
0.0
  0
LINE
  5
7A
330
1B
100
AcDbEntity
  8
OBJECT
100
AcDbLine
 10
134.9999999999999
 20
122.0499999999999
 30
0.0
 11
210.9999999999999
 21
122.0499999999999
 31
0.0
  0
INSERT
  5
7B
102
{ACAD_REACTORS
330
93
330
B5
102
}
330
1B
100
AcDbEntity
  8
OBJECT
100
AcDbBlockReference
  2
XADRP-08V_b
 10
107.0000000000001
 20
124.9999999999999
 30
0.0
 50
270.0
  0
DIMENSION
  5
91
102
{ACAD_REACTORS
330
93
102
}
102
{ACAD_XDICTIONARY
360
92
102
}
330
1B
100
AcDbEntity
  8
DIMS
100
AcDbDimension
  2
*D2
 10
238.9999999999999
 20
146.592834401106
 30
0.0
 11
172.8831474313045
 21
146.592834401106
 31
0.0
 70
   160
  1
L
 71
     5
 42
131.9999999999999
 73
     0
 74
     0
 75
     0
  3
STANDARD
100
AcDbAlignedDimension
 13
107.0000000000001
 23
132.35
 33
0.0
 14
238.9999999999999
 24
126.7459795856545
 34
0.0
100
AcDbRotatedDimension
1001
ENABLE_CUSTOM_SPLIT
1070
     1
  0
DIMENSION
  5
B3
102
{ACAD_REACTORS
330
B5
102
}
102
{ACAD_XDICTIONARY
360
B4
102
}
330
1B
100
AcDbEntity
  8
DIMS
100
AcDbDimension
  2
*D4
 10
107.0000000000001
 20
146.5928344011059
 30
0.0
 11
101.0000000000001
 21
148.4928344011059
 31
0.0
 70
    32
 71
     5
 42
12.0
 73
     0
 74
     0
 75
     0
  3
STANDARD
100
AcDbAlignedDimension
 13
95.00000000000006
 23
130.5499999999999
 33
0.0
 14
107.0000000000001
 24
132.3499999999999
 34
0.0
100
AcDbRotatedDimension
1001
ENABLE_CUSTOM_SPLIT
1070
     1
  0
INSERT
  5
C3
102
{ACAD_REACTORS
330
148
330
158
102
}
330
1B
100
AcDbEntity
  8
OBJECT
100
AcDbBlockReference
  2
XADRP-08V_l
 10
66.4
 20
125.0
 30
0.0
 50
270.0
  0
ACAD_TABLE
  5
129
330
1B
100
AcDbEntity
  8
0
 92
     3824
310
F00E00001B000000880000001D000000000000000000F03F00000000000000000000000000000000669C449CF7755C400000000000000000000000000000F03F00000000000000008C40BDBDA4DD564000000000000000000000000000000000000000000000F03F0000000000000000000000000000000000000000000000
310
000000000000000000000000000000F03F0C0000001200000000000000E400000026000000CECCCCCCCC8C05400000000000000EC0000000000000000000000000000000000000000000000000000000000000F03F000000000000F03F00000000000000000000000000000000779555304C0008FF58534D4F6D006D0009FF
310
000009000000010000000000000000000440CDCCCCCCCCCCEC3F0000000000000000000000000000F03F0000000000000000000000000000000000000000000000000000000000000000000000000000000072006F006D0061006E0073002E007300680078000000000062006900670066006F006E0074002E007300680078
310
000000D800000026000000B76DDBB66D0B48400000000000000EC0000000000000000000000000000000000000000000000000000000000000F03F000000000000F03F000000000000000000000000000000000D54F0790000000002000000010000000000000000000440CDCCCCCCCCCCEC3F000000000000000000000000
310
0000F03F0000000000000000000000000000000000000000000000000000000000000000000000000000000072006F006D0061006E0073002E007300680078000000000062006900670066006F006E0074002E007300680078000000D800000026000000833AA8833A0656400000000000000EC00000000000000000000000
310
00000000000000000000000000000000000000F03F000000000000F03F000000000000000000000000000000008B576A750000000002000000010000000000000000000440CDCCCCCCCCCCEC3F0000000000000000000000000000F03F00000000000000000000000000000000000000000000000000000000000000000000
310
00000000000072006F006D0061006E0073002E007300680078000000000062006900670066006F006E0074002E007300680078000000DC0000002600000025499224491C234000000000008021C0000000000000000000000000000000000000000000000000000000000000F03F000000000000F03F000000000000000000
310
0000000000000031003000300030000000000004000000010000000000000000000440CDCCCCCCCCCCEC3F0000000000000000000000000000F03F0000000000000000000000000000000000000000000000000000000000000000000000000000000072006F006D0061006E0073002E007300680078000000000062006900
310
670066006F006E0074002E007300680078000000F000000026000000F2155FF195BC404000000000008021C0000000000000000000000000000000000000000000000000000000000000F03F000000000000F03F00000000000000000000000000000000FB96906EB130FC30D630EB304100200031003000300030006D006D
310
00000000000E000000010000000000000000000440CDCCCCCCCCCCEC3F0000000000000000000000000000F03F0000000000000000000000000000000000000000000000000000000000000000000000000000000072006F006D0061006E0073002E007300680078000000000062006900670066006F006E0074002E007300
310
680078000000EC00000026000000DCB66DDBB638534000000000008021C0000000000000000000000000000000000000000000000000000000000000F03F000000000000F03F0000000000000000000000000000000043004D0050005700410031002D0031003000300030005300000000000C000000010000000000000000
310
000440CDCCCCCCCCCCEC3F0000000000000000000000000000F03F0000000000000000000000000000000000000000000000000000000000000000000000000000000072006F006D0061006E0073002E007300680078000000000062006900670066006F006E0074002E007300680078000000DC0000002600000025499224
310
496A23400000000000802BC0000000000000000000000000000000000000000000000000000000000000F03F000000000000F03F0000000000000000000000000000000033003000300030000000000004000000010000000000000000000440CDCCCCCCCCCCEC3F0000000000000000000000000000F03F00000000000000
310
00000000000000000000000000000000000000000000000000000000000000000072006F006D0061006E0073002E007300680078000000000062006900670066006F006E0074002E007300680078000000F000000026000000F2155FF195BC40400000000000802BC000000000000000000000000000000000000000000000
310
0000000000000000F03F000000000000F03F00000000000000000000000000000000FB96906EB130FC30D630EB304100200033003000300030006D006D00000000000E000000010000000000000000000440CDCCCCCCCCCCEC3F0000000000000000000000000000F03F000000000000000000000000000000000000000000
310
0000000000000000000000000000000000000072006F006D0061006E0073002E007300680078000000000062006900670066006F006E0074002E007300680078000000EC00000026000000DCB66DDBB63853400000000000802BC0000000000000000000000000000000000000000000000000000000000000F03F00000000
310
0000F03F0000000000000000000000000000000043004D0050005700410031002D0033003000300030005300000000000C000000010000000000000000000440CDCCCCCCCCCCEC3F0000000000000000000000000000F03F000000000000000000000000000000000000000000000000000000000000000000000000000000
310
0072006F006D0061006E0073002E007300680078000000000062006900670066006F006E0074002E007300680078000000DC0000002600000025499224496A23400000000000C032C0000000000000000000000000000000000000000000000000000000000000F03F000000000000F03F0000000000000000000000000000
310
000035003000300030000000000004000000010000000000000000000440CDCCCCCCCCCCEC3F0000000000000000000000000000F03F0000000000000000000000000000000000000000000000000000000000000000000000000000000072006F006D0061006E0073002E007300680078000000000062006900670066006F
310
006E0074002E007300680078000000F000000026000000F2155FF195BC40400000000000C032C0000000000000000000000000000000000000000000000000000000000000F03F000000000000F03F00000000000000000000000000000000FB96906EB130FC30D630EB304100200035003000300030006D006D0000000000
310
0E000000010000000000000000000440CDCCCCCCCCCCEC3F0000000000000000000000000000F03F0000000000000000000000000000000000000000000000000000000000000000000000000000000072006F006D0061006E0073002E007300680078000000000062006900670066006F006E0074002E0073006800780000
310
00EC00000026000000DCB66DDBB63853400000000000C032C0000000000000000000000000000000000000000000000000000000000000F03F000000000000F03F0000000000000000000000000000000043004D0050005700410031002D0035003000300030005300000000000C000000010000000000000000000440CDCC
310
CCCCCCCCEC3F0000000000000000000000000000F03F0000000000000000000000000000000000000000000000000000000000000000000000000000000072006F006D0061006E0073002E007300680078000000000062006900670066006F006E0074002E0073006800780000000C00000012000000FE7F00005400000020
310
000000020000000000000000000000000000000000000000000000000000000000000000005B400000000000000000000000000000000000000000000000000000000000000000000000000000F03F5400000020000000020000000000000000005B40000000000000000000000000000000000000000000005B4000000000
310
000034C0000000000000000000000000000000000000000000000000000000000000F03F540000002000000002000000000000000000000000000000000014C000000000000000000000000000005B4000000000000014C0000000000000000000000000000000000000000000000000000000000000F03F54000000200000
310
0002000000000000000000000000000000000024C000000000000000000000000000005B4000000000000024C0000000000000000000000000000000000000000000000000000000000000F03F54000000200000000200000000000000000000000000000000002EC000000000000000000000000000005B40000000000000
310
2EC0000000000000000000000000000000000000000000000000000000000000F03F540000002000000002000000000000000000000000000000000034C000000000000000000000000000005B4000000000000034C0000000000000000000000000000000000000000000000000000000000000F03F540000002000000002
310
000000000000000000000000000000000000000000000000000000000000000000000000000000000034C0000000000000000000000000000000000000000000000000000000000000F03F5400000020000000020000000000000000003C40000000000000000000000000000000000000000000003C4000000000000034C0
310
000000000000000000000000000000000000000000000000000000000000F03F540000002000000002000000000000000040524000000000000000000000000000000000000000000040524000000000000034C0000000000000000000000000000000000000000000000000000000000000F03F080000001F000000880000
310
001D000000000000000000F03F0000000000000000000000000000000000000000000000000000000000000000000000000000F03F0000000000000000000000000000000000000000000000000000000000000000000000000000F03F00000000000000000000000000000000000000000000000000000000000000000000
310
00000000F03F080000001F000000
100
AcDbBlockReference
  2
*T6
 10
113.843237940791
 20
91.46318000299124
 30
0.0
100
AcDbTable
342
143
343
12A
 11
1.0
 21
0.0
 31
0.0
 90
       54
 91
        4
 92
        3
 93
        1
 94
        0
 95
        0
 96
        0
280
     1
141
5.0
141
5.0
141
5.0
141
5.0
142
28.0
142
45.0
142
35.0
171
     1
172
     0
173
     0
174
     0
175
     1
176
     1
 91
        0
178
     0
145
0.0
 92
        0
301
CELL_VALUE
 93
        6
 90
        4
  1
長さL（単位mm）
 94
        0
300

302
長さL（単位mm）
304
ACVALUE_END
171
     1
172
     0
173
     0
174
     0
175
     1
176
     1
 91
        0
178
     0
145
0.0
 92
        0
301
CELL_VALUE
 93
        6
 90
        4
  1
名称
 94
        0
300

302
名称
304
ACVALUE_END
171
     1
172
     0
173
     0
174
     0
175
     1
176
     1
 91
        0
178
     0
145
0.0
 92
        0
301
CELL_VALUE
 93
        6
 90
        4
  1
型番
 94
        0
300

302
型番
304
ACVALUE_END
171
     1
172
     6
173
     0
174
     0
175
     1
176
     1
 91
     6144
178
     0
145
0.0
275
    -1
276
    -1
 92
        0
301
CELL_VALUE
 93
        6
 90
        4
  1
1000
 94
        0
300

302
1000
304
ACVALUE_END
171
     1
172
    14
173
     0
174
     0
175
     1
176
     1
 91
    14336
178
     8
145
0.0
275
    -1
276
    -1
 92
        0
301
CELL_VALUE
 93
        6
 90
        4
  1
電源ケーブルA 1000mm
 94
        0
300

302
電源ケーブルA 1000mm
304
ACVALUE_END
171
     1
172
    12
173
     0
174
     0
175
     1
176
     1
 91
    12288
178
     8
145
0.0
276
    -1
 92
        0
301
CELL_VALUE
 93
        6
 90
        4
  1
CMPWA1-1000S
 94
        0
300

302
CMPWA1-1000S
304
ACVALUE_END
171
     1
172
     7
173
     0
174
     0
175
     1
176
     1
 91
     7168
178
     1
145
0.0
275
    -1
276
    -1
 92
        0
301
CELL_VALUE
 93
        6
 90
        4
  1
3000
 94
        0
300

302
3000
304
ACVALUE_END
171
     1
172
    15
173
     0
174
     0
175
     1
176
     1
 91
    15360
178
     9
145
0.0
275
    -1
276
    -1
 92
        0
301
CELL_VALUE
 93
        6
 90
        4
  1
電源ケーブルA 3000mm
 94
        0
300

302
電源ケーブルA 3000mm
304
ACVALUE_END
171
     1
172
    13
173
     0
174
     0
175
     1
176
     1
 91
    13312
178
     9
145
0.0
276
    -1
 92
        0
301
CELL_VALUE
 93
        6
 90
        4
  1
CMPWA1-3000S
 94
        0
300

302
CMPWA1-3000S
304
ACVALUE_END
171
     1
172
     3
173
     0
174
     0
175
     1
176
     1
 91
     3072
178
     1
145
0.0
275
    -1
 92
        0
301
CELL_VALUE
 93
        6
 90
        4
  1
5000
 94
        0
300

302
5000
304
ACVALUE_END
171
     1
172
    11
173
     0
174
     0
175
     1
176
     1
 91
    11264
178
     9
145
0.0
275
    -1
 92
        0
301
CELL_VALUE
 93
        6
 90
        4
  1
電源ケーブルA 5000mm
 94
        0
300

302
電源ケーブルA 5000mm
304
ACVALUE_END
171
     1
172
     9
173
     0
174
     0
175
     1
176
     1
 91
     9216
178
     9
145
0.0
 92
        0
301
CELL_VALUE
 93
        6
 90
        4
  1
CMPWA1-5000S
 94
        0
300

302
CMPWA1-5000S
304
ACVALUE_END
  0
MTEXT
  5
145
330
1B
100
AcDbEntity
  8
DIMS
100
AcDbMText
 10
54.79140274976371
 20
109.8548472519386
 30
0.0
 40
2.5
 41
22.88318452380952
 46
6.666666666666667
 71
     1
 72
     1
  1
{XADRP-08V\P（JST）}
 73
     1
 44
1.0
1001
ACAD
1000
ACAD_MTEXT_DEFINED_HEIGHT_BEGIN
1070
    46
1040
6.666666666666667
1000
ACAD_MTEXT_DEFINED_HEIGHT_END
  0
DIMENSION
  5
146
102
{ACAD_REACTORS
330
148
102
}
102
{ACAD_XDICTIONARY
360
147
102
}
330
1B
100
AcDbEntity
  8
DIMS
100
AcDbDimension
  2
*D7
 10
66.4
 20
146.592834401106
 30
0.0
 11
60.57565122258829
 21
146.592834401106
 31
0.0
 70
   160
 71
     5
 42
11.39999999999986
 73
     0
 74
     1
 75
     1
  3
STANDARD
100
AcDbAlignedDimension
 13
55.00000000000014
 23
129.9
 33
0.0
 14
66.4
 24
132.35
 34
0.0
100
AcDbRotatedDimension
1001
ENABLE_CUSTOM_SPLIT
1070
     1
  0
DIMENSION
  5
156
102
{ACAD_REACTORS
330
158
102
}
102
{ACAD_XDICTIONARY
360
157
102
}
330
1B
100
AcDbEntity
  8
DIMS
100
AcDbDimension
  2
*D8
 10
48.52616453415951
 20
117.65
 30
0.0
 11
46.62616453415951
 21
125.0
 31
0.0
 70
    32
 71
     5
 42
14.69999999999999
 73
     0
 74
     0
 75
     0
  3
STANDARD
100
AcDbAlignedDimension
 13
56.50000000000003
 23
132.35
 33
0.0
 14
56.50000000000003
 24
117.65
 34
0.0
 50
90.0
100
AcDbRotatedDimension
1001
ENABLE_CUSTOM_SPLIT
1070
     1
  0
LWPOLYLINE
  5
1AA
330
1B
100
AcDbEntity
  8
Defpoints
100
AcDbPolyline
 90
        3
 70
     0
 43
0.0
 10
5.0
 20
200.0
 10
5.0
 20
205.0
 10
10.0
 20
205.0
  0
LWPOLYLINE
  5
1AB
330
1B
100
AcDbEntity
  8
Defpoints
100
AcDbPolyline
 90
        3
 70
     0
 43
0.0
 10
287.0000000000002
 20
205.0
 10
292.0000000000002
 20
205.0
 10
292.0000000000002
 20
200.0
  0
LWPOLYLINE
  5
1AC
330
1B
100
AcDbEntity
  8
Defpoints
100
AcDbPolyline
 90
        3
 70
     0
 43
0.0
 10
292.0000000000002
 20
9.999999999999972
 10
292.0000000000002
 20
4.999999999999972
 10
287.0000000000002
 20
4.999999999999972
  0
LWPOLYLINE
  5
1AD
330
1B
100
AcDbEntity
  8
Defpoints
100
AcDbPolyline
 90
        3
 70
     0
 43
0.0
 10
10.0
 20
5.0
 10
5.0
 20
5.0
 10
5.0
 20
10.0
  0
LWPOLYLINE
  5
1AE
330
1B
100
AcDbEntity
  8
Defpoints
100
AcDbPolyline
 90
        3
 70
     0
 43
0.0
 10
10.0
 20
0.0
 10
0.0
 20
0.0
 10
0.0
 20
10.0
  0
LWPOLYLINE
  5
1AF
330
1B
100
AcDbEntity
  8
Defpoints
100
AcDbPolyline
 90
        3
 70
     0
 43
0.0
 10
297.0000000000002
 20
9.999999999999972
 10
297.0000000000002
 20
-0.0000000000000284
 10
287.0000000000002
 20
-0.0000000000000284
  0
LWPOLYLINE
  5
1B0
330
1B
100
AcDbEntity
  8
Defpoints
100
AcDbPolyline
 90
        3
 70
     0
 43
0.0
 10
287.0000000000002
 20
210.0
 10
297.0000000000002
 20
210.0
 10
297.0000000000002
 20
200.0
  0
LWPOLYLINE
  5
1B1
330
1B
100
AcDbEntity
  8
Defpoints
100
AcDbPolyline
 90
        3
 70
     0
 43
0.0
 10
0.0
 20
200.0
 10
0.0
 20
210.0
 10
10.0
 20
210.0
  0
DIMENSION
  5
1BD
102
{ACAD_REACTORS
330
1BF
102
}
102
{ACAD_XDICTIONARY
360
1BE
102
}
330
1B
100
AcDbEntity
  8
DIMS
100
AcDbDimension
  2
*D9
 10
154.1277731604731
 20
122.0499999999999
 30
0.0
 11
154.1277731604731
 21
137.4095238095238
 31
0.0
 70
   161
  1
Φ<>
 71
     5
 42
5.900000000000105
 73
     0
 74
     0
 75
     0
  3
STANDARD
100
AcDbAlignedDimension
 13
134.9999999999999
 23
127.95
 33
0.0
 14
134.9999999999999
 24
122.0499999999999
 34
0.0
1001
ENABLE_CUSTOM_SPLIT
1070
     1
  0
ENDSEC
  0
SECTION
  2
OBJECTS
  0
DICTIONARY
  5
A
330
0
100
AcDbDictionary
281
     1
  3
ACAD_COLOR
350
33
  3
ACAD_DETAILVIEWSTYLE
350
16D
  3
ACAD_GROUP
350
31
  3
ACAD_LAYOUT
350
22
  3
ACAD_MATERIAL
350
C
  3
ACAD_MLEADERSTYLE
350
16B
  3
ACAD_MLINESTYLE
350
2D
  3
ACAD_PLOTSETTINGS
350
32
  3
ACAD_PLOTSTYLENAME
350
9
  3
ACAD_SCALELIST
350
39
  3
ACAD_SECTIONVIEWSTYLE
350
16E
  3
ACAD_TABLESTYLE
350
144
  3
ACAD_VISUALSTYLE
350
34
  3
ACDB_RECOMPOSE_DATA
350
214
  3
AcDbVariableDictionary
350
166
  3
APPDATA
350
188
  0
SUN
  5
37
330
35
100
AcDbSun
 90
        1
290
     0
 63
     7
421
 16777215
 40
1.0
291
     1
 91
  2455826
 92
 54000000
292
     0
 70
     2
 71
   256
280
     1
  0
DICTIONARY
  5
3
330
2
100
AcDbDictionary
280
     1
281
     1
  3
ACAD_LAYERSTATES
360
4
  3
ACLYDICTIONARY
360
5
  0
DICTIONARY
  5
1C
330
1B
100
AcDbDictionary
280
     1
281
     1
  3
DIM_BOUNDING_BOXES_V1
360
1D
  0
DICTIONARY
  5
92
330
91
100
AcDbDictionary
280
     1
281
     1
  3
ACAD_CUSTOM_BREAKDATA
360
94
  3
ACAD_DIMASSOC
360
93
  0
DICTIONARY
  5
B4
330
B3
100
AcDbDictionary
280
     1
281
     1
  3
ACAD_CUSTOM_BREAKDATA
360
B6
  3
ACAD_DIMASSOC
360
B5
  0
DICTIONARY
  5
147
330
146
100
AcDbDictionary
280
     1
281
     1
  3
ACAD_CUSTOM_BREAKDATA
360
1DA
  3
ACAD_DIMASSOC
360
148
  0
DICTIONARY
  5
157
330
156
100
AcDbDictionary
280
     1
281
     1
  3
ACAD_CUSTOM_BREAKDATA
360
159
  3
ACAD_DIMASSOC
360
158
  0
DICTIONARY
  5
1BE
330
1BD
100
AcDbDictionary
280
     1
281
     1
  3
ACAD_CUSTOM_BREAKDATA
360
1E1
  3
ACAD_DIMASSOC
360
1BF
  0
DICTIONARY
  5
33
102
{ACAD_REACTORS
330
A
102
}
330
A
100
AcDbDictionary
281
     1
  0
DICTIONARY
  5
16D
102
{ACAD_REACTORS
330
A
102
}
330
A
100
AcDbDictionary
281
     1
  0
DICTIONARY
  5
31
102
{ACAD_REACTORS
330
A
102
}
330
A
100
AcDbDictionary
281
     1
  0
DICTIONARY
  5
22
102
{ACAD_REACTORS
330
A
102
}
330
A
100
AcDbDictionary
281
     1
  3
Model
350
21
  3
ﾚｲｱｳﾄ1
350
26
  0
DICTIONARY
  5
C
102
{ACAD_REACTORS
330
A
102
}
330
A
100
AcDbDictionary
281
     1
  3
ByBlock
350
5D
  3
ByLayer
350
5C
  3
Global
350
B
  0
DICTIONARY
  5
16B
102
{ACAD_REACTORS
330
A
102
}
330
A
100
AcDbDictionary
281
     1
  3
Standard
350
187
  0
DICTIONARY
  5
2D
102
{ACAD_REACTORS
330
A
102
}
330
A
100
AcDbDictionary
281
     1
  3
STANDARD
350
2C
  0
DICTIONARY
  5
32
102
{ACAD_REACTORS
330
A
102
}
330
A
100
AcDbDictionary
281
     1
  0
ACDBDICTIONARYWDFLT
  5
9
102
{ACAD_REACTORS
330
A
102
}
330
A
100
AcDbDictionary
281
     1
  3
Normal
350
8
100
AcDbDictionaryWithDefault
340
8
  0
DICTIONARY
  5
39
102
{ACAD_REACTORS
330
A
102
}
330
A
100
AcDbDictionary
281
     1
  3
*A1
350
5B
  0
DICTIONARY
  5
16E
102
{ACAD_REACTORS
330
A
102
}
330
A
100
AcDbDictionary
281
     1
  0
DICTIONARY
  5
144
102
{ACAD_REACTORS
330
A
102
}
330
A
100
AcDbDictionary
281
     1
  3
部品表
350
143
  0
DICTIONARY
  5
34
102
{ACAD_REACTORS
330
A
102
}
330
A
100
AcDbDictionary
281
     1
  3
2dWireframe
350
36
  3
Basic
350
176
  3
Brighten
350
17A
  3
ColorChange
350
17E
  3
Conceptual
350
178
  3
Dim
350
179
  3
EdgeColorOff
350
181
  3
Facepattern
350
17D
  3
Flat
350
170
  3
FlatWithEdges
350
171
  3
Gouraud
350
172
  3
GouraudWithEdges
350
173
  3
Hidden
350
175
  3
JitterOff
350
17F
  3
Linepattern
350
17C
  3
OverhangOff
350
180
  3
Realistic
350
177
  3
Shaded
350
186
  3
Shaded with edges
350
185
  3
Shades of Gray
350
182
  3
Sketchy
350
183
  3
Thicken
350
17B
  3
Wireframe
350
174
  3
X-Ray
350
184
  0
XRECORD
  5
214
102
{ACAD_REACTORS
330
A
102
}
330
A
100
AcDbXrecord
280
     1
 90
        1
330
143
  0
DICTIONARY
  5
166
102
{ACAD_REACTORS
330
A
102
}
330
A
100
AcDbDictionary
281
     1
  3
CANNOSCALE
350
167
  3
CMLEADERSTYLE
350
1B7
  3
CTABLESTYLE
350
1B6
  3
XCLIPFRAME
350
16C
  0
DICTIONARY
  5
188
102
{ACAD_REACTORS
330
A
102
}
330
A
100
AcDbDictionary
281
     1
  0
DICTIONARY
  5
4
102
{ACAD_REACTORS
330
3
102
}
330
3
100
AcDbDictionary
281
     1
  0
DICTIONARY
  5
5
102
{ACAD_REACTORS
330
3
102
}
330
3
100
AcDbDictionary
281
     1
1001
ACAD
1000
<All
  0
DICTIONARY
  5
1D
102
{ACAD_REACTORS
330
1C
102
}
330
1C
100
AcDbDictionary
281
     1
  0
BREAKDATA
  5
94
102
{ACAD_REACTORS
330
92
102
}
330
92
100
AcDbBreakData
 70
     0
330
91
 90
       20
100
AcDbBreakPointRef
 71
     0
 72
     0
 91
       -1
 10
0.0
 20
0.0
 30
0.0
 11
0.0
 21
0.0
 31
0.0
331
61
 73
     2
 92
        0
100
AcDbBreakPointRef
 71
     0
 72
     0
 91
       -1
 10
0.0
 20
0.0
 30
0.0
 11
0.0
 21
0.0
 31
0.0
331
62
 73
     2
 92
        0
100
AcDbBreakPointRef
 71
     0
 72
     0
 91
       -1
 10
0.0
 20
0.0
 30
0.0
 11
0.0
 21
0.0
 31
0.0
331
63
 73
     2
 92
        0
100
AcDbBreakPointRef
 71
     0
 72
     0
 91
       -1
 10
0.0
 20
0.0
 30
0.0
 11
0.0
 21
0.0
 31
0.0
331
64
 73
     2
 92
        0
100
AcDbBreakPointRef
 71
     0
 72
     0
 91
       -1
 10
0.0
 20
0.0
 30
0.0
 11
0.0
 21
0.0
 31
0.0
331
65
 73
     2
 92
        0
100
AcDbBreakPointRef
 71
     0
 72
     0
 91
       -1
 10
0.0
 20
0.0
 30
0.0
 11
0.0
 21
0.0
 31
0.0
331
66
 73
     2
 92
        0
100
AcDbBreakPointRef
 71
     0
 72
     0
 91
       -1
 10
0.0
 20
0.0
 30
0.0
 11
0.0
 21
0.0
 31
0.0
331
6B
 73
     2
 92
        0
100
AcDbBreakPointRef
 71
     0
 72
     0
 91
       -1
 10
0.0
 20
0.0
 30
0.0
 11
0.0
 21
0.0
 31
0.0
331
6C
 73
     2
 92
        0
100
AcDbBreakPointRef
 71
     0
 72
     0
 91
       -1
 10
0.0
 20
0.0
 30
0.0
 11
0.0
 21
0.0
 31
0.0
331
0
 73
     2
 92
        0
100
AcDbBreakPointRef
 71
     0
 72
     0
 91
       -1
 10
0.0
 20
0.0
 30
0.0
 11
0.0
 21
0.0
 31
0.0
331
6F
 73
     2
 92
        0
100
AcDbBreakPointRef
 71
     0
 72
     0
 91
       -1
 10
0.0
 20
0.0
 30
0.0
 11
0.0
 21
0.0
 31
0.0
331
70
 73
     2
 92
        0
100
AcDbBreakPointRef
 71
     0
 72
     0
 91
       -1
 10
0.0
 20
0.0
 30
0.0
 11
0.0
 21
0.0
 31
0.0
331
72
 73
     2
 92
        0
100
AcDbBreakPointRef
 71
     0
 72
     0
 91
       -1
 10
0.0
 20
0.0
 30
0.0
 11
0.0
 21
0.0
 31
0.0
331
73
 73
     2
 92
        0
100
AcDbBreakPointRef
 71
     0
 72
     0
 91
       -1
 10
0.0
 20
0.0
 30
0.0
 11
0.0
 21
0.0
 31
0.0
331
0
 73
     2
 92
        0
100
AcDbBreakPointRef
 71
     0
 72
     0
 91
       -1
 10
0.0
 20
0.0
 30
0.0
 11
0.0
 21
0.0
 31
0.0
331
76
 73
     2
 92
        0
100
AcDbBreakPointRef
 71
     0
 72
     0
 91
       -1
 10
0.0
 20
0.0
 30
0.0
 11
0.0
 21
0.0
 31
0.0
331
77
 73
     2
 92
        0
100
AcDbBreakPointRef
 71
     0
 72
     0
 91
       -1
 10
0.0
 20
0.0
 30
0.0
 11
0.0
 21
0.0
 31
0.0
331
79
 73
     2
 92
        0
100
AcDbBreakPointRef
 71
     0
 72
     0
 91
       -1
 10
0.0
 20
0.0
 30
0.0
 11
0.0
 21
0.0
 31
0.0
331
7B
 73
     2
 92
        0
100
AcDbBreakPointRef
 71
     0
 72
     0
 91
       -1
 10
0.0
 20
0.0
 30
0.0
 11
0.0
 21
0.0
 31
0.0
331
0
 73
     2
 92
        0
100
AcDbBreakPointRef
 71
     0
 72
     0
 91
       -1
 10
0.0
 20
0.0
 30
0.0
 11
0.0
 21
0.0
 31
0.0
331
B3
 73
     2
 92
        0
  0
DIMASSOC
  5
93
102
{ACAD_REACTORS
330
92
102
}
330
92
100
AcDbDimAssoc
330
91
 90
        3
 70
     0
 71
     1
  1
AcDbOsnapPointRef
 72
    13
331
7B
331
80
 73
     0
 91
        0
 40
0.0
 10
0.0
 20
0.0
 30
0.0
 75
     0
  1
AcDbOsnapPointRef
 72
     1
331
62
 73
     0
 91
        0
 40
0.0
 10
0.0
 20
0.0
 30
0.0
 75
     0
  0
BREAKDATA
  5
B6
102
{ACAD_REACTORS
330
B4
102
}
330
B4
100
AcDbBreakData
 70
     0
330
B3
 90
        2
100
AcDbBreakPointRef
 71
     0
 72
     0
 91
       -1
 10
0.0
 20
0.0
 30
0.0
 11
0.0
 21
0.0
 31
0.0
331
7B
 73
     2
 92
        0
100
AcDbBreakPointRef
 71
     0
 72
     0
 91
       -1
 10
0.0
 20
0.0
 30
0.0
 11
0.0
 21
0.0
 31
0.0
331
91
 73
     2
 92
        0
  0
DIMASSOC
  5
B5
102
{ACAD_REACTORS
330
B4
102
}
330
B4
100
AcDbDimAssoc
330
B3
 90
        3
 70
     0
 71
     1
  1
AcDbOsnapPointRef
 72
     1
331
7B
331
8A
 73
     0
 91
        0
 40
0.0
 10
0.0
 20
0.0
 30
0.0
 75
     0
  1
AcDbOsnapPointRef
 72
     1
331
7B
331
7F
 73
     0
 91
        0
 40
0.0
 10
0.0
 20
0.0
 30
0.0
 75
     0
  0
BREAKDATA
  5
1DA
102
{ACAD_REACTORS
330
147
102
}
330
147
100
AcDbBreakData
 70
     0
330
146
 90
        2
100
AcDbBreakPointRef
 71
     0
 72
     0
 91
       -1
 10
0.0
 20
0.0
 30
0.0
 11
0.0
 21
0.0
 31
0.0
331
C3
 73
     2
 92
        0
100
AcDbBreakPointRef
 71
     0
 72
     0
 91
       -1
 10
0.0
 20
0.0
 30
0.0
 11
0.0
 21
0.0
 31
0.0
331
156
 73
     2
 92
        0
  0
DIMASSOC
  5
148
102
{ACAD_REACTORS
330
147
102
}
330
147
100
AcDbDimAssoc
330
146
 90
        3
 70
     0
 71
     1
  1
AcDbOsnapPointRef
 72
     1
331
C3
331
100
 73
     0
 91
        0
 40
0.0
 10
0.0
 20
0.0
 30
0.0
 75
     0
  1
AcDbOsnapPointRef
 72
    13
331
C3
331
109
 73
     0
 91
        0
 40
0.0
 10
0.0
 20
0.0
 30
0.0
 75
     0
  0
BREAKDATA
  5
159
102
{ACAD_REACTORS
330
157
102
}
330
157
100
AcDbBreakData
 70
     0
330
156
 90
        2
100
AcDbBreakPointRef
 71
     0
 72
     0
 91
       -1
 10
0.0
 20
0.0
 30
0.0
 11
0.0
 21
0.0
 31
0.0
331
C3
 73
     2
 92
        0
100
AcDbBreakPointRef
 71
     0
 72
     0
 91
       -1
 10
0.0
 20
0.0
 30
0.0
 11
0.0
 21
0.0
 31
0.0
331
146
 73
     2
 92
        0
  0
DIMASSOC
  5
158
102
{ACAD_REACTORS
330
157
102
}
330
157
100
AcDbDimAssoc
330
156
 90
        3
 70
     0
 71
     1
  1
AcDbOsnapPointRef
 72
    13
331
C3
331
114
 73
     0
 91
        0
 40
0.0
 10
0.0
 20
0.0
 30
0.0
 75
     0
  1
AcDbOsnapPointRef
 72
     1
331
C3
331
112
 73
     0
 91
        0
 40
0.0
 10
0.0
 20
0.0
 30
0.0
 75
     0
  0
BREAKDATA
  5
1E1
102
{ACAD_REACTORS
330
1BE
102
}
330
1BE
100
AcDbBreakData
 70
     0
330
1BD
 90
        5
100
AcDbBreakPointRef
 71
     0
 72
     0
 91
       -1
 10
0.0
 20
0.0
 30
0.0
 11
0.0
 21
0.0
 31
0.0
331
6F
 73
     2
 92
        0
100
AcDbBreakPointRef
 71
     0
 72
     0
 91
       -1
 10
0.0
 20
0.0
 30
0.0
 11
0.0
 21
0.0
 31
0.0
331
70
 73
     2
 92
        0
100
AcDbBreakPointRef
 71
     0
 72
     0
 91
       -1
 10
0.0
 20
0.0
 30
0.0
 11
0.0
 21
0.0
 31
0.0
331
71
 73
     2
 92
        0
100
AcDbBreakPointRef
 71
     0
 72
     0
 91
       -1
 10
0.0
 20
0.0
 30
0.0
 11
0.0
 21
0.0
 31
0.0
331
79
 73
     2
 92
        0
100
AcDbBreakPointRef
 71
     0
 72
     0
 91
       -1
 10
0.0
 20
0.0
 30
0.0
 11
0.0
 21
0.0
 31
0.0
331
7A
 73
     2
 92
        0
  0
DIMASSOC
  5
1BF
102
{ACAD_REACTORS
330
1BE
102
}
330
1BE
100
AcDbDimAssoc
330
1BD
 90
        1
 70
     0
 71
     1
  1
AcDbOsnapPointRef
 72
    13
331
79
 73
     0
 91
        0
 40
0.0
 10
0.0
 20
0.0
 30
0.0
 75
     0
  0
LAYOUT
  5
21
102
{ACAD_REACTORS
330
22
102
}
330
22
100
AcDbPlotSettings
  1

  2
iR-ADV C2220(開発側)
  4
A3
  6

 40
5.080000000002401
 41
5.080000000002515
 42
5.080000000002399
 43
5.080000000002399
 44
297.0
 45
420.0
 46
0.0
 47
0.0
 48
5.000000000000085
 49
5.0
140
420.0
141
297.0
142
1.0
143
1.0
 70
 11920
 72
     1
 73
     1
 74
     4
  7

 75
    16
 76
     0
 77
     2
 78
   300
147
1.0
148
-153.5000000000002
149
-110.0
100
AcDbLayout
  1
Model
 70
     1
 71
     0
 10
0.0
 20
0.0
 11
12.0
 21
9.0
 12
0.0
 22
0.0
 32
0.0
 14
0.0
 24
-0.0000000000000284
 34
0.0
 15
297.0000000000002
 25
210.0
 35
0.0
146
0.0
 13
0.0
 23
0.0
 33
0.0
 16
1.0
 26
0.0
 36
0.0
 17
0.0
 27
1.0
 37
0.0
 76
     0
330
1B
331
35
1001
PLOTTRANSPARENCY
1071
        0
  0
LAYOUT
  5
26
102
{ACAD_REACTORS
330
22
102
}
330
22
100
AcDbPlotSettings
  1

  2
クセロPDF2
  4

  6

 40
0.0
 41
0.0
 42
0.0
 43
0.0
 44
0.0
 45
0.0
 46
0.0
 47
0.0
 48
0.0
 49
0.0
140
0.0
141
0.0
142
1.0
143
1.0
 70
   688
 72
     0
 73
     0
 74
     5
  7
monochrome.ctb
 75
    16
 76
     0
 77
     2
 78
   300
147
1.0
148
0.0
149
0.0
100
AcDbLayout
  1
ﾚｲｱｳﾄ1
 70
     1
 71
     1
 10
-0.0110393610068442
 20
-0.0028022467055191
 11
593.9889606389931
 21
419.9971977532944
 12
0.0
 22
0.0
 32
0.0
 14
0.0
 24
0.0
 34
0.0
 15
594.0
 25
420.0
 35
0.0
146
0.0
 13
0.0
 23
0.0
 33
0.0
 16
1.0
 26
0.0
 36
0.0
 17
0.0
 27
1.0
 37
0.0
 76
     0
330
23
  0
MATERIAL
  5
5D
102
{ACAD_REACTORS
330
C
102
}
330
C
100
AcDbMaterial
  1
ByBlock
 72
     1
 94
      127
  0
MATERIAL
  5
5C
102
{ACAD_REACTORS
330
C
102
}
330
C
100
AcDbMaterial
  1
ByLayer
 72
     1
 94
      127
  0
MATERIAL
  5
B
102
{ACAD_REACTORS
330
C
102
}
330
C
100
AcDbMaterial
  1
Global
 72
     1
 94
      127
  0
MLEADERSTYLE
  5
187
102
{ACAD_REACTORS
330
16B
102
}
330
16B
100
AcDbMLeaderStyle
170
     2
171
     1
172
     0
 90
        2
 40
0.0
 41
0.0
173
     1
 91
-1056964608
340
F
 92
       -2
290
     1
 42
2.0
291
     1
 43
8.0
  3
Standard
341
0
 44
4.0
300

342
11
174
     1
178
     1
175
     1
176
     0
 93
-1056964608
 45
4.0
292
     0
297
     0
 46
4.0
343
0
 94
-1056964608
 47
1.0
 49
1.0
140
1.0
293
     1
141
0.0
294
     1
177
     0
142
1.0
295
     0
296
     0
143
3.75
1001
ACAD_MLEADERVER
1070
     2
  0
MLINESTYLE
  5
2C
102
{ACAD_REACTORS
330
2D
102
}
330
2D
100
AcDbMlineStyle
  2
STANDARD
 70
     0
  3

 62
   256
 51
90.0
 52
90.0
 71
     2
 49
0.5
 62
   256
  6
BYLAYER
 49
-0.5
 62
   256
  6
BYLAYER
  0
ACDBPLACEHOLDER
  5
8
102
{ACAD_REACTORS
330
9
102
}
330
9
  0
SCALE
  5
5B
102
{ACAD_REACTORS
330
39
102
}
330
39
100
AcDbScale
 70
     0
300
1:1
140
1.0
141
1.0
290
     1
  0
TABLESTYLE
  5
143
102
{ACAD_REACTORS
330
129
330
144
102
}
102
{ACAD_XDICTIONARY
360
212
102
}
330
144
100
AcDbTableStyle
  3
部品表
 70
     1
 71
     0
 40
0.06
 41
0.06
280
     0
281
     0
  7
Bom
140
2.5
170
     5
 62
   256
 63
   257
283
     0
 90
        4
 91
        0
  1

274
    -1
284
     1
 64
   256
275
    -2
285
     1
 65
   256
276
    -1
286
     1
 66
   256
277
    -1
287
     1
 67
   256
278
    -2
288
     1
 68
   256
279
    -1
289
     1
 69
   256
  7
Bom
140
2.0
170
     5
 62
   256
 63
   257
283
     0
 90
        4
 91
        0
  1

274
    -1
284
     1
 64
   256
275
    -1
285
     1
 65
   256
276
    -1
286
     1
 66
   256
277
    -1
287
     1
 67
   256
278
    -1
288
     1
 68
   256
279
    -1
289
     1
 69
   256
  7
Bom
140
2.5
170
     5
 62
   256
 63
   257
283
     0
 90
        4
 91
        0
  1

274
    -1
284
     1
 64
   256
275
    -1
285
     1
 65
   256
276
    -1
286
     1
 66
   256
277
    -1
287
     1
 67
   256
278
    -1
288
     1
 68
   256
279
    -1
289
     1
 69
   256
  0
VISUALSTYLE
  5
36
102
{ACAD_REACTORS
330
34
102
}
330
34
100
AcDbVisualStyle
  2
2dWireframe
 70
     4
 71
     0
 72
     2
 73
     0
 90
        0
 40
0.6
 41
30.0
 62
     5
 63
     7
421
 16777215
 74
     1
 91
        4
 64
     7
 65
   257
 75
     1
175
     1
 42
1.0
 92
        0
 66
   257
 43
1.0
 76
     1
 77
     6
 78
     2
 67
     7
 79
     5
170
     0
171
     0
290
     0
174
     0
 93
        1
 44
0.0
173
     0
291
     0
 45
0.0
  0
VISUALSTYLE
  5
176
102
{ACAD_REACTORS
330
34
102
}
330
34
100
AcDbVisualStyle
  2
Basic
 70
     7
 71
     1
 72
     0
 73
     1
 90
        0
 40
0.6
 41
30.0
 62
     5
 63
     7
421
 16777215
 74
     0
 91
        4
 64
     7
 65
   257
 75
     1
175
     1
 42
1.0
 92
        8
 66
     7
 43
1.0
 76
     1
 77
     6
 78
     2
 67
     7
 79
     5
170
     0
171
     0
290
     0
174
     0
 93
        1
 44
0.0
173
     0
291
     1
 45
0.0
  0
VISUALSTYLE
  5
17A
102
{ACAD_REACTORS
330
34
102
}
330
34
100
AcDbVisualStyle
  2
Brighten
 70
    12
 71
     2
 72
     2
 73
     0
 90
        0
 40
0.6
 41
30.0
 62
     5
 63
     7
421
 16777215
 74
     1
 91
        4
 64
     7
 65
   257
 75
     1
175
     1
 42
1.0
 92
        8
 66
     7
 43
1.0
 76
     1
 77
     6
 78
     2
 67
     7
 79
     5
170
     0
171
     0
290
     0
174
     0
 93
        1
 44
50.0
173
     0
291
     1
 45
0.0
  0
VISUALSTYLE
  5
17E
102
{ACAD_REACTORS
330
34
102
}
330
34
100
AcDbVisualStyle
  2
ColorChange
 70
    16
 71
     2
 72
     2
 73
     3
 90
        0
 40
0.6
 41
30.0
 62
     5
 63
     8
421
  8421504
 74
     1
 91
        4
 64
     7
 65
   257
 75
     1
175
     1
 42
1.0
 92
        8
 66
     8
424
  8421504
 43
1.0
 76
     1
 77
     6
 78
     2
 67
     7
 79
     5
170
     0
171
     0
290
     0
174
     0
 93
        1
 44
0.0
173
     0
291
     1
 45
0.0
  0
VISUALSTYLE
  5
178
102
{ACAD_REACTORS
330
34
102
}
330
34
100
AcDbVisualStyle
  2
Conceptual
 70
     9
 71
     3
 72
     2
 73
     0
 90
        0
 40
0.6
 41
30.0
 62
     5
 63
     7
421
 16777215
 74
     2
 91
        2
 64
     7
 65
   257
 75
     1
175
     1
 42
179.0
 92
        8
 66
     7
 43
1.0
 76
     1
 77
     6
 78
     2
 67
     7
 79
     3
170
     0
171
     0
290
     0
174
     0
 93
        1
 44
0.0
173
     0
291
     0
 45
0.0
  0
VISUALSTYLE
  5
179
102
{ACAD_REACTORS
330
34
102
}
330
34
100
AcDbVisualStyle
  2
Dim
 70
    11
 71
     2
 72
     2
 73
     0
 90
        0
 40
0.6
 41
30.0
 62
     5
 63
     7
421
 16777215
 74
     1
 91
        4
 64
     7
 65
   257
 75
     1
175
     1
 42
1.0
 92
        8
 66
     7
 43
1.0
 76
     1
 77
     6
 78
     2
 67
     7
 79
     5
170
     0
171
     0
290
     0
174
     0
 93
        1
 44
-50.0
173
     0
291
     1
 45
0.0
  0
VISUALSTYLE
  5
181
102
{ACAD_REACTORS
330
34
102
}
330
34
100
AcDbVisualStyle
  2
EdgeColorOff
 70
    22
 71
     2
 72
     2
 73
     0
 90
        0
 40
0.6
 41
30.0
 62
     5
 63
     7
421
 16777215
 74
     1
 91
        4
 64
     7
 65
   257
 75
     1
175
     1
 42
1.0
 92
        8
 66
     7
 43
1.0
 76
     1
 77
     6
 78
     2
 67
     7
 79
     5
170
     0
171
     0
290
     0
174
     0
 93
        1
 44
0.0
173
     0
291
     1
 45
0.0
  0
VISUALSTYLE
  5
17D
102
{ACAD_REACTORS
330
34
102
}
330
34
100
AcDbVisualStyle
  2
Facepattern
 70
    15
 71
     2
 72
     2
 73
     0
 90
        0
 40
0.6
 41
30.0
 62
     5
 63
     7
421
 16777215
 74
     1
 91
        4
 64
     7
 65
   257
 75
     1
175
     1
 42
1.0
 92
        8
 66
     7
 43
1.0
 76
     1
 77
     6
 78
     2
 67
     7
 79
     5
170
     0
171
     0
290
     0
174
     0
 93
        1
 44
0.0
173
     0
291
     1
 45
0.0
  0
VISUALSTYLE
  5
170
102
{ACAD_REACTORS
330
34
102
}
330
34
100
AcDbVisualStyle
  2
Flat
 70
     0
 71
     2
 72
     1
 73
     1
 90
        2
 40
0.6
 41
30.0
 62
     5
 63
     7
421
 16777215
 74
     0
 91
        0
 64
     7
 65
   257
 75
     1
175
     1
 42
1.0
 92
        8
 66
     7
 43
1.0
 76
     1
 77
     6
 78
     2
 67
     7
 79
     5
170
     0
171
     0
290
     0
174
     0
 93
       13
 44
0.0
173
     0
291
     1
 45
0.0
  0
VISUALSTYLE
  5
171
102
{ACAD_REACTORS
330
34
102
}
330
34
100
AcDbVisualStyle
  2
FlatWithEdges
 70
     1
 71
     2
 72
     1
 73
     1
 90
        2
 40
0.6
 41
30.0
 62
     5
 63
     7
421
 16777215
 74
     1
 91
        0
 64
     7
 65
   257
 75
     1
175
     1
 42
1.0
 92
        0
 66
   257
 43
1.0
 76
     1
 77
     6
 78
     2
 67
     7
 79
     5
170
     0
171
     0
290
     0
174
     0
 93
       13
 44
0.0
173
     0
291
     1
 45
0.0
  0
VISUALSTYLE
  5
172
102
{ACAD_REACTORS
330
34
102
}
330
34
100
AcDbVisualStyle
  2
Gouraud
 70
     2
 71
     2
 72
     2
 73
     1
 90
        2
 40
0.6
 41
30.0
 62
     5
 63
     7
421
 16777215
 74
     0
 91
        0
 64
     7
 65
   257
 75
     1
175
     1
 42
1.0
 92
        0
 66
     7
 43
1.0
 76
     1
 77
     6
 78
     2
 67
     7
 79
     5
170
     0
171
     0
290
     0
174
     0
 93
       13
 44
0.0
173
     0
291
     1
 45
0.0
  0
VISUALSTYLE
  5
173
102
{ACAD_REACTORS
330
34
102
}
330
34
100
AcDbVisualStyle
  2
GouraudWithEdges
 70
     3
 71
     2
 72
     2
 73
     1
 90
        2
 40
0.6
 41
30.0
 62
     5
 63
     7
421
 16777215
 74
     1
 91
        0
 64
     7
 65
   257
 75
     1
175
     1
 42
1.0
 92
        0
 66
   257
 43
1.0
 76
     1
 77
     6
 78
     2
 67
     7
 79
     5
170
     0
171
     0
290
     0
174
     0
 93
       13
 44
0.0
173
     0
291
     1
 45
0.0
  0
VISUALSTYLE
  5
175
102
{ACAD_REACTORS
330
34
102
}
330
34
100
AcDbVisualStyle
  2
Hidden
 70
     6
 71
     1
 72
     2
 73
     2
 90
        0
 40
0.6
 41
30.0
 62
     5
 63
     7
421
 16777215
 74
     2
 91
        2
 64
     7
 65
   257
 75
     2
175
     1
 42
40.0
 92
        0
 66
   257
 43
1.0
 76
     1
 77
     6
 78
     2
 67
     7
 79
     3
170
     0
171
     0
290
     0
174
     0
 93
        1
 44
0.0
173
     0
291
     0
 45
0.0
  0
VISUALSTYLE
  5
17F
102
{ACAD_REACTORS
330
34
102
}
330
34
100
AcDbVisualStyle
  2
JitterOff
 70
    20
 71
     2
 72
     2
 73
     0
 90
        0
 40
0.6
 41
30.0
 62
     5
 63
     7
421
 16777215
 74
     1
 91
        4
 64
     7
 65
   257
 75
     1
175
     1
 42
1.0
 92
       10
 66
     7
 43
1.0
 76
     1
 77
     6
 78
     2
 67
     7
 79
     5
170
     0
171
     0
290
     0
174
     0
 93
        1
 44
0.0
173
     0
291
     1
 45
0.0
  0
VISUALSTYLE
  5
17C
102
{ACAD_REACTORS
330
34
102
}
330
34
100
AcDbVisualStyle
  2
Linepattern
 70
    14
 71
     2
 72
     2
 73
     0
 90
        0
 40
0.6
 41
30.0
 62
     5
 63
     7
421
 16777215
 74
     1
 91
        4
 64
     7
 65
   257
 75
     7
175
     7
 42
1.0
 92
        8
 66
     7
 43
1.0
 76
     1
 77
     6
 78
     2
 67
     7
 79
     5
170
     0
171
     0
290
     0
174
     0
 93
        1
 44
0.0
173
     0
291
     1
 45
0.0
  0
VISUALSTYLE
  5
180
102
{ACAD_REACTORS
330
34
102
}
330
34
100
AcDbVisualStyle
  2
OverhangOff
 70
    21
 71
     2
 72
     2
 73
     0
 90
        0
 40
0.6
 41
30.0
 62
     5
 63
     7
421
 16777215
 74
     1
 91
        4
 64
     7
 65
   257
 75
     1
175
     1
 42
1.0
 92
        9
 66
     7
 43
1.0
 76
     1
 77
     6
 78
     2
 67
     7
 79
     5
170
     0
171
     0
290
     0
174
     0
 93
        1
 44
0.0
173
     0
291
     1
 45
0.0
  0
VISUALSTYLE
  5
177
102
{ACAD_REACTORS
330
34
102
}
330
34
100
AcDbVisualStyle
  2
Realistic
 70
     8
 71
     2
 72
     3
 73
     0
 90
        2
 40
0.6
 41
30.0
 62
     5
 63
     7
421
 16777215
 74
     0
 91
        0
 64
     7
 65
   257
 75
     1
175
     1
 42
1.0
 92
        8
 66
   257
 43
1.0
 76
     1
 77
     6
 78
     2
 67
     7
 79
     3
170
     0
171
     0
290
     0
174
     0
 93
       13
 44
0.0
173
     0
291
     0
 45
0.0
  0
VISUALSTYLE
  5
186
102
{ACAD_REACTORS
330
34
102
}
330
34
100
AcDbVisualStyle
  2
Shaded
 70
    27
 71
     2
 72
     2
 73
     1
 90
        2
 40
0.6
 41
30.0
 62
     5
 63
     7
421
 16777215
 74
     0
 91
        4
 64
     7
 65
   257
 75
     1
175
     1
 42
1.0
 92
        8
 66
   257
 43
1.0
 76
     1
 77
     6
 78
     2
 67
     8
425
  7895160
 79
     3
170
     0
171
     0
290
     0
174
     0
 93
        5
 44
0.0
173
     0
291
     0
 45
0.0
  0
VISUALSTYLE
  5
185
102
{ACAD_REACTORS
330
34
102
}
330
34
100
AcDbVisualStyle
  2
Shaded with edges
 70
    26
 71
     2
 72
     2
 73
     1
 90
        2
 40
0.6
 41
30.0
 62
     5
 63
     7
421
 16777215
 74
     1
 91
       10
 64
     7
 65
   257
 75
     2
175
     1
 42
1.0
 92
        8
 66
   257
 43
1.0
 76
     1
 77
     6
 78
     2
 67
     7
 79
     3
170
     0
171
     0
290
     0
174
     0
 93
        5
 44
0.0
173
     0
291
     0
 45
0.0
  0
VISUALSTYLE
  5
182
102
{ACAD_REACTORS
330
34
102
}
330
34
100
AcDbVisualStyle
  2
Shades of Gray
 70
    23
 71
     2
 72
     2
 73
     3
 90
        0
 40
0.6
 41
30.0
 62
     5
 63
     7
421
 16777215
 74
     2
 91
        2
 64
     7
 65
     7
 75
     1
175
     1
 42
40.0
 92
        8
 66
     7
 43
1.0
 76
     1
 77
     6
 78
     2
 67
     7
 79
     3
170
     0
171
     0
290
     0
174
     0
 93
        1
 44
0.0
173
     0
291
     0
 45
0.0
  0
VISUALSTYLE
  5
183
102
{ACAD_REACTORS
330
34
102
}
330
34
100
AcDbVisualStyle
  2
Sketchy
 70
    24
 71
     1
 72
     2
 73
     2
 90
        0
 40
0.6
 41
30.0
 62
     5
 63
     7
421
 16777215
 74
     2
 91
        2
 64
     7
 65
     7
 75
     1
175
     1
 42
40.0
 92
       11
 66
     7
 43
1.0
 76
     1
 77
     6
 78
     2
 67
     7
 79
     6
170
     0
171
     0
290
     0
174
     0
 93
        1
 44
0.0
173
     0
291
     0
 45
0.0
  0
VISUALSTYLE
  5
17B
102
{ACAD_REACTORS
330
34
102
}
330
34
100
AcDbVisualStyle
  2
Thicken
 70
    13
 71
     2
 72
     2
 73
     0
 90
        0
 40
0.6
 41
30.0
 62
     5
 63
     7
421
 16777215
 74
     1
 91
        4
 64
     7
 65
   257
 75
     1
175
     1
 42
1.0
 92
       12
 66
     7
 43
1.0
 76
     1
 77
     6
 78
     2
 67
     7
 79
     5
170
     0
171
     0
290
     0
174
     0
 93
        1
 44
0.0
173
     0
291
     1
 45
0.0
  0
VISUALSTYLE
  5
174
102
{ACAD_REACTORS
330
34
102
}
330
34
100
AcDbVisualStyle
  2
Wireframe
 70
     5
 71
     0
 72
     2
 73
     0
 90
        0
 40
0.6
 41
30.0
 62
     5
 63
     7
421
 16777215
 74
     1
 91
        4
 64
     7
 65
   257
 75
     1
175
     1
 42
1.0
 92
        0
 66
   257
 43
1.0
 76
     1
 77
     6
 78
     2
 67
     7
 79
     3
170
     0
171
     0
290
     0
174
     0
 93
        1
 44
0.0
173
     0
291
     0
 45
0.0
  0
VISUALSTYLE
  5
184
102
{ACAD_REACTORS
330
34
102
}
330
34
100
AcDbVisualStyle
  2
X-Ray
 70
    25
 71
     2
 72
     2
 73
     1
 90
        1
 40
0.5
 41
30.0
 62
     5
 63
     7
421
 16777215
 74
     1
 91
        0
 64
     7
 65
   257
 75
     1
175
     1
 42
1.0
 92
        8
 66
     7
 43
1.0
 76
     1
 77
     6
 78
     2
 67
     7
 79
     3
170
     0
171
     0
290
     0
174
     0
 93
       13
 44
0.0
173
     0
291
     0
 45
0.0
  0
DICTIONARYVAR
  5
167
102
{ACAD_REACTORS
330
166
102
}
330
166
100
DictionaryVariables
280
     0
  1
1:1
  0
DICTIONARYVAR
  5
1B7
102
{ACAD_REACTORS
330
166
102
}
330
166
100
DictionaryVariables
280
     0
  1
Standard
  0
DICTIONARYVAR
  5
1B6
102
{ACAD_REACTORS
330
166
102
}
330
166
100
DictionaryVariables
280
     0
  1
部品表
  0
DICTIONARYVAR
  5
16C
102
{ACAD_REACTORS
330
166
102
}
330
166
100
DictionaryVariables
280
     0
  1
0
  0
DICTIONARY
  5
212
330
143
100
AcDbDictionary
280
     1
281
     1
  3
ACAD_ROUNDTRIP_2008_TABLESTYLE_CELLSTYLEMAP
360
213
  0
CELLSTYLEMAP
  5
213
102
{ACAD_REACTORS
330
212
102
}
330
212
100
AcDbCellStyleMap
 90
        3
300
CELLSTYLE
  1
TABLEFORMAT_BEGIN
 90
        5
170
     1
 91
        0
 92
        0
 62
   257
 93
        1
300
CONTENTFORMAT
  1
CONTENTFORMAT_BEGIN
 90
        0
 91
        0
 92
        4
 93
        0
300

 40
0.0
140
1.0
 94
        5
 62
   256
340
12D
144
2.0
309
CONTENTFORMAT_END
171
     1
301
MARGIN
  1
CELLMARGIN_BEGIN
 40
0.5
 40
0.5
 40
1.5
 40
1.5
 40
1.5
 40
1.5
309
CELLMARGIN_END
 94
        6
 95
        1
302
GRIDFORMAT
  1
GRIDFORMAT_BEGIN
 90
        0
 91
        1
 62
   256
 92
       -1
340
F
 93
        0
 40
0.045
309
GRIDFORMAT_END
 95
        2
302
GRIDFORMAT
  1
GRIDFORMAT_BEGIN
 90
        0
 91
        1
 62
   256
 92
       -1
340
F
 93
        0
 40
0.045
309
GRIDFORMAT_END
 95
        4
302
GRIDFORMAT
  1
GRIDFORMAT_BEGIN
 90
        0
 91
        1
 62
   256
 92
       -1
340
F
 93
        0
 40
0.045
309
GRIDFORMAT_END
 95
        8
302
GRIDFORMAT
  1
GRIDFORMAT_BEGIN
 90
        0
 91
        1
 62
   256
 92
       -1
340
F
 93
        0
 40
0.045
309
GRIDFORMAT_END
 95
       16
302
GRIDFORMAT
  1
GRIDFORMAT_BEGIN
 90
        0
 91
        1
 62
   256
 92
       -1
340
F
 93
        0
 40
0.045
309
GRIDFORMAT_END
 95
       32
302
GRIDFORMAT
  1
GRIDFORMAT_BEGIN
 90
        0
 91
        1
 62
   256
 92
       -1
340
F
 93
        0
 40
0.045
309
GRIDFORMAT_END
309
TABLEFORMAT_END
  1
CELLSTYLE_BEGIN
 90
        1
 91
        1
300
_TITLE
309
CELLSTYLE_END
300
CELLSTYLE
  1
TABLEFORMAT_BEGIN
 90
        5
170
     1
 91
        0
 92
        0
 62
   257
 93
        1
300
CONTENTFORMAT
  1
CONTENTFORMAT_BEGIN
 90
        0
 91
        0
 92
        4
 93
        0
300

 40
0.0
140
1.0
 94
        5
 62
   256
340
12D
144
2.5
309
CONTENTFORMAT_END
171
     1
301
MARGIN
  1
CELLMARGIN_BEGIN
 40
0.5
 40
0.5
 40
1.5
 40
1.5
 40
1.5
 40
1.5
309
CELLMARGIN_END
 94
        6
 95
        1
302
GRIDFORMAT
  1
GRIDFORMAT_BEGIN
 90
        0
 91
        1
 62
   256
 92
       -1
340
F
 93
        0
 40
0.045
309
GRIDFORMAT_END
 95
        2
302
GRIDFORMAT
  1
GRIDFORMAT_BEGIN
 90
        0
 91
        1
 62
   256
 92
       -1
340
F
 93
        0
 40
0.045
309
GRIDFORMAT_END
 95
        4
302
GRIDFORMAT
  1
GRIDFORMAT_BEGIN
 90
        0
 91
        1
 62
   256
 92
       -1
340
F
 93
        0
 40
0.045
309
GRIDFORMAT_END
 95
        8
302
GRIDFORMAT
  1
GRIDFORMAT_BEGIN
 90
        0
 91
        1
 62
   256
 92
       -1
340
F
 93
        0
 40
0.045
309
GRIDFORMAT_END
 95
       16
302
GRIDFORMAT
  1
GRIDFORMAT_BEGIN
 90
        0
 91
        1
 62
   256
 92
       -1
340
F
 93
        0
 40
0.045
309
GRIDFORMAT_END
 95
       32
302
GRIDFORMAT
  1
GRIDFORMAT_BEGIN
 90
        0
 91
        1
 62
   256
 92
       -1
340
F
 93
        0
 40
0.045
309
GRIDFORMAT_END
309
TABLEFORMAT_END
  1
CELLSTYLE_BEGIN
 90
        2
 91
        1
300
_HEADER
309
CELLSTYLE_END
300
CELLSTYLE
  1
TABLEFORMAT_BEGIN
 90
        5
170
     1
 91
        0
 92
        0
 62
   257
 93
        1
300
CONTENTFORMAT
  1
CONTENTFORMAT_BEGIN
 90
        0
 91
        0
 92
        4
 93
        0
300

 40
0.0
140
1.0
 94
        5
 62
   256
340
12D
144
2.5
309
CONTENTFORMAT_END
171
     1
301
MARGIN
  1
CELLMARGIN_BEGIN
 40
0.5
 40
0.5
 40
1.5
 40
1.5
 40
1.5
 40
1.5
309
CELLMARGIN_END
 94
        6
 95
        1
302
GRIDFORMAT
  1
GRIDFORMAT_BEGIN
 90
        0
 91
        1
 62
   256
 92
       -1
340
F
 93
        0
 40
0.045
309
GRIDFORMAT_END
 95
        2
302
GRIDFORMAT
  1
GRIDFORMAT_BEGIN
 90
        0
 91
        1
 62
   256
 92
       -2
340
F
 93
        0
 40
0.045
309
GRIDFORMAT_END
 95
        4
302
GRIDFORMAT
  1
GRIDFORMAT_BEGIN
 90
        0
 91
        1
 62
   256
 92
       -1
340
F
 93
        0
 40
0.045
309
GRIDFORMAT_END
 95
        8
302
GRIDFORMAT
  1
GRIDFORMAT_BEGIN
 90
        0
 91
        1
 62
   256
 92
       -1
340
F
 93
        0
 40
0.045
309
GRIDFORMAT_END
 95
       16
302
GRIDFORMAT
  1
GRIDFORMAT_BEGIN
 90
        0
 91
        1
 62
   256
 92
       -2
340
F
 93
        0
 40
0.045
309
GRIDFORMAT_END
 95
       32
302
GRIDFORMAT
  1
GRIDFORMAT_BEGIN
 90
        0
 91
        1
 62
   256
 92
       -1
340
F
 93
        0
 40
0.045
309
GRIDFORMAT_END
309
TABLEFORMAT_END
  1
CELLSTYLE_BEGIN
 90
        3
 91
        2
300
_DATA
309
CELLSTYLE_END
  0
ENDSEC
  0
EOF
