  0
SECTION
  2
HEADER
  9
$ACADVER
  1
AC1014
  9
$ACADMAINTVER
 70
     9
  9
$DWGCODEPAGE
  3
ANSI_932
  9
$INSBASE
 10
0.0
 20
0.0
 30
0.0
  9
$EXTMIN
 10
15.19937682077943
 20
9.046269904998098
 30
-0.0015258207003583
  9
$EXTMAX
 10
232.3754216945908
 20
71.09957245762746
 30
0.0000000349246037
  9
$LIMMIN
 10
0.0
 20
0.0
  9
$LIMMAX
 10
420.0
 20
297.0
  9
$ORTHOMODE
 70
     1
  9
$REGENMODE
 70
     1
  9
$FILLMODE
 70
     1
  9
$QTEXTMODE
 70
     0
  9
$MIRRTEXT
 70
     0
  9
$DRAGMODE
 70
     2
  9
$LTSCALE
 40
2.0
  9
$OSMODE
 70
   191
  9
$ATTMODE
 70
     1
  9
$TEXTSIZE
 40
2.5
  9
$TRACEWID
 40
1.0
  9
$TEXTSTYLE
  7
STANDARD
  9
$CLAYER
  8
OBJECT
  9
$CELTYPE
  6
BYLAYER
  9
$CECOLOR
 62
   256
  9
$CELTSCALE
 40
1.0
  9
$DELOBJ
 70
     1
  9
$DISPSILH
 70
     0
  9
$DIMSCALE
 40
0.4600000000000001
  9
$DIMASZ
 40
2.5
  9
$DIMEXO
 40
1.25
  9
$DIMDLI
 40
1.0
  9
$DIMRND
 40
0.0
  9
$DIMDLE
 40
0.0
  9
$DIMEXE
 40
0.625
  9
$DIMTP
 40
0.0
  9
$DIMTM
 40
0.0
  9
$DIMTXT
 40
2.5
  9
$DIMCEN
 40
0.0
  9
$DIMTSZ
 40
0.0
  9
$DIMTOL
 70
     0
  9
$DIMLIM
 70
     0
  9
$DIMTIH
 70
     0
  9
$DIMTOH
 70
     0
  9
$DIMSE1
 70
     0
  9
$DIMSE2
 70
     0
  9
$DIMTAD
 70
     1
  9
$DIMZIN
 70
     8
  9
$DIMBLK
  1

  9
$DIMASO
 70
     1
  9
$DIMSHO
 70
     1
  9
$DIMPOST
  1

  9
$DIMAPOST
  1

  9
$DIMALT
 70
     0
  9
$DIMALTD
 70
     4
  9
$DIMALTF
 40
0.0394
  9
$DIMLFAC
 40
1.0
  9
$DIMTOFL
 70
     1
  9
$DIMTVP
 40
0.0
  9
$DIMTIX
 70
     0
  9
$DIMSOXD
 70
     0
  9
$DIMSAH
 70
     0
  9
$DIMBLK1
  1

  9
$DIMBLK2
  1

  9
$DIMSTYLE
  2
STANDARD
  9
$DIMCLRD
 70
     3
  9
$DIMCLRE
 70
     3
  9
$DIMCLRT
 70
     3
  9
$DIMTFAC
 40
1.0
  9
$DIMGAP
 40
0.625
  9
$DIMJUST
 70
     0
  9
$DIMSD1
 70
     0
  9
$DIMSD2
 70
     0
  9
$DIMTOLJ
 70
     1
  9
$DIMTZIN
 70
     8
  9
$DIMALTZ
 70
     0
  9
$DIMALTTZ
 70
     0
  9
$DIMFIT
 70
     3
  9
$DIMUPT
 70
     0
  9
$DIMUNIT
 70
     2
  9
$DIMDEC
 70
     2
  9
$DIMTDEC
 70
     2
  9
$DIMALTU
 70
     8
  9
$DIMALTTD
 70
     4
  9
$DIMTXSTY
  7
STANDARD
  9
$DIMAUNIT
 70
     0
  9
$LUNITS
 70
     2
  9
$LUPREC
 70
     4
  9
$SKETCHINC
 40
1.0
  9
$FILLETRAD
 40
0.5
  9
$AUNITS
 70
     0
  9
$AUPREC
 70
     0
  9
$MENU
  1
.
  9
$ELEVATION
 40
0.0
  9
$PELEVATION
 40
0.0
  9
$THICKNESS
 40
0.0
  9
$LIMCHECK
 70
     0
  9
$BLIPMODE
 70
     0
  9
$CHAMFERA
 40
0.0
  9
$CHAMFERB
 40
0.0
  9
$CHAMFERC
 40
20.0
  9
$CHAMFERD
 40
0.0
  9
$SKPOLY
 70
     0
  9
$TDCREATE
 40
2452136.870343981
  9
$TDUPDATE
 40
2454518.473525926
  9
$TDINDWG
 40
10.8219981250
  9
$TDUSRTIMER
 40
10.8219977778
  9
$USRTIMER
 70
     1
  9
$ANGBASE
 50
0.0
  9
$ANGDIR
 70
     0
  9
$PDMODE
 70
     0
  9
$PDSIZE
 40
0.0
  9
$PLINEWID
 40
0.3
  9
$COORDS
 70
     0
  9
$SPLFRAME
 70
     0
  9
$SPLINETYPE
 70
     6
  9
$SPLINESEGS
 70
     8
  9
$ATTDIA
 70
     0
  9
$ATTREQ
 70
     1
  9
$HANDLING
 70
 22529
  9
$HANDSEED
  5
366
  9
$SURFTAB1
 70
     6
  9
$SURFTAB2
 70
     6
  9
$SURFTYPE
 70
     6
  9
$SURFU
 70
     6
  9
$SURFV
 70
     6
  9
$UCSNAME
  2

  9
$UCSORG
 10
0.0
 20
0.0
 30
0.0
  9
$UCSXDIR
 10
1.0
 20
0.0
 30
0.0
  9
$UCSYDIR
 10
0.0
 20
1.0
 30
0.0
  9
$PUCSNAME
  2

  9
$PUCSORG
 10
0.0
 20
0.0
 30
0.0
  9
$PUCSXDIR
 10
1.0
 20
0.0
 30
0.0
  9
$PUCSYDIR
 10
0.0
 20
1.0
 30
0.0
  9
$USERI1
 70
     0
  9
$USERI2
 70
     0
  9
$USERI3
 70
     0
  9
$USERI4
 70
     0
  9
$USERI5
 70
     0
  9
$USERR1
 40
0.0
  9
$USERR2
 40
0.0
  9
$USERR3
 40
0.0
  9
$USERR4
 40
0.0
  9
$USERR5
 40
0.0
  9
$WORLDVIEW
 70
     1
  9
$SHADEDGE
 70
     3
  9
$SHADEDIF
 70
    70
  9
$TILEMODE
 70
     1
  9
$MAXACTVP
 70
    48
  9
$PINSBASE
 10
0.0
 20
0.0
 30
0.0
  9
$PLIMCHECK
 70
     0
  9
$PEXTMIN
 10
0.9598916571909988
 20
0.8043799099959727
 30
0.0
  9
$PEXTMAX
 10
8.639024914718985
 20
7.239419189963752
 30
0.0
  9
$PLIMMIN
 10
-0.7005418191744587
 20
-0.2281003861915408
  9
$PLIMMAX
 10
10.29945794052965
 20
8.271899373512567
  9
$UNITMODE
 70
     0
  9
$VISRETAIN
 70
     1
  9
$PLINEGEN
 70
     0
  9
$PSLTSCALE
 70
     1
  9
$TREEDEPTH
 70
  3020
  9
$PICKSTYLE
 70
     1
  9
$CMLSTYLE
  2
STANDARD
  9
$CMLJUST
 70
     0
  9
$CMLSCALE
 40
20.0
  9
$PROXYGRAPHICS
 70
     1
  9
$MEASUREMENT
 70
     0
  0
ENDSEC
  0
SECTION
  2
CLASSES
  0
CLASS
  1
DICTIONARYVAR
  2
AcDbDictionaryVar
  3
AutoCAD 2000
 90
        0
280
     0
281
     0
  0
CLASS
  1
HATCH
  2
AcDbHatch
  3
AutoCAD 2000
 90
        0
280
     0
281
     1
  0
CLASS
  1
XRECORD
  2
AcDbXrecord
  3
AutoCAD 2000
 90
        0
280
     0
281
     0
  0
CLASS
  1
LWPOLYLINE
  2
AcDbPolyline
  3
AutoCAD 2000
 90
        0
280
     0
281
     1
  0
CLASS
  1
ACDBDICTIONARYWDFLT
  2
AcDbDictionaryWithDefault
  3
AutoCAD 2000
 90
        0
280
     0
281
     0
  0
CLASS
  1
ACDBPLACEHOLDER
  2
AcDbPlaceHolder
  3
AutoCAD 2000
 90
        0
280
     0
281
     0
  0
CLASS
  1
LAYOUT
  2
AcDbLayout
  3
AutoCAD 2000
 90
        0
280
     0
281
     0
  0
CLASS
  1
DIMASSOC
  2
AcDbDimAssoc
  3
"AcDbDimAssoc|Product Desc:     AcDim ARX App For Dimension|Company:          Autodesk, Inc.|WEB Address:      www.autodesk.com"
 90
        0
280
     0
281
     0
  0
CLASS
  1
PLOTSETTINGS
  2
AcDbPlotSettings
  3
AutoCAD 2000
 90
        0
280
     0
281
     0
  0
CLASS
  1
LONG_TRANSACTION
  2
AcDbLongTransaction
  3
AutoCAD 2000
 90
        0
280
     0
281
     0
  0
CLASS
  1
LWPOLYLINE
  2
AcDbPolyline
  3
AutoCAD 2000
 90
        0
280
     0
281
     1
  0
CLASS
  1
HATCH
  2
AcDbHatch
  3
AutoCAD 2000
 90
        0
280
     0
281
     1
  0
CLASS
  1
XRECORD
  2
AcDbXrecord
  3
AutoCAD 2000
 90
        0
280
     0
281
     0
  0
CLASS
  1
LONG_TRANSACTION
  2
AcDbLongTransaction
  3
AutoCAD 2000
 90
        0
280
     0
281
     0
  0
CLASS
  1
LWPOLYLINE
  2
AcDbPolyline
  3
AutoCAD 2000
 90
        0
280
     0
281
     1
  0
CLASS
  1
HATCH
  2
AcDbHatch
  3
AutoCAD 2000
 90
        0
280
     0
281
     1
  0
CLASS
  1
XRECORD
  2
AcDbXrecord
  3
AutoCAD 2000
 90
        0
280
     0
281
     0
  0
CLASS
  1
LONG_TRANSACTION
  2
AcDbLongTransaction
  3
AutoCAD 2000
 90
        0
280
     0
281
     0
  0
CLASS
  1
LWPOLYLINE
  2
AcDbPolyline
  3
AutoCAD 2000
 90
        0
280
     0
281
     1
  0
CLASS
  1
HATCH
  2
AcDbHatch
  3
AutoCAD 2000
 90
        0
280
     0
281
     1
  0
CLASS
  1
XRECORD
  2
AcDbXrecord
  3
AutoCAD 2000
 90
        0
280
     0
281
     0
  0
ENDSEC
  0
SECTION
  2
TABLES
  0
TABLE
  2
VPORT
  5
1C
330
0
100
AcDbSymbolTable
 70
     4
  0
VPORT
  5
342
330
1C
100
AcDbSymbolTableRecord
100
AcDbViewportTableRecord
  2
*ACTIVE
 70
     0
 10
0.0
 20
0.0
 11
1.0
 21
1.0
 12
123.8176136034519
 22
40.07509915656446
 13
0.0
 23
0.0
 14
10.0
 24
10.0
 15
10.0
 25
10.0
 16
0.0
 26
0.0
 36
1.0
 17
0.0
 27
0.0
 37
0.0
 40
292.1852831599278
 41
1.493654822335025
 42
50.0
 43
0.0
 44
0.0
 50
0.0
 51
0.0
 71
     0
 72
 20000
 73
     1
 74
     1
 75
     0
 76
     0
 77
     0
 78
     0
  0
ENDTAB
  0
TABLE
  2
LTYPE
  5
17
330
0
100
AcDbSymbolTable
 70
     2
  0
LTYPE
  5
18
330
17
100
AcDbSymbolTableRecord
100
AcDbLinetypeTableRecord
  2
BYBLOCK
 70
     0
  3

 72
    65
 73
     0
 40
0.0
  0
LTYPE
  5
19
330
17
100
AcDbSymbolTableRecord
100
AcDbLinetypeTableRecord
  2
BYLAYER
 70
     0
  3

 72
    65
 73
     0
 40
0.0
  0
LTYPE
  5
8
330
17
100
AcDbSymbolTableRecord
100
AcDbLinetypeTableRecord
  2
CONTINUOUS
 70
     0
  3
Solid line
 72
    65
 73
     0
 40
0.0
  0
ENDTAB
  0
TABLE
  2
LAYER
  5
10
102
{ACAD_XDICTIONARY
360
11
102
}
330
0
100
AcDbSymbolTable
 70
     4
  0
LAYER
  5
4
330
10
100
AcDbSymbolTableRecord
100
AcDbLayerTableRecord
  2
0
 70
     0
 62
     7
  6
CONTINUOUS
  0
LAYER
  5
27
330
10
100
AcDbSymbolTableRecord
100
AcDbLayerTableRecord
  2
OBJECT
 70
     0
 62
     7
  6
CONTINUOUS
  0
LAYER
  5
174
330
10
100
AcDbSymbolTableRecord
100
AcDbLayerTableRecord
  2
TEXT
 70
     0
 62
     3
  6
CONTINUOUS
  0
LAYER
  5
34
330
10
100
AcDbSymbolTableRecord
100
AcDbLayerTableRecord
  2
DEFPOINTS
 70
     0
 62
     2
  6
CONTINUOUS
  0
ENDTAB
  0
TABLE
  2
STYLE
  5
14
330
0
100
AcDbSymbolTable
 70
     3
  0
STYLE
  5
15
330
14
100
AcDbSymbolTableRecord
100
AcDbTextStyleTableRecord
  2
STANDARD
 70
     0
 40
0.0
 41
1.0
 50
0.0
 71
     0
 42
2.5
  3
simplex.shx
  4
bigfont.shx
  0
ENDTAB
  0
TABLE
  2
VIEW
  5
1A
330
0
100
AcDbSymbolTable
 70
     0
  0
ENDTAB
  0
TABLE
  2
UCS
  5
1B
330
0
100
AcDbSymbolTable
 70
     0
  0
ENDTAB
  0
TABLE
  2
APPID
  5
1E
330
0
100
AcDbSymbolTable
 70
     1
  0
APPID
  5
1F
330
1E
100
AcDbSymbolTableRecord
100
AcDbRegAppTableRecord
  2
ACAD
 70
     0
  0
ENDTAB
  0
TABLE
  2
DIMSTYLE
  5
20
330
0
100
AcDbSymbolTable
 70
     1
  0
DIMSTYLE
105
21
102
{ACAD_REACTORS
330
2B
330
6A
330
88
330
3D
330
B7
330
D9
330
15F
330
14C
102
}
330
20
100
AcDbSymbolTableRecord
100
AcDbDimStyleTableRecord
  2
STANDARD
 70
     0
  3

  4

  5

  6

  7

 40
0.4600000000000001
 41
2.5
 42
1.25
 43
1.0
 44
0.625
 45
0.0
 46
0.0
 47
0.0
 48
0.0
140
2.5
141
0.0
142
0.0
143
0.0394
144
1.0
145
0.0
146
1.0
147
0.625
 71
     0
 72
     0
 73
     0
 74
     0
 75
     0
 76
     0
 77
     1
 78
     8
170
     0
171
     4
172
     1
173
     0
174
     0
175
     0
176
     3
177
     3
178
     3
270
     2
271
     2
272
     2
273
     8
274
     4
340
15
275
     0
280
     0
281
     0
282
     0
283
     1
284
     8
285
     0
286
     0
287
     3
288
     0
  0
ENDTAB
  0
TABLE
  2
BLOCK_RECORD
  5
1
330
0
100
AcDbSymbolTable
 70
    16
  0
BLOCK_RECORD
  5
2
102
{ACAD_XDICTIONARY
360
1E5
102
}
330
1
100
AcDbSymbolTableRecord
100
AcDbBlockTableRecord
  2
*MODEL_SPACE
  0
BLOCK_RECORD
  5
C
102
{ACAD_XDICTIONARY
360
1E7
102
}
330
1
100
AcDbSymbolTableRecord
100
AcDbBlockTableRecord
  2
*PAPER_SPACE
  0
BLOCK_RECORD
  5
231
330
1
100
AcDbSymbolTableRecord
100
AcDbBlockTableRecord
  2
*D8
  0
BLOCK_RECORD
  5
23F
330
1
100
AcDbSymbolTableRecord
100
AcDbBlockTableRecord
  2
*D9
  0
BLOCK_RECORD
  5
24B
330
1
100
AcDbSymbolTableRecord
100
AcDbBlockTableRecord
  2
*D10
  0
BLOCK_RECORD
  5
257
330
1
100
AcDbSymbolTableRecord
100
AcDbBlockTableRecord
  2
*D11
  0
BLOCK_RECORD
  5
265
330
1
100
AcDbSymbolTableRecord
100
AcDbBlockTableRecord
  2
*D12
  0
BLOCK_RECORD
  5
271
330
1
100
AcDbSymbolTableRecord
100
AcDbBlockTableRecord
  2
*D13
  0
BLOCK_RECORD
  5
27D
330
1
100
AcDbSymbolTableRecord
100
AcDbBlockTableRecord
  2
*D14
  0
BLOCK_RECORD
  5
289
330
1
100
AcDbSymbolTableRecord
100
AcDbBlockTableRecord
  2
*D15
  0
ENDTAB
  0
ENDSEC
  0
SECTION
  2
BLOCKS
  0
BLOCK
  5
3
330
2
100
AcDbEntity
  8
0
100
AcDbBlockBegin
  2
*MODEL_SPACE
 70
     2
 10
0.0
 20
0.0
 30
0.0
  3
*MODEL_SPACE
  1

  0
ENDBLK
  5
9
330
2
100
AcDbEntity
  8
0
100
AcDbBlockEnd
  0
BLOCK
  5
D
330
C
100
AcDbEntity
 67
     1
  8
0
100
AcDbBlockBegin
  2
*PAPER_SPACE
 70
     0
 10
0.0
 20
0.0
 30
0.0
  3
*PAPER_SPACE
  1

  0
ENDBLK
  5
E
330
C
100
AcDbEntity
 67
     1
  8
0
100
AcDbBlockEnd
  0
BLOCK
  5
23D
330
231
100
AcDbEntity
  8
0
100
AcDbBlockBegin
  2
*D8
 70
     1
 10
0.0
 20
0.0
 30
0.0
  3
*D8
  1

  0
LINE
  5
323
330
231
100
AcDbEntity
  8
TEXT
 62
     0
100
AcDbLine
 10
112.7703889906219
 20
36.82499627181172
 30
0.0
 11
115.812361411371
 21
36.82499627181172
 31
0.0
  0
LINE
  5
324
330
231
100
AcDbEntity
  8
TEXT
 62
     0
100
AcDbLine
 10
112.7703889906219
 20
31.32499627181173
 30
0.0
 11
115.812361411371
 21
31.32499627181173
 31
0.0
  0
LINE
  5
325
330
231
100
AcDbEntity
  8
TEXT
 62
     0
100
AcDbLine
 10
115.187361411371
 20
28.82499627181173
 30
0.0
 11
115.187361411371
 21
26.32499627181173
 31
0.0
  0
LINE
  5
326
330
231
100
AcDbEntity
  8
TEXT
 62
     0
100
AcDbLine
 10
115.187361411371
 20
39.32499627181172
 30
0.0
 11
115.187361411371
 21
51.67856770038333
 31
0.0
  0
LINE
  5
327
330
231
100
AcDbEntity
  8
TEXT
 62
     0
100
AcDbLine
 10
115.187361411371
 20
31.32499627181173
 30
0.0
 11
115.187361411371
 21
36.82499627181172
 31
0.0
  0
SOLID
  5
328
330
231
100
AcDbEntity
  8
TEXT
 62
     0
100
AcDbTrace
 10
114.7706947447043
 20
28.82499627181173
 30
0.0
 11
115.6040280780377
 21
28.82499627181173
 31
0.0
 12
115.187361411371
 22
31.32499627181173
 32
0.0
 13
115.187361411371
 23
31.32499627181173
 33
0.0
  0
SOLID
  5
329
330
231
100
AcDbEntity
  8
TEXT
 62
     0
100
AcDbTrace
 10
114.7706947447044
 20
39.32499627181172
 30
0.0
 11
115.6040280780377
 21
39.32499627181172
 31
0.0
 12
115.187361411371
 22
36.82499627181172
 32
0.0
 13
115.187361411371
 23
36.82499627181172
 33
0.0
  0
MTEXT
  5
32A
330
231
100
AcDbEntity
  8
TEXT
 62
     0
100
AcDbMText
 10
113.062361411371
 20
47.05356770038335
 30
0.0
 40
3.0
 41
0.0
 71
     5
 72
     1
  1
\A1;φ4.1
 11
0.0000000000000001
 21
1.0
 31
0.0
1001
ACAD
1000
MTEXTBEGIN
1070
    73
1070
     1
1070
    44
1040
1.0
1070
    74
1070
     0
1000
MTEXTEND
  0
POINT
  5
32B
330
231
100
AcDbEntity
  8
DEFPOINTS
 62
     0
100
AcDbPoint
 10
111.5203889906219
 20
36.82499627181172
 30
0.0
  0
POINT
  5
32C
330
231
100
AcDbEntity
  8
DEFPOINTS
 62
     0
100
AcDbPoint
 10
111.5203889906219
 20
31.32499627181173
 30
0.0
  0
POINT
  5
32D
330
231
100
AcDbEntity
  8
DEFPOINTS
 62
     0
100
AcDbPoint
 10
115.187361411371
 20
31.32499627181173
 30
0.0
  0
ENDBLK
  5
23E
330
231
100
AcDbEntity
  8
0
100
AcDbBlockEnd
  0
BLOCK
  5
249
330
23F
100
AcDbEntity
  8
0
100
AcDbBlockBegin
  2
*D9
 70
     1
 10
0.0
 20
0.0
 30
0.0
  3
*D9
  1

  0
LINE
  5
2F5
330
23F
100
AcDbEntity
  8
TEXT
 62
     0
100
AcDbLine
 10
52.3585477261181
 20
28.0249962718116
 30
0.0
 11
52.3585477261181
 21
9.07438137573937
 31
0.0
  0
LINE
  5
2F6
330
23F
100
AcDbEntity
  8
TEXT
 62
     0
100
AcDbLine
 10
73.95854772611802
 20
29.024996271812
 30
0.0
 11
73.95854772611802
 21
9.07438137573937
 31
0.0
  0
LINE
  5
2F7
330
23F
100
AcDbEntity
  8
TEXT
 62
     0
100
AcDbLine
 10
54.8585477261181
 20
9.699381375739369
 30
0.0
 11
71.45854772611802
 21
9.699381375739369
 31
0.0
  0
SOLID
  5
2F8
330
23F
100
AcDbEntity
  8
TEXT
 62
     0
100
AcDbTrace
 10
54.8585477261181
 20
10.11604804240603
 30
0.0
 11
54.8585477261181
 21
9.282714709072703
 31
0.0
 12
52.3585477261181
 22
9.699381375739369
 32
0.0
 13
52.3585477261181
 23
9.699381375739369
 33
0.0
  0
SOLID
  5
2F9
330
23F
100
AcDbEntity
  8
TEXT
 62
     0
100
AcDbTrace
 10
71.45854772611802
 20
10.11604804240603
 30
0.0
 11
71.45854772611802
 21
9.282714709072703
 31
0.0
 12
73.95854772611802
 22
9.699381375739369
 32
0.0
 13
73.95854772611802
 23
9.699381375739369
 33
0.0
  0
MTEXT
  5
2FA
330
23F
100
AcDbEntity
  8
TEXT
 62
     0
100
AcDbMText
 10
64.08118721894311
 20
11.82438137573937
 30
0.0
 40
3.0
 41
0.0
 71
     5
 72
     1
  1
\A1;21.6
1001
ACAD
1000
MTEXTBEGIN
1070
    73
1070
     1
1070
    44
1040
1.0
1070
    74
1070
     0
1000
MTEXTEND
  0
POINT
  5
2FB
330
23F
100
AcDbEntity
  8
DEFPOINTS
 62
     0
100
AcDbPoint
 10
52.3585477261181
 20
29.2749962718116
 30
0.0
  0
POINT
  5
2FC
330
23F
100
AcDbEntity
  8
DEFPOINTS
 62
     0
100
AcDbPoint
 10
73.95854772611802
 20
30.274996271812
 30
0.0
  0
POINT
  5
2FD
330
23F
100
AcDbEntity
  8
DEFPOINTS
 62
     0
100
AcDbPoint
 10
73.95854772611802
 20
9.699381375739369
 30
0.0
  0
ENDBLK
  5
24A
330
23F
100
AcDbEntity
  8
0
100
AcDbBlockEnd
  0
BLOCK
  5
255
330
24B
100
AcDbEntity
  8
0
100
AcDbBlockBegin
  2
*D10
 70
     1
 10
0.0
 20
0.0
 30
0.0
  3
*D10
  1

  0
LINE
  5
308
330
24B
100
AcDbEntity
  8
TEXT
 62
     0
100
AcDbLine
 10
73.95854772611802
 20
29.024996271812
 30
0.0
 11
73.95854772611802
 21
9.07438137573937
 31
0.0
  0
LINE
  5
309
330
24B
100
AcDbEntity
  8
TEXT
 62
     0
100
AcDbLine
 10
157.515050474853
 20
25.3781976439287
 30
0.0
 11
157.515050474853
 21
9.074381375739367
 31
0.0
  0
LINE
  5
30A
330
24B
100
AcDbEntity
  8
TEXT
 62
     0
100
AcDbLine
 10
76.45854772611802
 20
9.699381375739369
 30
0.0
 11
155.015050474853
 21
9.699381375739369
 31
0.0
  0
SOLID
  5
30B
330
24B
100
AcDbEntity
  8
TEXT
 62
     0
100
AcDbTrace
 10
76.45854772611802
 20
10.11604804240603
 30
0.0
 11
76.45854772611802
 21
9.282714709072703
 31
0.0
 12
73.95854772611802
 22
9.699381375739369
 32
0.0
 13
73.95854772611802
 23
9.699381375739369
 33
0.0
  0
SOLID
  5
30C
330
24B
100
AcDbEntity
  8
TEXT
 62
     0
100
AcDbTrace
 10
155.015050474853
 20
10.11604804240603
 30
0.0
 11
155.015050474853
 21
9.282714709072703
 31
0.0
 12
157.515050474853
 22
9.699381375739369
 32
0.0
 13
157.515050474853
 23
9.699381375739369
 33
0.0
  0
MTEXT
  5
30D
330
24B
100
AcDbEntity
  8
TEXT
 62
     0
100
AcDbMText
 10
118.190609781825
 20
11.82438137573937
 30
0.0
 40
3.0
 41
0.0
 71
     5
 72
     1
  1
\A1;2000
1001
ACAD
1000
MTEXTBEGIN
1070
    73
1070
     1
1070
    44
1040
1.0
1070
    74
1070
     0
1000
MTEXTEND
  0
POINT
  5
30E
330
24B
100
AcDbEntity
  8
DEFPOINTS
 62
     0
100
AcDbPoint
 10
73.95854772611802
 20
30.274996271812
 30
0.0
  0
POINT
  5
30F
330
24B
100
AcDbEntity
  8
DEFPOINTS
 62
     0
100
AcDbPoint
 10
157.515050474853
 20
26.6281976439287
 30
0.0
  0
POINT
  5
310
330
24B
100
AcDbEntity
  8
DEFPOINTS
 62
     0
100
AcDbPoint
 10
157.515050474853
 20
9.699381375739369
 30
0.0
  0
ENDBLK
  5
256
330
24B
100
AcDbEntity
  8
0
100
AcDbBlockEnd
  0
BLOCK
  5
263
330
257
100
AcDbEntity
  8
0
100
AcDbBlockBegin
  2
*D11
 70
     1
 10
0.0
 20
0.0
 30
0.0
  3
*D11
  1

  0
LINE
  5
2FE
330
257
100
AcDbEntity
  8
TEXT
 62
     0
100
AcDbLine
 10
18.76263637426495
 20
27.82499627181144
 30
0.0
 11
18.76263637426495
 21
9.065240311622268
 31
0.0
  0
LINE
  5
2FF
330
257
100
AcDbEntity
  8
TEXT
 62
     0
100
AcDbLine
 10
25.36263637426305
 20
27.82499627181143
 30
0.0
 11
25.36263637426305
 21
9.065240311622268
 31
0.0
  0
LINE
  5
300
330
257
100
AcDbEntity
  8
TEXT
 62
     0
100
AcDbLine
 10
21.26263637426495
 20
9.690240311622268
 30
0.0
 11
22.86263637426305
 21
9.690240311622268
 31
0.0
  0
LINE
  5
301
330
257
100
AcDbEntity
  8
TEXT
 62
     0
100
AcDbLine
 10
25.36263637426305
 20
9.690240311622268
 30
0.0
 11
37.93049351712046
 21
9.690240311622268
 31
0.0
  0
SOLID
  5
302
330
257
100
AcDbEntity
  8
TEXT
 62
     0
100
AcDbTrace
 10
21.26263637426495
 20
10.10690697828893
 30
0.0
 11
21.26263637426495
 21
9.273573644955602
 31
0.0
 12
18.76263637426495
 22
9.690240311622268
 32
0.0
 13
18.76263637426495
 23
9.690240311622268
 33
0.0
  0
SOLID
  5
303
330
257
100
AcDbEntity
  8
TEXT
 62
     0
100
AcDbTrace
 10
22.86263637426305
 20
10.10690697828893
 30
0.0
 11
22.86263637426305
 21
9.273573644955602
 31
0.0
 12
25.36263637426305
 22
9.690240311622268
 32
0.0
 13
25.36263637426305
 23
9.690240311622268
 33
0.0
  0
MTEXT
  5
304
330
257
100
AcDbEntity
  8
TEXT
 62
     0
100
AcDbMText
 10
34.23406494569189
 20
11.81524031162226
 30
0.0
 40
3.0
 41
0.0
 71
     5
 72
     1
  1
\A1;6.6
1001
ACAD
1000
MTEXTBEGIN
1070
    73
1070
     1
1070
    44
1040
1.0
1070
    74
1070
     0
1000
MTEXTEND
  0
POINT
  5
305
330
257
100
AcDbEntity
  8
DEFPOINTS
 62
     0
100
AcDbPoint
 10
18.76263637426495
 20
29.07499627181144
 30
0.0
  0
POINT
  5
306
330
257
100
AcDbEntity
  8
DEFPOINTS
 62
     0
100
AcDbPoint
 10
25.36263637426305
 20
29.07499627181143
 30
0.0
  0
POINT
  5
307
330
257
100
AcDbEntity
  8
DEFPOINTS
 62
     0
100
AcDbPoint
 10
25.36263637426305
 20
9.690240311622268
 30
0.0
  0
ENDBLK
  5
264
330
257
100
AcDbEntity
  8
0
100
AcDbBlockEnd
  0
BLOCK
  5
26F
330
265
100
AcDbEntity
  8
0
100
AcDbBlockBegin
  2
*D12
 70
     1
 10
0.0
 20
0.0
 30
0.0
  3
*D12
  1

  0
LINE
  5
31A
330
265
100
AcDbEntity
  8
TEXT
 62
     0
100
AcDbLine
 10
26.61263637426305
 20
39.07499627181154
 30
0.0
 11
37.10790624531592
 21
39.07499627181154
 31
0.0
  0
LINE
  5
31B
330
265
100
AcDbEntity
  8
TEXT
 62
     0
100
AcDbLine
 10
26.61263637426305
 20
29.07499627181143
 30
0.0
 11
37.10790624531592
 21
29.07499627181143
 31
0.0
  0
LINE
  5
31C
330
265
100
AcDbEntity
  8
TEXT
 62
     0
100
AcDbLine
 10
36.48290624531592
 20
36.57499627181154
 30
0.0
 11
36.48290624531592
 21
31.57499627181143
 31
0.0
  0
SOLID
  5
31D
330
265
100
AcDbEntity
  8
TEXT
 62
     0
100
AcDbTrace
 10
36.06623957864925
 20
36.57499627181154
 30
0.0
 11
36.89957291198258
 21
36.57499627181154
 31
0.0
 12
36.48290624531592
 22
39.07499627181154
 32
0.0
 13
36.48290624531592
 23
39.07499627181154
 33
0.0
  0
SOLID
  5
31E
330
265
100
AcDbEntity
  8
TEXT
 62
     0
100
AcDbTrace
 10
36.06623957864925
 20
31.57499627181143
 30
0.0
 11
36.89957291198258
 21
31.57499627181143
 31
0.0
 12
36.48290624531592
 22
29.07499627181143
 32
0.0
 13
36.48290624531592
 23
29.07499627181143
 33
0.0
  0
MTEXT
  5
31F
330
265
100
AcDbEntity
  8
TEXT
 62
     0
100
AcDbMText
 10
34.35790624531591
 20
33.52371978080702
 30
0.0
 40
3.0
 41
0.0
 71
     5
 72
     1
  1
\A1;10
 11
0.0000000000000001
 21
1.0
 31
0.0
1001
ACAD
1000
MTEXTBEGIN
1070
    73
1070
     1
1070
    44
1040
1.0
1070
    74
1070
     0
1000
MTEXTEND
  0
POINT
  5
320
330
265
100
AcDbEntity
  8
DEFPOINTS
 62
     0
100
AcDbPoint
 10
25.36263637426305
 20
39.07499627181154
 30
0.0
  0
POINT
  5
321
330
265
100
AcDbEntity
  8
DEFPOINTS
 62
     0
100
AcDbPoint
 10
25.36263637426305
 20
29.07499627181143
 30
0.0
  0
POINT
  5
322
330
265
100
AcDbEntity
  8
DEFPOINTS
 62
     0
100
AcDbPoint
 10
36.48290624531592
 20
29.07499627181143
 30
0.0
  0
ENDBLK
  5
270
330
265
100
AcDbEntity
  8
0
100
AcDbBlockEnd
  0
BLOCK
  5
27B
330
271
100
AcDbEntity
  8
0
100
AcDbBlockBegin
  2
*D13
 70
     1
 10
0.0
 20
0.0
 30
0.0
  3
*D13
  1

  0
LINE
  5
311
330
271
100
AcDbEntity
  8
TEXT
 62
     0
100
AcDbLine
 10
157.515050474853
 20
25.3781976439287
 30
0.0
 11
157.515050474853
 21
9.074381375739367
 31
0.0
  0
LINE
  5
312
330
271
100
AcDbEntity
  8
TEXT
 62
     0
100
AcDbLine
 10
191.515050474853
 20
23.82499627181173
 30
0.0
 11
191.515050474853
 21
9.074381375739367
 31
0.0
  0
LINE
  5
313
330
271
100
AcDbEntity
  8
TEXT
 62
     0
100
AcDbLine
 10
160.015050474853
 20
9.699381375739369
 30
0.0
 11
189.015050474853
 21
9.699381375739369
 31
0.0
  0
SOLID
  5
314
330
271
100
AcDbEntity
  8
TEXT
 62
     0
100
AcDbTrace
 10
160.015050474853
 20
10.11604804240603
 30
0.0
 11
160.015050474853
 21
9.282714709072703
 31
0.0
 12
157.515050474853
 22
9.699381375739369
 32
0.0
 13
157.515050474853
 23
9.699381375739369
 33
0.0
  0
SOLID
  5
315
330
271
100
AcDbEntity
  8
TEXT
 62
     0
100
AcDbTrace
 10
189.015050474853
 20
10.11604804240603
 30
0.0
 11
189.015050474853
 21
9.282714709072703
 31
0.0
 12
191.515050474853
 22
9.699381375739369
 32
0.0
 13
191.515050474853
 23
9.699381375739369
 33
0.0
  0
MTEXT
  5
316
330
271
100
AcDbEntity
  8
TEXT
 62
     0
100
AcDbMText
 10
174.515050474853
 20
11.82438137573937
 30
0.0
 40
3.0
 41
0.0
 71
     5
 72
     1
  1
\A1;34
1001
ACAD
1000
MTEXTBEGIN
1070
    73
1070
     1
1070
    44
1040
1.0
1070
    74
1070
     0
1000
MTEXTEND
  0
POINT
  5
317
330
271
100
AcDbEntity
  8
DEFPOINTS
 62
     0
100
AcDbPoint
 10
157.515050474853
 20
26.6281976439287
 30
0.0
  0
POINT
  5
318
330
271
100
AcDbEntity
  8
DEFPOINTS
 62
     0
100
AcDbPoint
 10
191.515050474853
 20
25.07499627181173
 30
0.0
  0
POINT
  5
319
330
271
100
AcDbEntity
  8
DEFPOINTS
 62
     0
100
AcDbPoint
 10
191.515050474853
 20
9.699381375739369
 30
0.0
  0
ENDBLK
  5
27C
330
271
100
AcDbEntity
  8
0
100
AcDbBlockEnd
  0
BLOCK
  5
287
330
27D
100
AcDbEntity
  8
0
100
AcDbBlockBegin
  2
*D14
 70
     1
 10
0.0
 20
0.0
 30
0.0
  3
*D14
  1

  0
LINE
  5
32E
330
27D
100
AcDbEntity
  8
TEXT
 62
     0
100
AcDbLine
 10
217.370931362303
 20
20.02499627181091
 30
0.0
 11
217.370931362303
 21
9.074381375739369
 31
0.0
  0
LINE
  5
32F
330
27D
100
AcDbEntity
  8
TEXT
 62
     0
100
AcDbLine
 10
232.370931362301
 20
20.02499627181185
 30
0.0
 11
232.370931362301
 21
9.074381375739369
 31
0.0
  0
LINE
  5
330
330
27D
100
AcDbEntity
  8
TEXT
 62
     0
100
AcDbLine
 10
219.870931362303
 20
9.699381375739369
 30
0.0
 11
229.870931362301
 21
9.699381375739369
 31
0.0
  0
SOLID
  5
331
330
27D
100
AcDbEntity
  8
TEXT
 62
     0
100
AcDbTrace
 10
219.870931362303
 20
10.11604804240603
 30
0.0
 11
219.870931362303
 21
9.282714709072703
 31
0.0
 12
217.370931362303
 22
9.699381375739369
 32
0.0
 13
217.370931362303
 23
9.699381375739369
 33
0.0
  0
SOLID
  5
332
330
27D
100
AcDbEntity
  8
TEXT
 62
     0
100
AcDbTrace
 10
229.870931362301
 20
10.11604804240603
 30
0.0
 11
229.870931362301
 21
9.282714709072703
 31
0.0
 12
232.370931362301
 22
9.699381375739369
 32
0.0
 13
232.370931362301
 23
9.699381375739369
 33
0.0
  0
MTEXT
  5
333
330
27D
100
AcDbEntity
  8
TEXT
 62
     0
100
AcDbMText
 10
224.870931362302
 20
11.82438137573937
 30
0.0
 40
3.0
 41
0.0
 71
     5
 72
     1
  1
\A1;15
1001
ACAD
1000
MTEXTBEGIN
1070
    73
1070
     1
1070
    44
1040
1.0
1070
    74
1070
     0
1000
MTEXTEND
  0
POINT
  5
334
330
27D
100
AcDbEntity
  8
DEFPOINTS
 62
     0
100
AcDbPoint
 10
217.370931362303
 20
21.27499627181091
 30
0.0
  0
POINT
  5
335
330
27D
100
AcDbEntity
  8
DEFPOINTS
 62
     0
100
AcDbPoint
 10
232.370931362301
 20
21.27499627181185
 30
0.0
  0
POINT
  5
336
330
27D
100
AcDbEntity
  8
DEFPOINTS
 62
     0
100
AcDbPoint
 10
232.370931362301
 20
9.699381375739369
 30
0.0
  0
ENDBLK
  5
288
330
27D
100
AcDbEntity
  8
0
100
AcDbBlockEnd
  0
BLOCK
  5
293
330
289
100
AcDbEntity
  8
0
100
AcDbBlockBegin
  2
*D15
 70
     1
 10
0.0
 20
0.0
 30
0.0
  3
*D15
  1

  0
LINE
  5
337
330
289
100
AcDbEntity
  8
TEXT
 62
     0
100
AcDbLine
 10
219.115557954082
 20
50.32499627181188
 30
0.0
 11
208.0895246362552
 21
50.32499627181188
 31
0.0
  0
LINE
  5
338
330
289
100
AcDbEntity
  8
TEXT
 62
     0
100
AcDbLine
 10
219.115557954082
 20
17.82499627181189
 30
0.0
 11
208.0895246362552
 21
17.8249962718119
 31
0.0
  0
LINE
  5
339
330
289
100
AcDbEntity
  8
TEXT
 62
     0
100
AcDbLine
 10
208.7145246362552
 20
47.82499627181188
 30
0.0
 11
208.7145246362552
 21
20.3249962718119
 31
0.0
  0
SOLID
  5
33A
330
289
100
AcDbEntity
  8
TEXT
 62
     0
100
AcDbTrace
 10
208.2978579695885
 20
47.82499627181188
 30
0.0
 11
209.1311913029218
 21
47.82499627181188
 31
0.0
 12
208.7145246362552
 22
50.32499627181188
 32
0.0
 13
208.7145246362552
 23
50.32499627181188
 33
0.0
  0
SOLID
  5
33B
330
289
100
AcDbEntity
  8
TEXT
 62
     0
100
AcDbTrace
 10
208.2978579695885
 20
20.3249962718119
 30
0.0
 11
209.1311913029218
 21
20.3249962718119
 31
0.0
 12
208.7145246362552
 22
17.8249962718119
 32
0.0
 13
208.7145246362552
 23
17.8249962718119
 33
0.0
  0
MTEXT
  5
33C
330
289
100
AcDbEntity
  8
TEXT
 62
     0
100
AcDbMText
 10
206.5895246362551
 20
33.56669261213369
 30
0.0
 40
3.0
 41
0.0
 71
     5
 72
     1
  1
\A1;32.5
 11
0.0000000000000001
 21
1.0
 31
0.0
1001
ACAD
1000
MTEXTBEGIN
1070
    73
1070
     1
1070
    44
1040
1.0
1070
    74
1070
     0
1000
MTEXTEND
  0
POINT
  5
33D
330
289
100
AcDbEntity
  8
DEFPOINTS
 62
     0
100
AcDbPoint
 10
220.3655579540821
 20
50.32499627181188
 30
0.0
  0
POINT
  5
33E
330
289
100
AcDbEntity
  8
DEFPOINTS
 62
     0
100
AcDbPoint
 10
220.3655579540821
 20
17.82499627181189
 30
0.0
  0
POINT
  5
33F
330
289
100
AcDbEntity
  8
DEFPOINTS
 62
     0
100
AcDbPoint
 10
208.7145246362552
 20
17.8249962718119
 30
0.0
  0
ENDBLK
  5
294
330
289
100
AcDbEntity
  8
0
100
AcDbBlockEnd
  0
ENDSEC
  0
SECTION
  2
ENTITIES
  0
LINE
  5
29
330
2
100
AcDbEntity
  8
OBJECT
 48
10.0
100
AcDbLine
 10
98.06320988152197
 20
37.3996541131963
 30
0.0
 11
78.06320988152288
 21
37.3996541131963
 31
0.0
  0
LINE
  5
2A
330
2
100
AcDbEntity
  8
OBJECT
 48
10.0
100
AcDbLine
 10
98.06320988152197
 20
30.75033843042486
 30
0.0
 11
78.06320988152288
 21
30.75033843042486
 31
0.0
  0
DIMENSION
  5
2B
330
2
100
AcDbEntity
  8
TEXT
100
AcDbDimension
  2
*D10
 10
157.515050474853
 20
9.699381375739369
 30
0.0
 11
118.190609781825
 21
9.699381375739369
 31
0.0
 70
   160
  1
2000
  3
STANDARD
100
AcDbAlignedDimension
 13
73.95854772611802
 23
30.274996271812
 33
0.0
 14
157.515050474853
 24
26.6281976439287
 34
0.0
100
AcDbRotatedDimension
1001
ACAD
1000
DSTYLE
1002
{
1070
   140
1040
3.0
1070
    41
1040
2.5
1070
    40
1040
1.0
1070
   176
1070
     0
1070
   177
1070
     0
1070
   178
1070
     0
1002
}
  0
LINE
  5
39
330
2
100
AcDbEntity
  8
OBJECT
 48
10.0
100
AcDbLine
 10
25.36263637426305
 20
39.07499627181154
 30
0.0
 11
18.76263637426495
 21
39.07499627181154
 31
0.0
  0
LINE
  5
3A
330
2
100
AcDbEntity
  8
OBJECT
 48
10.0
100
AcDbLine
 10
25.36263637426305
 20
38.2749962718116
 30
0.0
 11
19.562636374264
 21
38.2749962718116
 31
0.0
  0
LINE
  5
3B
330
2
100
AcDbEntity
  8
OBJECT
 48
10.0
100
AcDbLine
 10
25.36263637426305
 20
29.07499627181156
 30
0.0
 11
18.76263637426495
 21
29.07499627181156
 31
0.0
  0
LINE
  5
3C
330
2
100
AcDbEntity
  8
OBJECT
 48
10.0
100
AcDbLine
 10
25.36263637426305
 20
29.87499627181151
 30
0.0
 11
19.562636374264
 21
29.87499627181151
 31
0.0
  0
DIMENSION
  5
3D
330
2
100
AcDbEntity
  8
TEXT
100
AcDbDimension
  2
*D11
 10
25.36263637426305
 20
9.690240311622268
 30
0.0
 11
34.23406494569189
 21
9.690240311622268
 31
0.0
 70
   160
  3
STANDARD
100
AcDbAlignedDimension
 13
18.76263637426495
 23
29.07499627181144
 33
0.0
 14
25.36263637426305
 24
29.07499627181143
 34
0.0
100
AcDbRotatedDimension
1001
ACAD
1000
DSTYLE
1002
{
1070
   140
1040
3.0
1070
    41
1040
2.5
1070
    40
1040
1.0
1070
   176
1070
     0
1070
   177
1070
     0
1070
   178
1070
     0
1002
}
  0
LINE
  5
4D
330
2
100
AcDbEntity
  8
OBJECT
 48
10.0
100
AcDbLine
 10
22.56263637426491
 20
37.37499627181161
 30
0.0
 11
22.56263637426491
 21
35.7749962718116
 31
0.0
  0
LINE
  5
4E
330
2
100
AcDbEntity
  8
OBJECT
 48
10.0
100
AcDbLine
 10
22.56263637426491
 20
37.37499627181161
 30
0.0
 11
21.562636374264
 21
37.37499627181149
 31
0.0
  0
LINE
  5
4F
330
2
100
AcDbEntity
  8
OBJECT
 48
10.0
100
AcDbLine
 10
22.56263637426491
 20
35.7749962718116
 30
0.0
 11
21.562636374264
 21
35.7749962718116
 31
0.0
  0
LINE
  5
50
330
2
100
AcDbEntity
  8
OBJECT
 48
10.0
100
AcDbLine
 10
21.562636374264
 20
36.97499627181142
 30
0.0
 11
20.962636374265
 21
36.97499627181151
 31
0.0
  0
LINE
  5
51
330
2
100
AcDbEntity
  8
OBJECT
 48
10.0
100
AcDbLine
 10
21.562636374264
 20
36.17499627181158
 30
0.0
 11
20.962636374265
 21
36.17499627181158
 31
0.0
  0
LINE
  5
52
330
2
100
AcDbEntity
  8
OBJECT
 48
10.0
100
AcDbLine
 10
20.962636374265
 20
36.97499627181151
 30
0.0
 11
20.962636374265
 21
36.17499627181167
 31
0.0
  0
LINE
  5
53
330
2
100
AcDbEntity
  8
OBJECT
 48
10.0
100
AcDbLine
 10
21.562636374264
 20
37.37499627181161
 30
0.0
 11
21.562636374264
 21
36.57499627181167
 31
0.0
  0
LINE
  5
54
330
2
100
AcDbEntity
  8
OBJECT
 48
10.0
100
AcDbLine
 10
21.562636374264
 20
36.57499627181155
 30
0.0
 11
21.562636374264
 21
35.7749962718116
 31
0.0
  0
LINE
  5
55
330
2
100
AcDbEntity
  8
OBJECT
 48
10.0
100
AcDbLine
 10
21.562636374264
 20
34.47499627181151
 30
0.0
 11
20.962636374265
 21
34.47499627181151
 31
0.0
  0
LINE
  5
56
330
2
100
AcDbEntity
  8
OBJECT
 48
10.0
100
AcDbLine
 10
22.56263637426491
 20
33.27499627181149
 30
0.0
 11
21.562636374264
 21
33.2749962718116
 31
0.0
  0
LINE
  5
57
330
2
100
AcDbEntity
  8
OBJECT
 48
10.0
100
AcDbLine
 10
21.562636374264
 20
33.67499627181169
 30
0.0
 11
20.962636374265
 21
33.67499627181158
 31
0.0
  0
LINE
  5
58
330
2
100
AcDbEntity
  8
OBJECT
 48
10.0
100
AcDbLine
 10
21.562636374264
 20
33.27499627181149
 30
0.0
 11
21.562636374264
 21
34.07499627181143
 31
0.0
  0
LINE
  5
59
330
2
100
AcDbEntity
  8
OBJECT
 48
10.0
100
AcDbLine
 10
20.962636374265
 20
33.67499627181158
 30
0.0
 11
20.962636374265
 21
34.47499627181142
 31
0.0
  0
LINE
  5
5A
330
2
100
AcDbEntity
  8
OBJECT
 48
10.0
100
AcDbLine
 10
22.56263637426491
 20
34.87499627181151
 30
0.0
 11
21.562636374264
 21
34.87499627181151
 31
0.0
  0
LINE
  5
5B
330
2
100
AcDbEntity
  8
OBJECT
 48
10.0
100
AcDbLine
 10
22.56263637426491
 20
33.27499627181149
 30
0.0
 11
22.56263637426491
 21
34.87499627181151
 31
0.0
  0
LINE
  5
5C
330
2
100
AcDbEntity
  8
OBJECT
 48
10.0
100
AcDbLine
 10
21.562636374264
 20
34.07499627181155
 30
0.0
 11
21.562636374264
 21
34.87499627181151
 31
0.0
  0
LINE
  5
5D
330
2
100
AcDbEntity
  8
OBJECT
 48
10.0
100
AcDbLine
 10
21.562636374264
 20
31.57499627181155
 30
0.0
 11
21.562636374264
 21
32.37499627181151
 31
0.0
  0
LINE
  5
5E
330
2
100
AcDbEntity
  8
OBJECT
 48
10.0
100
AcDbLine
 10
21.562636374264
 20
30.77499627181149
 30
0.0
 11
21.562636374264
 21
31.57499627181143
 31
0.0
  0
LINE
  5
5F
330
2
100
AcDbEntity
  8
OBJECT
 48
10.0
100
AcDbLine
 10
20.962636374265
 20
31.17499627181157
 30
0.0
 11
20.962636374265
 21
31.97499627181142
 31
0.0
  0
LINE
  5
60
330
2
100
AcDbEntity
  8
OBJECT
 48
10.0
100
AcDbLine
 10
21.562636374264
 20
31.97499627181151
 30
0.0
 11
20.962636374265
 21
31.97499627181151
 31
0.0
  0
LINE
  5
61
330
2
100
AcDbEntity
  8
OBJECT
 48
10.0
100
AcDbLine
 10
21.562636374264
 20
31.17499627181169
 30
0.0
 11
20.962636374265
 21
31.17499627181157
 31
0.0
  0
LINE
  5
62
330
2
100
AcDbEntity
  8
OBJECT
 48
10.0
100
AcDbLine
 10
22.56263637426491
 20
32.37499627181151
 30
0.0
 11
21.562636374264
 21
32.37499627181151
 31
0.0
  0
LINE
  5
63
330
2
100
AcDbEntity
  8
OBJECT
 48
10.0
100
AcDbLine
 10
22.56263637426491
 20
30.77499627181149
 30
0.0
 11
21.562636374264
 21
30.7749962718116
 31
0.0
  0
LINE
  5
64
330
2
100
AcDbEntity
  8
OBJECT
 48
10.0
100
AcDbLine
 10
22.56263637426491
 20
30.77499627181149
 30
0.0
 11
22.56263637426491
 21
32.37499627181151
 31
0.0
  0
LINE
  5
65
330
2
100
AcDbEntity
  8
OBJECT
 48
10.0
100
AcDbLine
 10
19.562636374264
 20
36.57499627181167
 30
0.0
 11
18.76263637426404
 21
36.57499627181167
 31
0.0
  0
LINE
  5
66
330
2
100
AcDbEntity
  8
OBJECT
 48
10.0
100
AcDbLine
 10
19.562636374264
 20
31.57499627181155
 30
0.0
 11
18.76263637426495
 21
31.57499627181155
 31
0.0
  0
LINE
  5
67
330
2
100
AcDbEntity
  8
OBJECT
 48
10.0
100
AcDbLine
 10
18.76263637426495
 20
29.07499627181144
 30
0.0
 11
18.76263637426495
 21
39.07499627181154
 31
0.0
  0
LINE
  5
68
330
2
100
AcDbEntity
  8
OBJECT
 48
10.0
100
AcDbLine
 10
19.562636374264
 20
29.8749962718114
 30
0.0
 11
19.562636374264
 21
38.2749962718116
 31
0.0
  0
TEXT
  5
69
330
2
100
AcDbEntity
  8
TEXT
100
AcDbText
 10
15.26429584460197
 20
36.07070031690903
 30
0.0
 40
1.5
  1
1
100
AcDbText
  0
DIMENSION
  5
6A
330
2
100
AcDbEntity
  8
TEXT
100
AcDbDimension
  2
*D9
 10
73.95854772611802
 20
9.699381375739369
 30
0.0
 11
64.08118721894311
 21
9.699381375739369
 31
0.0
 70
   160
  3
STANDARD
100
AcDbAlignedDimension
 13
52.3585477261181
 23
29.2749962718116
 33
0.0
 14
73.95854772611802
 24
30.274996271812
 34
0.0
100
AcDbRotatedDimension
1001
ACAD
1000
DSTYLE
1002
{
1070
   140
1040
3.0
1070
    41
1040
2.5
1070
    40
1040
1.0
1070
   176
1070
     0
1070
   177
1070
     0
1070
   178
1070
     0
1002
}
  0
LINE
  5
77
330
2
100
AcDbEntity
  8
OBJECT
100
AcDbLine
 10
58.35854772611901
 20
29.07499627181161
 30
0.0
 11
52.55854772611792
 21
29.07499627181161
 31
0.0
  0
LINE
  5
78
330
2
100
AcDbEntity
  8
OBJECT
100
AcDbLine
 10
58.35854772611901
 20
39.0749962718115
 30
0.0
 11
52.55854772611792
 21
39.0749962718115
 31
0.0
  0
LINE
  5
79
330
2
100
AcDbEntity
  8
OBJECT
100
AcDbLine
 10
59.3585477261181
 20
36.57499627181155
 30
0.0
 11
52.55854772611883
 21
36.57499627181155
 31
0.0
  0
LINE
  5
7A
330
2
100
AcDbEntity
  8
OBJECT
100
AcDbLine
 10
59.3585477261181
 20
31.57499627181155
 30
0.0
 11
52.55854772611883
 21
31.57499627181155
 31
0.0
  0
LINE
  5
7B
330
2
100
AcDbEntity
  8
OBJECT
 48
10.0
100
AcDbLine
 10
25.36263637426305
 20
36.57499627181155
 30
0.0
 11
24.36263637426304
 21
36.57499627181143
 31
0.0
  0
LINE
  5
7C
330
2
100
AcDbEntity
  8
OBJECT
 48
10.0
100
AcDbLine
 10
24.56263637426309
 20
38.2749962718116
 30
0.0
 11
24.56263637426309
 21
37.37499627181149
 31
0.0
  0
LINE
  5
7D
330
2
100
AcDbEntity
  8
OBJECT
 48
10.0
100
AcDbLine
 10
24.56263637426309
 20
37.37499627181149
 30
0.0
 11
23.562636374264
 21
37.37499627181149
 31
0.0
  0
LINE
  5
7E
330
2
100
AcDbEntity
  8
OBJECT
 48
10.0
100
AcDbLine
 10
25.36263637426305
 20
36.57499627181155
 30
0.0
 11
25.36263637426305
 21
39.07499627181154
 31
0.0
  0
LINE
  5
7F
330
2
100
AcDbEntity
  8
OBJECT
 48
10.0
100
AcDbLine
 10
25.36263637426305
 20
33.57499627181155
 30
0.0
 11
24.36263637426304
 21
33.57499627181167
 31
0.0
  0
LINE
  5
80
330
2
100
AcDbEntity
  8
OBJECT
 48
10.0
100
AcDbLine
 10
25.36263637426305
 20
34.57499627181155
 30
0.0
 11
24.36263637426304
 21
34.57499627181142
 31
0.0
  0
LINE
  5
81
330
2
100
AcDbEntity
  8
OBJECT
 48
10.0
100
AcDbLine
 10
25.36263637426305
 20
33.57499627181155
 30
0.0
 11
25.36263637426305
 21
34.57499627181155
 31
0.0
  0
LINE
  5
82
330
2
100
AcDbEntity
  8
OBJECT
 48
10.0
100
AcDbLine
 10
24.56263637426309
 20
30.7749962718116
 30
0.0
 11
23.562636374264
 21
30.7749962718116
 31
0.0
  0
LINE
  5
83
330
2
100
AcDbEntity
  8
OBJECT
 48
10.0
100
AcDbLine
 10
24.56263637426309
 20
29.87499627181151
 30
0.0
 11
24.56263637426309
 21
30.7749962718116
 31
0.0
  0
LINE
  5
84
330
2
100
AcDbEntity
  8
OBJECT
 48
10.0
100
AcDbLine
 10
25.36263637426305
 20
31.57499627181155
 30
0.0
 11
24.36263637426304
 21
31.57499627181165
 31
0.0
  0
LINE
  5
85
330
2
100
AcDbEntity
  8
OBJECT
 48
10.0
100
AcDbLine
 10
25.36263637426305
 20
29.07499627181156
 30
0.0
 11
25.36263637426305
 21
31.57499627181155
 31
0.0
  0
LINE
  5
86
330
2
100
AcDbEntity
  8
OBJECT
 48
10.0
100
AcDbLine
 10
24.36263637426304
 20
31.57499627181155
 30
0.0
 11
24.36263637426304
 21
36.57499627181143
 31
0.0
  0
LINE
  5
87
330
2
100
AcDbEntity
  8
OBJECT
 48
10.0
100
AcDbLine
 10
23.562636374264
 20
30.7749962718116
 30
0.0
 11
23.562636374264
 21
37.37499627181161
 31
0.0
  0
DIMENSION
  5
88
330
2
100
AcDbEntity
  8
TEXT
100
AcDbDimension
  2
*D12
 10
36.48290624531592
 20
29.07499627181143
 30
0.0
 11
36.48290624531592
 21
33.52371978080702
 31
0.0
 70
   160
  3
STANDARD
100
AcDbAlignedDimension
 13
25.36263637426305
 23
39.07499627181154
 33
0.0
 14
25.36263637426305
 24
29.07499627181143
 34
0.0
 50
90.0
100
AcDbRotatedDimension
1001
ACAD
1000
DSTYLE
1002
{
1070
   140
1040
3.0
1070
    41
1040
2.5
1070
    40
1040
1.0
1070
   176
1070
     0
1070
   177
1070
     0
1070
   178
1070
     0
1002
}
  0
LINE
  5
95
330
2
100
AcDbEntity
  8
OBJECT
100
AcDbLine
 10
52.35854772611901
 20
36.77499627181154
 30
0.0
 11
52.3585477261181
 21
38.87499627181151
 31
0.0
  0
LINE
  5
96
330
2
100
AcDbEntity
  8
OBJECT
100
AcDbLine
 10
52.35854772611901
 20
31.37499627181156
 30
0.0
 11
52.3585477261181
 21
29.2749962718116
 31
0.0
  0
LINE
  5
97
330
2
100
AcDbEntity
  8
OBJECT
100
AcDbLine
 10
52.3585477261181
 20
29.2749962718116
 30
0.0
 11
52.55854772611792
 21
29.07499627181161
 31
0.0
  0
LINE
  5
98
330
2
100
AcDbEntity
  8
OBJECT
100
AcDbLine
 10
52.55854772611883
 20
36.57499627181155
 30
0.0
 11
52.35854772611901
 21
36.77499627181154
 31
0.0
  0
LINE
  5
99
330
2
100
AcDbEntity
  8
OBJECT
100
AcDbLine
 10
52.3585477261181
 20
38.87499627181151
 30
0.0
 11
52.55854772611792
 21
39.0749962718115
 31
0.0
  0
LINE
  5
9A
330
2
100
AcDbEntity
  8
OBJECT
100
AcDbLine
 10
52.55854772611883
 20
31.57499627181155
 30
0.0
 11
52.35854772611901
 21
31.37499627181156
 31
0.0
  0
LINE
  5
9B
330
2
100
AcDbEntity
  8
OBJECT
100
AcDbLine
 10
73.75854772611797
 20
38.07499627181154
 30
0.0
 11
60.3585477261181
 21
38.07499627181161
 31
0.0
  0
LINE
  5
9C
330
2
100
AcDbEntity
  8
OBJECT
100
AcDbLine
 10
73.95854772611802
 20
37.27499627181154
 30
0.0
 11
60.3585477261181
 21
37.2749962718116
 31
0.0
  0
LINE
  5
9D
330
2
100
AcDbEntity
  8
OBJECT
100
AcDbLine
 10
73.75854772611797
 20
30.07499627181155
 30
0.0
 11
60.3585477261181
 21
30.0749962718115
 31
0.0
  0
LINE
  5
9E
330
2
100
AcDbEntity
  8
OBJECT
100
AcDbLine
 10
57.35854772611901
 20
33.5749962718115
 30
0.0
 11
57.3585477261181
 21
34.57499627181155
 31
0.0
  0
LINE
  5
9F
330
2
100
AcDbEntity
  8
OBJECT
100
AcDbLine
 10
58.3585477261181
 20
36.57499627181155
 30
0.0
 11
58.3585477261181
 21
39.07499627181184
 31
0.0
  0
LINE
  5
A0
330
2
100
AcDbEntity
  8
OBJECT
100
AcDbLine
 10
59.35854772611901
 20
31.57499627181155
 30
0.0
 11
59.3585477261181
 21
36.57499627181155
 31
0.0
  0
LINE
  5
A1
330
2
100
AcDbEntity
  8
OBJECT
100
AcDbLine
 10
58.3585477261181
 20
31.57499627181155
 30
0.0
 11
58.3585477261181
 21
29.07499627181127
 31
0.0
  0
LINE
  5
A2
330
2
100
AcDbEntity
  8
OBJECT
100
AcDbLine
 10
60.35854772611902
 20
30.07499627181194
 30
0.0
 11
60.3585477261181
 21
37.2749962718116
 31
0.0
  0
ARC
  5
A3
330
2
100
AcDbEntity
  8
OBJECT
100
AcDbCircle
 10
60.3585477261181
 20
37.67499627181158
 30
0.0
 40
0.4
100
AcDbArc
 50
90.0
 51
270.0
  0
LINE
  5
A4
330
2
100
AcDbEntity
  8
OBJECT
100
AcDbLine
 10
60.3585477261181
 20
38.07499627181154
 30
0.0
 11
58.3585477261181
 21
39.07499627181184
 31
0.0
  0
LINE
  5
A5
330
2
100
AcDbEntity
  8
OBJECT
100
AcDbLine
 10
60.3585477261181
 20
30.07499627181155
 30
0.0
 11
58.3585477261181
 21
29.07499627181127
 31
0.0
  0
LINE
  5
A6
330
2
100
AcDbEntity
  8
OBJECT
100
AcDbLine
 10
54.3585477261181
 20
31.57499627181155
 30
0.0
 11
54.3585477261181
 21
36.5749962718115
 31
0.0
  0
LINE
  5
A7
330
2
100
AcDbEntity
  8
OBJECT
100
AcDbLine
 10
54.6085477261181
 20
31.57499627181155
 30
0.0
 11
54.6085477261181
 21
36.5749962718115
 31
0.0
  0
LINE
  5
A8
330
2
100
AcDbEntity
  8
OBJECT
100
AcDbLine
 10
54.8585477261181
 20
31.57499627181155
 30
0.0
 11
54.8585477261181
 21
36.5749962718115
 31
0.0
  0
LINE
  5
A9
330
2
100
AcDbEntity
  8
OBJECT
100
AcDbLine
 10
56.8585477261181
 20
33.5749962718115
 30
0.0
 11
56.85854772611901
 21
34.5749962718116
 31
0.0
  0
LINE
  5
AA
330
2
100
AcDbEntity
  8
OBJECT
100
AcDbLine
 10
56.35854772611901
 20
33.5749962718115
 30
0.0
 11
56.35854772611901
 21
34.57499627181155
 31
0.0
  0
LINE
  5
AB
330
2
100
AcDbEntity
  8
OBJECT
100
AcDbLine
 10
57.3585477261181
 20
34.5749962718116
 30
0.0
 11
56.35854772611901
 21
34.5749962718116
 31
0.0
  0
LINE
  5
AC
330
2
100
AcDbEntity
  8
OBJECT
100
AcDbLine
 10
57.3585477261181
 20
33.5749962718115
 30
0.0
 11
56.35854772611901
 21
33.5749962718115
 31
0.0
  0
TEXT
  5
AD
330
2
100
AcDbEntity
  8
TEXT
100
AcDbText
 10
57.8612064288709
 20
37.29146748249412
 30
0.0
 40
1.5
  1
1
 50
90.0
100
AcDbText
  0
LINE
  5
AE
330
2
100
AcDbEntity
  8
OBJECT
100
AcDbLine
 10
73.95854772611802
 20
30.274996271812
 30
0.0
 11
73.95854772611802
 21
37.87499627181157
 31
0.0
  0
LINE
  5
AF
330
2
100
AcDbEntity
  8
OBJECT
100
AcDbLine
 10
73.95854772611802
 20
37.87499627181157
 30
0.0
 11
73.75854772611797
 21
38.07499627181154
 31
0.0
  0
LINE
  5
B0
330
2
100
AcDbEntity
  8
OBJECT
100
AcDbLine
 10
73.95854772611802
 20
30.27499627181153
 30
0.0
 11
73.75854772611797
 21
30.07499627181155
 31
0.0
  0
LWPOLYLINE
  5
B1
330
2
100
AcDbEntity
  8
OBJECT
100
AcDbPolyline
 90
        2
 70
     0
 43
0.0
 10
78.06320988152288
 20
30.75033843042486
 10
78.06320988152288
 20
37.39965411319631
  0
LWPOLYLINE
  5
B2
330
2
100
AcDbEntity
  8
OBJECT
100
AcDbPolyline
 90
        2
 70
     0
 43
0.3
 10
73.95854772611802
 20
34.07499627181177
 10
78.06320988152288
 20
34.07499627181177
  0
LWPOLYLINE
  5
B3
330
2
100
AcDbEntity
  8
OBJECT
100
AcDbPolyline
 90
        2
 70
     0
 43
0.3
 10
73.95854772611802
 20
32.57499627181177
 10
78.06320988152288
 20
32.57499627181177
  0
LWPOLYLINE
  5
B4
330
2
100
AcDbEntity
  8
OBJECT
100
AcDbPolyline
 90
        2
 70
     0
 43
0.3
 10
73.95854772611802
 20
35.57499627181178
 10
78.06320988152288
 20
35.57499627181178
  0
LINE
  5
B5
330
2
100
AcDbEntity
  8
OBJECT
100
AcDbLine
 10
126.4088366797179
 20
36.82499627181172
 30
0.0
 11
152.0150504748539
 21
36.82499627181172
 31
0.0
  0
LINE
  5
B6
330
2
100
AcDbEntity
  8
OBJECT
100
AcDbLine
 10
125.4690654875998
 20
31.3249962718117
 30
0.0
 11
152.0150504748539
 21
31.32499627181172
 31
0.0
  0
DIMENSION
  5
B7
330
2
100
AcDbEntity
  8
TEXT
100
AcDbDimension
  2
*D8
 10
115.187361411371
 20
31.32499627181173
 30
0.0
 11
115.187361411371
 21
47.05356770038335
 31
0.0
 70
   160
  1
φ4.1
  3
STANDARD
100
AcDbAlignedDimension
 13
111.5203889906219
 23
36.82499627181172
 33
0.0
 14
111.5203889906219
 24
31.32499627181173
 34
0.0
 50
90.0
100
AcDbRotatedDimension
1001
ACAD
1000
DSTYLE
1002
{
1070
   140
1040
3.0
1070
    41
1040
2.5
1070
    40
1040
1.0
1070
   176
1070
     0
1070
   177
1070
     0
1070
   178
1070
     0
1002
}
  0
LINE
  5
C6
330
2
100
AcDbEntity
  8
OBJECT
100
AcDbLine
 10
98.06320988152197
 20
36.82499627181172
 30
0.0
 11
124.9775680997211
 21
36.82499627181172
 31
0.0
  0
LINE
  5
C7
330
2
100
AcDbEntity
  8
OBJECT
100
AcDbLine
 10
98.06320988152197
 20
31.32499627181172
 30
0.0
 11
124.037796907605
 21
31.32499627181172
 31
0.0
  0
LWPOLYLINE
  5
C8
330
2
100
AcDbEntity
  8
OBJECT
100
AcDbPolyline
 90
        2
 70
     0
 43
0.0
 10
98.06320988152197
 20
30.75033843042486
 10
98.06320988152197
 20
37.39965411319631
  0
LINE
  5
C9
330
2
100
AcDbEntity
  8
OBJECT
 48
10.0
100
AcDbLine
 10
126.8678759811989
 20
39.51151845862287
 30
0.0
 11
125.046256884106
 21
28.85051382466318
 31
0.0
  0
LINE
  5
CA
330
2
100
AcDbEntity
  8
OBJECT
 48
10.0
100
AcDbLine
 10
125.4366074012009
 20
39.51151845862287
 30
0.0
 11
123.6149883041091
 21
28.85051382466318
 31
0.0
  0
LINE
  5
CB
330
2
100
AcDbEntity
  8
OBJECT
100
AcDbLine
 10
191.515050474853
 20
34.07499627181195
 30
0.0
 11
191.515050474853
 21
25.07499627181172
 31
0.0
  0
LINE
  5
CC
330
2
100
AcDbEntity
  8
OBJECT
100
AcDbLine
 10
194.9150504748531
 20
34.07499627181127
 30
0.0
 11
194.9150504748531
 21
26.94499627181139
 31
0.0
  0
LINE
  5
CD
330
2
100
AcDbEntity
  8
OBJECT
100
AcDbLine
 10
185.5150504748539
 20
34.07499627181172
 30
0.0
 11
185.5150504748539
 21
26.5749962718115
 31
0.0
  0
LINE
  5
CE
330
2
100
AcDbEntity
  8
OBJECT
100
AcDbLine
 10
184.5150504748539
 20
34.07499627181172
 30
0.0
 11
184.5150504748539
 21
26.5749962718115
 31
0.0
  0
LINE
  5
CF
330
2
100
AcDbEntity
  8
OBJECT
100
AcDbLine
 10
176.5150504748539
 20
34.07499627181172
 30
0.0
 11
176.5150504748539
 21
26.5749962718115
 31
0.0
  0
LINE
  5
D0
330
2
100
AcDbEntity
  8
OBJECT
100
AcDbLine
 10
177.5150504748539
 20
34.07499627181172
 30
0.0
 11
177.5150504748539
 21
26.5749962718115
 31
0.0
  0
LINE
  5
D1
330
2
100
AcDbEntity
  8
OBJECT
100
AcDbLine
 10
173.515050474853
 20
34.07499627181172
 30
0.0
 11
173.515050474853
 21
24.8249962718115
 31
0.0
  0
LINE
  5
D2
330
2
100
AcDbEntity
  8
OBJECT
100
AcDbLine
 10
172.015050474853
 20
34.07499627181172
 30
0.0
 11
172.015050474853
 21
24.8249962718115
 31
0.0
  0
LINE
  5
D3
330
2
100
AcDbEntity
  8
OBJECT
100
AcDbLine
 10
167.515050474853
 20
34.07499627181172
 30
0.0
 11
167.515050474853
 21
24.8249962718115
 31
0.0
  0
LINE
  5
D4
330
2
100
AcDbEntity
  8
OBJECT
100
AcDbLine
 10
164.5150504748539
 20
34.07499627181172
 30
0.0
 11
164.5150504748539
 21
24.8249962718115
 31
0.0
  0
LINE
  5
D5
330
2
100
AcDbEntity
  8
OBJECT
100
AcDbLine
 10
169.0150504748539
 20
34.07499627181172
 30
0.0
 11
169.0150504748539
 21
24.8249962718115
 31
0.0
  0
LINE
  5
D6
330
2
100
AcDbEntity
  8
OBJECT
100
AcDbLine
 10
163.0150504748539
 20
34.07499627181172
 30
0.0
 11
163.0150504748539
 21
24.8249962718115
 31
0.0
  0
LINE
  5
D7
330
2
100
AcDbEntity
  8
OBJECT
100
AcDbLine
 10
157.515050474853
 20
34.07499627181172
 30
0.0
 11
157.515050474853
 21
26.79453984032042
 31
0.0
  0
ARC
  5
D8
330
2
100
AcDbEntity
  8
OBJECT
100
AcDbCircle
 10
172.765050474853
 20
24.8249962718115
 30
0.0
 40
0.75
100
AcDbArc
 50
180.0
 51
0.0
  0
DIMENSION
  5
D9
330
2
100
AcDbEntity
  8
TEXT
100
AcDbDimension
  2
*D13
 10
191.515050474853
 20
9.699381375739369
 30
0.0
 11
174.515050474853
 21
11.82438137573937
 31
0.0
 70
    32
  3
STANDARD
100
AcDbAlignedDimension
 13
157.515050474853
 23
26.6281976439287
 33
0.0
 14
191.515050474853
 24
25.07499627181173
 34
0.0
100
AcDbRotatedDimension
1001
ACAD
1000
DSTYLE
1002
{
1070
   140
1040
3.0
1070
    41
1040
2.5
1070
    40
1040
1.0
1070
   176
1070
     0
1070
   177
1070
     0
1070
   178
1070
     0
1002
}
  0
LINE
  5
E6
330
2
100
AcDbEntity
  8
OBJECT
100
AcDbLine
 10
188.015050474853
 20
16.82499627181195
 30
0.0
 11
165.515050474853
 21
16.8249962718115
 31
0.0
  0
LINE
  5
E7
330
2
100
AcDbEntity
  8
OBJECT
100
AcDbLine
 10
188.015050474853
 20
17.8249962718115
 30
0.0
 11
166.7233757861031
 21
17.8249962718115
 31
0.0
  0
ARC
  5
E8
330
2
100
AcDbEntity
  8
OBJECT
100
AcDbCircle
 10
160.5150504748539
 20
26.79453984032042
 30
0.0
 40
3.0
100
AcDbArc
 50
180.0
 51
226.1233027140745
  0
LWPOLYLINE
  5
E9
330
2
100
AcDbEntity
  8
OBJECT
100
AcDbPolyline
 90
        4
 70
     0
 43
0.0
 10
160.315050474853
 20
22.82499627181218
 10
153.0150504748539
 20
22.82499627181218
 10
153.0150504748539
 20
19.82499627181218
 10
163.4350504748531
 20
19.82499627181218
  0
ARC
  5
EA
330
2
100
AcDbEntity
  8
OBJECT
100
AcDbCircle
 10
150.0150504748539
 20
21.32499627181218
 30
0.0
 40
6.499999999999692
100
AcDbArc
 50
182.6453603415629
 51
202.6198649480453
  0
LINE
  5
EB
330
2
100
AcDbEntity
  8
OBJECT
100
AcDbLine
 10
144.5150504748539
 20
21.02499627181222
 30
0.0
 11
144.5150504748539
 21
21.62300641541432
 31
0.0
  0
LINE
  5
EC
330
2
100
AcDbEntity
  8
OBJECT
100
AcDbLine
 10
144.5150504748539
 20
21.62300641541432
 30
0.0
 11
143.5219772425539
 21
21.62499627181213
 31
0.0
  0
LINE
  5
ED
330
2
100
AcDbEntity
  8
OBJECT
100
AcDbLine
 10
144.5150504748539
 20
21.02499627181222
 30
0.0
 11
143.5219772425539
 21
21.02499627181222
 31
0.0
  0
ARC
  5
EE
330
2
100
AcDbEntity
  8
OBJECT
100
AcDbCircle
 10
150.0150504748539
 20
21.32499627181218
 30
0.0
 40
6.499999999999692
100
AcDbArc
 50
157.3801350519545
 51
177.3546396584368
  0
LWPOLYLINE
  5
EF
330
2
100
AcDbEntity
  8
OBJECT
100
AcDbPolyline
 90
        6
 70
     0
 43
0.0
 10
144.0150504748539
 20
21.02499627181223
 10
144.0150504748539
 20
18.82499627181218
 10
153.0150504748539
 20
18.82499627181218
 10
153.0150504748539
 20
23.82499627181218
 10
144.0150504748539
 20
23.82499627181218
 10
144.0150504748539
 20
21.62400828331951
  0
HATCH
  5
F0
330
2
100
AcDbEntity
  8
OBJECT
100
AcDbHatch
 10
0.0
 20
0.0
 30
0.0
210
0.0
220
0.0
230
1.0
  2
ANSI31
 70
     0
 71
     0
 91
        1
 92
        7
 72
     0
 73
     1
 93
        4
 10
144.0150504748539
 20
23.9192240135786
 10
144.0150504748539
 20
18.91922401357883
 10
153.0150504748539
 20
18.91922401357883
 10
153.0150504748539
 20
23.91922401357883
 97
        0
 75
     0
 76
     1
 52
135.0
 41
0.2
 77
     0
 78
     1
 53
179.9999999999999
 43
315.3093756935839
 44
-857.8318368988375
 45
-0.0000000000000003
 46
-0.635
 79
     0
 47
0.0370096015122687
 98
        1
 10
148.0078513090909
 20
21.16846420590158
  0
ARC
  5
F1
330
2
100
AcDbEntity
  8
OBJECT
100
AcDbCircle
 10
168.2650504748539
 20
24.8249962718115
 30
0.0
 40
0.75
100
AcDbArc
 50
180.0
 51
0.0
  0
ARC
  5
F2
330
2
100
AcDbEntity
  8
OBJECT
100
AcDbCircle
 10
163.7650504748539
 20
24.8249962718115
 30
0.0
 40
0.75
100
AcDbArc
 50
180.0
 51
0.0
  0
ARC
  5
F3
330
2
100
AcDbEntity
  8
OBJECT
100
AcDbCircle
 10
166.7233757861031
 20
20.8249962718115
 30
0.0
 40
3.0
100
AcDbArc
 50
226.1233027140745
 51
270.0
  0
LINE
  5
F4
330
2
100
AcDbEntity
  8
OBJECT
100
AcDbLine
 10
165.515050474853
 20
16.82499627181195
 30
0.0
 11
165.515050474853
 21
18.07909934326661
 31
0.0
  0
LINE
  5
F5
330
2
100
AcDbEntity
  8
OBJECT
100
AcDbLine
 10
158.435724326099
 20
24.63204064561486
 30
0.0
 11
164.6440496373479
 21
18.66249707710593
 31
0.0
  0
ARC
  5
F6
330
2
100
AcDbEntity
  8
OBJECT
100
AcDbCircle
 10
184.0150504748539
 20
26.5749962718115
 30
0.0
 40
1.5
100
AcDbArc
 50
270.0
 51
0.0
  0
ARC
  5
F7
330
2
100
AcDbEntity
  8
OBJECT
100
AcDbCircle
 10
184.0150504748539
 20
26.5749962718115
 30
0.0
 40
0.5
100
AcDbArc
 50
270.0
 51
0.0
  0
ARC
  5
F8
330
2
100
AcDbEntity
  8
OBJECT
100
AcDbCircle
 10
178.0150504748539
 20
26.5749962718115
 30
0.0
 40
1.5
100
AcDbArc
 50
180.0
 51
270.0
  0
ARC
  5
F9
330
2
100
AcDbEntity
  8
OBJECT
100
AcDbCircle
 10
178.0150504748539
 20
26.5749962718115
 30
0.0
 40
0.5
100
AcDbArc
 50
180.0
 51
270.0
  0
LINE
  5
FA
330
2
100
AcDbEntity
  8
OBJECT
100
AcDbLine
 10
184.0150504748539
 20
25.0749962718115
 30
0.0
 11
178.0150504748539
 21
25.0749962718115
 31
0.0
  0
LINE
  5
FB
330
2
100
AcDbEntity
  8
OBJECT
100
AcDbLine
 10
184.0150504748539
 20
26.0749962718115
 30
0.0
 11
178.0150504748539
 21
26.0749962718115
 31
0.0
  0
LINE
  5
FC
330
2
100
AcDbEntity
  8
OBJECT
 48
0.2
100
AcDbLine
 10
188.815050474843
 20
20.12499627181222
 30
0.0
 11
190.315050474853
 21
20.12499627181236
 31
0.0
  0
LINE
  5
FD
330
2
100
AcDbEntity
  8
OBJECT
 48
0.2
100
AcDbLine
 10
189.515050474853
 20
22.524996271812
 30
0.0
 11
190.315050474853
 21
22.52499627181222
 31
0.0
  0
ARC
  5
FE
330
2
100
AcDbEntity
  8
OBJECT
100
AcDbCircle
 10
193.915050474854
 20
26.94499627181139
 30
0.0
 40
1.0
100
AcDbArc
 50
270.0
 51
0.0
  0
LINE
  5
FF
330
2
100
AcDbEntity
  8
OBJECT
100
AcDbLine
 10
191.515050474853
 20
25.07499627181172
 30
0.0
 11
189.515050474853
 21
25.07499627181172
 31
0.0
  0
LINE
  5
100
330
2
100
AcDbEntity
  8
OBJECT
100
AcDbLine
 10
193.915050474854
 20
25.94499627181116
 30
0.0
 11
191.515050474853
 21
25.94499627181116
 31
0.0
  0
LINE
  5
101
330
2
100
AcDbEntity
  8
OBJECT
100
AcDbLine
 10
190.315050474853
 20
19.82499627181218
 30
0.0
 11
190.315050474853
 21
22.82499627181218
 31
0.0
  0
LINE
  5
102
330
2
100
AcDbEntity
  8
OBJECT
100
AcDbLine
 10
190.5150504748539
 20
20.02499627181245
 30
0.0
 11
190.5150504748539
 21
22.62499627181213
 31
0.0
  0
LINE
  5
103
330
2
100
AcDbEntity
  8
OBJECT
100
AcDbLine
 10
188.415050474844
 20
20.77499627181154
 30
0.0
 11
188.415050474844
 21
18.67499627181141
 31
0.0
  0
LINE
  5
104
330
2
100
AcDbEntity
  8
OBJECT
100
AcDbLine
 10
188.815050474843
 20
20.77499627181154
 30
0.0
 11
188.815050474843
 21
18.67499627181141
 31
0.0
  0
LINE
  5
105
330
2
100
AcDbEntity
  8
OBJECT
100
AcDbLine
 10
188.015050474843
 20
20.77499627181177
 30
0.0
 11
188.015050474843
 21
18.67499627181141
 31
0.0
  0
LINE
  5
106
330
2
100
AcDbEntity
  8
OBJECT
100
AcDbLine
 10
188.015050474853
 20
20.77499627181154
 30
0.0
 11
188.015050474853
 21
17.8249962718115
 31
0.0
  0
LINE
  5
107
330
2
100
AcDbEntity
  8
OBJECT
100
AcDbLine
 10
188.815050474843
 20
18.67499627181141
 30
0.0
 11
188.015050474843
 21
18.67499627181141
 31
0.0
  0
LINE
  5
108
330
2
100
AcDbEntity
  8
OBJECT
100
AcDbLine
 10
188.015050474853
 20
17.82499627181195
 30
0.0
 11
188.015050474853
 21
16.82499627181195
 31
0.0
  0
LINE
  5
109
330
2
100
AcDbEntity
  8
OBJECT
100
AcDbLine
 10
189.515050474853
 20
20.77499627181154
 30
0.0
 11
188.015050474853
 21
20.77499627181177
 31
0.0
  0
LINE
  5
10A
330
2
100
AcDbEntity
  8
OBJECT
100
AcDbLine
 10
190.315050474853
 20
19.82499627181218
 30
0.0
 11
190.5150504748539
 21
20.02499627181245
 31
0.0
  0
LINE
  5
10B
330
2
100
AcDbEntity
  8
OBJECT
100
AcDbLine
 10
188.815050474843
 20
19.82499627181218
 30
0.0
 11
190.315050474853
 21
19.82499627181218
 31
0.0
  0
LINE
  5
10C
330
2
100
AcDbEntity
  8
OBJECT
100
AcDbLine
 10
190.5150504748539
 20
22.62499627181213
 30
0.0
 11
190.315050474853
 21
22.82499627181218
 31
0.0
  0
LINE
  5
10D
330
2
100
AcDbEntity
  8
OBJECT
100
AcDbLine
 10
189.515050474853
 20
22.82499627181218
 30
0.0
 11
190.315050474853
 21
22.82499627181218
 31
0.0
  0
LINE
  5
10E
330
2
100
AcDbEntity
  8
OBJECT
100
AcDbLine
 10
189.515050474853
 20
25.07499627181172
 30
0.0
 11
189.515050474853
 21
20.77499627181154
 31
0.0
  0
ARC
  5
10F
330
2
100
AcDbEntity
  8
OBJECT
100
AcDbCircle
 10
172.765050474853
 20
43.32499627181102
 30
0.0
 40
0.75
100
AcDbArc
 50
0.0
 51
180.0
  0
LINE
  5
110
330
2
100
AcDbEntity
  8
OBJECT
100
AcDbLine
 10
188.015050474853
 20
50.32499627181103
 30
0.0
 11
166.7233757861031
 21
50.32499627181103
 31
0.0
  0
LINE
  5
111
330
2
100
AcDbEntity
  8
OBJECT
100
AcDbLine
 10
172.015050474853
 20
34.07499627181081
 30
0.0
 11
172.015050474853
 21
43.32499627181102
 31
0.0
  0
LINE
  5
112
330
2
100
AcDbEntity
  8
OBJECT
100
AcDbLine
 10
169.0150504748539
 20
34.07499627181081
 30
0.0
 11
169.0150504748539
 21
43.32499627181102
 31
0.0
  0
LINE
  5
113
330
2
100
AcDbEntity
  8
OBJECT
100
AcDbLine
 10
167.515050474853
 20
34.07499627181081
 30
0.0
 11
167.515050474853
 21
43.32499627181102
 31
0.0
  0
ARC
  5
114
330
2
100
AcDbEntity
  8
OBJECT
100
AcDbCircle
 10
160.5150504748539
 20
41.35545270330212
 30
0.0
 40
3.0
100
AcDbArc
 50
133.8766972859251
 51
180.0
  0
LINE
  5
115
330
2
100
AcDbEntity
  8
OBJECT
100
AcDbLine
 10
163.0150504748539
 20
34.07499627181081
 30
0.0
 11
163.0150504748539
 21
43.32499627181102
 31
0.0
  0
LINE
  5
116
330
2
100
AcDbEntity
  8
OBJECT
100
AcDbLine
 10
164.5150504748539
 20
34.07499627181081
 30
0.0
 11
164.5150504748539
 21
43.32499627181102
 31
0.0
  0
LINE
  5
117
330
2
100
AcDbEntity
  8
OBJECT
100
AcDbLine
 10
157.515050474853
 20
34.07499627181081
 30
0.0
 11
157.515050474853
 21
41.35545270330212
 31
0.0
  0
LWPOLYLINE
  5
118
330
2
100
AcDbEntity
  8
OBJECT
100
AcDbPolyline
 90
        2
 70
     0
 43
0.0
 10
152.0150504748539
 20
30.75033843042486
 10
152.0150504748539
 20
37.39965411319631
  0
LINE
  5
119
330
2
100
AcDbEntity
  8
OBJECT
 48
10.0
100
AcDbLine
 10
157.515050474853
 20
30.75033843042486
 30
0.0
 11
152.0150504748539
 21
30.75033843042486
 31
0.0
  0
LINE
  5
11A
330
2
100
AcDbEntity
  8
OBJECT
 48
10.0
100
AcDbLine
 10
157.515050474853
 20
37.39965411319625
 30
0.0
 11
152.0150504748539
 21
37.3996541131963
 31
0.0
  0
LWPOLYLINE
  5
11B
330
2
100
AcDbEntity
  8
OBJECT
100
AcDbPolyline
 90
        4
 70
     0
 43
0.0
 10
160.315050474853
 20
45.32499627181036
 10
153.0150504748539
 20
45.32499627181036
 10
153.0150504748539
 20
48.32499627181036
 10
163.4350504748531
 20
48.32499627181036
  0
LINE
  5
11C
330
2
100
AcDbEntity
  8
OBJECT
100
AcDbLine
 10
144.5150504748539
 20
47.1249962718103
 30
0.0
 11
143.5219772425539
 21
47.1249962718103
 31
0.0
  0
LINE
  5
11D
330
2
100
AcDbEntity
  8
OBJECT
100
AcDbLine
 10
144.5150504748539
 20
46.52698612820822
 30
0.0
 11
143.5219772425539
 21
46.52499627181041
 31
0.0
  0
LINE
  5
11E
330
2
100
AcDbEntity
  8
OBJECT
100
AcDbLine
 10
144.5150504748539
 20
47.1249962718103
 30
0.0
 11
144.5150504748539
 21
46.52698612820822
 31
0.0
  0
ARC
  5
11F
330
2
100
AcDbEntity
  8
OBJECT
100
AcDbCircle
 10
150.0150504748539
 20
46.82499627181035
 30
0.0
 40
6.499999999999692
100
AcDbArc
 50
157.3801350519545
 51
177.3546396584368
  0
ARC
  5
120
330
2
100
AcDbEntity
  8
OBJECT
100
AcDbCircle
 10
150.0150504748539
 20
46.82499627181035
 30
0.0
 40
6.499999999999692
100
AcDbArc
 50
182.6453603415629
 51
202.6198649480453
  0
HATCH
  5
121
330
2
100
AcDbEntity
  8
OBJECT
100
AcDbHatch
 10
0.0
 20
0.0
 30
0.0
210
0.0
220
0.0
230
1.0
  2
ANSI31
 70
     0
 71
     0
 91
        1
 92
        7
 72
     0
 73
     1
 93
        4
 10
144.0150504748539
 20
44.23076853004395
 10
144.0150504748539
 20
49.23076853004371
 10
153.0150504748539
 20
49.23076853004371
 10
153.0150504748539
 20
44.23076853004371
 97
        0
 75
     0
 76
     1
 52
135.0
 41
0.2
 77
     0
 78
     1
 53
180.0
 43
315.3093756935839
 44
925.9818294424601
 45
-0.0000000000000003
 46
0.635
 79
     0
 47
0.0370096015122687
 98
        1
 10
148.0078513090909
 20
46.98152833772096
  0
LWPOLYLINE
  5
122
330
2
100
AcDbEntity
  8
OBJECT
100
AcDbPolyline
 90
        6
 70
     0
 43
0.0
 10
144.0150504748539
 20
47.12499627181031
 10
144.0150504748539
 20
49.32499627181035
 10
153.0150504748539
 20
49.32499627181035
 10
153.0150504748539
 20
44.32499627181035
 10
144.0150504748539
 20
44.32499627181035
 10
144.0150504748539
 20
46.52598426030303
  0
ARC
  5
123
330
2
100
AcDbEntity
  8
OBJECT
100
AcDbCircle
 10
168.2650504748539
 20
43.32499627181102
 30
0.0
 40
0.75
100
AcDbArc
 50
0.0
 51
180.0
  0
ARC
  5
124
330
2
100
AcDbEntity
  8
OBJECT
100
AcDbCircle
 10
166.7233757861031
 20
47.32499627181104
 30
0.0
 40
3.0
100
AcDbArc
 50
90.0
 51
133.8766972859251
  0
ARC
  5
125
330
2
100
AcDbEntity
  8
OBJECT
100
AcDbCircle
 10
163.7650504748539
 20
43.32499627181102
 30
0.0
 40
0.75
100
AcDbArc
 50
0.0
 51
180.0
  0
LINE
  5
126
330
2
100
AcDbEntity
  8
OBJECT
100
AcDbLine
 10
158.435724326099
 20
43.51795189800768
 30
0.0
 11
164.6440496373479
 21
49.4874954665166
 31
0.0
  0
ARC
  5
127
330
2
100
AcDbEntity
  8
OBJECT
100
AcDbCircle
 10
193.915050474854
 20
41.20499627181115
 30
0.0
 40
1.0
100
AcDbArc
 50
0.0
 51
90.0
  0
LINE
  5
128
330
2
100
AcDbEntity
  8
OBJECT
100
AcDbLine
 10
191.515050474853
 20
34.07499627181057
 30
0.0
 11
191.515050474853
 21
43.0749962718108
 31
0.0
  0
ARC
  5
129
330
2
100
AcDbEntity
  8
OBJECT
100
AcDbCircle
 10
184.0150504748539
 20
41.57499627181103
 30
0.0
 40
0.5
100
AcDbArc
 50
0.0
 51
90.0
  0
ARC
  5
12A
330
2
100
AcDbEntity
  8
OBJECT
100
AcDbCircle
 10
184.0150504748539
 20
41.57499627181103
 30
0.0
 40
1.5
100
AcDbArc
 50
0.0
 51
90.0
  0
ARC
  5
12B
330
2
100
AcDbEntity
  8
OBJECT
100
AcDbCircle
 10
178.0150504748539
 20
41.57499627181103
 30
0.0
 40
0.5
100
AcDbArc
 50
90.0
 51
180.0
  0
ARC
  5
12C
330
2
100
AcDbEntity
  8
OBJECT
100
AcDbCircle
 10
178.0150504748539
 20
41.57499627181103
 30
0.0
 40
1.5
100
AcDbArc
 50
90.0
 51
180.0
  0
LINE
  5
12D
330
2
100
AcDbEntity
  8
OBJECT
100
AcDbLine
 10
173.515050474853
 20
34.07499627181081
 30
0.0
 11
173.515050474853
 21
43.32499627181102
 31
0.0
  0
LINE
  5
12E
330
2
100
AcDbEntity
  8
OBJECT
100
AcDbLine
 10
184.5150504748539
 20
34.07499627181081
 30
0.0
 11
184.5150504748539
 21
41.57499627181103
 31
0.0
  0
LINE
  5
12F
330
2
100
AcDbEntity
  8
OBJECT
100
AcDbLine
 10
185.5150504748539
 20
34.07499627181081
 30
0.0
 11
185.5150504748539
 21
41.57499627181103
 31
0.0
  0
LINE
  5
130
330
2
100
AcDbEntity
  8
OBJECT
100
AcDbLine
 10
177.5150504748539
 20
34.07499627181081
 30
0.0
 11
177.5150504748539
 21
41.57499627181103
 31
0.0
  0
LINE
  5
131
330
2
100
AcDbEntity
  8
OBJECT
100
AcDbLine
 10
176.5150504748539
 20
34.07499627181081
 30
0.0
 11
176.5150504748539
 21
41.57499627181103
 31
0.0
  0
LINE
  5
132
330
2
100
AcDbEntity
  8
OBJECT
100
AcDbLine
 10
184.0150504748539
 20
42.07499627181102
 30
0.0
 11
178.0150504748539
 21
42.07499627181102
 31
0.0
  0
LINE
  5
133
330
2
100
AcDbEntity
  8
OBJECT
100
AcDbLine
 10
194.915050474854
 20
34.07499627181138
 30
0.0
 11
194.915050474854
 21
41.20499627181136
 31
0.0
  0
LINE
  5
134
330
2
100
AcDbEntity
  8
OBJECT
100
AcDbLine
 10
194.9150504748531
 20
34.07499627181127
 30
0.0
 11
194.9150504748531
 21
41.20499627181115
 31
0.0
  0
LINE
  5
135
330
2
100
AcDbEntity
  8
OBJECT
100
AcDbLine
 10
184.0150504748539
 20
43.07499627181103
 30
0.0
 11
178.0150504748539
 21
43.07499627181103
 31
0.0
  0
LINE
  5
136
330
2
100
AcDbEntity
  8
OBJECT
 48
0.2
100
AcDbLine
 10
188.815050474848
 20
48.02499627181259
 30
0.0
 11
190.3150504748589
 21
48.02499627181195
 31
0.0
  0
LINE
  5
137
330
2
100
AcDbEntity
  8
OBJECT
 48
0.2
100
AcDbLine
 10
189.5150504748569
 20
45.62499627181256
 30
0.0
 11
190.315050474858
 21
45.62499627181207
 31
0.0
  0
LINE
  5
138
330
2
100
AcDbEntity
  8
OBJECT
100
AcDbLine
 10
189.515050474853
 20
45.32499627181036
 30
0.0
 11
190.315050474853
 21
45.32499627181036
 31
0.0
  0
LINE
  5
139
330
2
100
AcDbEntity
  8
OBJECT
100
AcDbLine
 10
190.5150504748539
 20
45.52499627181039
 30
0.0
 11
190.315050474853
 21
45.32499627181036
 31
0.0
  0
LINE
  5
13A
330
2
100
AcDbEntity
  8
OBJECT
100
AcDbLine
 10
188.815050474843
 20
48.32499627181036
 30
0.0
 11
190.315050474853
 21
48.32499627181036
 31
0.0
  0
LINE
  5
13B
330
2
100
AcDbEntity
  8
OBJECT
100
AcDbLine
 10
190.315050474853
 20
48.32499627181036
 30
0.0
 11
190.5150504748539
 21
48.12499627181008
 31
0.0
  0
LINE
  5
13C
330
2
100
AcDbEntity
  8
OBJECT
100
AcDbLine
 10
189.515050474853
 20
47.374996271811
 30
0.0
 11
188.015050474853
 21
47.37499627181075
 31
0.0
  0
LINE
  5
13D
330
2
100
AcDbEntity
  8
OBJECT
100
AcDbLine
 10
188.815050474843
 20
49.47499627181112
 30
0.0
 11
188.015050474843
 21
49.47499627181112
 31
0.0
  0
LINE
  5
13E
330
2
100
AcDbEntity
  8
OBJECT
100
AcDbLine
 10
188.015050474853
 20
47.374996271811
 30
0.0
 11
188.015050474853
 21
50.32499627181103
 31
0.0
  0
LINE
  5
13F
330
2
100
AcDbEntity
  8
OBJECT
100
AcDbLine
 10
188.015050474843
 20
47.37499627181075
 30
0.0
 11
188.015050474843
 21
49.47499627181112
 31
0.0
  0
LINE
  5
140
330
2
100
AcDbEntity
  8
OBJECT
100
AcDbLine
 10
188.815050474843
 20
47.374996271811
 30
0.0
 11
188.815050474843
 21
49.47499627181112
 31
0.0
  0
LINE
  5
141
330
2
100
AcDbEntity
  8
OBJECT
100
AcDbLine
 10
188.415050474844
 20
47.374996271811
 30
0.0
 11
188.415050474844
 21
49.47499627181112
 31
0.0
  0
LINE
  5
142
330
2
100
AcDbEntity
  8
OBJECT
100
AcDbLine
 10
190.5150504748539
 20
48.12499627181008
 30
0.0
 11
190.5150504748539
 21
45.52499627181039
 31
0.0
  0
LINE
  5
143
330
2
100
AcDbEntity
  8
OBJECT
100
AcDbLine
 10
190.315050474853
 20
48.32499627181036
 30
0.0
 11
190.315050474853
 21
45.32499627181036
 31
0.0
  0
LINE
  5
144
330
2
100
AcDbEntity
  8
OBJECT
100
AcDbLine
 10
193.915050474854
 20
42.20499627181138
 30
0.0
 11
191.515050474853
 21
42.20499627181138
 31
0.0
  0
LINE
  5
145
330
2
100
AcDbEntity
  8
OBJECT
100
AcDbLine
 10
191.515050474853
 20
43.0749962718108
 30
0.0
 11
189.515050474853
 21
43.0749962718108
 31
0.0
  0
LINE
  5
146
330
2
100
AcDbEntity
  8
OBJECT
100
AcDbLine
 10
189.515050474853
 20
43.0749962718108
 30
0.0
 11
189.515050474853
 21
47.374996271811
 31
0.0
  0
ARC
  5
148
330
2
100
AcDbEntity
  8
OBJECT
100
AcDbCircle
 10
227.238869010908
 20
28.32381527792395
 30
0.0
 40
1.5
100
AcDbArc
 50
280.3330971471865
 51
0.0
  0
LINE
  5
149
330
2
100
AcDbEntity
  8
OBJECT
100
AcDbLine
 10
229.370931362303
 20
25.07499627181172
 30
0.0
 11
229.370931362303
 21
43.07499627181171
 31
0.0
  0
LINE
  5
14A
330
2
100
AcDbEntity
  8
OBJECT
100
AcDbLine
 10
232.370931362301
 20
20.82499627181195
 30
0.0
 11
232.370931362301
 21
47.32499627181193
 31
0.0
  0
DIMENSION
  5
14C
330
2
100
AcDbEntity
  8
TEXT
100
AcDbDimension
  2
*D15
 10
208.7145246362552
 20
17.8249962718119
 30
0.0
 11
208.7145246362552
 21
33.56669261213369
 31
0.0
 70
   160
  3
STANDARD
100
AcDbAlignedDimension
 13
220.3655579540821
 23
50.32499627181188
 33
0.0
 14
220.3655579540821
 24
17.82499627181189
 34
0.0
 50
90.0
100
AcDbRotatedDimension
1001
ACAD
1000
DSTYLE
1002
{
1070
   140
1040
3.0
1070
    41
1040
2.5
1070
    40
1040
1.0
1070
   176
1070
     0
1070
   177
1070
     0
1070
   178
1070
     0
1002
}
  0
ARC
  5
159
330
2
100
AcDbEntity
  8
OBJECT
100
AcDbCircle
 10
222.4188690109081
 20
27.44499627181122
 30
0.0
 40
0.7
100
AcDbArc
 50
180.0
 51
280.3330971471865
  0
ARC
  5
15A
330
2
100
AcDbEntity
  8
OBJECT
100
AcDbCircle
 10
222.4188690109081
 20
27.44499627181122
 30
0.0
 40
1.5
100
AcDbArc
 50
180.0
 51
280.3330971471865
  0
LINE
  5
15B
330
2
100
AcDbEntity
  8
OBJECT
100
AcDbLine
 10
217.370931362303
 20
20.82499627181138
 30
0.0
 11
217.370931362303
 21
47.32499627181137
 31
0.0
  0
LINE
  5
15C
330
2
100
AcDbEntity
  8
OBJECT
100
AcDbLine
 10
220.370931362303
 20
25.07499627181116
 30
0.0
 11
220.370931362303
 21
43.07499627181115
 31
0.0
  0
LINE
  5
15D
330
2
100
AcDbEntity
  8
OBJECT
100
AcDbLine
 10
222.5444283823049
 20
26.75634916025555
 30
0.0
 11
227.3644283823059
 21
27.63516816636806
 31
0.0
  0
ARC
  5
15E
330
2
100
AcDbEntity
  8
OBJECT
100
AcDbCircle
 10
229.3709313623019
 20
20.82499627181189
 30
0.0
 40
3.0
100
AcDbArc
 50
270.0
 51
0.0
  0
DIMENSION
  5
15F
330
2
100
AcDbEntity
  8
TEXT
100
AcDbDimension
  2
*D14
 10
232.370931362301
 20
9.699381375739369
 30
0.0
 11
224.870931362302
 21
11.82438137573937
 31
0.0
 70
    32
  3
STANDARD
100
AcDbAlignedDimension
 13
217.370931362303
 23
21.27499627181091
 33
0.0
 14
232.370931362301
 24
21.27499627181185
 34
0.0
100
AcDbRotatedDimension
1001
ACAD
1000
DSTYLE
1002
{
1070
   140
1040
3.0
1070
    41
1040
2.5
1070
    40
1040
1.0
1070
   176
1070
     0
1070
   177
1070
     0
1070
   178
1070
     0
1002
}
  0
ARC
  5
16D
330
2
100
AcDbEntity
  8
OBJECT
100
AcDbCircle
 10
220.370931362303
 20
20.82499627181133
 30
0.0
 40
3.0
100
AcDbArc
 50
180.0
 51
270.0
  0
LINE
  5
16E
330
2
100
AcDbEntity
  8
OBJECT
100
AcDbLine
 10
218.625614665829
 20
20.77499627181086
 30
0.0
 11
217.870931362303
 21
20.77499627181097
 31
0.0
  0
LINE
  5
16F
330
2
100
AcDbEntity
  8
OBJECT
100
AcDbLine
 10
217.370931362303
 20
25.07499627181116
 30
0.0
 11
220.370931362303
 21
25.07499627181116
 31
0.0
  0
ARC
  5
170
330
2
100
AcDbEntity
  8
OBJECT
100
AcDbCircle
 10
217.870931362303
 20
21.27499627181092
 30
0.0
 40
0.5
100
AcDbArc
 50
180.0
 51
270.0
  0
ARC
  5
171
330
2
100
AcDbEntity
  8
OBJECT
100
AcDbCircle
 10
231.8709313623019
 20
21.27499627181183
 30
0.0
 40
0.5
100
AcDbArc
 50
270.0
 51
0.0
  0
LINE
  5
172
330
2
100
AcDbEntity
  8
OBJECT
100
AcDbLine
 10
231.2256146658278
 20
20.77499627181177
 30
0.0
 11
231.8709313623019
 21
20.77499627181188
 31
0.0
  0
POINT
  5
173
330
2
100
AcDbEntity
  8
TEXT
100
AcDbPoint
 10
224.870931362303
 20
21.57999627181115
 30
0.0
  0
CIRCLE
  5
176
330
2
100
AcDbEntity
  8
OBJECT
 48
0.2
100
AcDbCircle
 10
224.870931362303
 20
21.57999627181109
 30
0.0
 40
1.224999999999998
  0
LINE
  5
177
330
2
100
AcDbEntity
  8
OBJECT
100
AcDbLine
 10
224.370931362303
 20
16.82499627181138
 30
0.0
 11
224.870931362303
 21
16.82499627181138
 31
0.0
  0
LINE
  5
178
330
2
100
AcDbEntity
  8
OBJECT
100
AcDbLine
 10
224.870931362303
 20
16.82499627181138
 30
0.0
 11
224.870931362303
 21
17.82499627181138
 31
0.0
  0
LINE
  5
179
330
2
100
AcDbEntity
  8
OBJECT
100
AcDbLine
 10
225.370931362303
 20
16.82499627181195
 30
0.0
 11
225.370931362303
 21
17.82499627181195
 31
0.0
  0
LINE
  5
17A
330
2
100
AcDbEntity
  8
OBJECT
100
AcDbLine
 10
224.870931362303
 20
16.82499627181195
 30
0.0
 11
224.870931362303
 21
17.82499627181195
 31
0.0
  0
LINE
  5
17B
330
2
100
AcDbEntity
  8
OBJECT
100
AcDbLine
 10
225.370931362303
 20
16.82499627181195
 30
0.0
 11
224.870931362303
 21
16.82499627181195
 31
0.0
  0
LINE
  5
17C
330
2
100
AcDbEntity
  8
OBJECT
100
AcDbLine
 10
224.870931362303
 20
17.82499627181195
 30
0.0
 11
224.870931362303
 21
18.67499627181141
 31
0.0
  0
LINE
  5
17D
330
2
100
AcDbEntity
  8
OBJECT
100
AcDbLine
 10
224.370931362303
 20
16.82499627181138
 30
0.0
 11
224.370931362303
 21
17.82499627181138
 31
0.0
  0
LINE
  5
17E
330
2
100
AcDbEntity
  8
OBJECT
100
AcDbLine
 10
224.370931362303
 20
17.82499627181138
 30
0.0
 11
220.370931362303
 21
17.82499627181138
 31
0.0
  0
LINE
  5
17F
330
2
100
AcDbEntity
  8
OBJECT
100
AcDbLine
 10
222.6879248067609
 20
25.96932388990612
 30
0.0
 11
227.5079248067618
 21
26.84814289601863
 31
0.0
  0
CIRCLE
  5
180
330
2
100
AcDbEntity
  8
OBJECT
100
AcDbCircle
 10
224.870931362303
 20
21.57999627181109
 30
0.0
 40
1.524999999999999
  0
LINE
  5
181
330
2
100
AcDbEntity
  8
OBJECT
100
AcDbLine
 10
225.370931362303
 20
17.82499627181195
 30
0.0
 11
229.3709313623019
 21
17.82499627181195
 31
0.0
  0
LINE
  5
182
330
2
100
AcDbEntity
  8
OBJECT
100
AcDbLine
 10
232.370931362301
 20
25.07499627181172
 30
0.0
 11
229.370931362303
 21
25.07499627181172
 31
0.0
  0
LWPOLYLINE
  5
183
330
2
100
AcDbEntity
  8
OBJECT
100
AcDbPolyline
 90
        6
 70
     0
 43
0.0
 10
218.5709313623031
 20
25.07499627181116
 10
218.5709313623031
 20
20.17499627181118
 42
0.4142135623730951
 10
220.070931362303
 20
18.67499627181119
 10
229.670931362303
 20
18.67499627181119
 42
0.4142135623730951
 10
231.170931362303
 20
20.17499627181118
 10
231.170931362303
 20
25.07499627181173
  0
ARC
  5
184
330
2
100
AcDbEntity
  8
OBJECT
100
AcDbCircle
 10
229.3709313623019
 20
47.32499627181189
 30
0.0
 40
3.0
100
AcDbArc
 50
0.0
 51
90.0
  0
ARC
  5
185
330
2
100
AcDbEntity
  8
OBJECT
100
AcDbCircle
 10
222.4188690109081
 20
40.70499627181121
 30
0.0
 40
1.5
100
AcDbArc
 50
79.66690285281348
 51
180.0
  0
LINE
  5
186
330
2
100
AcDbEntity
  8
OBJECT
100
AcDbLine
 10
222.6879248067609
 20
42.1806686537162
 30
0.0
 11
227.5079248067618
 21
41.30184964760367
 31
0.0
  0
ARC
  5
187
330
2
100
AcDbEntity
  8
OBJECT
100
AcDbCircle
 10
227.238869010908
 20
39.82617726569845
 30
0.0
 40
0.7
100
AcDbArc
 50
0.0
 51
79.66690285281348
  0
ARC
  5
188
330
2
100
AcDbEntity
  8
OBJECT
100
AcDbCircle
 10
227.238869010908
 20
39.82617726569845
 30
0.0
 40
1.5
100
AcDbArc
 50
0.0
 51
79.66690285281348
  0
ARC
  5
189
330
2
100
AcDbEntity
  8
OBJECT
100
AcDbCircle
 10
227.238869010908
 20
28.32381527792395
 30
0.0
 40
0.7
100
AcDbArc
 50
280.3330971471865
 51
0.0
  0
LINE
  5
18A
330
2
100
AcDbEntity
  8
OBJECT
100
AcDbLine
 10
228.738869010908
 20
28.3238152779239
 30
0.0
 11
228.738869010908
 21
39.8261772656984
 31
0.0
  0
LINE
  5
18B
330
2
100
AcDbEntity
  8
OBJECT
100
AcDbLine
 10
227.938869010908
 20
28.3238152779239
 30
0.0
 11
227.938869010908
 21
39.8261772656984
 31
0.0
  0
TEXT
  5
18C
330
2
100
AcDbEntity
  8
TEXT
100
AcDbText
 10
225.134823117269
 20
40.18418105703895
 30
0.0
 40
1.5
  1
1
 50
90.0
100
AcDbText
  0
ARC
  5
18E
330
2
100
AcDbEntity
  8
OBJECT
100
AcDbCircle
 10
222.4188690109081
 20
40.70499627181121
 30
0.0
 40
0.7
100
AcDbArc
 50
79.66690285281348
 51
180.0
  0
CIRCLE
  5
18F
330
2
100
AcDbEntity
  8
OBJECT
100
AcDbCircle
 10
223.204264695636
 20
31.26931615172785
 30
0.0
 40
0.7
  0
CIRCLE
  5
190
330
2
100
AcDbEntity
  8
OBJECT
100
AcDbCircle
 10
223.204264695636
 20
34.07499627181118
 30
0.0
 40
0.5
  0
CIRCLE
  5
191
330
2
100
AcDbEntity
  8
OBJECT
100
AcDbCircle
 10
223.204264695636
 20
31.26931615172785
 30
0.0
 40
0.5
  0
POINT
  5
192
330
2
100
AcDbEntity
  8
OBJECT
100
AcDbPoint
 10
224.870931362303
 20
34.07499627181115
 30
0.0
  0
POINT
  5
193
330
2
100
AcDbEntity
  8
OBJECT
100
AcDbPoint
 10
224.870931362303
 20
34.07499627181115
 30
0.0
  0
POINT
  5
194
330
2
100
AcDbEntity
  8
OBJECT
100
AcDbPoint
 10
224.870931362303
 20
34.07499627181115
 30
0.0
  0
CIRCLE
  5
195
330
2
100
AcDbEntity
  8
OBJECT
100
AcDbCircle
 10
223.204264695636
 20
36.7675665502827
 30
0.0
 40
0.5
  0
CIRCLE
  5
196
330
2
100
AcDbEntity
  8
OBJECT
100
AcDbCircle
 10
223.204264695636
 20
36.7675665502827
 30
0.0
 40
0.7
  0
CIRCLE
  5
197
330
2
100
AcDbEntity
  8
OBJECT
100
AcDbCircle
 10
223.204264695636
 20
34.07499627181118
 30
0.0
 40
0.7
  0
CIRCLE
  5
198
330
2
100
AcDbEntity
  8
OBJECT
100
AcDbCircle
 10
223.204264695636
 20
28.52019095245046
 30
0.0
 40
0.5
  0
CIRCLE
  5
199
330
2
100
AcDbEntity
  8
OBJECT
100
AcDbCircle
 10
223.204264695636
 20
28.52019095245046
 30
0.0
 40
0.7
  0
TEXT
  5
19A
330
2
100
AcDbEntity
  8
TEXT
100
AcDbText
 10
225.2834656548077
 20
27.25575123775048
 30
0.0
 40
1.5
  1
5
 50
90.0
100
AcDbText
  0
LINE
  5
19B
330
2
100
AcDbEntity
  8
OBJECT
100
AcDbLine
 10
220.9188690109081
 20
27.44499627181116
 30
0.0
 11
220.9188690109081
 21
40.70499627181115
 31
0.0
  0
LINE
  5
19C
330
2
100
AcDbEntity
  8
OBJECT
100
AcDbLine
 10
221.718869010908
 20
27.44499627181116
 30
0.0
 11
221.718869010908
 21
40.70499627181115
 31
0.0
  0
CIRCLE
  5
19D
330
2
100
AcDbEntity
  8
OBJECT
100
AcDbCircle
 10
223.204264695636
 20
39.51669174956021
 30
0.0
 40
0.7
  0
CIRCLE
  5
19E
330
2
100
AcDbEntity
  8
OBJECT
100
AcDbCircle
 10
223.204264695636
 20
39.51669174956021
 30
0.0
 40
0.5
  0
LINE
  5
19F
330
2
100
AcDbEntity
  8
OBJECT
100
AcDbLine
 10
222.5444283823049
 20
41.39364338336676
 30
0.0
 11
227.3644283823059
 21
40.51482437725424
 31
0.0
  0
CIRCLE
  5
1A0
330
2
100
AcDbEntity
  8
OBJECT
100
AcDbCircle
 10
226.5375980289689
 20
32.54679114360615
 30
0.0
 40
0.7
  0
CIRCLE
  5
1A1
330
2
100
AcDbEntity
  8
OBJECT
100
AcDbCircle
 10
226.5375980289689
 20
32.54679114360615
 30
0.0
 40
0.5
  0
CIRCLE
  5
1A2
330
2
100
AcDbEntity
  8
OBJECT
100
AcDbCircle
 10
226.5375980289689
 20
35.39653473334965
 30
0.0
 40
0.5
  0
CIRCLE
  5
1A3
330
2
100
AcDbEntity
  8
OBJECT
100
AcDbCircle
 10
226.5375980289689
 20
35.39653473334965
 30
0.0
 40
0.7
  0
CIRCLE
  5
1A4
330
2
100
AcDbEntity
  8
OBJECT
100
AcDbCircle
 10
226.5375980289689
 20
38.24627832309317
 30
0.0
 40
0.7
  0
CIRCLE
  5
1A5
330
2
100
AcDbEntity
  8
OBJECT
100
AcDbCircle
 10
226.5375980289689
 20
38.24627832309317
 30
0.0
 40
0.5
  0
CIRCLE
  5
1A6
330
2
100
AcDbEntity
  8
OBJECT
100
AcDbCircle
 10
226.5375980289689
 20
29.69704755386251
 30
0.0
 40
0.5
  0
CIRCLE
  5
1A7
330
2
100
AcDbEntity
  8
OBJECT
100
AcDbCircle
 10
226.5375980289689
 20
29.69704755386251
 30
0.0
 40
0.7
  0
TEXT
  5
1A8
330
2
100
AcDbEntity
  8
TEXT
100
AcDbText
 10
227.7764057817335
 20
27.87542457774097
 30
0.0
 40
1.5
  1
9
 50
90.0
100
AcDbText
  0
LINE
  5
1A9
330
2
100
AcDbEntity
  8
OBJECT
100
AcDbLine
 10
218.625614665829
 20
47.37499627181121
 30
0.0
 11
217.870931362303
 21
47.37499627181132
 31
0.0
  0
LINE
  5
1AA
330
2
100
AcDbEntity
  8
OBJECT
100
AcDbLine
 10
217.370931362303
 20
43.07499627181115
 30
0.0
 11
220.370931362303
 21
43.07499627181115
 31
0.0
  0
ARC
  5
1AB
330
2
100
AcDbEntity
  8
OBJECT
100
AcDbCircle
 10
220.370931362303
 20
47.32499627181133
 30
0.0
 40
3.0
100
AcDbArc
 50
90.0
 51
180.0
  0
ARC
  5
1AC
330
2
100
AcDbEntity
  8
OBJECT
100
AcDbCircle
 10
217.870931362303
 20
46.87499627181128
 30
0.0
 40
0.5
100
AcDbArc
 50
90.0
 51
180.0
  0
ARC
  5
1AD
330
2
100
AcDbEntity
  8
OBJECT
100
AcDbCircle
 10
231.8709313623019
 20
46.87499627181185
 30
0.0
 40
0.5
100
AcDbArc
 50
0.0
 51
89.99999999998697
  0
LINE
  5
1AE
330
2
100
AcDbEntity
  8
OBJECT
100
AcDbLine
 10
231.2256146658278
 20
47.37499627181191
 30
0.0
 11
231.8709313623019
 21
47.37499627181191
 31
0.0
  0
LINE
  5
1AF
330
2
100
AcDbEntity
  8
OBJECT
100
AcDbLine
 10
224.8682446581919
 20
49.47499627181106
 30
0.0
 11
224.8682446581919
 21
50.32499627181151
 31
0.0
  0
POINT
  5
1B0
330
2
100
AcDbEntity
  8
TEXT
100
AcDbPoint
 10
224.870931362303
 20
46.56999627181116
 30
0.0
  0
LINE
  5
1B1
330
2
100
AcDbEntity
  8
OBJECT
100
AcDbLine
 10
224.870931362303
 20
50.3249962718115
 30
0.0
 11
220.370931362303
 21
50.32499627181138
 31
0.0
  0
CIRCLE
  5
1B2
330
2
100
AcDbEntity
  8
OBJECT
 48
0.2
100
AcDbCircle
 10
224.870931362303
 20
46.56999627181098
 30
0.0
 40
1.224999999999998
  0
LINE
  5
1B3
330
2
100
AcDbEntity
  8
OBJECT
100
AcDbLine
 10
224.870931362303
 20
50.32499627181207
 30
0.0
 11
229.3709313623019
 21
50.32499627181195
 31
0.0
  0
CIRCLE
  5
1B4
330
2
100
AcDbEntity
  8
OBJECT
100
AcDbCircle
 10
224.870931362303
 20
46.56999627181098
 30
0.0
 40
1.524999999999999
  0
LINE
  5
1B5
330
2
100
AcDbEntity
  8
OBJECT
100
AcDbLine
 10
232.370931362301
 20
43.07499627181171
 30
0.0
 11
229.370931362303
 21
43.07499627181171
 31
0.0
  0
LWPOLYLINE
  5
1B6
330
2
100
AcDbEntity
  8
OBJECT
100
AcDbPolyline
 90
        6
 70
     0
 43
0.0
 10
231.170931362303
 20
43.07499627181171
 10
231.170931362303
 20
47.97499627181101
 42
0.4142135623730951
 10
229.670931362303
 20
49.47499627181102
 10
220.070931362303
 20
49.47499627181114
 42
0.4142135623730951
 10
218.5709313623031
 20
47.97499627181114
 10
218.5709313623031
 20
43.07499627181115
  0
TEXT
  5
1F8
330
2
100
AcDbEntity
  8
OBJECT
100
AcDbText
 10
16.83008906547888
 20
68.58495800150667
 30
0.0
 40
2.5
  1
XARR-03VF　　（JST）
100
AcDbText
  0
TEXT
  5
1F9
330
2
100
AcDbEntity
  8
OBJECT
100
AcDbText
 10
161.8246216129809
 20
68.58495800150667
 30
0.0
 40
2.5
  1
D-Sub　メス　　（MH connectors）
100
AcDbText
  0
TEXT
  5
1FA
330
2
100
AcDbEntity
  8
OBJECT
100
AcDbText
 10
1092.919238673785
 20
41.87144422406057
 30
0.0
 40
3.0
  1
　
100
AcDbText
  0
TEXT
  5
2A7
330
2
100
AcDbEntity
  8
TEXT
100
AcDbText
 10
15.26429584460197
 20
33.07070031690903
 30
0.0
 40
1.5
  1
2
100
AcDbText
  0
TEXT
  5
2A8
330
2
100
AcDbEntity
  8
TEXT
100
AcDbText
 10
15.26429584460197
 20
30.07070031690903
 30
0.0
 40
1.5
  1
3
100
AcDbText
  0
ENDSEC
  0
SECTION
  2
OBJECTS
  0
DICTIONARY
  5
7
330
0
100
AcDbDictionary
  3
ACAD_GROUP
350
24
  3
ACAD_LAYOUT
350
B
  3
ACAD_MLINESTYLE
350
25
  3
ACAD_PLOTSETTINGS
350
26
  3
ACAD_PLOTSTYLENAME
350
6
  3
ACDBHEADERROUNDTRIPXREC
350
343
  3
ACDBVARIABLEDICTIONARY
350
1BD
  0
DICTIONARY
  5
11
330
10
100
AcDbDictionary
280
     1
  3
ACAD_LAYERFILTERS
360
12
  3
ACAD_LAYERSTATES
360
13
  0
DICTIONARY
  5
1E5
330
2
100
AcDbDictionary
280
     1
  3
ACAD_LAYOUTSELFREF
360
364
  0
DICTIONARY
  5
1E7
330
C
100
AcDbDictionary
280
     1
  3
ACAD_LAYOUTSELFREF
360
365
  0
DICTIONARY
  5
24
102
{ACAD_REACTORS
330
7
102
}
330
7
100
AcDbDictionary
  0
DICTIONARY
  5
B
102
{ACAD_REACTORS
330
7
102
}
330
7
100
AcDbDictionary
  0
DICTIONARY
  5
25
102
{ACAD_REACTORS
330
7
102
}
330
7
100
AcDbDictionary
  3
STANDARD
350
28
  0
DICTIONARY
  5
26
102
{ACAD_REACTORS
330
7
102
}
330
7
100
AcDbDictionary
  3
B5_PDF
350
340
  0
ACDBDICTIONARYWDFLT
  5
6
102
{ACAD_REACTORS
330
7
102
}
330
7
100
AcDbDictionary
281
     1
  3
Normal
350
5
100
AcDbDictionaryWithDefault
340
5
  0
DICTIONARY
  5
343
102
{ACAD_REACTORS
330
7
102
}
330
7
100
AcDbDictionary
  3
CEPSNTYPE
350
34D
  3
DIMSTYLEDATA
350
351
  3
FINGERPRINTGUID
350
34E
  3
HYPERLINKBASE
350
346
  3
INSUNITS
350
34C
  3
LAYOUTDICT
350
348
  3
LWETCUNION
350
34B
  3
PLOTSETDICT
350
349
  3
PLOTSTYLNAMDICT
350
34A
  3
PSVPSCALE
350
350
  3
PUCSBASE
350
354
  3
PUCSORGBACK
350
35A
  3
PUCSORGBOTTOM
350
356
  3
PUCSORGFRONT
350
359
  3
PUCSORGLEFT
350
357
  3
PUCSORGRIGHT
350
358
  3
PUCSORGTOP
350
355
  3
PUCSORTHOREF
350
352
  3
PUCSORTHOVIEW
350
353
  3
STYLESHEET
350
347
  3
TSTACKALIGN
350
344
  3
TSTACKSIZE
350
345
  3
UCSBASE
350
35D
  3
UCSORGBACK
350
363
  3
UCSORGBOTTOM
350
35F
  3
UCSORGFRONT
350
362
  3
UCSORGLEFT
350
360
  3
UCSORGRIGHT
350
361
  3
UCSORGTOP
350
35E
  3
UCSORTHOREF
350
35B
  3
UCSORTHOVIEW
350
35C
  3
VERSIONGUID
350
34F
  0
DICTIONARY
  5
1BD
102
{ACAD_REACTORS
330
7
102
}
330
7
100
AcDbDictionary
  3
DIMASSOC
350
1BF
  3
HIDETEXT
350
1BE
  0
DICTIONARY
  5
12
102
{ACAD_REACTORS
330
11
102
}
330
11
100
AcDbDictionary
280
     1
  0
DICTIONARY
  5
13
102
{ACAD_REACTORS
330
11
102
}
330
11
100
AcDbDictionary
  0
XRECORD
  5
364
102
{ACAD_REACTORS
330
1E5
102
}
330
1E5
100
AcDbXrecord
340
2
  0
XRECORD
  5
365
102
{ACAD_REACTORS
330
1E7
102
}
330
1E7
100
AcDbXrecord
340
C
  0
MLINESTYLE
  5
28
102
{ACAD_REACTORS
330
25
102
}
330
25
100
AcDbMlineStyle
  2
STANDARD
 70
     0
  3

 62
   256
 51
90.0
 52
90.0
 71
     2
 49
0.5
 62
   256
  6
BYLAYER
 49
-0.5
 62
   256
  6
BYLAYER
  0
PLOTSETTINGS
  5
340
102
{ACAD_REACTORS
330
26
102
}
330
26
100
AcDbPlotSettings
  1
B5_PDF
  2
クセロPDF2
  4
B5 (JIS)
  6

 40
3.174999952316284
 41
3.174999952316284
 42
3.175003051757812
 43
3.175003051757812
 44
181.9486694335937
 45
256.9633178710937
 46
0.0
 47
0.0
 48
-15.66763137189809
 49
-22.13925667315425
140
267.3781257533496
141
101.9191329562295
142
1.0
143
1.129412287114263
 70
  1712
 72
     1
 73
     1
 74
     4
  7

 75
     0
147
0.8854162571181849
148
15.66763137189809
149
22.13925667315425
  0
ACDBPLACEHOLDER
  5
5
102
{ACAD_REACTORS
330
6
102
}
330
6
100
AcDbPlaceHolder
280
     0
  0
XRECORD
  5
34D
102
{ACAD_REACTORS
330
343
102
}
330
343
100
AcDbXrecord
 90
        0
  0
XRECORD
  5
351
102
{ACAD_REACTORS
330
343
102
}
330
343
100
AcDbXrecord
1000
DSTYLE
1002
{
1070
    79
 70
     2
1070
   179
 70
     2
1002
}
  0
XRECORD
  5
34E
102
{ACAD_REACTORS
330
343
102
}
330
343
100
AcDbXrecord
  1
{19C29E87-2D4A-44F5-9CA9-8E2C957C07B1}
  0
XRECORD
  5
346
102
{ACAD_REACTORS
330
343
102
}
330
343
100
AcDbXrecord
  1

  0
XRECORD
  5
34C
102
{ACAD_REACTORS
330
343
102
}
330
343
100
AcDbXrecord
 90
        0
  0
XRECORD
  5
348
102
{ACAD_REACTORS
330
343
102
}
330
343
100
AcDbXrecord
340
B
  0
XRECORD
  5
34B
102
{ACAD_REACTORS
330
343
102
}
330
343
100
AcDbXrecord
 90
    10781
  0
XRECORD
  5
349
102
{ACAD_REACTORS
330
343
102
}
330
343
100
AcDbXrecord
340
26
  0
XRECORD
  5
34A
102
{ACAD_REACTORS
330
343
102
}
330
343
100
AcDbXrecord
340
6
  0
XRECORD
  5
350
102
{ACAD_REACTORS
330
343
102
}
330
343
100
AcDbXrecord
 40
0.0
  0
XRECORD
  5
354
102
{ACAD_REACTORS
330
343
102
}
330
343
100
AcDbXrecord
340
0
  0
XRECORD
  5
35A
102
{ACAD_REACTORS
330
343
102
}
330
343
100
AcDbXrecord
 10
0.0
 20
0.0
 30
0.0
  0
XRECORD
  5
356
102
{ACAD_REACTORS
330
343
102
}
330
343
100
AcDbXrecord
 10
0.0
 20
0.0
 30
0.0
  0
XRECORD
  5
359
102
{ACAD_REACTORS
330
343
102
}
330
343
100
AcDbXrecord
 10
0.0
 20
0.0
 30
0.0
  0
XRECORD
  5
357
102
{ACAD_REACTORS
330
343
102
}
330
343
100
AcDbXrecord
 10
0.0
 20
0.0
 30
0.0
  0
XRECORD
  5
358
102
{ACAD_REACTORS
330
343
102
}
330
343
100
AcDbXrecord
 10
0.0
 20
0.0
 30
0.0
  0
XRECORD
  5
355
102
{ACAD_REACTORS
330
343
102
}
330
343
100
AcDbXrecord
 10
0.0
 20
0.0
 30
0.0
  0
XRECORD
  5
352
102
{ACAD_REACTORS
330
343
102
}
330
343
100
AcDbXrecord
340
0
  0
XRECORD
  5
353
102
{ACAD_REACTORS
330
343
102
}
330
343
100
AcDbXrecord
 70
     0
  0
XRECORD
  5
347
102
{ACAD_REACTORS
330
343
102
}
330
343
100
AcDbXrecord
  1

  0
XRECORD
  5
344
102
{ACAD_REACTORS
330
343
102
}
330
343
100
AcDbXrecord
 90
        1
  0
XRECORD
  5
345
102
{ACAD_REACTORS
330
343
102
}
330
343
100
AcDbXrecord
 90
       70
  0
XRECORD
  5
35D
102
{ACAD_REACTORS
330
343
102
}
330
343
100
AcDbXrecord
340
0
  0
XRECORD
  5
363
102
{ACAD_REACTORS
330
343
102
}
330
343
100
AcDbXrecord
 10
0.0
 20
0.0
 30
0.0
  0
XRECORD
  5
35F
102
{ACAD_REACTORS
330
343
102
}
330
343
100
AcDbXrecord
 10
0.0
 20
0.0
 30
0.0
  0
XRECORD
  5
362
102
{ACAD_REACTORS
330
343
102
}
330
343
100
AcDbXrecord
 10
0.0
 20
0.0
 30
0.0
  0
XRECORD
  5
360
102
{ACAD_REACTORS
330
343
102
}
330
343
100
AcDbXrecord
 10
0.0
 20
0.0
 30
0.0
  0
XRECORD
  5
361
102
{ACAD_REACTORS
330
343
102
}
330
343
100
AcDbXrecord
 10
0.0
 20
0.0
 30
0.0
  0
XRECORD
  5
35E
102
{ACAD_REACTORS
330
343
102
}
330
343
100
AcDbXrecord
 10
0.0
 20
0.0
 30
0.0
  0
XRECORD
  5
35B
102
{ACAD_REACTORS
330
343
102
}
330
343
100
AcDbXrecord
340
0
  0
XRECORD
  5
35C
102
{ACAD_REACTORS
330
343
102
}
330
343
100
AcDbXrecord
 70
     0
  0
XRECORD
  5
34F
102
{ACAD_REACTORS
330
343
102
}
330
343
100
AcDbXrecord
  1
{592CD017-5F01-450E-8148-2DE2BFA7F7A7}
  0
DICTIONARYVAR
  5
1BF
102
{ACAD_REACTORS
330
1BD
102
}
330
1BD
100
DictionaryVariables
280
     0
  1
1
  0
DICTIONARYVAR
  5
1BE
102
{ACAD_REACTORS
330
1BD
102
}
330
1BD
100
DictionaryVariables
280
     0
  1
1
  0
ENDSEC
  0
EOF
