  0
SECTION
  2
HEADER
  9
$ACADVER
  1
AC1015
  9
$ACADMAINTVER
 70
    13
  9
$DWGCODEPAGE
  3
ANSI_932
  9
$INSBASE
 10
-657.920558562353
 20
-1921.033720361998
 30
0.0
  9
$EXTMIN
 10
-574.8014653454222
 20
-2019.683785579313
 30
-0.0015258207003583
  9
$EXTMAX
 10
-214.9024927949326
 20
-1740.330893000109
 30
0.0000000349246037
  9
$LIMMIN
 10
36.5367069936281
 20
113.324853577772
  9
$LIMMAX
 10
338.3638017977693
 20
295.4885977298598
  9
$ORTHOMODE
 70
     0
  9
$REGENMODE
 70
     1
  9
$FILLMODE
 70
     1
  9
$QTEXTMODE
 70
     0
  9
$MIRRTEXT
 70
     1
  9
$LTSCALE
 40
1.0
  9
$ATTMODE
 70
     1
  9
$TEXTSIZE
 40
3.5
  9
$TRACEWID
 40
0.5
  9
$TEXTSTYLE
  7
STANDARD
  9
$CLAYER
  8
text3
  9
$CELTYPE
  6
ByLayer
  9
$CECOLOR
 62
   256
  9
$CELTSCALE
 40
1.0
  9
$DISPSILH
 70
     0
  9
$DIMSCALE
 40
1.0
  9
$DIMASZ
 40
5.0
  9
$DIMEXO
 40
2.0
  9
$DIMDLI
 40
0.38
  9
$DIMRND
 40
0.0
  9
$DIMDLE
 40
0.0
  9
$DIMEXE
 40
0.18
  9
$DIMTP
 40
0.0
  9
$DIMTM
 40
0.0
  9
$DIMTXT
 40
4.0
  9
$DIMCEN
 40
1.0
  9
$DIMTSZ
 40
0.0
  9
$DIMTOL
 70
     0
  9
$DIMLIM
 70
     0
  9
$DIMTIH
 70
     0
  9
$DIMTOH
 70
     0
  9
$DIMSE1
 70
     0
  9
$DIMSE2
 70
     0
  9
$DIMTAD
 70
     1
  9
$DIMZIN
 70
     8
  9
$DIMBLK
  1

  9
$DIMASO
 70
     1
  9
$DIMSHO
 70
     1
  9
$DIMPOST
  1

  9
$DIMAPOST
  1

  9
$DIMALT
 70
     0
  9
$DIMALTD
 70
     2
  9
$DIMALTF
 40
25.4
  9
$DIMLFAC
 40
1.0
  9
$DIMTOFL
 70
     0
  9
$DIMTVP
 40
0.0
  9
$DIMTIX
 70
     0
  9
$DIMSOXD
 70
     0
  9
$DIMSAH
 70
     0
  9
$DIMBLK1
  1

  9
$DIMBLK2
  1

  9
$DIMSTYLE
  2
DMST_1
  9
$DIMCLRD
 70
     0
  9
$DIMCLRE
 70
     0
  9
$DIMCLRT
 70
     0
  9
$DIMTFAC
 40
1.0
  9
$DIMGAP
 40
1.5
  9
$DIMJUST
 70
     0
  9
$DIMSD1
 70
     0
  9
$DIMSD2
 70
     0
  9
$DIMTOLJ
 70
     1
  9
$DIMTZIN
 70
     0
  9
$DIMALTZ
 70
     0
  9
$DIMALTTZ
 70
     0
  9
$DIMUPT
 70
     0
  9
$DIMDEC
 70
     4
  9
$DIMTDEC
 70
     4
  9
$DIMALTU
 70
     2
  9
$DIMALTTD
 70
     2
  9
$DIMTXSTY
  7
STANDARD
  9
$DIMAUNIT
 70
     0
  9
$DIMADEC
 70
     2
  9
$DIMALTRND
 40
0.0
  9
$DIMAZIN
 70
     2
  9
$DIMDSEP
 70
    46
  9
$DIMATFIT
 70
     3
  9
$DIMFRAC
 70
     0
  9
$DIMLDRBLK
  1

  9
$DIMLUNIT
 70
     2
  9
$DIMLWD
 70
    -2
  9
$DIMLWE
 70
    -2
  9
$DIMTMOVE
 70
     0
  9
$LUNITS
 70
     2
  9
$LUPREC
 70
     4
  9
$SKETCHINC
 40
0.1
  9
$FILLETRAD
 40
5.0
  9
$AUNITS
 70
     0
  9
$AUPREC
 70
     0
  9
$MENU
  1
ACAD
  9
$ELEVATION
 40
0.0
  9
$PELEVATION
 40
0.0
  9
$THICKNESS
 40
0.0
  9
$LIMCHECK
 70
     0
  9
$CHAMFERA
 40
0.0
  9
$CHAMFERB
 40
0.0
  9
$CHAMFERC
 40
0.0
  9
$CHAMFERD
 40
0.0
  9
$SKPOLY
 70
     0
  9
$TDCREATE
 40
2453781.394197072
  9
$TDUCREATE
 40
2453781.019197072
  9
$TDUPDATE
 40
2454463.601904294
  9
$TDUUPDATE
 40
2454463.226904294
  9
$TDINDWG
 40
2.0177181366
  9
$TDUSRTIMER
 40
2.0177175579
  9
$USRTIMER
 70
     1
  9
$ANGBASE
 50
0.0
  9
$ANGDIR
 70
     0
  9
$PDMODE
 70
     0
  9
$PDSIZE
 40
0.0
  9
$PLINEWID
 40
0.0
  9
$SPLFRAME
 70
     0
  9
$SPLINETYPE
 70
     6
  9
$SPLINESEGS
 70
     8
  9
$HANDSEED
  5
AD2
  9
$SURFTAB1
 70
     6
  9
$SURFTAB2
 70
     6
  9
$SURFTYPE
 70
     6
  9
$SURFU
 70
     6
  9
$SURFV
 70
     6
  9
$UCSBASE
  2

  9
$UCSNAME
  2

  9
$UCSORG
 10
0.0
 20
0.0
 30
0.0
  9
$UCSXDIR
 10
1.0
 20
0.0
 30
0.0
  9
$UCSYDIR
 10
0.0
 20
1.0
 30
0.0
  9
$UCSORTHOREF
  2

  9
$UCSORTHOVIEW
 70
     0
  9
$UCSORGTOP
 10
0.0
 20
0.0
 30
0.0
  9
$UCSORGBOTTOM
 10
0.0
 20
0.0
 30
0.0
  9
$UCSORGLEFT
 10
0.0
 20
0.0
 30
0.0
  9
$UCSORGRIGHT
 10
0.0
 20
0.0
 30
0.0
  9
$UCSORGFRONT
 10
0.0
 20
0.0
 30
0.0
  9
$UCSORGBACK
 10
0.0
 20
0.0
 30
0.0
  9
$PUCSBASE
  2

  9
$PUCSNAME
  2

  9
$PUCSORG
 10
0.0
 20
0.0
 30
0.0
  9
$PUCSXDIR
 10
1.0
 20
0.0
 30
0.0
  9
$PUCSYDIR
 10
0.0
 20
1.0
 30
0.0
  9
$PUCSORTHOREF
  2

  9
$PUCSORTHOVIEW
 70
     0
  9
$PUCSORGTOP
 10
0.0
 20
0.0
 30
0.0
  9
$PUCSORGBOTTOM
 10
0.0
 20
0.0
 30
0.0
  9
$PUCSORGLEFT
 10
0.0
 20
0.0
 30
0.0
  9
$PUCSORGRIGHT
 10
0.0
 20
0.0
 30
0.0
  9
$PUCSORGFRONT
 10
0.0
 20
0.0
 30
0.0
  9
$PUCSORGBACK
 10
0.0
 20
0.0
 30
0.0
  9
$USERI1
 70
     0
  9
$USERI2
 70
     0
  9
$USERI3
 70
     0
  9
$USERI4
 70
     0
  9
$USERI5
 70
     0
  9
$USERR1
 40
0.0
  9
$USERR2
 40
0.0
  9
$USERR3
 40
0.0
  9
$USERR4
 40
0.0
  9
$USERR5
 40
0.0
  9
$WORLDVIEW
 70
     1
  9
$SHADEDGE
 70
     3
  9
$SHADEDIF
 70
    70
  9
$TILEMODE
 70
     1
  9
$MAXACTVP
 70
    64
  9
$PINSBASE
 10
0.0
 20
0.0
 30
0.0
  9
$PLIMCHECK
 70
     0
  9
$PEXTMIN
 10
1.000000000000000E+20
 20
1.000000000000000E+20
 30
1.000000000000000E+20
  9
$PEXTMAX
 10
-1.000000000000000E+20
 20
-1.000000000000000E+20
 30
-1.000000000000000E+20
  9
$PLIMMIN
 10
0.0
 20
0.0
  9
$PLIMMAX
 10
12.0
 20
9.0
  9
$UNITMODE
 70
     0
  9
$VISRETAIN
 70
     1
  9
$PLINEGEN
 70
     0
  9
$PSLTSCALE
 70
     1
  9
$TREEDEPTH
 70
  3020
  9
$CMLSTYLE
  2
Standard
  9
$CMLJUST
 70
     0
  9
$CMLSCALE
 40
1.0
  9
$PROXYGRAPHICS
 70
     1
  9
$MEASUREMENT
 70
     0
  9
$CELWEIGHT
370
    -1
  9
$ENDCAPS
280
     0
  9
$JOINSTYLE
280
     0
  9
$LWDISPLAY
290
     0
  9
$INSUNITS
 70
     0
  9
$HYPERLINKBASE
  1

  9
$STYLESHEET
  1
monochrome.ctb
  9
$XEDIT
290
     1
  9
$CEPSNTYPE
380
     0
  9
$PSTYLEMODE
290
     1
  9
$FINGERPRINTGUID
  2
{0E1C3B67-B1A7-47AE-8141-559CC396A0AE}
  9
$VERSIONGUID
  2
{421DF6B5-CCDC-4C81-A6BD-6ADB18AE5335}
  9
$EXTNAMES
290
     1
  9
$PSVPSCALE
 40
0.0
  9
$OLESTARTUP
290
     0
  0
ENDSEC
  0
SECTION
  2
CLASSES
  0
CLASS
  1
ACDBDICTIONARYWDFLT
  2
AcDbDictionaryWithDefault
  3
AutoCAD 2000
 90
        0
280
     0
281
     0
  0
CLASS
  1
ACDBPLACEHOLDER
  2
AcDbPlaceHolder
  3
AutoCAD 2000
 90
        0
280
     0
281
     0
  0
CLASS
  1
LAYOUT
  2
AcDbLayout
  3
AutoCAD 2000
 90
        0
280
     0
281
     0
  0
CLASS
  1
DICTIONARYVAR
  2
AcDbDictionaryVar
  3
AutoCAD 2000
 90
        0
280
     0
281
     0
  0
CLASS
  1
DIMASSOC
  2
AcDbDimAssoc
  3
"AcDbDimAssoc|Product Desc:     AcDim ARX App For Dimension|Company:          Autodesk, Inc.|WEB Address:      www.autodesk.com"
 90
    32768
280
     0
281
     0
  0
ENDSEC
  0
SECTION
  2
TABLES
  0
TABLE
  2
VPORT
  5
19
330
0
100
AcDbSymbolTable
 70
     4
  0
VPORT
  5
AD1
330
19
100
AcDbSymbolTableRecord
100
AcDbViewportTableRecord
  2
*Active
 70
     0
 10
0.0
 20
0.0
 11
1.0
 21
1.0
 12
-378.4018972531328
 22
-1882.379446778863
 13
0.0
 23
0.0
 14
1.0
 24
1.0
 15
0.0
 25
0.0
 16
0.0
 26
0.0
 36
1.0
 17
0.0
 27
0.0
 37
0.0
 40
302.2354556619089
 41
2.612068965517241
 42
50.0
 43
0.0
 44
0.0
 50
0.0
 51
0.0
 71
     0
 72
   100
 73
     1
 74
     1
 75
     0
 76
     0
 77
     0
 78
     0
281
     0
 65
     1
110
0.0
120
0.0
130
0.0
111
1.0
121
0.0
131
0.0
112
0.0
122
1.0
132
0.0
 79
     0
146
0.0
  0
ENDTAB
  0
TABLE
  2
LTYPE
  5
14
330
0
100
AcDbSymbolTable
 70
     6
  0
LTYPE
  5
15
330
14
100
AcDbSymbolTableRecord
100
AcDbLinetypeTableRecord
  2
ByBlock
 70
     0
  3

 72
    65
 73
     0
 40
0.0
  0
LTYPE
  5
16
330
14
100
AcDbSymbolTableRecord
100
AcDbLinetypeTableRecord
  2
ByLayer
 70
     0
  3

 72
    65
 73
     0
 40
0.0
  0
LTYPE
  5
8
330
14
100
AcDbSymbolTableRecord
100
AcDbLinetypeTableRecord
  2
CONTINUOUS
 70
     0
  3
Solid line
 72
    65
 73
     0
 40
0.0
  0
LTYPE
  5
A7
330
14
100
AcDbSymbolTableRecord
100
AcDbLinetypeTableRecord
  2
CENTER
 70
     0
  3
____ _ ____ _
 72
    65
 73
     4
 40
15.88563656863898
 49
9.928522855399382
 74
     0
 49
-1.985704571079876
 74
     0
 49
1.985704571079876
 74
     0
 49
-1.985704571079876
 74
     0
  0
LTYPE
  5
BC
330
14
100
AcDbSymbolTableRecord
100
AcDbLinetypeTableRecord
  2
HIDDEN
 70
     0
  3
_ _ _ _ _ _ _
 72
    65
 73
     2
 40
2.978556856619814
 49
1.985704571079876
 74
     0
 49
-0.9928522855399382
 74
     0
  0
LTYPE
  5
1FE
330
14
100
AcDbSymbolTableRecord
100
AcDbLinetypeTableRecord
  2
DOT_CENTER
 70
     0
  3
Dot_Center
 72
    65
 73
     4
 40
14.0
 49
12.0
 74
     0
 49
-1.0
 74
     0
 49
0.0
 74
     0
 49
-1.0
 74
     0
  0
LTYPE
  5
87
330
14
100
AcDbSymbolTableRecord
100
AcDbLinetypeTableRecord
  2
BORDER
 70
     0
  3
__ __ . __ __ .
 72
    65
 73
     6
 40
13.89993199755913
 49
3.971409142159752
 74
     0
 49
-1.985704571079876
 74
     0
 49
3.971409142159752
 74
     0
 49
-1.985704571079876
 74
     0
 49
0.0
 74
     0
 49
-1.985704571079876
 74
     0
  0
LTYPE
  5
89
330
14
100
AcDbSymbolTableRecord
100
AcDbLinetypeTableRecord
  2
DASH_CENTER
 70
     0
  3
Dash_Center
 72
    65
 73
     4
 40
14.0
 49
11.0
 74
     0
 49
-1.0
 74
     0
 49
1.0
 74
     0
 49
-1.0
 74
     0
  0
ENDTAB
  0
TABLE
  2
LAYER
  5
10
102
{ACAD_XDICTIONARY
360
3D8
102
}
330
0
100
AcDbSymbolTable
 70
    14
  0
LAYER
  5
4
330
10
100
AcDbSymbolTableRecord
100
AcDbLayerTableRecord
  2
0
 70
     0
 62
     7
  6
CONTINUOUS
370
    -3
390
5
  0
LAYER
  5
7E
330
10
100
AcDbSymbolTableRecord
100
AcDbLayerTableRecord
  2
1
 70
     0
 62
     7
  6
CONTINUOUS
370
    -3
390
5
  0
LAYER
  5
2E
330
10
100
AcDbSymbolTableRecord
100
AcDbLayerTableRecord
  2
Defpoints
 70
     0
 62
     7
  6
CONTINUOUS
290
     0
370
    -3
390
5
  0
LAYER
  5
A6
330
10
100
AcDbSymbolTableRecord
100
AcDbLayerTableRecord
  2
Center
 70
     0
 62
     1
  6
CONTINUOUS
370
    25
390
5
  0
LAYER
  5
4E
330
10
100
AcDbSymbolTableRecord
100
AcDbLayerTableRecord
  2
Object
 70
     0
 62
     7
  6
CONTINUOUS
370
    25
390
5
  0
LAYER
  5
26A
330
10
100
AcDbSymbolTableRecord
100
AcDbLayerTableRecord
  2
Hidden
 70
     0
 62
     4
  6
CONTINUOUS
370
    25
390
5
  0
LAYER
  5
12D
330
10
100
AcDbSymbolTableRecord
100
AcDbLayerTableRecord
  2
Text
 70
     0
 62
     3
  6
CONTINUOUS
370
    -3
390
5
  0
LAYER
  5
86
330
10
100
AcDbSymbolTableRecord
100
AcDbLayerTableRecord
  2
Object2
 70
     0
 62
     3
  6
CONTINUOUS
370
    -3
390
5
  0
LAYER
  5
20A
330
10
100
AcDbSymbolTableRecord
100
AcDbLayerTableRecord
  2
DIM
 70
     0
 62
     6
  6
CONTINUOUS
370
    -3
390
5
  0
LAYER
  5
BB
330
10
100
AcDbSymbolTableRecord
100
AcDbLayerTableRecord
  2
HIDDEN-1
 70
     0
 62
     7
  6
HIDDEN
370
    -3
390
5
  0
LAYER
  5
23
330
10
100
AcDbSymbolTableRecord
100
AcDbLayerTableRecord
  2
text3
 70
     0
 62
     2
  6
CONTINUOUS
370
    -3
390
5
  0
LAYER
  5
25E
330
10
100
AcDbSymbolTableRecord
100
AcDbLayerTableRecord
  2
画層1
 70
     0
 62
     7
  6
CONTINUOUS
370
    -3
390
5
  0
LAYER
  5
EC
330
10
100
AcDbSymbolTableRecord
100
AcDbLayerTableRecord
  2
object-1
 70
     0
 62
     7
  6
CONTINUOUS
370
    -3
390
5
  0
LAYER
  5
3D6
330
10
100
AcDbSymbolTableRecord
100
AcDbLayerTableRecord
  2
Dims
 70
     0
 62
     6
  6
CONTINUOUS
370
    25
390
5
  0
ENDTAB
  0
TABLE
  2
STYLE
  5
11
330
0
100
AcDbSymbolTable
 70
     3
  0
STYLE
  5
12
330
11
100
AcDbSymbolTableRecord
100
AcDbTextStyleTableRecord
  2
STANDARD
 70
     0
 40
0.0
 41
1.0
 50
0.0
 71
     0
 42
3.5
  3
txt.shx
  4
bigfont.shx
  0
STYLE
  5
5B
330
11
100
AcDbSymbolTableRecord
100
AcDbTextStyleTableRecord
  2
Roman
 70
     0
 40
0.0
 41
1.0
 50
0.0
 71
     0
 42
4.0
  3
romans.shx
  4
bigfont.shx
  0
STYLE
  5
3D7
330
11
100
AcDbSymbolTableRecord
100
AcDbTextStyleTableRecord
  2
GDT
 70
     0
 40
0.0
 41
1.0
 50
0.0
 71
     0
 42
4.0
  3
gdt.shx
  4
bigfont.shx
  0
ENDTAB
  0
TABLE
  2
VIEW
  5
17
330
0
100
AcDbSymbolTable
 70
     0
  0
ENDTAB
  0
TABLE
  2
UCS
  5
18
330
0
100
AcDbSymbolTable
 70
     0
  0
ENDTAB
  0
TABLE
  2
APPID
  5
1B
330
0
100
AcDbSymbolTable
 70
     1
  0
APPID
  5
1C
330
1B
100
AcDbSymbolTableRecord
100
AcDbRegAppTableRecord
  2
ACAD
 70
     0
  0
ENDTAB
  0
TABLE
  2
DIMSTYLE
  5
1D
330
0
100
AcDbSymbolTable
 70
     1
100
AcDbDimStyleTable
 71
     1
340
1E
  0
DIMSTYLE
105
1E
102
{ACAD_REACTORS
330
17B
330
69
330
216
330
2C5
330
188
330
2B8
330
40
330
33
330
5C
330
13E
330
130
330
25
330
668
330
7E4
330
7E6
330
7F0
330
7F1
330
7F2
330
7F3
330
80B
330
80C
330
825
330
82B
330
82C
330
837
330
83F
330
85D
330
A85
102
}
330
1D
100
AcDbSymbolTableRecord
100
AcDbDimStyleTableRecord
  2
DMST_1
 70
     0
 41
3.5
 42
1.0
 43
7.0
 44
1.5
 47
0.1
 48
0.1
 71
     1
 73
     0
 74
     0
 77
     1
 78
     9
140
3.5
141
0.0
146
0.7
176
     2
177
     2
178
     2
279
     2
340
12
  0
ENDTAB
  0
TABLE
  2
BLOCK_RECORD
  5
1
330
0
100
AcDbSymbolTable
 70
    31
  0
BLOCK_RECORD
  5
2
330
1
100
AcDbSymbolTableRecord
100
AcDbBlockTableRecord
  2
*Model_Space
340
A
  0
BLOCK_RECORD
  5
C
330
1
100
AcDbSymbolTableRecord
100
AcDbBlockTableRecord
  2
*Paper_Space
340
F
  0
BLOCK_RECORD
  5
217
330
1
100
AcDbSymbolTableRecord
100
AcDbBlockTableRecord
  2
*D0
340
0
  0
BLOCK_RECORD
  5
2C6
330
1
100
AcDbSymbolTableRecord
100
AcDbBlockTableRecord
  2
*D1
340
0
  0
BLOCK_RECORD
  5
2B9
330
1
100
AcDbSymbolTableRecord
100
AcDbBlockTableRecord
  2
*D2
340
0
  0
BLOCK_RECORD
  5
41
330
1
100
AcDbSymbolTableRecord
100
AcDbBlockTableRecord
  2
*D3
340
0
  0
BLOCK_RECORD
  5
34
330
1
100
AcDbSymbolTableRecord
100
AcDbBlockTableRecord
  2
*D4
340
0
  0
BLOCK_RECORD
  5
13F
330
1
100
AcDbSymbolTableRecord
100
AcDbBlockTableRecord
  2
*D5
340
0
  0
BLOCK_RECORD
  5
131
330
1
100
AcDbSymbolTableRecord
100
AcDbBlockTableRecord
  2
*D6
340
0
  0
BLOCK_RECORD
  5
26
330
1
100
AcDbSymbolTableRecord
100
AcDbBlockTableRecord
  2
*D7
340
0
  0
BLOCK_RECORD
  5
33D
330
1
100
AcDbSymbolTableRecord
100
AcDbBlockTableRecord
  2
*D8
340
0
  0
BLOCK_RECORD
  5
349
330
1
100
AcDbSymbolTableRecord
100
AcDbBlockTableRecord
  2
*D9
340
0
  0
BLOCK_RECORD
  5
356
330
1
100
AcDbSymbolTableRecord
100
AcDbBlockTableRecord
  2
*D10
340
0
  0
BLOCK_RECORD
  5
363
330
1
100
AcDbSymbolTableRecord
100
AcDbBlockTableRecord
  2
*D11
340
0
  0
BLOCK_RECORD
  5
37A
330
1
100
AcDbSymbolTableRecord
100
AcDbBlockTableRecord
  2
1-178128-4-jo1
340
0
310
2800000020000000200000000100080000000000000400000000000000000000000000000000000000000000000080000080000000808000800000008000800080800000C0C0C000C0DCC000F0CAA6000020400000206000002080000020A0000020C0000020E00000400000004020000040400000406000004080000040A0
310
000040C0000040E00000600000006020000060400000606000006080000060A0000060C0000060E00000800000008020000080400000806000008080000080A0000080C0000080E00000A0000000A0200000A0400000A0600000A0800000A0A00000A0C00000A0E00000C0000000C0200000C0400000C0600000C0800000C0
310
A00000C0C00000C0E00000E0000000E0200000E0400000E0600000E0800000E0A00000E0C00000E0E00040000000400020004000400040006000400080004000A0004000C0004000E00040200000402020004020400040206000402080004020A0004020C0004020E000404000004040200040404000404060004040800040
310
40A0004040C0004040E00040600000406020004060400040606000406080004060A0004060C0004060E00040800000408020004080400040806000408080004080A0004080C0004080E00040A0000040A0200040A0400040A0600040A0800040A0A00040A0C00040A0E00040C0000040C0200040C0400040C0600040C08000
310
40C0A00040C0C00040C0E00040E0000040E0200040E0400040E0600040E0800040E0A00040E0C00040E0E00080000000800020008000400080006000800080008000A0008000C0008000E00080200000802020008020400080206000802080008020A0008020C0008020E00080400000804020008040400080406000804080
310
008040A0008040C0008040E00080600000806020008060400080606000806080008060A0008060C0008060E00080800000808020008080400080806000808080008080A0008080C0008080E00080A0000080A0200080A0400080A0600080A0800080A0A00080A0C00080A0E00080C0000080C0200080C0400080C0600080C0
310
800080C0A00080C0C00080C0E00080E0000080E0200080E0400080E0600080E0800080E0A00080E0C00080E0E000C0000000C0002000C0004000C0006000C0008000C000A000C000C000C000E000C0200000C0202000C0204000C0206000C0208000C020A000C020C000C020E000C0400000C0402000C0404000C0406000C0
310
408000C040A000C040C000C040E000C0600000C0602000C0604000C0606000C0608000C060A000C060C000C060E000C0800000C0802000C0804000C0806000C0808000C080A000C080C000C080E000C0A00000C0A02000C0A04000C0A06000C0A08000C0A0A000C0A0C000C0A0E000C0C00000C0C02000C0C04000C0C06000
310
C0C08000C0C0A000F0FBFF00A4A0A000808080000000FF0000FF000000FFFF00FF000000FF00FF00FFFF0000FFFFFF0000000000000000000000000000000000000000000000000000000000000000000000000000000000000000000000000000000000000000000000000000000000000000000000000000000000000000
310
0000000000000000000000000000000000000000000000000000000000000000000000000000000000000000000000000000000000000000000000000000000000000000000000000000000000000000000000000000000000000000000000000000000000000000000000000000000000000000000000FFFFFFFFFFFFFFF9
310
FFFFFFFFFFFFFFFFFFFFFFFF000000000000000000000000FF0000F9FFFFFFF9FFFFF9FFF9FFFF00F90000FF000000000000000000000000FF0000F9FFFFFFF9FFFFF9FFF9FFFF00F90000FF000000000000000000000000FF0000F9FFFFFFF9FFFFF9FFF9FFFF00F90000FF000000000000000000000000FF0000F9FFFFFF
310
F9FFFFF9FFF9FFFF00F90000FF000000000000000000000000FF0000F9FFFFFFF9FFFFF9FFF9FFFF00F90000FF000000000000000000000000FF0000F9FFFFFFF9FFFFF9FFF9FFFF00F90000FF000000000000000000000000FF0000F9FFFFFFF9FFFFF9FFF9FFFF00F90000FF000000000000000000000000FF0000F9FFFF
310
FFF9FFFFF9FFF9FFFF00F90000FF000000000000000000000000FF0000F9FFFFFFF9FFFFF9FFF9FFFF00F90000FF0000000000000000000000FFFF0000F9FFFFFFF9FFFFFFFFF9FFFF00F90000FFFF00000000000000000000FFFF0000F9FF00FFF9FF00F9FFF9FFFF00F9FAFFFAFF00000000000000000000FFFF0000F9FF
310
00FFF9FF00F9FFF9FFFF00F9FAFFFAFF000000000000000000FFFFFFFFFFF9FFFFFFF9FFFFF9FFF9FFFFFFF9FAFAFAFFFF00000000000000FF00FFFAFAFAFAFAFA00000000F90000000000FAFAFAFAFF00FF00000000FFFFFA00FFFA00FFFFFFFA00000000F90000000000FFFFFFFAFF00FAFFFF0000FFFAFAFFFFFFFAFAFA
310
FAFA00000000F90000000000FAFAFAFFFFFFFAFAFF0000FFFAFAFF00FF0000FFFA0000FAFA00F9FFFF0000FAFF0000FF00FFFAFAFF0000FFFFFFFF00FF0000FFFF0000FAFA00F9FFFF0000FAFF0000FF00FFFFFFFF0000000000FFFFFFFFFFFFFFFFFFFFFFFFF9FFFFFFFFFFFFFFFFFFFFFF00000000000000000000000000
310
00000000000000000000000000000000000000000000000000000000000000000000000000000000000000000000000000000000000000000000000000000000000000000000000000000000000000000000000000000000000000000000000000000000000000000000000000000000000000000000000000000000000000
310
0000000000000000000000000000000000000000000000000000000000000000000000000000000000000000000000000000000000000000
102
{BLKREFS
331
5BD
102
}
  0
BLOCK_RECORD
  5
669
330
1
100
AcDbSymbolTableRecord
100
AcDbBlockTableRecord
  2
*D13
340
0
  0
BLOCK_RECORD
  5
87A
330
1
100
AcDbSymbolTableRecord
100
AcDbBlockTableRecord
  2
*D14
340
0
  0
BLOCK_RECORD
  5
887
330
1
100
AcDbSymbolTableRecord
100
AcDbBlockTableRecord
  2
*D15
340
0
  0
BLOCK_RECORD
  5
894
330
1
100
AcDbSymbolTableRecord
100
AcDbBlockTableRecord
  2
*D16
340
0
  0
BLOCK_RECORD
  5
8A0
330
1
100
AcDbSymbolTableRecord
100
AcDbBlockTableRecord
  2
*D17
340
0
  0
BLOCK_RECORD
  5
8AD
330
1
100
AcDbSymbolTableRecord
100
AcDbBlockTableRecord
  2
*D18
340
0
  0
BLOCK_RECORD
  5
8BA
330
1
100
AcDbSymbolTableRecord
100
AcDbBlockTableRecord
  2
*D19
340
0
  0
BLOCK_RECORD
  5
8C7
330
1
100
AcDbSymbolTableRecord
100
AcDbBlockTableRecord
  2
*D20
340
0
  0
BLOCK_RECORD
  5
8D3
330
1
100
AcDbSymbolTableRecord
100
AcDbBlockTableRecord
  2
*D21
340
0
  0
BLOCK_RECORD
  5
8DF
330
1
100
AcDbSymbolTableRecord
100
AcDbBlockTableRecord
  2
*D22
340
0
  0
BLOCK_RECORD
  5
8EC
330
1
100
AcDbSymbolTableRecord
100
AcDbBlockTableRecord
  2
*D23
340
0
  0
BLOCK_RECORD
  5
8F9
330
1
100
AcDbSymbolTableRecord
100
AcDbBlockTableRecord
  2
*D24
340
0
  0
BLOCK_RECORD
  5
906
330
1
100
AcDbSymbolTableRecord
100
AcDbBlockTableRecord
  2
*D25
340
0
  0
BLOCK_RECORD
  5
912
330
1
100
AcDbSymbolTableRecord
100
AcDbBlockTableRecord
  2
*D26
340
0
  0
BLOCK_RECORD
  5
91E
330
1
100
AcDbSymbolTableRecord
100
AcDbBlockTableRecord
  2
*D27
340
0
  0
BLOCK_RECORD
  5
A86
330
1
100
AcDbSymbolTableRecord
100
AcDbBlockTableRecord
  2
*D28
340
0
  0
ENDTAB
  0
ENDSEC
  0
SECTION
  2
BLOCKS
  0
BLOCK
  5
3
330
2
100
AcDbEntity
  8
0
100
AcDbBlockBegin
  2
*Model_Space
 70
     0
 10
0.0
 20
0.0
 30
0.0
  3
*Model_Space
  1

  0
ENDBLK
  5
9
330
2
100
AcDbEntity
  8
0
100
AcDbBlockEnd
  0
BLOCK
  5
D
330
C
100
AcDbEntity
 67
     1
  8
0
100
AcDbBlockBegin
  2
*Paper_Space
 70
     0
 10
0.0
 20
0.0
 30
0.0
  3
*Paper_Space
  1

  0
ENDBLK
  5
E
330
C
100
AcDbEntity
 67
     1
  8
0
100
AcDbBlockEnd
  0
BLOCK
  5
222
330
217
100
AcDbEntity
  8
0
100
AcDbBlockBegin
  2
*D0
 70
     1
 10
0.0
 20
0.0
 30
0.0
  3
*D0
  1

  0
LINE
  5
218
330
217
100
AcDbEntity
  8
text3
 62
     0
370
    -2
100
AcDbLine
 10
-394.3834821881427
 20
-1887.433959511519
 30
0.0
 11
-394.3834821881427
 21
-1905.846379545746
 31
0.0
  0
LINE
  5
219
330
217
100
AcDbEntity
  8
text3
 62
     0
370
    -2
100
AcDbLine
 10
-400.3834821881429
 20
-1887.433959511519
 30
0.0
 11
-400.3834821881429
 21
-1905.846379545746
 31
0.0
  0
LINE
  5
21A
330
217
100
AcDbEntity
  8
text3
 62
     0
370
    -2
100
AcDbLine
 10
-405.3834821881427
 20
-1900.846379545744
 30
0.0
 11
-410.3834821881427
 21
-1900.846379545744
 31
0.0
  0
LINE
  5
21B
330
217
100
AcDbEntity
  8
text3
 62
     0
370
    -2
100
AcDbLine
 10
-389.3834821881427
 20
-1900.846379545744
 30
0.0
 11
-378.7168155214762
 21
-1900.846379545744
 31
0.0
  0
SOLID
  5
21C
330
217
100
AcDbEntity
  8
text3
 62
     0
100
AcDbTrace
 10
-405.3834821881427
 20
-1900.013046212412
 30
0.0
 11
-405.3834821881427
 21
-1901.679712879079
 31
0.0
 12
-400.3834821881429
 22
-1900.846379545744
 32
0.0
 13
-400.3834821881429
 23
-1900.846379545744
 33
0.0
  0
SOLID
  5
21D
330
217
100
AcDbEntity
  8
text3
 62
     0
100
AcDbTrace
 10
-389.3834821881427
 20
-1900.013046212412
 30
0.0
 11
-389.3834821881427
 21
-1901.679712879079
 31
0.0
 12
-394.3834821881427
 22
-1900.846379545744
 32
0.0
 13
-394.3834821881427
 23
-1900.846379545744
 33
0.0
  0
MTEXT
  5
21E
330
217
100
AcDbEntity
  8
text3
 62
     0
100
AcDbMText
 10
-381.5501488548095
 20
-1897.346379545744
 30
0.0
 40
4.0
 41
0.0
 71
     5
 72
     1
  1
\A1;6
 73
     1
 44
1.0
  0
POINT
  5
21F
330
217
100
AcDbEntity
  8
Defpoints
 62
     0
100
AcDbPoint
 10
-394.3834821881427
 20
-1885.433959511519
 30
0.0
  0
POINT
  5
220
330
217
100
AcDbEntity
  8
Defpoints
 62
     0
100
AcDbPoint
 10
-400.3834821881429
 20
-1885.433959511519
 30
0.0
  0
POINT
  5
221
330
217
100
AcDbEntity
  8
Defpoints
 62
     0
100
AcDbPoint
 10
-400.3834821881429
 20
-1900.846379545744
 30
0.0
  0
ENDBLK
  5
223
330
217
100
AcDbEntity
  8
0
100
AcDbBlockEnd
  0
BLOCK
  5
2D0
330
2C6
100
AcDbEntity
  8
0
100
AcDbBlockBegin
  2
*D1
 70
     1
 10
0.0
 20
0.0
 30
0.0
  3
*D1
  1

  0
LINE
  5
2C7
330
2C6
100
AcDbEntity
  8
text3
 62
     0
370
    -2
100
AcDbLine
 10
-306.1177162003924
 20
-1885.433959511519
 30
0.0
 11
-279.680656677738
 21
-1885.433959511519
 31
0.0
  0
LINE
  5
2C8
330
2C6
100
AcDbEntity
  8
text3
 62
     0
370
    -2
100
AcDbLine
 10
-306.1177162003924
 20
-1773.633959511519
 30
0.0
 11
-279.680656677738
 21
-1773.633959511519
 31
0.0
  0
LINE
  5
2C9
330
2C6
100
AcDbEntity
  8
text3
 62
     0
370
    -2
100
AcDbLine
 10
-284.6806566777378
 20
-1880.43395951152
 30
0.0
 11
-284.6806566777378
 21
-1778.633959511521
 31
0.0
  0
SOLID
  5
2CA
330
2C6
100
AcDbEntity
  8
text3
 62
     0
100
AcDbTrace
 10
-285.5139900110713
 20
-1880.43395951152
 30
0.0
 11
-283.8473233444046
 21
-1880.43395951152
 31
0.0
 12
-284.6806566777378
 22
-1885.433959511519
 32
0.0
 13
-284.6806566777378
 23
-1885.433959511519
 33
0.0
  0
SOLID
  5
2CB
330
2C6
100
AcDbEntity
  8
text3
 62
     0
100
AcDbTrace
 10
-285.5139900110713
 20
-1778.633959511521
 30
0.0
 11
-283.8473233444046
 21
-1778.633959511521
 31
0.0
 12
-284.6806566777378
 22
-1773.633959511519
 32
0.0
 13
-284.6806566777378
 23
-1773.633959511519
 33
0.0
  0
MTEXT
  5
2CC
330
2C6
100
AcDbEntity
  8
text3
 62
     0
100
AcDbMText
 10
-288.1806566777377
 20
-1829.533959511521
 30
0.0
 40
4.0
 41
0.0
 71
     5
 72
     1
  1
\A1;112±1
 11
0.0000000000000001
 21
1.0
 31
0.0
 73
     1
 44
1.0
  0
POINT
  5
2CD
330
2C6
100
AcDbEntity
  8
Defpoints
 62
     0
100
AcDbPoint
 10
-308.1177162003924
 20
-1885.433959511519
 30
0.0
  0
POINT
  5
2CE
330
2C6
100
AcDbEntity
  8
Defpoints
 62
     0
100
AcDbPoint
 10
-308.1177162003924
 20
-1773.633959511519
 30
0.0
  0
POINT
  5
2CF
330
2C6
100
AcDbEntity
  8
Defpoints
 62
     0
100
AcDbPoint
 10
-284.6806566777378
 20
-1773.633959511519
 30
0.0
  0
ENDBLK
  5
2D1
330
2C6
100
AcDbEntity
  8
0
100
AcDbBlockEnd
  0
BLOCK
  5
2C3
330
2B9
100
AcDbEntity
  8
0
100
AcDbBlockBegin
  2
*D2
 70
     1
 10
0.0
 20
0.0
 30
0.0
  3
*D2
  1

  0
LINE
  5
2BA
330
2B9
100
AcDbEntity
  8
text3
 62
     0
370
    -2
100
AcDbLine
 10
-310.2834821881296
 20
-1773.633959511519
 30
0.0
 11
-290.3440971025645
 21
-1773.633959511519
 31
0.0
  0
LINE
  5
2BB
330
2B9
100
AcDbEntity
  8
text3
 62
     0
370
    -2
100
AcDbLine
 10
-310.2834821881302
 20
-1880.633959511519
 30
0.0
 11
-290.3440971025645
 21
-1880.633959511519
 31
0.0
  0
LINE
  5
2BC
330
2B9
100
AcDbEntity
  8
text3
 62
     0
370
    -2
100
AcDbLine
 10
-295.3440971025644
 20
-1778.633959511519
 30
0.0
 11
-295.3440971025644
 21
-1875.63395951152
 31
0.0
  0
SOLID
  5
2BD
330
2B9
100
AcDbEntity
  8
text3
 62
     0
100
AcDbTrace
 10
-296.1774304358978
 20
-1778.633959511519
 30
0.0
 11
-294.5107637692311
 21
-1778.633959511519
 31
0.0
 12
-295.3440971025644
 22
-1773.633959511519
 32
0.0
 13
-295.3440971025644
 23
-1773.633959511519
 33
0.0
  0
SOLID
  5
2BE
330
2B9
100
AcDbEntity
  8
text3
 62
     0
100
AcDbTrace
 10
-296.1774304358978
 20
-1875.63395951152
 30
0.0
 11
-294.5107637692311
 21
-1875.63395951152
 31
0.0
 12
-295.3440971025644
 22
-1880.633959511519
 32
0.0
 13
-295.3440971025644
 23
-1880.633959511519
 33
0.0
  0
MTEXT
  5
2BF
330
2B9
100
AcDbEntity
  8
text3
 62
     0
100
AcDbMText
 10
-298.8440971025642
 20
-1827.133959511519
 30
0.0
 40
4.0
 41
0.0
 71
     5
 72
     1
  1
\A1;107±1
 11
0.0000000000000001
 21
1.0
 31
0.0
 73
     1
 44
1.0
  0
POINT
  5
2C0
330
2B9
100
AcDbEntity
  8
Defpoints
 62
     0
100
AcDbPoint
 10
-312.2834821881296
 20
-1773.633959511519
 30
0.0
  0
POINT
  5
2C1
330
2B9
100
AcDbEntity
  8
Defpoints
 62
     0
100
AcDbPoint
 10
-312.2834821881304
 20
-1880.633959511519
 30
0.0
  0
POINT
  5
2C2
330
2B9
100
AcDbEntity
  8
Defpoints
 62
     0
100
AcDbPoint
 10
-295.3440971025644
 20
-1880.633959511519
 30
0.0
  0
ENDBLK
  5
2C4
330
2B9
100
AcDbEntity
  8
0
100
AcDbBlockEnd
  0
BLOCK
  5
4B
330
41
100
AcDbEntity
  8
0
100
AcDbBlockBegin
  2
*D3
 70
     1
 10
0.0
 20
0.0
 30
0.0
  3
*D3
  1

  0
LINE
  5
42
330
41
100
AcDbEntity
  8
text3
 62
     0
370
    -2
100
AcDbLine
 10
-378.4834821881431
 20
-1771.633959511519
 30
0.0
 11
-378.4834821881431
 21
-1755.647368392557
 31
0.0
  0
LINE
  5
43
330
41
100
AcDbEntity
  8
text3
 62
     0
370
    -2
100
AcDbLine
 10
-312.2834821881425
 20
-1771.633959511521
 30
0.0
 11
-312.2834821881425
 21
-1755.647368392557
 31
0.0
  0
LINE
  5
44
330
41
100
AcDbEntity
  8
text3
 62
     0
370
    -2
100
AcDbLine
 10
-373.4834821881431
 20
-1760.647368392557
 30
0.0
 11
-317.2834821881425
 21
-1760.647368392557
 31
0.0
  0
SOLID
  5
45
330
41
100
AcDbEntity
  8
text3
 62
     0
100
AcDbTrace
 10
-373.4834821881431
 20
-1759.814035059223
 30
0.0
 11
-373.4834821881431
 21
-1761.480701725891
 31
0.0
 12
-378.4834821881431
 22
-1760.647368392557
 32
0.0
 13
-378.4834821881431
 23
-1760.647368392557
 33
0.0
  0
SOLID
  5
46
330
41
100
AcDbEntity
  8
text3
 62
     0
100
AcDbTrace
 10
-317.2834821881425
 20
-1759.814035059223
 30
0.0
 11
-317.2834821881425
 21
-1761.480701725891
 31
0.0
 12
-312.2834821881425
 22
-1760.647368392557
 32
0.0
 13
-312.2834821881425
 23
-1760.647368392557
 33
0.0
  0
MTEXT
  5
47
330
41
100
AcDbEntity
  8
text3
 62
     0
100
AcDbMText
 10
-345.3834821881426
 20
-1757.147368392558
 30
0.0
 40
4.0
 41
0.0
 71
     5
 72
     1
  1
\A1;66.2±1
 73
     1
 44
1.0
  0
POINT
  5
48
330
41
100
AcDbEntity
  8
Defpoints
 62
     0
100
AcDbPoint
 10
-378.4834821881431
 20
-1773.633959511519
 30
0.0
  0
POINT
  5
49
330
41
100
AcDbEntity
  8
Defpoints
 62
     0
100
AcDbPoint
 10
-312.2834821881425
 20
-1773.633959511521
 30
0.0
  0
POINT
  5
4A
330
41
100
AcDbEntity
  8
Defpoints
 62
     0
100
AcDbPoint
 10
-312.2834821881425
 20
-1760.647368392557
 30
0.0
  0
ENDBLK
  5
4C
330
41
100
AcDbEntity
  8
0
100
AcDbBlockEnd
  0
BLOCK
  5
3E
330
34
100
AcDbEntity
  8
0
100
AcDbBlockBegin
  2
*D4
 70
     1
 10
0.0
 20
0.0
 30
0.0
  3
*D4
  1

  0
LINE
  5
35
330
34
100
AcDbEntity
  8
text3
 62
     0
370
    -2
100
AcDbLine
 10
-353.3834821881438
 20
-1887.433959511519
 30
0.0
 11
-353.3834821881438
 21
-1899.084943536816
 31
0.0
  0
LINE
  5
36
330
34
100
AcDbEntity
  8
text3
 62
     0
370
    -2
100
AcDbLine
 10
-312.2834821881434
 20
-1887.433959511519
 30
0.0
 11
-312.2834821881434
 21
-1899.084943536816
 31
0.0
  0
LINE
  5
37
330
34
100
AcDbEntity
  8
text3
 62
     0
370
    -2
100
AcDbLine
 10
-350.3834821881438
 20
-1894.084943536816
 30
0.0
 11
-315.2834821881434
 21
-1894.084943536816
 31
0.0
  0
SOLID
  5
38
330
34
100
AcDbEntity
  8
text3
 62
     0
100
AcDbTrace
 10
-350.3834821881438
 20
-1893.584943536815
 30
0.0
 11
-350.3834821881438
 21
-1894.584943536816
 31
0.0
 12
-353.3834821881438
 22
-1894.084943536816
 32
0.0
 13
-353.3834821881438
 23
-1894.084943536816
 33
0.0
  0
SOLID
  5
39
330
34
100
AcDbEntity
  8
text3
 62
     0
100
AcDbTrace
 10
-315.2834821881434
 20
-1893.584943536815
 30
0.0
 11
-315.2834821881434
 21
-1894.584943536816
 31
0.0
 12
-312.2834821881434
 22
-1894.084943536816
 32
0.0
 13
-312.2834821881434
 23
-1894.084943536816
 33
0.0
  0
MTEXT
  5
3A
330
34
100
AcDbEntity
  8
text3
 62
     0
100
AcDbMText
 10
-332.8334821881436
 20
-1890.584943536816
 30
0.0
 40
4.0
 41
0.0
 71
     5
 72
     1
  1
\A1;41.1±1
 73
     1
 44
1.0
  0
POINT
  5
3B
330
34
100
AcDbEntity
  8
Defpoints
 62
     0
100
AcDbPoint
 10
-353.3834821881438
 20
-1885.433959511519
 30
0.0
  0
POINT
  5
3C
330
34
100
AcDbEntity
  8
Defpoints
 62
     0
100
AcDbPoint
 10
-312.2834821881434
 20
-1885.433959511519
 30
0.0
  0
POINT
  5
3D
330
34
100
AcDbEntity
  8
Defpoints
 62
     0
100
AcDbPoint
 10
-312.2834821881434
 20
-1894.084943536816
 30
0.0
  0
ENDBLK
  5
3F
330
34
100
AcDbEntity
  8
0
100
AcDbBlockEnd
  0
BLOCK
  5
149
330
13F
100
AcDbEntity
  8
0
100
AcDbBlockBegin
  2
*D5
 70
     1
 10
0.0
 20
0.0
 30
0.0
  3
*D5
  1

  0
LINE
  5
140
330
13F
100
AcDbEntity
  8
text3
 62
     0
370
    -2
100
AcDbLine
 10
-400.3834821881429
 20
-1887.433959511519
 30
0.0
 11
-400.3834821881429
 21
-1910.912136864053
 31
0.0
  0
LINE
  5
141
330
13F
100
AcDbEntity
  8
text3
 62
     0
370
    -2
100
AcDbLine
 10
-425.3834821881429
 20
-1887.433959511519
 30
0.0
 11
-425.3834821881429
 21
-1910.912136864053
 31
0.0
  0
LINE
  5
142
330
13F
100
AcDbEntity
  8
text3
 62
     0
370
    -2
100
AcDbLine
 10
-403.3834821881427
 20
-1910.732136864053
 30
0.0
 11
-422.3834821881427
 21
-1910.732136864053
 31
0.0
  0
SOLID
  5
143
330
13F
100
AcDbEntity
  8
text3
 62
     0
100
AcDbTrace
 10
-403.3834821881427
 20
-1910.232136864053
 30
0.0
 11
-403.3834821881427
 21
-1911.232136864052
 31
0.0
 12
-400.3834821881429
 22
-1910.732136864053
 32
0.0
 13
-400.3834821881429
 23
-1910.732136864053
 33
0.0
  0
SOLID
  5
144
330
13F
100
AcDbEntity
  8
text3
 62
     0
100
AcDbTrace
 10
-422.3834821881427
 20
-1910.232136864053
 30
0.0
 11
-422.3834821881427
 21
-1911.232136864052
 31
0.0
 12
-425.3834821881429
 22
-1910.732136864053
 32
0.0
 13
-425.3834821881429
 23
-1910.732136864053
 33
0.0
  0
MTEXT
  5
145
330
13F
100
AcDbEntity
  8
text3
 62
     0
100
AcDbMText
 10
-412.8834821881429
 20
-1907.232136864053
 30
0.0
 40
4.0
 41
0.0
 71
     5
 72
     1
  1
\A1;25±1
 73
     1
 44
1.0
  0
POINT
  5
146
330
13F
100
AcDbEntity
  8
Defpoints
 62
     0
100
AcDbPoint
 10
-400.3834821881429
 20
-1885.433959511519
 30
0.0
  0
POINT
  5
147
330
13F
100
AcDbEntity
  8
Defpoints
 62
     0
100
AcDbPoint
 10
-425.3834821881429
 20
-1885.433959511519
 30
0.0
  0
POINT
  5
148
330
13F
100
AcDbEntity
  8
Defpoints
 62
     0
100
AcDbPoint
 10
-425.3834821881429
 20
-1910.732136864053
 30
0.0
  0
ENDBLK
  5
14A
330
13F
100
AcDbEntity
  8
0
100
AcDbBlockEnd
  0
BLOCK
  5
13C
330
131
100
AcDbEntity
  8
0
100
AcDbBlockBegin
  2
*D6
 70
     1
 10
0.0
 20
0.0
 30
0.0
  3
*D6
  1

  0
LINE
  5
132
330
131
100
AcDbEntity
  8
text3
 62
     0
370
    -2
100
AcDbLine
 10
-400.3834821881427
 20
-1887.433959511519
 30
0.0
 11
-400.383482188142
 21
-1897.555781675219
 31
0.0
  0
LINE
  5
133
330
131
100
AcDbEntity
  8
text3
 62
     0
370
    -2
100
AcDbLine
 10
-403.3834821881426
 20
-1887.433959511522
 30
0.0
 11
-403.383482188142
 21
-1897.555781675219
 31
0.0
  0
LINE
  5
134
330
131
100
AcDbEntity
  8
text3
 62
     0
370
    -2
100
AcDbLine
 10
-395.3834821881424
 20
-1892.555781675218
 30
0.0
 11
-390.3834821881424
 21
-1892.555781675218
 31
0.0
  0
LINE
  5
135
330
131
100
AcDbEntity
  8
text3
 62
     0
370
    -2
100
AcDbLine
 10
-408.3834821881421
 20
-1892.55578167522
 30
0.0
 11
-419.0501488548091
 21
-1892.55578167522
 31
0.0
  0
SOLID
  5
136
330
131
100
AcDbEntity
  8
text3
 62
     0
100
AcDbTrace
 10
-395.3834821881424
 20
-1891.722448341885
 30
0.0
 11
-395.3834821881422
 21
-1893.389115008552
 31
0.0
 12
-400.3834821881424
 22
-1892.555781675219
 32
0.0
 13
-400.3834821881424
 23
-1892.555781675219
 33
0.0
  0
SOLID
  5
137
330
131
100
AcDbEntity
  8
text3
 62
     0
100
AcDbTrace
 10
-408.3834821881422
 20
-1891.722448341885
 30
0.0
 11
-408.3834821881421
 21
-1893.389115008552
 31
0.0
 12
-403.3834821881423
 22
-1892.555781675219
 32
0.0
 13
-403.3834821881423
 23
-1892.555781675219
 33
0.0
  0
MTEXT
  5
138
330
131
100
AcDbEntity
  8
text3
 62
     0
100
AcDbMText
 10
-416.216815521476
 20
-1889.055781675219
 30
0.0
 40
4.0
 41
0.0
 71
     5
 72
     1
  1
\A1;3
 73
     1
 44
1.0
  0
POINT
  5
139
330
131
100
AcDbEntity
  8
Defpoints
 62
     0
100
AcDbPoint
 10
-400.3834821881429
 20
-1885.433959511519
 30
0.0
  0
POINT
  5
13A
330
131
100
AcDbEntity
  8
Defpoints
 62
     0
100
AcDbPoint
 10
-403.3834821881427
 20
-1885.433959511519
 30
0.0
  0
POINT
  5
13B
330
131
100
AcDbEntity
  8
Defpoints
 62
     0
100
AcDbPoint
 10
-403.3834821881423
 20
-1892.555781675219
 30
0.0
  0
ENDBLK
  5
13D
330
131
100
AcDbEntity
  8
0
100
AcDbBlockEnd
  0
BLOCK
  5
31
330
26
100
AcDbEntity
  8
0
100
AcDbBlockBegin
  2
*D7
 70
     1
 10
0.0
 20
0.0
 30
0.0
  3
*D7
  1

  0
LINE
  5
27
330
26
100
AcDbEntity
  8
text3
 62
     0
370
    -2
100
AcDbLine
 10
-400.3834821881429
 20
-1887.433959511519
 30
0.0
 11
-400.3834821881429
 21
-1911.092136864054
 31
0.0
  0
LINE
  5
28
330
26
100
AcDbEntity
  8
text3
 62
     0
370
    -2
100
AcDbLine
 10
-312.2834821881434
 20
-1887.433959511522
 30
0.0
 11
-312.2834821881434
 21
-1911.092136864054
 31
0.0
  0
LINE
  5
29
330
26
100
AcDbEntity
  8
text3
 62
     0
370
    -2
100
AcDbLine
 10
-397.3834821881427
 20
-1910.912136864053
 30
0.0
 11
-315.2834821881434
 21
-1910.912136864053
 31
0.0
  0
SOLID
  5
2A
330
26
100
AcDbEntity
  8
text3
 62
     0
100
AcDbTrace
 10
-397.3834821881427
 20
-1910.412136864053
 30
0.0
 11
-397.3834821881427
 21
-1911.412136864053
 31
0.0
 12
-400.3834821881429
 22
-1910.912136864053
 32
0.0
 13
-400.3834821881429
 23
-1910.912136864053
 33
0.0
  0
SOLID
  5
2B
330
26
100
AcDbEntity
  8
text3
 62
     0
100
AcDbTrace
 10
-315.2834821881434
 20
-1910.412136864053
 30
0.0
 11
-315.2834821881434
 21
-1911.412136864053
 31
0.0
 12
-312.2834821881434
 22
-1910.912136864053
 32
0.0
 13
-312.2834821881434
 23
-1910.912136864053
 33
0.0
  0
MTEXT
  5
2C
330
26
100
AcDbEntity
  8
text3
 62
     0
100
AcDbMText
 10
-356.3334821881431
 20
-1907.412136864053
 30
0.0
 40
4.0
 41
0.0
 71
     5
 72
     1
  1
\A1;88.1±1
 73
     1
 44
1.0
  0
POINT
  5
2D
330
26
100
AcDbEntity
  8
Defpoints
 62
     0
100
AcDbPoint
 10
-400.3834821881429
 20
-1885.433959511519
 30
0.0
  0
POINT
  5
2F
330
26
100
AcDbEntity
  8
Defpoints
 62
     0
100
AcDbPoint
 10
-312.2834821881434
 20
-1885.43395951152
 30
0.0
  0
POINT
  5
30
330
26
100
AcDbEntity
  8
Defpoints
 62
     0
100
AcDbPoint
 10
-312.2834821881434
 20
-1910.912136864053
 30
0.0
  0
ENDBLK
  5
32
330
26
100
AcDbEntity
  8
0
100
AcDbBlockEnd
  0
BLOCK
  5
347
330
33D
100
AcDbEntity
  8
0
100
AcDbBlockBegin
  2
*D8
 70
     1
 10
0.0
 20
0.0
 30
0.0
  3
*D8
  1

  0
LINE
  5
33E
330
33D
100
AcDbEntity
  8
text3
 62
     0
370
    -2
100
AcDbLine
 10
-548.3765461220347
 20
-1771.633959511521
 30
0.0
 11
-548.3765461220347
 21
-1750.374406521724
 31
0.0
  0
LINE
  5
33F
330
33D
100
AcDbEntity
  8
text3
 62
     0
370
    -2
100
AcDbLine
 10
-481.3765461220347
 20
-1771.633959511521
 30
0.0
 11
-481.3765461220347
 21
-1750.374406521724
 31
0.0
  0
LINE
  5
340
330
33D
100
AcDbEntity
  8
text3
 62
     0
370
    -2
100
AcDbLine
 10
-543.3765461220347
 20
-1755.374406521724
 30
0.0
 11
-486.3765461220347
 21
-1755.374406521724
 31
0.0
  0
SOLID
  5
341
330
33D
100
AcDbEntity
  8
text3
 62
     0
100
AcDbTrace
 10
-543.3765461220347
 20
-1754.541073188391
 30
0.0
 11
-543.3765461220347
 21
-1756.207739855057
 31
0.0
 12
-548.3765461220347
 22
-1755.374406521724
 32
0.0
 13
-548.3765461220347
 23
-1755.374406521724
 33
0.0
  0
SOLID
  5
342
330
33D
100
AcDbEntity
  8
text3
 62
     0
100
AcDbTrace
 10
-486.3765461220347
 20
-1754.541073188391
 30
0.0
 11
-486.3765461220347
 21
-1756.207739855057
 31
0.0
 12
-481.3765461220347
 22
-1755.374406521724
 32
0.0
 13
-481.3765461220347
 23
-1755.374406521724
 33
0.0
  0
MTEXT
  5
343
330
33D
100
AcDbEntity
  8
text3
 62
     0
100
AcDbMText
 10
-514.8765461220347
 20
-1751.874406521724
 30
0.0
 40
4.0
 41
0.0
 71
     5
 72
     1
  1
\A1;67±1
 73
     1
 44
1.0
  0
POINT
  5
344
330
33D
100
AcDbEntity
  8
Defpoints
 62
     0
100
AcDbPoint
 10
-548.3765461220347
 20
-1773.633959511521
 30
0.0
  0
POINT
  5
345
330
33D
100
AcDbEntity
  8
Defpoints
 62
     0
100
AcDbPoint
 10
-481.3765461220347
 20
-1773.633959511521
 30
0.0
  0
POINT
  5
346
330
33D
100
AcDbEntity
  8
Defpoints
 62
     0
100
AcDbPoint
 10
-481.3765461220347
 20
-1755.374406521724
 30
0.0
  0
ENDBLK
  5
348
330
33D
100
AcDbEntity
  8
0
100
AcDbBlockEnd
  0
BLOCK
  5
353
330
349
100
AcDbEntity
  8
0
100
AcDbBlockBegin
  2
*D9
 70
     1
 10
0.0
 20
0.0
 30
0.0
  3
*D9
  1

  0
LINE
  5
34A
330
349
100
AcDbEntity
  8
text3
 62
     0
370
    -2
100
AcDbLine
 10
-544.8765461220342
 20
-1885.433959511519
 30
0.0
 11
-544.8765461220342
 21
-1905.993536957872
 31
0.0
  0
LINE
  5
34B
330
349
100
AcDbEntity
  8
text3
 62
     0
370
    -2
100
AcDbLine
 10
-484.8765461220339
 20
-1885.433959511519
 30
0.0
 11
-484.8765461220339
 21
-1905.993536957872
 31
0.0
  0
LINE
  5
34C
330
349
100
AcDbEntity
  8
text3
 62
     0
370
    -2
100
AcDbLine
 10
-539.8765461220342
 20
-1900.993536957872
 30
0.0
 11
-489.876546122034
 21
-1900.993536957872
 31
0.0
  0
SOLID
  5
34D
330
349
100
AcDbEntity
  8
text3
 62
     0
100
AcDbTrace
 10
-539.8765461220342
 20
-1900.160203624538
 30
0.0
 11
-539.8765461220342
 21
-1901.826870291205
 31
0.0
 12
-544.8765461220342
 22
-1900.993536957872
 32
0.0
 13
-544.8765461220342
 23
-1900.993536957872
 33
0.0
  0
SOLID
  5
34E
330
349
100
AcDbEntity
  8
text3
 62
     0
100
AcDbTrace
 10
-489.876546122034
 20
-1900.160203624538
 30
0.0
 11
-489.876546122034
 21
-1901.826870291205
 31
0.0
 12
-484.8765461220339
 22
-1900.993536957872
 32
0.0
 13
-484.8765461220339
 23
-1900.993536957872
 33
0.0
  0
MTEXT
  5
34F
330
349
100
AcDbEntity
  8
text3
 62
     0
100
AcDbMText
 10
-514.8765461220341
 20
-1897.493536957871
 30
0.0
 40
4.0
 41
0.0
 71
     5
 72
     1
  1
\A1;\U+25A160
 73
     1
 44
1.0
  0
POINT
  5
350
330
349
100
AcDbEntity
  8
Defpoints
 62
     0
100
AcDbPoint
 10
-544.8765461220342
 20
-1882.433959511519
 30
0.0
  0
POINT
  5
351
330
349
100
AcDbEntity
  8
Defpoints
 62
     0
100
AcDbPoint
 10
-484.8765461220339
 20
-1882.433959511519
 30
0.0
  0
POINT
  5
352
330
349
100
AcDbEntity
  8
Defpoints
 62
     0
100
AcDbPoint
 10
-484.8765461220339
 20
-1900.993536957872
 30
0.0
  0
ENDBLK
  5
354
330
349
100
AcDbEntity
  8
0
100
AcDbBlockEnd
  0
BLOCK
  5
361
330
356
100
AcDbEntity
  8
0
100
AcDbBlockBegin
  2
*D10
 70
     1
 10
0.0
 20
0.0
 30
0.0
  3
*D10
  1

  0
LINE
  5
9B1
330
356
100
AcDbEntity
  8
text3
 62
     0
370
    -2
100
AcDbLine
 10
-426.8834821881428
 20
-1859.433959511521
 30
0.0
 11
-441.1509725758858
 21
-1859.433959511521
 31
0.0
  0
LINE
  5
9B2
330
356
100
AcDbEntity
  8
text3
 62
     0
370
    -2
100
AcDbLine
 10
-426.8834821881428
 20
-1851.433959511521
 30
0.0
 11
-441.1509725758858
 21
-1851.433959511521
 31
0.0
  0
LINE
  5
9B3
330
356
100
AcDbEntity
  8
text3
 62
     0
370
    -2
100
AcDbLine
 10
-436.1509725758859
 20
-1846.433959511521
 30
0.0
 11
-436.1509725758859
 21
-1841.433959511521
 31
0.0
  0
LINE
  5
9B4
330
356
100
AcDbEntity
  8
text3
 62
     0
370
    -2
100
AcDbLine
 10
-436.1509725758859
 20
-1864.43395951152
 30
0.0
 11
-436.1509725758859
 21
-1898.435818248422
 31
0.0
  0
SOLID
  5
9B5
330
356
100
AcDbEntity
  8
text3
 62
     0
100
AcDbTrace
 10
-436.9843059092191
 20
-1846.433959511521
 30
0.0
 11
-435.3176392425525
 21
-1846.433959511521
 31
0.0
 12
-436.1509725758859
 22
-1851.433959511521
 32
0.0
 13
-436.1509725758859
 23
-1851.433959511521
 33
0.0
  0
SOLID
  5
9B6
330
356
100
AcDbEntity
  8
text3
 62
     0
100
AcDbTrace
 10
-436.9843059092191
 20
-1864.43395951152
 30
0.0
 11
-435.3176392425525
 21
-1864.43395951152
 31
0.0
 12
-436.1509725758859
 22
-1859.433959511521
 32
0.0
 13
-436.1509725758859
 23
-1859.433959511521
 33
0.0
  0
MTEXT
  5
9B7
330
356
100
AcDbEntity
  8
text3
 62
     0
100
AcDbMText
 10
-439.6509725758855
 20
-1889.335818248422
 30
0.0
 40
4.0
 41
0.0
 71
     5
 72
     1
  1
\A1;Φ8h6
 11
0.0000000000000001
 21
1.0
 31
0.0
 73
     1
 44
1.0
  0
POINT
  5
9B8
330
356
100
AcDbEntity
  8
Defpoints
 62
     0
100
AcDbPoint
 10
-424.8834821881429
 20
-1859.433959511521
 30
0.0
  0
POINT
  5
9B9
330
356
100
AcDbEntity
  8
Defpoints
 62
     0
100
AcDbPoint
 10
-424.8834821881429
 20
-1851.433959511521
 30
0.0
  0
POINT
  5
9BA
330
356
100
AcDbEntity
  8
Defpoints
 62
     0
100
AcDbPoint
 10
-436.1509725758859
 20
-1851.433959511521
 30
0.0
  0
ENDBLK
  5
362
330
356
100
AcDbEntity
  8
0
100
AcDbBlockEnd
  0
BLOCK
  5
36D
330
363
100
AcDbEntity
  8
0
100
AcDbBlockBegin
  2
*D11
 70
     1
 10
0.0
 20
0.0
 30
0.0
  3
*D11
  1

  0
LINE
  5
9BB
330
363
100
AcDbEntity
  8
text3
 62
     0
370
    -2
100
AcDbLine
 10
-405.8834821881427
 20
-1830.433959511521
 30
0.0
 11
-452.9683342549549
 21
-1830.433959511521
 31
0.0
  0
LINE
  5
9BC
330
363
100
AcDbEntity
  8
text3
 62
     0
370
    -2
100
AcDbLine
 10
-405.8834821881427
 20
-1880.43395951152
 30
0.0
 11
-452.9683342549549
 21
-1880.43395951152
 31
0.0
  0
LINE
  5
9BD
330
363
100
AcDbEntity
  8
text3
 62
     0
370
    -2
100
AcDbLine
 10
-447.9683342549548
 20
-1835.43395951152
 30
0.0
 11
-447.9683342549548
 21
-1875.433959511519
 31
0.0
  0
SOLID
  5
9BE
330
363
100
AcDbEntity
  8
text3
 62
     0
100
AcDbTrace
 10
-448.8016675882882
 20
-1835.43395951152
 30
0.0
 11
-447.1350009216215
 21
-1835.43395951152
 31
0.0
 12
-447.9683342549548
 22
-1830.433959511521
 32
0.0
 13
-447.9683342549548
 23
-1830.433959511521
 33
0.0
  0
SOLID
  5
9BF
330
363
100
AcDbEntity
  8
text3
 62
     0
100
AcDbTrace
 10
-448.8016675882882
 20
-1875.433959511519
 30
0.0
 11
-447.1350009216215
 21
-1875.433959511519
 31
0.0
 12
-447.9683342549548
 22
-1880.43395951152
 32
0.0
 13
-447.9683342549548
 23
-1880.43395951152
 33
0.0
  0
MTEXT
  5
9C0
330
363
100
AcDbEntity
  8
text3
 62
     0
100
AcDbMText
 10
-451.4683342549545
 20
-1855.10582263892
 30
0.0
 40
4.0
 41
0.0
 71
     5
 72
     1
  1
\A1;Φ50h7
 11
0.0000000000000001
 21
1.0
 31
0.0
 73
     1
 44
1.0
  0
POINT
  5
9C1
330
363
100
AcDbEntity
  8
Defpoints
 62
     0
100
AcDbPoint
 10
-402.8834821881427
 20
-1830.433959511521
 30
0.0
  0
POINT
  5
9C2
330
363
100
AcDbEntity
  8
Defpoints
 62
     0
100
AcDbPoint
 10
-402.8834821881427
 20
-1880.43395951152
 30
0.0
  0
POINT
  5
9C3
330
363
100
AcDbEntity
  8
Defpoints
 62
     0
100
AcDbPoint
 10
-447.9683342549548
 20
-1880.43395951152
 30
0.0
  0
ENDBLK
  5
36E
330
363
100
AcDbEntity
  8
0
100
AcDbBlockEnd
  0
BLOCK
  5
3D4
330
37A
100
AcDbEntity
  8
0
100
AcDbBlockBegin
  2
1-178128-4-jo1
 70
     0
 10
0.0
 20
0.0
 30
0.0
  3
1-178128-4-jo1
  1

  0
LINE
  5
37B
330
37A
100
AcDbEntity
  8
Object
100
AcDbLine
 10
-4.579999999999927
 20
-22.79999999999995
 30
0.0
 11
-0.5
 21
-22.79999999999995
 31
0.0
  0
LINE
  5
37C
330
37A
100
AcDbEntity
  8
Object
100
AcDbLine
 10
-12.16000000000008
 20
-6.5
 30
0.0
 11
12.15999999999985
 21
-6.5
 31
0.0
  0
LINE
  5
37D
330
37A
100
AcDbEntity
  8
Object
100
AcDbLine
 10
-14.46000000000003
 20
0.0000000000000568
 30
0.0
 11
14.46000000000003
 21
-0.0000000000000568
 31
0.0
  0
LINE
  5
37E
330
37A
100
AcDbEntity
  8
Object
100
AcDbLine
 10
-5.579999999999927
 20
-10.29999999999995
 30
0.0
 11
-5.579999999999927
 21
-22.80000000000001
 31
0.0
  0
LINE
  5
37F
330
37A
100
AcDbEntity
  8
Object
100
AcDbLine
 10
-4.579999999999927
 20
-10.29999999999995
 30
0.0
 11
-4.579999999999927
 21
-22.80000000000001
 31
0.0
  0
LINE
  5
380
330
37A
100
AcDbEntity
  8
Object
100
AcDbLine
 10
-6.36999999999989
 20
-6.499999999999943
 30
0.0
 11
-6.36999999999989
 21
-22.79999999999995
 31
0.0
  0
LINE
  5
381
330
37A
100
AcDbEntity
  8
Center
100
AcDbLine
 10
-7.61999999999989
 20
-6.499999999999943
 30
0.0
 11
-7.61999999999989
 21
-22.79999999999995
 31
0.0
  0
LINE
  5
382
330
37A
100
AcDbEntity
  8
Object
100
AcDbLine
 10
-3.789999999999963
 20
-6.5
 30
0.0
 11
-3.789999999999963
 21
-22.79999999999995
 31
0.0
  0
LINE
  5
383
330
37A
100
AcDbEntity
  8
Object
100
AcDbLine
 10
-12.16000000000008
 20
0.0000000000000568
 30
0.0
 11
-12.16000000000008
 21
-22.79999999999995
 31
0.0
  0
LINE
  5
384
330
37A
100
AcDbEntity
  8
Object
100
AcDbLine
 10
-12.16000000000008
 20
-22.79999999999995
 30
0.0
 11
-5.579999999999927
 21
-22.79999999999995
 31
0.0
  0
TEXT
  5
385
330
37A
100
AcDbEntity
  8
Object
100
AcDbText
 10
-6.876163952245633
 20
-3.85990293482564
 30
0.0
 40
1.0
  1
AMP
 50
180.0
  7
GDT
100
AcDbText
  0
LINE
  5
386
330
37A
100
AcDbEntity
  8
Text
  6
HIDDEN
 48
0.1
100
AcDbLine
 10
-11.16000000000008
 20
-3.5
 30
0.0
 11
-11.16000000000008
 21
-5.499999999999943
 31
0.0
  0
LINE
  5
387
330
37A
100
AcDbEntity
  8
Text
  6
HIDDEN
 48
0.1
100
AcDbLine
 10
-5.160000000000081
 20
-3.5
 30
0.0
 11
-5.160000000000081
 21
-5.5
 31
0.0
  0
LINE
  5
388
330
37A
100
AcDbEntity
  8
Text
  6
HIDDEN
 48
0.2
100
AcDbLine
 10
-15.88999999999987
 20
-0.9999999999998863
 30
0.0
 11
-15.88999999999987
 21
-5.074688351406507
 31
0.0
  0
LINE
  5
389
330
37A
100
AcDbEntity
  8
Text
  6
HIDDEN
 48
0.2
100
AcDbLine
 10
-16.38999999999987
 20
-0.9999999999998863
 30
0.0
 11
-16.38999999999987
 21
-5.074688351406507
 31
0.0
  0
LINE
  5
38A
330
37A
100
AcDbEntity
  8
Object
100
AcDbLine
 10
-12.66000000000008
 20
-3.0
 30
0.0
 11
-12.66000000000031
 21
-9.5
 31
0.0
  0
LINE
  5
38B
330
37A
100
AcDbEntity
  8
Object
100
AcDbLine
 10
-17.38999999999987
 20
-1.499999999999886
 30
0.0
 11
-17.38999999999987
 21
-4.204150096994339
 31
0.0
  0
LINE
  5
38C
330
37A
100
AcDbEntity
  8
Object
100
AcDbLine
 10
-12.16000000000008
 20
-13.5
 30
0.0
 11
-13.16000000000008
 21
-10.0
 31
0.0
  0
LINE
  5
38D
330
37A
100
AcDbEntity
  8
Object
100
AcDbLine
 10
-12.66000000000008
 20
-9.5
 30
0.0
 11
-12.16000000000008
 21
-13.5
 31
0.0
  0
LINE
  5
38E
330
37A
100
AcDbEntity
  8
Object
100
AcDbLine
 10
-5.579999999999927
 20
-10.29999999999995
 30
0.0
 11
-4.579999999999927
 21
-10.29999999999995
 31
0.0
  0
ARC
  5
38F
330
37A
100
AcDbEntity
  8
Object
100
AcDbCircle
 10
-16.88999999999987
 20
-4.204150096994339
 30
0.0
 40
0.5
100
AcDbArc
 50
180.0
 51
240.8494098705589
  0
LINE
  5
390
330
37A
100
AcDbEntity
  8
Text
  6
HIDDEN
 48
0.1
100
AcDbLine
 10
-11.16000000000008
 20
-5.5
 30
0.0
 11
-5.160000000000081
 21
-5.5
 31
0.0
  0
ARC
  5
391
330
37A
100
AcDbEntity
  8
Object
100
AcDbCircle
 10
-27.92601118199945
 20
-23.99081533531295
 30
0.0
 40
22.15624999999976
100
AcDbArc
 50
46.44773132824702
 51
60.84940987055894
  0
LINE
  5
392
330
37A
100
AcDbEntity
  8
Object
100
AcDbLine
 10
-13.16000000000008
 20
-9.5
 30
0.0
 11
-13.16000000000008
 21
-10.00000000000022
 31
0.0
  0
LINE
  5
393
330
37A
100
AcDbEntity
  8
Object
100
AcDbLine
 10
-13.16000000000008
 20
-9.5
 30
0.0
 11
-12.66000000000031
 21
-9.5
 31
0.0
  0
ARC
  5
394
330
37A
100
AcDbEntity
  8
Object
100
AcDbCircle
 10
-16.88999999999987
 20
-1.499999999999886
 30
0.0
 40
0.5
100
AcDbArc
 50
90.0
 51
180.0
  0
LINE
  5
395
330
37A
100
AcDbEntity
  8
Text
  6
HIDDEN
 48
0.1
100
AcDbLine
 10
-8.61999999999989
 20
-0.5
 30
0.0
 11
-6.61999999999989
 21
-0.5
 31
0.0
  0
LINE
  5
396
330
37A
100
AcDbEntity
  8
Text
  6
HIDDEN
 48
0.1
100
AcDbLine
 10
-8.61999999999989
 20
-2.5
 30
0.0
 11
-6.61999999999989
 21
-2.5
 31
0.0
  0
LINE
  5
397
330
37A
100
AcDbEntity
  8
Text
  6
HIDDEN
 48
0.1
100
AcDbLine
 10
-6.61999999999989
 20
-0.5
 30
0.0
 11
-6.61999999999989
 21
-2.5
 31
0.0
  0
LINE
  5
398
330
37A
100
AcDbEntity
  8
Text
  6
HIDDEN
 48
0.1
100
AcDbLine
 10
-8.61999999999989
 20
-0.5
 30
0.0
 11
-8.61999999999989
 21
-2.5
 31
0.0
  0
TEXT
  5
399
330
37A
100
AcDbEntity
  8
Object
100
AcDbText
 10
-7.064293675741055
 20
-1.088265929947908
 30
0.0
 40
1.0
  1
4
 50
180.0
  7
GDT
100
AcDbText
  0
LINE
  5
39A
330
37A
100
AcDbEntity
  8
Text
  6
HIDDEN
 48
0.1
100
AcDbLine
 10
-11.16000000000008
 20
-3.5
 30
0.0
 11
-5.160000000000309
 21
-3.5
 31
0.0
  0
LINE
  5
39B
330
37A
100
AcDbEntity
  8
Object
100
AcDbLine
 10
-14.46000000000003
 20
0.0
 30
0.0
 11
-14.46000000000003
 21
-3.0
 31
0.0
  0
LINE
  5
39C
330
37A
100
AcDbEntity
  8
Object
100
AcDbLine
 10
-16.88999999999987
 20
-0.9999999999998863
 30
0.0
 11
-14.46000000000003
 21
-0.9999999999998863
 31
0.0
  0
LINE
  5
39D
330
37A
100
AcDbEntity
  8
Object
100
AcDbLine
 10
-14.46000000000003
 20
-3.0
 30
0.0
 11
-12.16000000000008
 21
-3.0
 31
0.0
  0
LINE
  5
39E
330
37A
100
AcDbEntity
  8
Object
100
AcDbLine
 10
5.579999999999927
 20
-6.5
 30
0.0
 11
5.579999999999927
 21
-22.80000000000001
 31
0.0
  0
LINE
  5
39F
330
37A
100
AcDbEntity
  8
Object
100
AcDbLine
 10
4.579999999999927
 20
-6.5
 30
0.0
 11
4.579999999999927
 21
-22.80000000000001
 31
0.0
  0
LINE
  5
3A0
330
37A
100
AcDbEntity
  8
Center
100
AcDbLine
 10
7.620000000000118
 20
-6.5
 30
0.0
 11
7.61999999999989
 21
-22.80000000000001
 31
0.0
  0
LINE
  5
3A1
330
37A
100
AcDbEntity
  8
Object
100
AcDbLine
 10
1.289999999999963
 20
-6.5
 30
0.0
 11
1.289999999999963
 21
-22.79999999999995
 31
0.0
  0
LINE
  5
3A2
330
37A
100
AcDbEntity
  8
Object
100
AcDbLine
 10
-1.289999999999963
 20
-6.5
 30
0.0
 11
-1.289999999999963
 21
-22.79999999999995
 31
0.0
  0
LINE
  5
3A3
330
37A
100
AcDbEntity
  8
Center
100
AcDbLine
 10
-2.539999999999963
 20
-6.5
 30
0.0
 11
-2.539999999999963
 21
-22.79999999999995
 31
0.0
  0
LINE
  5
3A4
330
37A
100
AcDbEntity
  8
Center
100
AcDbLine
 10
2.539999999999963
 20
-6.5
 30
0.0
 11
2.539999999999963
 21
-22.79999999999995
 31
0.0
  0
LINE
  5
3A5
330
37A
100
AcDbEntity
  8
Object
100
AcDbLine
 10
0.5
 20
-10.29999999999995
 30
0.0
 11
0.5
 21
-22.79999999999995
 31
0.0
  0
LINE
  5
3A6
330
37A
100
AcDbEntity
  8
Object
100
AcDbLine
 10
-0.5
 20
-10.29999999999995
 30
0.0
 11
-0.5
 21
-22.79999999999995
 31
0.0
  0
LINE
  5
3A7
330
37A
100
AcDbEntity
  8
Center
100
AcDbLine
 10
0.0
 20
0.0
 30
0.0
 11
0.0
 21
-22.79999999999995
 31
0.0
  0
LINE
  5
3A8
330
37A
100
AcDbEntity
  8
Object
100
AcDbLine
 10
12.15999999999985
 20
-0.0000000000000568
 30
0.0
 11
12.15999999999985
 21
-22.79999999999995
 31
0.0
  0
LINE
  5
3A9
330
37A
100
AcDbEntity
  8
Object
100
AcDbLine
 10
5.579999999999927
 20
-22.80000000000001
 30
0.0
 11
12.15999999999985
 21
-22.79999999999995
 31
0.0
  0
LINE
  5
3AA
330
37A
100
AcDbEntity
  8
Object
100
AcDbLine
 10
0.5
 20
-22.79999999999995
 30
0.0
 11
4.579999999999927
 21
-22.80000000000001
 31
0.0
  0
LINE
  5
3AB
330
37A
100
AcDbEntity
  8
Object
100
AcDbLine
 10
17.38999999999987
 20
-1.499999999999886
 30
0.0
 11
17.38999999999987
 21
-4.204150096994339
 31
0.0
  0
LINE
  5
3AC
330
37A
100
AcDbEntity
  8
Text
  6
HIDDEN
 48
0.2
100
AcDbLine
 10
16.38999999999987
 20
-0.9999999999998863
 30
0.0
 11
16.38999999999987
 21
-5.074688351406507
 31
0.0
  0
LINE
  5
3AD
330
37A
100
AcDbEntity
  8
Text
  6
HIDDEN
 48
0.2
100
AcDbLine
 10
15.88999999999987
 20
-0.9999999999998863
 30
0.0
 11
15.88999999999987
 21
-5.074688351406507
 31
0.0
  0
LINE
  5
3AE
330
37A
100
AcDbEntity
  8
Object
100
AcDbLine
 10
12.65999999999985
 20
-3.0
 30
0.0
 11
12.66000000000008
 21
-9.5
 31
0.0
  0
LINE
  5
3AF
330
37A
100
AcDbEntity
  8
Text
  6
HIDDEN
 48
0.1
100
AcDbLine
 10
8.159999999999854
 20
-3.5
 30
0.0
 11
8.159999999999854
 21
-5.499999999999943
 31
0.0
  0
LINE
  5
3B0
330
37A
100
AcDbEntity
  8
Text
  6
HIDDEN
 48
0.1
100
AcDbLine
 10
11.15999999999985
 20
-3.5
 30
0.0
 11
11.15999999999985
 21
-5.499999999999943
 31
0.0
  0
LINE
  5
3B1
330
37A
100
AcDbEntity
  8
Object
100
AcDbLine
 10
12.15999999999985
 20
-13.5
 30
0.0
 11
13.16000000000008
 21
-10.0
 31
0.0
  0
LINE
  5
3B2
330
37A
100
AcDbEntity
  8
Object
100
AcDbLine
 10
12.66000000000008
 20
-9.5
 30
0.0
 11
12.15999999999985
 21
-13.5
 31
0.0
  0
LINE
  5
3B3
330
37A
100
AcDbEntity
  8
Object
100
AcDbLine
 10
5.579999999999927
 20
-10.29999999999995
 30
0.0
 11
4.579999999999927
 21
-10.29999999999995
 31
0.0
  0
LINE
  5
3B4
330
37A
100
AcDbEntity
  8
Object
100
AcDbLine
 10
-0.5
 20
-10.29999999999995
 30
0.0
 11
0.5
 21
-10.29999999999995
 31
0.0
  0
LINE
  5
3B5
330
37A
100
AcDbEntity
  8
Text
  6
HIDDEN
 48
0.1
100
AcDbLine
 10
9.159999999999854
 20
-9.5
 30
0.0
 11
11.15999999999985
 21
-9.5
 31
0.0
  0
LINE
  5
3B6
330
37A
100
AcDbEntity
  8
Text
  6
HIDDEN
 48
0.1
100
AcDbLine
 10
9.159999999999854
 20
-7.499999999999943
 30
0.0
 11
11.15999999999985
 21
-7.5
 31
0.0
  0
TEXT
  5
3B7
330
37A
100
AcDbEntity
  8
Object
100
AcDbText
 10
11.23469542004477
 20
-4.107628057664555
 30
0.0
 40
1.0
  1
D-3
 50
180.0
  7
GDT
100
AcDbText
  0
LINE
  5
3B8
330
37A
100
AcDbEntity
  8
Text
  6
HIDDEN
 48
0.1
100
AcDbLine
 10
8.160000000000081
 20
-5.499999999999943
 30
0.0
 11
11.15999999999985
 21
-5.5
 31
0.0
  0
LINE
  5
3B9
330
37A
100
AcDbEntity
  8
Text
  6
HIDDEN
 48
0.1
100
AcDbLine
 10
9.159999999999854
 20
-7.499999999999943
 30
0.0
 11
9.159999999999854
 21
-9.499999999999943
 31
0.0
  0
TEXT
  5
3BA
330
37A
100
AcDbEntity
  8
Object
100
AcDbText
 10
10.71570632425891
 20
-8.088265929947851
 30
0.0
 40
1.0
  1
X
 50
180.0
  7
GDT
100
AcDbText
  0
LINE
  5
3BB
330
37A
100
AcDbEntity
  8
Text
  6
HIDDEN
 48
0.1
100
AcDbLine
 10
11.15999999999985
 20
-7.5
 30
0.0
 11
11.15999999999985
 21
-9.5
 31
0.0
  0
ARC
  5
3BC
330
37A
100
AcDbEntity
  8
Object
100
AcDbCircle
 10
16.88999999999987
 20
-4.204150096994339
 30
0.0
 40
0.5
100
AcDbArc
 50
299.150590129441
 51
0.0
  0
LINE
  5
3BD
330
37A
100
AcDbEntity
  8
Object
100
AcDbLine
 10
13.16000000000008
 20
-9.5
 30
0.0
 11
13.15999999999985
 21
-10.00000000000022
 31
0.0
  0
LINE
  5
3BE
330
37A
100
AcDbEntity
  8
Object
100
AcDbLine
 10
13.16000000000008
 20
-9.5
 30
0.0
 11
12.66000000000008
 21
-9.5
 31
0.0
  0
ARC
  5
3BF
330
37A
100
AcDbEntity
  8
Object
100
AcDbCircle
 10
27.92601118199923
 20
-23.99081533531295
 30
0.0
 40
22.15624999999976
100
AcDbArc
 50
119.150590129441
 51
133.5522686717529
  0
LINE
  5
3C0
330
37A
100
AcDbEntity
  8
Text
  6
HIDDEN
 48
0.1
100
AcDbLine
 10
8.159999999999854
 20
-3.499999999999943
 30
0.0
 11
11.15999999999985
 21
-3.5
 31
0.0
  0
LINE
  5
3C1
330
37A
100
AcDbEntity
  8
Text
  6
HIDDEN
 48
0.1
100
AcDbLine
 10
-3.539999999999963
 20
-0.5
 30
0.0
 11
-1.539999999999963
 21
-0.5
 31
0.0
  0
LINE
  5
3C2
330
37A
100
AcDbEntity
  8
Text
  6
HIDDEN
 48
0.1
100
AcDbLine
 10
-3.539999999999963
 20
-2.5
 30
0.0
 11
-1.539999999999963
 21
-2.5
 31
0.0
  0
TEXT
  5
3C3
330
37A
100
AcDbEntity
  8
Object
100
AcDbText
 10
-1.9842936757409
 20
-1.088265929947908
 30
0.0
 40
1.0
  1
3
 50
180.0
  7
GDT
100
AcDbText
  0
LINE
  5
3C4
330
37A
100
AcDbEntity
  8
Text
  6
HIDDEN
 48
0.1
100
AcDbLine
 10
-3.539999999999963
 20
-0.5
 30
0.0
 11
-3.539999999999963
 21
-2.5
 31
0.0
  0
LINE
  5
3C5
330
37A
100
AcDbEntity
  8
Text
  6
HIDDEN
 48
0.1
100
AcDbLine
 10
-1.539999999999963
 20
-0.5
 30
0.0
 11
-1.539999999999963
 21
-2.5
 31
0.0
  0
LINE
  5
3C6
330
37A
100
AcDbEntity
  8
Text
  6
HIDDEN
 48
0.1
100
AcDbLine
 10
1.539999999999963
 20
-0.5
 30
0.0
 11
3.539999999999963
 21
-0.5
 31
0.0
  0
LINE
  5
3C7
330
37A
100
AcDbEntity
  8
Text
  6
HIDDEN
 48
0.1
100
AcDbLine
 10
1.539999999999963
 20
-2.5
 30
0.0
 11
3.539999999999963
 21
-2.500000000000056
 31
0.0
  0
LINE
  5
3C8
330
37A
100
AcDbEntity
  8
Text
  6
HIDDEN
 48
0.1
100
AcDbLine
 10
3.539999999999963
 20
-0.5
 30
0.0
 11
3.539999999999963
 21
-2.5
 31
0.0
  0
LINE
  5
3C9
330
37A
100
AcDbEntity
  8
Text
  6
HIDDEN
 48
0.1
100
AcDbLine
 10
1.539999999999963
 20
-0.5
 30
0.0
 11
1.539999999999963
 21
-2.5
 31
0.0
  0
TEXT
  5
3CA
330
37A
100
AcDbEntity
  8
Object
100
AcDbText
 10
3.095706324259026
 20
-1.088265929947965
 30
0.0
 40
1.0
  1
2
 50
180.0
  7
GDT
100
AcDbText
  0
LINE
  5
3CB
330
37A
100
AcDbEntity
  8
Text
  6
HIDDEN
 48
0.1
100
AcDbLine
 10
6.620000000000118
 20
-2.500000000000056
 30
0.0
 11
8.620000000000118
 21
-2.500000000000113
 31
0.0
  0
LINE
  5
3CC
330
37A
100
AcDbEntity
  8
Text
  6
HIDDEN
 48
0.1
100
AcDbLine
 10
6.620000000000118
 20
-0.5
 30
0.0
 11
8.620000000000118
 21
-0.5000000000000569
 31
0.0
  0
LINE
  5
3CD
330
37A
100
AcDbEntity
  8
Text
  6
HIDDEN
 48
0.1
100
AcDbLine
 10
6.620000000000118
 20
-0.5
 30
0.0
 11
6.620000000000118
 21
-2.5
 31
0.0
  0
LINE
  5
3CE
330
37A
100
AcDbEntity
  8
Text
  6
HIDDEN
 48
0.1
100
AcDbLine
 10
8.620000000000118
 20
-0.5000000000000569
 30
0.0
 11
8.620000000000118
 21
-2.500000000000056
 31
0.0
  0
TEXT
  5
3CF
330
37A
100
AcDbEntity
  8
Object
100
AcDbText
 10
8.175706324258953
 20
-1.088265929947965
 30
0.0
 40
1.0
  1
1
 50
180.0
  7
GDT
100
AcDbText
  0
LINE
  5
3D0
330
37A
100
AcDbEntity
  8
Object
100
AcDbLine
 10
16.88999999999987
 20
-0.9999999999998863
 30
0.0
 11
14.46000000000003
 21
-0.9999999999998863
 31
0.0
  0
LINE
  5
3D1
330
37A
100
AcDbEntity
  8
Object
100
AcDbLine
 10
14.46000000000003
 20
-3.0
 30
0.0
 11
12.15999999999985
 21
-3.0
 31
0.0
  0
LINE
  5
3D2
330
37A
100
AcDbEntity
  8
Object
100
AcDbLine
 10
14.46000000000003
 20
0.0
 30
0.0
 11
14.46000000000003
 21
-3.0
 31
0.0
  0
ARC
  5
3D3
330
37A
100
AcDbEntity
  8
Object
100
AcDbCircle
 10
16.88999999999987
 20
-1.499999999999886
 30
0.0
 40
0.5
100
AcDbArc
 50
0.0
 51
90.0
  0
ENDBLK
  5
3D5
330
37A
100
AcDbEntity
  8
0
100
AcDbBlockEnd
  0
BLOCK
  5
673
330
669
100
AcDbEntity
  8
0
100
AcDbBlockBegin
  2
*D13
 70
     1
 10
0.0
 20
0.0
 30
0.0
  3
*D13
  1

  0
LINE
  5
687
330
669
100
AcDbEntity
  8
text3
 62
     0
370
    -2
100
AcDbLine
 10
-452.862219676948
 20
-1812.483959511521
 30
0.0
 11
-452.862219676948
 21
-1820.730001031878
 31
0.0
  0
LINE
  5
688
330
669
100
AcDbEntity
  8
text3
 62
     0
370
    -2
100
AcDbLine
 10
-378.4834821881431
 20
-1812.483959511521
 30
0.0
 11
-378.4834821881431
 21
-1820.730001031878
 31
0.0
  0
LINE
  5
689
330
669
100
AcDbEntity
  8
text3
 62
     0
370
    -2
100
AcDbLine
 10
-447.862219676948
 20
-1815.730001031878
 30
0.0
 11
-383.4834821881431
 21
-1815.730001031878
 31
0.0
  0
SOLID
  5
68A
330
669
100
AcDbEntity
  8
text3
 62
     0
100
AcDbTrace
 10
-447.862219676948
 20
-1814.896667698545
 30
0.0
 11
-447.862219676948
 21
-1816.563334365211
 31
0.0
 12
-452.862219676948
 22
-1815.730001031878
 32
0.0
 13
-452.862219676948
 23
-1815.730001031878
 33
0.0
  0
SOLID
  5
68B
330
669
100
AcDbEntity
  8
text3
 62
     0
100
AcDbTrace
 10
-383.4834821881431
 20
-1814.896667698545
 30
0.0
 11
-383.4834821881431
 21
-1816.563334365211
 31
0.0
 12
-378.4834821881431
 22
-1815.730001031878
 32
0.0
 13
-378.4834821881431
 23
-1815.730001031878
 33
0.0
  0
MTEXT
  5
68C
330
669
100
AcDbEntity
  8
text3
 62
     0
100
AcDbMText
 10
-415.6728509325455
 20
-1812.230001031878
 30
0.0
 40
4.0
 41
0.0
 71
     5
 72
     1
  1
\A1;300±50
 73
     1
 44
1.0
  0
POINT
  5
68D
330
669
100
AcDbEntity
  8
Defpoints
 62
     0
100
AcDbPoint
 10
-452.862219676948
 20
-1810.483959511521
 30
0.0
  0
POINT
  5
68E
330
669
100
AcDbEntity
  8
Defpoints
 62
     0
100
AcDbPoint
 10
-378.4834821881431
 20
-1810.483959511521
 30
0.0
  0
POINT
  5
68F
330
669
100
AcDbEntity
  8
Defpoints
 62
     0
100
AcDbPoint
 10
-378.4834821881431
 20
-1815.730001031878
 30
0.0
  0
ENDBLK
  5
674
330
669
100
AcDbEntity
  8
0
100
AcDbBlockEnd
  0
BLOCK
  5
885
330
87A
100
AcDbEntity
  8
0
100
AcDbBlockBegin
  2
*D14
 70
     1
 10
0.0
 20
0.0
 30
0.0
  3
*D14
  1

  0
LINE
  5
92A
330
87A
100
AcDbEntity
  8
text3
 62
     0
370
    -2
100
AcDbLine
 10
-543.9104883781633
 20
-1976.354488296295
 30
0.0
 11
-534.7538495772397
 21
-1976.354488296295
 31
0.0
  0
LINE
  5
92B
330
87A
100
AcDbEntity
  8
text3
 62
     0
370
    -2
100
AcDbLine
 10
-543.9104883781633
 20
-1979.354488296295
 30
0.0
 11
-534.7538495772397
 21
-1979.354488296295
 31
0.0
  0
LINE
  5
92C
330
87A
100
AcDbEntity
  8
text3
 62
     0
370
    -2
100
AcDbLine
 10
-539.7538495772397
 20
-1984.354488296295
 30
0.0
 11
-539.7538495772397
 21
-1989.354488296295
 31
0.0
  0
LINE
  5
92D
330
87A
100
AcDbEntity
  8
text3
 62
     0
370
    -2
100
AcDbLine
 10
-539.7538495772397
 20
-1971.354488296295
 30
0.0
 11
-539.7538495772397
 21
-1952.687821629628
 31
0.0
  0
SOLID
  5
92E
330
87A
100
AcDbEntity
  8
text3
 62
     0
100
AcDbTrace
 10
-540.5871829105731
 20
-1984.354488296295
 30
0.0
 11
-538.9205162439063
 21
-1984.354488296295
 31
0.0
 12
-539.7538495772397
 22
-1979.354488296295
 32
0.0
 13
-539.7538495772397
 23
-1979.354488296295
 33
0.0
  0
SOLID
  5
92F
330
87A
100
AcDbEntity
  8
text3
 62
     0
100
AcDbTrace
 10
-540.5871829105731
 20
-1971.354488296295
 30
0.0
 11
-538.9205162439063
 21
-1971.354488296295
 31
0.0
 12
-539.7538495772397
 22
-1976.354488296295
 32
0.0
 13
-539.7538495772397
 23
-1976.354488296295
 33
0.0
  0
MTEXT
  5
930
330
87A
100
AcDbEntity
  8
text3
 62
     0
100
AcDbMText
 10
-543.2538495772393
 20
-1959.521154962962
 30
0.0
 40
4.0
 41
0.0
 71
     5
 72
     1
  1
\A1;3P9
 11
0.0000000000000001
 21
1.0
 31
0.0
 73
     1
 44
1.0
  0
POINT
  5
931
330
87A
100
AcDbEntity
  8
Defpoints
 62
     0
100
AcDbPoint
 10
-545.9104883781633
 20
-1976.354488296295
 30
0.0
  0
POINT
  5
932
330
87A
100
AcDbEntity
  8
Defpoints
 62
     0
100
AcDbPoint
 10
-545.9104883781633
 20
-1979.354488296295
 30
0.0
  0
POINT
  5
933
330
87A
100
AcDbEntity
  8
Defpoints
 62
     0
100
AcDbPoint
 10
-539.7538495772397
 20
-1979.354488296295
 30
0.0
  0
ENDBLK
  5
886
330
87A
100
AcDbEntity
  8
0
100
AcDbBlockEnd
  0
BLOCK
  5
892
330
887
100
AcDbEntity
  8
0
100
AcDbBlockBegin
  2
*D15
 70
     1
 10
0.0
 20
0.0
 30
0.0
  3
*D15
  1

  0
LINE
  5
934
330
887
100
AcDbEntity
  8
text3
 62
     0
370
    -2
100
AcDbLine
 10
-545.9104883781633
 20
-1979.854488296295
 30
0.0
 11
-545.9104883781633
 21
-2005.3506513402
 31
0.0
  0
LINE
  5
935
330
887
100
AcDbEntity
  8
text3
 62
     0
370
    -2
100
AcDbLine
 10
-552.1104883781633
 20
-1979.854488296295
 30
0.0
 11
-552.1104883781633
 21
-2005.3506513402
 31
0.0
  0
LINE
  5
936
330
887
100
AcDbEntity
  8
text3
 62
     0
370
    -2
100
AcDbLine
 10
-557.1104883781633
 20
-2000.3506513402
 30
0.0
 11
-562.1104883781633
 21
-2000.3506513402
 31
0.0
  0
LINE
  5
937
330
887
100
AcDbEntity
  8
text3
 62
     0
370
    -2
100
AcDbLine
 10
-540.9104883781633
 20
-2000.3506513402
 30
0.0
 11
-524.9104883781633
 21
-2000.3506513402
 31
0.0
  0
SOLID
  5
938
330
887
100
AcDbEntity
  8
text3
 62
     0
100
AcDbTrace
 10
-557.1104883781633
 20
-1999.517318006867
 30
0.0
 11
-557.1104883781633
 21
-2001.183984673534
 31
0.0
 12
-552.1104883781633
 22
-2000.3506513402
 32
0.0
 13
-552.1104883781633
 23
-2000.3506513402
 33
0.0
  0
SOLID
  5
939
330
887
100
AcDbEntity
  8
text3
 62
     0
100
AcDbTrace
 10
-540.9104883781633
 20
-1999.517318006867
 30
0.0
 11
-540.9104883781633
 21
-2001.183984673534
 31
0.0
 12
-545.9104883781633
 22
-2000.3506513402
 32
0.0
 13
-545.9104883781633
 23
-2000.3506513402
 33
0.0
  0
MTEXT
  5
93A
330
887
100
AcDbEntity
  8
text3
 62
     0
100
AcDbMText
 10
-530.4104883781633
 20
-1996.8506513402
 30
0.0
 40
4.0
 41
0.0
 71
     5
 72
     1
  1
\A1;6.2
 73
     1
 44
1.0
  0
POINT
  5
93B
330
887
100
AcDbEntity
  8
Defpoints
 62
     0
100
AcDbPoint
 10
-545.9104883781633
 20
-1977.854488296295
 30
0.0
  0
POINT
  5
93C
330
887
100
AcDbEntity
  8
Defpoints
 62
     0
100
AcDbPoint
 10
-552.1104883781633
 20
-1977.854488296295
 30
0.0
  0
POINT
  5
93D
330
887
100
AcDbEntity
  8
Defpoints
 62
     0
100
AcDbPoint
 10
-552.1104883781633
 20
-2000.3506513402
 30
0.0
  0
ENDBLK
  5
893
330
887
100
AcDbEntity
  8
0
100
AcDbBlockEnd
  0
BLOCK
  5
89E
330
894
100
AcDbEntity
  8
0
100
AcDbBlockBegin
  2
*D16
 70
     1
 10
0.0
 20
0.0
 30
0.0
  3
*D16
  1

  0
LINE
  5
A04
330
894
100
AcDbEntity
  8
text3
 62
     0
370
    -2
100
AcDbLine
 10
-317.8736182496437
 20
-1971.786243889203
 30
0.0
 11
-317.8736182496437
 21
-1937.879835058605
 31
0.0
  0
LINE
  5
A05
330
894
100
AcDbEntity
  8
text3
 62
     0
370
    -2
100
AcDbLine
 10
-292.8736182496437
 20
-1971.786243889203
 30
0.0
 11
-292.8736182496437
 21
-1937.879835058605
 31
0.0
  0
LINE
  5
A06
330
894
100
AcDbEntity
  8
text3
 62
     0
370
    -2
100
AcDbLine
 10
-312.8736182496437
 20
-1942.879835058605
 30
0.0
 11
-297.8736182496437
 21
-1942.879835058605
 31
0.0
  0
SOLID
  5
A07
330
894
100
AcDbEntity
  8
text3
 62
     0
100
AcDbTrace
 10
-312.8736182496437
 20
-1942.046501725272
 30
0.0
 11
-312.8736182496437
 21
-1943.713168391939
 31
0.0
 12
-317.8736182496437
 22
-1942.879835058605
 32
0.0
 13
-317.8736182496437
 23
-1942.879835058605
 33
0.0
  0
SOLID
  5
A08
330
894
100
AcDbEntity
  8
text3
 62
     0
100
AcDbTrace
 10
-297.8736182496437
 20
-1942.046501725272
 30
0.0
 11
-297.8736182496437
 21
-1943.713168391939
 31
0.0
 12
-292.8736182496437
 22
-1942.879835058605
 32
0.0
 13
-292.8736182496437
 23
-1942.879835058605
 33
0.0
  0
MTEXT
  5
A09
330
894
100
AcDbEntity
  8
text3
 62
     0
100
AcDbMText
 10
-305.3736182496437
 20
-1939.379835058605
 30
0.0
 40
4.0
 41
0.0
 71
     5
 72
     1
  1
\A1;25±1
 73
     1
 44
1.0
  0
POINT
  5
A0A
330
894
100
AcDbEntity
  8
Defpoints
 62
     0
100
AcDbPoint
 10
-317.8736182496437
 20
-1973.786243889203
 30
0.0
  0
POINT
  5
A0B
330
894
100
AcDbEntity
  8
Defpoints
 62
     0
100
AcDbPoint
 10
-292.8736182496437
 20
-1973.786243889203
 30
0.0
  0
POINT
  5
A0C
330
894
100
AcDbEntity
  8
Defpoints
 62
     0
100
AcDbPoint
 10
-292.8736182496437
 20
-1942.879835058605
 30
0.0
  0
ENDBLK
  5
89F
330
894
100
AcDbEntity
  8
0
100
AcDbBlockEnd
  0
BLOCK
  5
8AB
330
8A0
100
AcDbEntity
  8
0
100
AcDbBlockBegin
  2
*D17
 70
     1
 10
0.0
 20
0.0
 30
0.0
  3
*D17
  1

  0
LINE
  5
9E6
330
8A0
100
AcDbEntity
  8
text3
 62
     0
370
    -2
100
AcDbLine
 10
-418.90635623853
 20
-1973.854488296295
 30
0.0
 11
-431.0702616811513
 21
-1973.854488296295
 31
0.0
  0
LINE
  5
9E7
330
8A0
100
AcDbEntity
  8
text3
 62
     0
370
    -2
100
AcDbLine
 10
-418.90635623853
 20
-1981.854488296295
 30
0.0
 11
-431.0702616811513
 21
-1981.854488296295
 31
0.0
  0
LINE
  5
9E8
330
8A0
100
AcDbEntity
  8
text3
 62
     0
370
    -2
100
AcDbLine
 10
-426.0702616811513
 20
-1986.854488296295
 30
0.0
 11
-426.0702616811513
 21
-1991.854488296295
 31
0.0
  0
LINE
  5
9E9
330
8A0
100
AcDbEntity
  8
text3
 62
     0
370
    -2
100
AcDbLine
 10
-426.0702616811513
 20
-1968.854488296295
 30
0.0
 11
-426.0702616811513
 21
-1945.654488296294
 31
0.0
  0
SOLID
  5
9EA
330
8A0
100
AcDbEntity
  8
text3
 62
     0
100
AcDbTrace
 10
-426.9035950144846
 20
-1986.854488296295
 30
0.0
 11
-425.236928347818
 21
-1986.854488296295
 31
0.0
 12
-426.0702616811513
 22
-1981.854488296295
 32
0.0
 13
-426.0702616811513
 23
-1981.854488296295
 33
0.0
  0
SOLID
  5
9EB
330
8A0
100
AcDbEntity
  8
text3
 62
     0
100
AcDbTrace
 10
-426.9035950144846
 20
-1968.854488296295
 30
0.0
 11
-425.236928347818
 21
-1968.854488296295
 31
0.0
 12
-426.0702616811513
 22
-1973.854488296295
 32
0.0
 13
-426.0702616811513
 23
-1973.854488296295
 33
0.0
  0
MTEXT
  5
9EC
330
8A0
100
AcDbEntity
  8
text3
 62
     0
100
AcDbMText
 10
-429.5702616811509
 20
-1954.754488296295
 30
0.0
 40
4.0
 41
0.0
 71
     5
 72
     1
  1
\A1;Φ8h6
 11
0.0000000000000001
 21
1.0
 31
0.0
 73
     1
 44
1.0
  0
POINT
  5
9ED
330
8A0
100
AcDbEntity
  8
Defpoints
 62
     0
100
AcDbPoint
 10
-416.90635623853
 20
-1973.854488296295
 30
0.0
  0
POINT
  5
9EE
330
8A0
100
AcDbEntity
  8
Defpoints
 62
     0
100
AcDbPoint
 10
-416.90635623853
 20
-1981.854488296295
 30
0.0
  0
POINT
  5
9EF
330
8A0
100
AcDbEntity
  8
Defpoints
 62
     0
100
AcDbPoint
 10
-426.0702616811513
 20
-1981.854488296295
 30
0.0
  0
ENDBLK
  5
8AC
330
8A0
100
AcDbEntity
  8
0
100
AcDbBlockEnd
  0
BLOCK
  5
8B8
330
8AD
100
AcDbEntity
  8
0
100
AcDbBlockBegin
  2
*D18
 70
     1
 10
0.0
 20
0.0
 30
0.0
  3
*D18
  1

  0
LINE
  5
9DC
330
8AD
100
AcDbEntity
  8
text3
 62
     0
370
    -2
100
AcDbLine
 10
-454.5204172751392
 20
-1979.854488296295
 30
0.0
 11
-454.5204172751392
 21
-2006.64891217409
 31
0.0
  0
LINE
  5
9DD
330
8AD
100
AcDbEntity
  8
text3
 62
     0
370
    -2
100
AcDbLine
 10
-447.0204172751392
 20
-1979.854488296295
 30
0.0
 11
-447.0204172751392
 21
-2006.64891217409
 31
0.0
  0
LINE
  5
9DE
330
8AD
100
AcDbEntity
  8
text3
 62
     0
370
    -2
100
AcDbLine
 10
-459.5204172751392
 20
-2001.64891217409
 30
0.0
 11
-464.5204172751392
 21
-2001.64891217409
 31
0.0
  0
LINE
  5
9DF
330
8AD
100
AcDbEntity
  8
text3
 62
     0
370
    -2
100
AcDbLine
 10
-442.0204172751392
 20
-2001.64891217409
 30
0.0
 11
-412.5537506084725
 21
-2001.64891217409
 31
0.0
  0
SOLID
  5
9E0
330
8AD
100
AcDbEntity
  8
text3
 62
     0
100
AcDbTrace
 10
-459.5204172751392
 20
-2000.815578840757
 30
0.0
 11
-459.5204172751392
 21
-2002.482245507424
 31
0.0
 12
-454.5204172751392
 22
-2001.64891217409
 32
0.0
 13
-454.5204172751392
 23
-2001.64891217409
 33
0.0
  0
SOLID
  5
9E1
330
8AD
100
AcDbEntity
  8
text3
 62
     0
100
AcDbTrace
 10
-442.0204172751392
 20
-2000.815578840757
 30
0.0
 11
-442.0204172751392
 21
-2002.482245507424
 31
0.0
 12
-447.0204172751392
 22
-2001.64891217409
 32
0.0
 13
-447.0204172751392
 23
-2001.64891217409
 33
0.0
  0
MTEXT
  5
9E2
330
8AD
100
AcDbEntity
  8
text3
 62
     0
100
AcDbMText
 10
-424.7870839418059
 20
-1998.14891217409
 30
0.0
 40
4.0
 41
0.0
 71
     5
 72
     1
  1
\A1;7.5±0.2
 73
     1
 44
1.0
  0
POINT
  5
9E3
330
8AD
100
AcDbEntity
  8
Defpoints
 62
     0
100
AcDbPoint
 10
-454.5204172751392
 20
-1977.854488296295
 30
0.0
  0
POINT
  5
9E4
330
8AD
100
AcDbEntity
  8
Defpoints
 62
     0
100
AcDbPoint
 10
-447.0204172751392
 20
-1977.854488296295
 30
0.0
  0
POINT
  5
9E5
330
8AD
100
AcDbEntity
  8
Defpoints
 62
     0
100
AcDbPoint
 10
-447.0204172751392
 20
-2001.64891217409
 30
0.0
  0
ENDBLK
  5
8B9
330
8AD
100
AcDbEntity
  8
0
100
AcDbBlockEnd
  0
BLOCK
  5
8C5
330
8BA
100
AcDbEntity
  8
0
100
AcDbBlockBegin
  2
*D19
 70
     1
 10
0.0
 20
0.0
 30
0.0
  3
*D19
  1

  0
LINE
  5
95B
330
8BA
100
AcDbEntity
  8
text3
 62
     0
370
    -2
100
AcDbLine
 10
-515.5876489389363
 20
-1973.854488296295
 30
0.0
 11
-529.7238935713381
 21
-1973.854488296295
 31
0.0
  0
LINE
  5
95C
330
8BA
100
AcDbEntity
  8
text3
 62
     0
370
    -2
100
AcDbLine
 10
-515.5876489389363
 20
-1981.854488296295
 30
0.0
 11
-529.7238935713381
 21
-1981.854488296295
 31
0.0
  0
LINE
  5
95D
330
8BA
100
AcDbEntity
  8
text3
 62
     0
370
    -2
100
AcDbLine
 10
-524.7238935713381
 20
-1986.854488296295
 30
0.0
 11
-524.7238935713381
 21
-1991.854488296295
 31
0.0
  0
LINE
  5
95E
330
8BA
100
AcDbEntity
  8
text3
 62
     0
370
    -2
100
AcDbLine
 10
-524.7238935713381
 20
-1968.854488296295
 30
0.0
 11
-524.7238935713381
 21
-1945.654488296294
 31
0.0
  0
SOLID
  5
95F
330
8BA
100
AcDbEntity
  8
text3
 62
     0
100
AcDbTrace
 10
-525.5572269046715
 20
-1986.854488296295
 30
0.0
 11
-523.8905602380047
 21
-1986.854488296295
 31
0.0
 12
-524.7238935713381
 22
-1981.854488296295
 32
0.0
 13
-524.7238935713381
 23
-1981.854488296295
 33
0.0
  0
SOLID
  5
960
330
8BA
100
AcDbEntity
  8
text3
 62
     0
100
AcDbTrace
 10
-525.5572269046715
 20
-1968.854488296295
 30
0.0
 11
-523.8905602380047
 21
-1968.854488296295
 31
0.0
 12
-524.7238935713381
 22
-1973.854488296295
 32
0.0
 13
-524.7238935713381
 23
-1973.854488296295
 33
0.0
  0
MTEXT
  5
961
330
8BA
100
AcDbEntity
  8
text3
 62
     0
100
AcDbMText
 10
-528.2238935713378
 20
-1954.754488296295
 30
0.0
 40
4.0
 41
0.0
 71
     5
 72
     1
  1
\A1;Φ8h6
 11
0.0000000000000001
 21
1.0
 31
0.0
 73
     1
 44
1.0
  0
POINT
  5
962
330
8BA
100
AcDbEntity
  8
Defpoints
 62
     0
100
AcDbPoint
 10
-513.5876489389363
 20
-1973.854488296295
 30
0.0
  0
POINT
  5
963
330
8BA
100
AcDbEntity
  8
Defpoints
 62
     0
100
AcDbPoint
 10
-513.5876489389363
 20
-1981.854488296295
 30
0.0
  0
POINT
  5
964
330
8BA
100
AcDbEntity
  8
Defpoints
 62
     0
100
AcDbPoint
 10
-524.7238935713381
 20
-1981.854488296295
 30
0.0
  0
ENDBLK
  5
8C6
330
8BA
100
AcDbEntity
  8
0
100
AcDbBlockEnd
  0
BLOCK
  5
8D1
330
8C7
100
AcDbEntity
  8
0
100
AcDbBlockBegin
  2
*D20
 70
     1
 10
0.0
 20
0.0
 30
0.0
  3
*D20
  1

  0
LINE
  5
965
330
8C7
100
AcDbEntity
  8
text3
 62
     0
370
    -2
100
AcDbLine
 10
-514.0876489389363
 20
-1972.354488296295
 30
0.0
 11
-514.0876489389363
 21
-1942.29226291304
 31
0.0
  0
LINE
  5
966
330
8C7
100
AcDbEntity
  8
text3
 62
     0
370
    -2
100
AcDbLine
 10
-489.0876489389363
 20
-1972.354488296295
 30
0.0
 11
-489.0876489389363
 21
-1942.29226291304
 31
0.0
  0
LINE
  5
967
330
8C7
100
AcDbEntity
  8
text3
 62
     0
370
    -2
100
AcDbLine
 10
-509.0876489389363
 20
-1944.29226291304
 30
0.0
 11
-494.0876489389363
 21
-1944.29226291304
 31
0.0
  0
SOLID
  5
968
330
8C7
100
AcDbEntity
  8
text3
 62
     0
100
AcDbTrace
 10
-509.0876489389363
 20
-1943.458929579707
 30
0.0
 11
-509.0876489389363
 21
-1945.125596246373
 31
0.0
 12
-514.0876489389363
 22
-1944.29226291304
 32
0.0
 13
-514.0876489389363
 23
-1944.29226291304
 33
0.0
  0
SOLID
  5
969
330
8C7
100
AcDbEntity
  8
text3
 62
     0
100
AcDbTrace
 10
-494.0876489389363
 20
-1943.458929579707
 30
0.0
 11
-494.0876489389363
 21
-1945.125596246373
 31
0.0
 12
-489.0876489389363
 22
-1944.29226291304
 32
0.0
 13
-489.0876489389363
 23
-1944.29226291304
 33
0.0
  0
MTEXT
  5
96A
330
8C7
100
AcDbEntity
  8
text3
 62
     0
100
AcDbMText
 10
-501.5876489389363
 20
-1940.79226291304
 30
0.0
 40
4.0
 41
0.0
 71
     5
 72
     1
  1
\A1;25±1
 73
     1
 44
1.0
  0
POINT
  5
96B
330
8C7
100
AcDbEntity
  8
Defpoints
 62
     0
100
AcDbPoint
 10
-514.0876489389363
 20
-1974.354488296295
 30
0.0
  0
POINT
  5
96C
330
8C7
100
AcDbEntity
  8
Defpoints
 62
     0
100
AcDbPoint
 10
-489.0876489389363
 20
-1974.354488296295
 30
0.0
  0
POINT
  5
96D
330
8C7
100
AcDbEntity
  8
Defpoints
 62
     0
100
AcDbPoint
 10
-489.0876489389363
 20
-1944.29226291304
 30
0.0
  0
ENDBLK
  5
8D2
330
8C7
100
AcDbEntity
  8
0
100
AcDbBlockEnd
  0
BLOCK
  5
8DD
330
8D3
100
AcDbEntity
  8
0
100
AcDbBlockBegin
  2
*D21
 70
     1
 10
0.0
 20
0.0
 30
0.0
  3
*D21
  1

  0
LINE
  5
96E
330
8D3
100
AcDbEntity
  8
text3
 62
     0
370
    -2
100
AcDbLine
 10
-498.0876489389368
 20
-1972.354488296295
 30
0.0
 11
-498.0876489389368
 21
-1952.804474891068
 31
0.0
  0
LINE
  5
96F
330
8D3
100
AcDbEntity
  8
text3
 62
     0
370
    -2
100
AcDbLine
 10
-514.0876489389363
 20
-1972.354488296295
 30
0.0
 11
-514.0876489389363
 21
-1952.804474891068
 31
0.0
  0
LINE
  5
970
330
8D3
100
AcDbEntity
  8
text3
 62
     0
370
    -2
100
AcDbLine
 10
-503.0876489389368
 20
-1957.804474891068
 30
0.0
 11
-509.0876489389363
 21
-1957.804474891068
 31
0.0
  0
SOLID
  5
971
330
8D3
100
AcDbEntity
  8
text3
 62
     0
100
AcDbTrace
 10
-503.0876489389368
 20
-1956.971141557735
 30
0.0
 11
-503.0876489389368
 21
-1958.637808224401
 31
0.0
 12
-498.0876489389368
 22
-1957.804474891068
 32
0.0
 13
-498.0876489389368
 23
-1957.804474891068
 33
0.0
  0
SOLID
  5
972
330
8D3
100
AcDbEntity
  8
text3
 62
     0
100
AcDbTrace
 10
-509.0876489389363
 20
-1956.971141557735
 30
0.0
 11
-509.0876489389363
 21
-1958.637808224401
 31
0.0
 12
-514.0876489389363
 22
-1957.804474891068
 32
0.0
 13
-514.0876489389363
 23
-1957.804474891068
 33
0.0
  0
MTEXT
  5
973
330
8D3
100
AcDbEntity
  8
text3
 62
     0
100
AcDbMText
 10
-506.0876489389365
 20
-1954.304474891068
 30
0.0
 40
4.0
 41
0.0
 71
     5
 72
     1
  1
\A1;16
 73
     1
 44
1.0
  0
POINT
  5
974
330
8D3
100
AcDbEntity
  8
Defpoints
 62
     0
100
AcDbPoint
 10
-498.0876489389368
 20
-1974.354488296295
 30
0.0
  0
POINT
  5
975
330
8D3
100
AcDbEntity
  8
Defpoints
 62
     0
100
AcDbPoint
 10
-514.0876489389363
 20
-1974.354488296295
 30
0.0
  0
POINT
  5
976
330
8D3
100
AcDbEntity
  8
Defpoints
 62
     0
100
AcDbPoint
 10
-514.0876489389363
 20
-1957.804474891068
 30
0.0
  0
ENDBLK
  5
8DE
330
8D3
100
AcDbEntity
  8
0
100
AcDbBlockEnd
  0
BLOCK
  5
8EA
330
8DF
100
AcDbEntity
  8
0
100
AcDbBlockBegin
  2
*D22
 70
     1
 10
0.0
 20
0.0
 30
0.0
  3
*D22
  1

  0
LINE
  5
9FA
330
8DF
100
AcDbEntity
  8
text3
 62
     0
370
    -2
100
AcDbLine
 10
-347.4876792862529
 20
-1979.854488296295
 30
0.0
 11
-347.4876792862529
 21
-2004.471093328974
 31
0.0
  0
LINE
  5
9FB
330
8DF
100
AcDbEntity
  8
text3
 62
     0
370
    -2
100
AcDbLine
 10
-354.9876792862529
 20
-1979.854488296295
 30
0.0
 11
-354.9876792862529
 21
-2004.471093328974
 31
0.0
  0
LINE
  5
9FC
330
8DF
100
AcDbEntity
  8
text3
 62
     0
370
    -2
100
AcDbLine
 10
-359.9876792862529
 20
-1999.471093328974
 30
0.0
 11
-364.9876792862529
 21
-1999.471093328974
 31
0.0
  0
LINE
  5
9FD
330
8DF
100
AcDbEntity
  8
text3
 62
     0
370
    -2
100
AcDbLine
 10
-342.4876792862529
 20
-1999.471093328974
 30
0.0
 11
-313.0210126195862
 21
-1999.471093328974
 31
0.0
  0
SOLID
  5
9FE
330
8DF
100
AcDbEntity
  8
text3
 62
     0
100
AcDbTrace
 10
-359.9876792862529
 20
-1998.637759995641
 30
0.0
 11
-359.9876792862529
 21
-2000.304426662308
 31
0.0
 12
-354.9876792862529
 22
-1999.471093328974
 32
0.0
 13
-354.9876792862529
 23
-1999.471093328974
 33
0.0
  0
SOLID
  5
9FF
330
8DF
100
AcDbEntity
  8
text3
 62
     0
100
AcDbTrace
 10
-342.4876792862529
 20
-1998.637759995641
 30
0.0
 11
-342.4876792862529
 21
-2000.304426662308
 31
0.0
 12
-347.4876792862529
 22
-1999.471093328974
 32
0.0
 13
-347.4876792862529
 23
-1999.471093328974
 33
0.0
  0
MTEXT
  5
A00
330
8DF
100
AcDbEntity
  8
text3
 62
     0
100
AcDbMText
 10
-325.2543459529196
 20
-1995.971093328974
 30
0.0
 40
4.0
 41
0.0
 71
     5
 72
     1
  1
\A1;7.5±0.2
 73
     1
 44
1.0
  0
POINT
  5
A01
330
8DF
100
AcDbEntity
  8
Defpoints
 62
     0
100
AcDbPoint
 10
-347.4876792862529
 20
-1977.854488296295
 30
0.0
  0
POINT
  5
A02
330
8DF
100
AcDbEntity
  8
Defpoints
 62
     0
100
AcDbPoint
 10
-354.9876792862529
 20
-1977.854488296295
 30
0.0
  0
POINT
  5
A03
330
8DF
100
AcDbEntity
  8
Defpoints
 62
     0
100
AcDbPoint
 10
-354.9876792862529
 20
-1999.471093328974
 30
0.0
  0
ENDBLK
  5
8EB
330
8DF
100
AcDbEntity
  8
0
100
AcDbBlockEnd
  0
BLOCK
  5
8F7
330
8EC
100
AcDbEntity
  8
0
100
AcDbBlockBegin
  2
*D23
 70
     1
 10
0.0
 20
0.0
 30
0.0
  3
*D23
  1

  0
LINE
  5
9F0
330
8EC
100
AcDbEntity
  8
text3
 62
     0
370
    -2
100
AcDbLine
 10
-348.9876792862529
 20
-1974.354488296295
 30
0.0
 11
-336.0467496006508
 21
-1974.354488296295
 31
0.0
  0
LINE
  5
9F1
330
8EC
100
AcDbEntity
  8
text3
 62
     0
370
    -2
100
AcDbLine
 10
-348.9876792862529
 20
-1981.854488296295
 30
0.0
 11
-336.0467496006508
 21
-1981.854488296295
 31
0.0
  0
LINE
  5
9F2
330
8EC
100
AcDbEntity
  8
text3
 62
     0
370
    -2
100
AcDbLine
 10
-341.0467496006508
 20
-1986.854488296295
 30
0.0
 11
-341.0467496006508
 21
-1991.854488296295
 31
0.0
  0
LINE
  5
9F3
330
8EC
100
AcDbEntity
  8
text3
 62
     0
370
    -2
100
AcDbLine
 10
-341.0467496006508
 20
-1969.354488296295
 30
0.0
 11
-341.0467496006508
 21
-1939.887821629628
 31
0.0
  0
SOLID
  5
9F4
330
8EC
100
AcDbEntity
  8
text3
 62
     0
100
AcDbTrace
 10
-341.8800829339841
 20
-1986.854488296295
 30
0.0
 11
-340.2134162673175
 21
-1986.854488296295
 31
0.0
 12
-341.0467496006508
 22
-1981.854488296295
 32
0.0
 13
-341.0467496006508
 23
-1981.854488296295
 33
0.0
  0
SOLID
  5
9F5
330
8EC
100
AcDbEntity
  8
text3
 62
     0
100
AcDbTrace
 10
-341.8800829339841
 20
-1969.354488296295
 30
0.0
 11
-340.2134162673175
 21
-1969.354488296295
 31
0.0
 12
-341.0467496006508
 22
-1974.354488296295
 32
0.0
 13
-341.0467496006508
 23
-1974.354488296295
 33
0.0
  0
MTEXT
  5
9F6
330
8EC
100
AcDbEntity
  8
text3
 62
     0
100
AcDbMText
 10
-344.5467496006505
 20
-1952.121154962961
 30
0.0
 40
4.0
 41
0.0
 71
     5
 72
     1
  1
\A1;7.5±0.2
 11
0.0000000000000001
 21
1.0
 31
0.0
 73
     1
 44
1.0
  0
POINT
  5
9F7
330
8EC
100
AcDbEntity
  8
Defpoints
 62
     0
100
AcDbPoint
 10
-350.9876792862529
 20
-1974.354488296295
 30
0.0
  0
POINT
  5
9F8
330
8EC
100
AcDbEntity
  8
Defpoints
 62
     0
100
AcDbPoint
 10
-350.9876792862529
 20
-1981.854488296295
 30
0.0
  0
POINT
  5
9F9
330
8EC
100
AcDbEntity
  8
Defpoints
 62
     0
100
AcDbPoint
 10
-341.0467496006508
 20
-1981.854488296295
 30
0.0
  0
ENDBLK
  5
8F8
330
8EC
100
AcDbEntity
  8
0
100
AcDbBlockEnd
  0
BLOCK
  5
904
330
8F9
100
AcDbEntity
  8
0
100
AcDbBlockBegin
  2
*D24
 70
     1
 10
0.0
 20
0.0
 30
0.0
  3
*D24
  1

  0
LINE
  5
A16
330
8F9
100
AcDbEntity
  8
text3
 62
     0
370
    -2
100
AcDbLine
 10
-303.8736182496437
 20
-1973.854488296295
 30
0.0
 11
-329.8863982699013
 21
-1973.854488296295
 31
0.0
  0
LINE
  5
A17
330
8F9
100
AcDbEntity
  8
text3
 62
     0
370
    -2
100
AcDbLine
 10
-303.8736182496437
 20
-1981.854488296295
 30
0.0
 11
-329.8863982699013
 21
-1981.854488296295
 31
0.0
  0
LINE
  5
A18
330
8F9
100
AcDbEntity
  8
text3
 62
     0
370
    -2
100
AcDbLine
 10
-324.8863982699012
 20
-1986.854488296295
 30
0.0
 11
-324.8863982699012
 21
-1991.854488296295
 31
0.0
  0
LINE
  5
A19
330
8F9
100
AcDbEntity
  8
text3
 62
     0
370
    -2
100
AcDbLine
 10
-324.8863982699012
 20
-1968.854488296295
 30
0.0
 11
-324.8863982699012
 21
-1945.654488296294
 31
0.0
  0
SOLID
  5
A1A
330
8F9
100
AcDbEntity
  8
text3
 62
     0
100
AcDbTrace
 10
-325.7197316032346
 20
-1986.854488296295
 30
0.0
 11
-324.053064936568
 21
-1986.854488296295
 31
0.0
 12
-324.8863982699012
 22
-1981.854488296295
 32
0.0
 13
-324.8863982699012
 23
-1981.854488296295
 33
0.0
  0
SOLID
  5
A1B
330
8F9
100
AcDbEntity
  8
text3
 62
     0
100
AcDbTrace
 10
-325.7197316032346
 20
-1968.854488296295
 30
0.0
 11
-324.053064936568
 21
-1968.854488296295
 31
0.0
 12
-324.8863982699012
 22
-1973.854488296295
 32
0.0
 13
-324.8863982699012
 23
-1973.854488296295
 33
0.0
  0
MTEXT
  5
A1C
330
8F9
100
AcDbEntity
  8
text3
 62
     0
100
AcDbMText
 10
-328.3863982699009
 20
-1954.754488296295
 30
0.0
 40
4.0
 41
0.0
 71
     5
 72
     1
  1
\A1;Φ8h6
 11
0.0000000000000001
 21
1.0
 31
0.0
 73
     1
 44
1.0
  0
POINT
  5
A1D
330
8F9
100
AcDbEntity
  8
Defpoints
 62
     0
100
AcDbPoint
 10
-301.8736182496437
 20
-1973.854488296295
 30
0.0
  0
POINT
  5
A1E
330
8F9
100
AcDbEntity
  8
Defpoints
 62
     0
100
AcDbPoint
 10
-301.8736182496437
 20
-1981.854488296295
 30
0.0
  0
POINT
  5
A1F
330
8F9
100
AcDbEntity
  8
Defpoints
 62
     0
100
AcDbPoint
 10
-324.8863982699012
 20
-1981.854488296295
 30
0.0
  0
ENDBLK
  5
905
330
8F9
100
AcDbEntity
  8
0
100
AcDbBlockEnd
  0
BLOCK
  5
910
330
906
100
AcDbEntity
  8
0
100
AcDbBlockBegin
  2
*D25
 70
     1
 10
0.0
 20
0.0
 30
0.0
  3
*D25
  1

  0
LINE
  5
9D3
330
906
100
AcDbEntity
  8
text3
 62
     0
370
    -2
100
AcDbLine
 10
-417.40635623853
 20
-1972.354488296295
 30
0.0
 11
-417.40635623853
 21
-1940.071451635449
 31
0.0
  0
LINE
  5
9D4
330
906
100
AcDbEntity
  8
text3
 62
     0
370
    -2
100
AcDbLine
 10
-392.40635623853
 20
-1972.354488296295
 30
0.0
 11
-392.40635623853
 21
-1940.071451635449
 31
0.0
  0
LINE
  5
9D5
330
906
100
AcDbEntity
  8
text3
 62
     0
370
    -2
100
AcDbLine
 10
-412.40635623853
 20
-1945.071451635449
 30
0.0
 11
-397.40635623853
 21
-1945.071451635449
 31
0.0
  0
SOLID
  5
9D6
330
906
100
AcDbEntity
  8
text3
 62
     0
100
AcDbTrace
 10
-412.40635623853
 20
-1944.238118302116
 30
0.0
 11
-412.40635623853
 21
-1945.904784968783
 31
0.0
 12
-417.40635623853
 22
-1945.071451635449
 32
0.0
 13
-417.40635623853
 23
-1945.071451635449
 33
0.0
  0
SOLID
  5
9D7
330
906
100
AcDbEntity
  8
text3
 62
     0
100
AcDbTrace
 10
-397.40635623853
 20
-1944.238118302116
 30
0.0
 11
-397.40635623853
 21
-1945.904784968783
 31
0.0
 12
-392.40635623853
 22
-1945.071451635449
 32
0.0
 13
-392.40635623853
 23
-1945.071451635449
 33
0.0
  0
MTEXT
  5
9D8
330
906
100
AcDbEntity
  8
text3
 62
     0
100
AcDbMText
 10
-404.90635623853
 20
-1941.571451635449
 30
0.0
 40
4.0
 41
0.0
 71
     5
 72
     1
  1
\A1;25±1
 73
     1
 44
1.0
  0
POINT
  5
9D9
330
906
100
AcDbEntity
  8
Defpoints
 62
     0
100
AcDbPoint
 10
-417.40635623853
 20
-1974.354488296295
 30
0.0
  0
POINT
  5
9DA
330
906
100
AcDbEntity
  8
Defpoints
 62
     0
100
AcDbPoint
 10
-392.40635623853
 20
-1974.354488296295
 30
0.0
  0
POINT
  5
9DB
330
906
100
AcDbEntity
  8
Defpoints
 62
     0
100
AcDbPoint
 10
-392.40635623853
 20
-1945.071451635449
 30
0.0
  0
ENDBLK
  5
911
330
906
100
AcDbEntity
  8
0
100
AcDbBlockEnd
  0
BLOCK
  5
91C
330
912
100
AcDbEntity
  8
0
100
AcDbBlockBegin
  2
*D26
 70
     1
 10
0.0
 20
0.0
 30
0.0
  3
*D26
  1

  0
LINE
  5
9CA
330
912
100
AcDbEntity
  8
text3
 62
     0
370
    -2
100
AcDbLine
 10
-401.4063562385301
 20
-1972.354488296295
 30
0.0
 11
-401.4063562385301
 21
-1959.834018204753
 31
0.0
  0
LINE
  5
9CB
330
912
100
AcDbEntity
  8
text3
 62
     0
370
    -2
100
AcDbLine
 10
-417.40635623853
 20
-1972.354488296295
 30
0.0
 11
-417.40635623853
 21
-1959.834018204753
 31
0.0
  0
LINE
  5
9CC
330
912
100
AcDbEntity
  8
text3
 62
     0
370
    -2
100
AcDbLine
 10
-406.40635623853
 20
-1964.834018204753
 30
0.0
 11
-412.40635623853
 21
-1964.834018204753
 31
0.0
  0
SOLID
  5
9CD
330
912
100
AcDbEntity
  8
text3
 62
     0
100
AcDbTrace
 10
-406.40635623853
 20
-1964.000684871419
 30
0.0
 11
-406.40635623853
 21
-1965.667351538086
 31
0.0
 12
-401.4063562385301
 22
-1964.834018204753
 32
0.0
 13
-401.4063562385301
 23
-1964.834018204753
 33
0.0
  0
SOLID
  5
9CE
330
912
100
AcDbEntity
  8
text3
 62
     0
100
AcDbTrace
 10
-412.40635623853
 20
-1964.000684871419
 30
0.0
 11
-412.40635623853
 21
-1965.667351538086
 31
0.0
 12
-417.40635623853
 22
-1964.834018204753
 32
0.0
 13
-417.40635623853
 23
-1964.834018204753
 33
0.0
  0
MTEXT
  5
9CF
330
912
100
AcDbEntity
  8
text3
 62
     0
100
AcDbMText
 10
-409.40635623853
 20
-1961.334018204753
 30
0.0
 40
4.0
 41
0.0
 71
     5
 72
     1
  1
\A1;16
 73
     1
 44
1.0
  0
POINT
  5
9D0
330
912
100
AcDbEntity
  8
Defpoints
 62
     0
100
AcDbPoint
 10
-401.4063562385301
 20
-1974.354488296295
 30
0.0
  0
POINT
  5
9D1
330
912
100
AcDbEntity
  8
Defpoints
 62
     0
100
AcDbPoint
 10
-417.40635623853
 20
-1974.354488296295
 30
0.0
  0
POINT
  5
9D2
330
912
100
AcDbEntity
  8
Defpoints
 62
     0
100
AcDbPoint
 10
-417.40635623853
 20
-1964.834018204753
 30
0.0
  0
ENDBLK
  5
91D
330
912
100
AcDbEntity
  8
0
100
AcDbBlockEnd
  0
BLOCK
  5
928
330
91E
100
AcDbEntity
  8
0
100
AcDbBlockBegin
  2
*D27
 70
     1
 10
0.0
 20
0.0
 30
0.0
  3
*D27
  1

  0
LINE
  5
A0D
330
91E
100
AcDbEntity
  8
text3
 62
     0
370
    -2
100
AcDbLine
 10
-317.8736182496437
 20
-1971.786243889203
 30
0.0
 11
-317.8736182496437
 21
-1958.675048630097
 31
0.0
  0
LINE
  5
A0E
330
91E
100
AcDbEntity
  8
text3
 62
     0
370
    -2
100
AcDbLine
 10
-301.8736182496437
 20
-1971.786243889203
 30
0.0
 11
-301.8736182496437
 21
-1958.675048630097
 31
0.0
  0
LINE
  5
A0F
330
91E
100
AcDbEntity
  8
text3
 62
     0
370
    -2
100
AcDbLine
 10
-312.8736182496437
 20
-1963.675048630097
 30
0.0
 11
-306.8736182496437
 21
-1963.675048630097
 31
0.0
  0
SOLID
  5
A10
330
91E
100
AcDbEntity
  8
text3
 62
     0
100
AcDbTrace
 10
-312.8736182496437
 20
-1962.841715296764
 30
0.0
 11
-312.8736182496437
 21
-1964.50838196343
 31
0.0
 12
-317.8736182496437
 22
-1963.675048630097
 32
0.0
 13
-317.8736182496437
 23
-1963.675048630097
 33
0.0
  0
SOLID
  5
A11
330
91E
100
AcDbEntity
  8
text3
 62
     0
100
AcDbTrace
 10
-306.8736182496437
 20
-1962.841715296764
 30
0.0
 11
-306.8736182496437
 21
-1964.50838196343
 31
0.0
 12
-301.8736182496437
 22
-1963.675048630097
 32
0.0
 13
-301.8736182496437
 23
-1963.675048630097
 33
0.0
  0
MTEXT
  5
A12
330
91E
100
AcDbEntity
  8
text3
 62
     0
100
AcDbMText
 10
-309.8736182496437
 20
-1960.175048630097
 30
0.0
 40
4.0
 41
0.0
 71
     5
 72
     1
  1
\A1;16
 73
     1
 44
1.0
  0
POINT
  5
A13
330
91E
100
AcDbEntity
  8
Defpoints
 62
     0
100
AcDbPoint
 10
-317.8736182496437
 20
-1973.786243889203
 30
0.0
  0
POINT
  5
A14
330
91E
100
AcDbEntity
  8
Defpoints
 62
     0
100
AcDbPoint
 10
-301.8736182496437
 20
-1973.786243889203
 30
0.0
  0
POINT
  5
A15
330
91E
100
AcDbEntity
  8
Defpoints
 62
     0
100
AcDbPoint
 10
-301.8736182496437
 20
-1963.675048630097
 30
0.0
  0
ENDBLK
  5
929
330
91E
100
AcDbEntity
  8
0
100
AcDbBlockEnd
  0
BLOCK
  5
A91
330
A86
100
AcDbEntity
  8
0
100
AcDbBlockBegin
  2
*D28
 70
     1
 10
0.0
 20
0.0
 30
0.0
  3
*D28
  1

  0
LINE
  5
A9D
330
A86
100
AcDbEntity
  8
text3
 62
     0
370
    -2
100
AcDbLine
 10
-356.3834821881427
 20
-1887.433959511519
 30
0.0
 11
-356.3834821881427
 21
-1894.264943536816
 31
0.0
  0
LINE
  5
A9E
330
A86
100
AcDbEntity
  8
text3
 62
     0
370
    -2
100
AcDbLine
 10
-353.3834821881438
 20
-1887.433959511519
 30
0.0
 11
-353.3834821881438
 21
-1894.264943536816
 31
0.0
  0
LINE
  5
A9F
330
A86
100
AcDbEntity
  8
text3
 62
     0
370
    -2
100
AcDbLine
 10
-348.3834821881438
 20
-1894.084943536816
 30
0.0
 11
-343.3834821881438
 21
-1894.084943536816
 31
0.0
  0
LINE
  5
AA0
330
A86
100
AcDbEntity
  8
text3
 62
     0
370
    -2
100
AcDbLine
 10
-361.3834821881427
 20
-1894.084943536816
 30
0.0
 11
-372.0501488548094
 21
-1894.084943536816
 31
0.0
  0
SOLID
  5
AA1
330
A86
100
AcDbEntity
  8
text3
 62
     0
100
AcDbTrace
 10
-348.3834821881438
 20
-1893.251610203482
 30
0.0
 11
-348.3834821881438
 21
-1894.918276870149
 31
0.0
 12
-353.3834821881438
 22
-1894.084943536816
 32
0.0
 13
-353.3834821881438
 23
-1894.084943536816
 33
0.0
  0
SOLID
  5
AA2
330
A86
100
AcDbEntity
  8
text3
 62
     0
100
AcDbTrace
 10
-361.3834821881427
 20
-1893.251610203482
 30
0.0
 11
-361.3834821881427
 21
-1894.918276870149
 31
0.0
 12
-356.3834821881427
 22
-1894.084943536816
 32
0.0
 13
-356.3834821881427
 23
-1894.084943536816
 33
0.0
  0
MTEXT
  5
AA3
330
A86
100
AcDbEntity
  8
text3
 62
     0
100
AcDbMText
 10
-369.216815521476
 20
-1890.584943536816
 30
0.0
 40
4.0
 41
0.0
 71
     5
 72
     1
  1
\A1;3
 73
     1
 44
1.0
  0
POINT
  5
AA4
330
A86
100
AcDbEntity
  8
Defpoints
 62
     0
100
AcDbPoint
 10
-356.3834821881427
 20
-1885.433959511519
 30
0.0
  0
POINT
  5
AA5
330
A86
100
AcDbEntity
  8
Defpoints
 62
     0
100
AcDbPoint
 10
-353.3834821881438
 20
-1885.433959511519
 30
0.0
  0
POINT
  5
AA6
330
A86
100
AcDbEntity
  8
Defpoints
 62
     0
100
AcDbPoint
 10
-353.3834821881438
 20
-1894.084943536816
 30
0.0
  0
ENDBLK
  5
A92
330
A86
100
AcDbEntity
  8
0
100
AcDbBlockEnd
  0
ENDSEC
  0
SECTION
  2
ENTITIES
  0
DIMENSION
  5
25
330
2
100
AcDbEntity
  8
text3
100
AcDbDimension
  2
*D7
 10
-312.2834821881434
 20
-1910.912136864053
 30
0.0
 11
-356.3334821881431
 21
-1907.412136864053
 31
0.0
 70
     1
  1
<>±1
 71
     5
 42
88.09999999999943
  3
DMST_1
100
AcDbAlignedDimension
 13
-400.3834821881429
 23
-1885.433959511519
 33
0.0
 14
-312.2834821881434
 24
-1885.43395951152
 34
0.0
1001
ACAD
1000
DSTYLE
1002
{
1070
    41
1040
3.0
1070
    42
1040
2.0
1070
    43
1040
0.38
1070
    44
1040
0.18
1070
    47
1040
0.0
1070
    48
1040
0.0
1070
    71
1070
     0
1070
    78
1070
     8
1070
    79
1070
     2
1070
   140
1040
4.0
1070
   141
1040
1.0
1070
   146
1040
1.0
1070
   147
1040
1.5
1070
   176
1070
     0
1070
   177
1070
     0
1070
   178
1070
     0
1070
   179
1070
     2
1070
   279
1070
     0
1002
}
  0
DIMENSION
  5
33
330
2
100
AcDbEntity
  8
text3
100
AcDbDimension
  2
*D4
 10
-312.2834821881434
 20
-1894.084943536816
 30
0.0
 11
-332.8334821881436
 21
-1890.584943536816
 31
0.0
 70
     1
  1
<>±1
 71
     5
 42
41.10000000000034
  3
DMST_1
100
AcDbAlignedDimension
 13
-353.3834821881438
 23
-1885.433959511519
 33
0.0
 14
-312.2834821881434
 24
-1885.433959511519
 34
0.0
1001
ACAD
1000
DSTYLE
1002
{
1070
    41
1040
3.0
1070
    42
1040
2.0
1070
    43
1040
0.38
1070
    44
1040
5.0
1070
    47
1040
0.0
1070
    48
1040
0.0
1070
    71
1070
     0
1070
    78
1070
     8
1070
    79
1070
     2
1070
   140
1040
4.0
1070
   141
1040
1.0
1070
   146
1040
1.0
1070
   147
1040
1.5
1070
   176
1070
     0
1070
   177
1070
     0
1070
   178
1070
     0
1070
   179
1070
     2
1070
   279
1070
     0
1002
}
  0
DIMENSION
  5
40
330
2
100
AcDbEntity
  8
text3
100
AcDbDimension
  2
*D3
 10
-312.2834821881425
 20
-1760.647368392557
 30
0.0
 11
-345.3834821881426
 21
-1760.647368392557
 31
0.0
 70
   129
  1
<>±1
 71
     5
 42
66.2000000000008
  3
DMST_1
100
AcDbAlignedDimension
 13
-378.4834821881431
 23
-1773.633959511519
 33
0.0
 14
-312.2834821881425
 24
-1773.633959511521
 34
0.0
1001
ACAD
1000
DSTYLE
1002
{
1070
    41
1040
5.0
1070
    42
1040
2.0
1070
    43
1040
0.38
1070
    44
1040
5.0
1070
    47
1040
0.0
1070
    48
1040
0.0
1070
    71
1070
     0
1070
    78
1070
     8
1070
    79
1070
     2
1070
   140
1040
4.0
1070
   141
1040
1.0
1070
   146
1040
1.0
1070
   147
1040
1.5
1070
   176
1070
     0
1070
   177
1070
     0
1070
   178
1070
     0
1070
   179
1070
     2
1070
   279
1070
     0
1002
}
  0
LINE
  5
4D
330
2
100
AcDbEntity
  8
Object
100
AcDbLine
 10
-335.4070199168619
 20
-1773.659422482992
 30
0.0
 11
-368.1111549539665
 21
-1776.23329373064
 31
0.0
  0
LINE
  5
4F
330
2
100
AcDbEntity
  8
Object
100
AcDbLine
 10
-335.3991740072903
 20
-1773.650934825836
 30
0.0
 11
-371.111154953967
 21
-1776.461528680433
 31
0.0
  0
LINE
  5
50
330
2
100
AcDbEntity
  8
Object
100
AcDbLine
 10
-335.0834821881422
 20
-1858.854623665062
 30
0.0
 11
-342.6274670353838
 21
-1858.633314483904
 31
0.0
  0
LINE
  5
51
330
2
100
AcDbEntity
  8
Object
100
AcDbLine
 10
-335.0834821881422
 20
-1856.872572857493
 30
0.0
 11
-342.6274670353838
 21
-1856.651263676336
 31
0.0
  0
LINE
  5
52
330
2
100
AcDbEntity
  8
Object
100
AcDbLine
 10
-335.0834821881432
 20
-1855.413295357977
 30
0.0
 11
-342.6274670353838
 21
-1855.634604539137
 31
0.0
  0
LINE
  5
53
330
2
100
AcDbEntity
  8
Object
100
AcDbLine
 10
-335.0834821881422
 20
-1872.854623665062
 30
0.0
 11
-342.6274670353838
 21
-1872.633314483905
 31
0.0
  0
LINE
  5
54
330
2
100
AcDbEntity
  8
Object
100
AcDbLine
 10
-335.0834821881422
 20
-1870.872572857494
 30
0.0
 11
-342.6274670353838
 21
-1870.651263676336
 31
0.0
  0
LINE
  5
55
330
2
100
AcDbEntity
  8
Object
100
AcDbLine
 10
-335.0834821881422
 20
-1869.413295357977
 30
0.0
 11
-342.6274670353838
 21
-1869.634604539136
 31
0.0
  0
LINE
  5
56
330
2
100
AcDbEntity
  8
Object
100
AcDbLine
 10
-335.0834821881422
 20
-1865.854623665063
 30
0.0
 11
-342.6274670353842
 21
-1865.633314483904
 31
0.0
  0
LINE
  5
57
330
2
100
AcDbEntity
  8
Object
100
AcDbLine
 10
-335.0834821881422
 20
-1863.872572857492
 30
0.0
 11
-342.6274670353842
 21
-1863.651263676336
 31
0.0
  0
LINE
  5
58
330
2
100
AcDbEntity
  8
Object
100
AcDbLine
 10
-335.0834821881426
 20
-1862.413295357979
 30
0.0
 11
-342.6274670353842
 21
-1862.634604539136
 31
0.0
  0
LINE
  5
59
330
2
100
AcDbEntity
  8
Object
100
AcDbLine
 10
-335.3887179100735
 20
-1880.628631602175
 30
0.0
 11
-350.4358394074547
 21
-1880.365983119457
 31
0.0
  0
TEXT
  5
5A
330
2
100
AcDbEntity
  8
text3
100
AcDbText
 10
-575.5355054913377
 20
-1744.387187720931
 30
0.0
 40
4.0
  1
60A10A
  7
Roman
100
AcDbText
  0
DIMENSION
  5
5C
330
2
100
AcDbEntity
  8
text3
100
AcDbDimension
  2
*D8
 10
-481.3765461220347
 20
-1755.374406521724
 30
0.0
 11
-514.8765461220347
 21
-1751.874406521724
 31
0.0
 70
    33
  1
<>±1
 71
     5
 42
67.0
  3
DMST_1
100
AcDbAlignedDimension
 13
-548.3765461220347
 23
-1773.633959511521
 33
0.0
 14
-481.3765461220347
 24
-1773.633959511521
 34
0.0
1001
ACAD
1000
DSTYLE
1002
{
1070
    46
1040
0.0
1070
    41
1040
5.0
1070
    42
1040
2.0
1070
    43
1040
0.38
1070
    44
1040
5.0
1070
    47
1040
0.0
1070
    48
1040
0.0
1070
    71
1070
     0
1070
    78
1070
     8
1070
    79
1070
     2
1070
   140
1040
4.0
1070
   141
1040
1.0
1070
   146
1040
1.0
1070
   147
1040
1.5
1070
   176
1070
     0
1070
   177
1070
     0
1070
   178
1070
     0
1070
   179
1070
     2
1070
   279
1070
     0
1002
}
  0
DIMENSION
  5
69
330
2
100
AcDbEntity
  8
text3
100
AcDbDimension
  2
*D9
 10
-484.8765461220339
 20
-1900.993536957872
 30
0.0
 11
-514.8765461220341
 21
-1897.493536957871
 31
0.0
 70
    32
  1
\U+25A1<>
 71
     5
 42
60.00000000000028
  3
DMST_1
100
AcDbAlignedDimension
 13
-544.8765461220342
 23
-1882.433959511519
 33
0.0
 14
-484.8765461220339
 24
-1882.433959511519
 34
0.0
100
AcDbRotatedDimension
1001
ACAD
1000
DSTYLE
1002
{
1070
    41
1040
5.0
1070
    42
1040
3.0
1070
    43
1040
0.38
1070
    44
1040
5.0
1070
    47
1040
0.0
1070
    48
1040
0.0
1070
    71
1070
     0
1070
    78
1070
     8
1070
    79
1070
     2
1070
   140
1040
4.0
1070
   141
1040
2.0
1070
   146
1040
1.0
1070
   147
1040
1.5
1070
   176
1070
     0
1070
   177
1070
     0
1070
   178
1070
     0
1070
   179
1070
     2
1070
   279
1070
     0
1002
}
  0
LINE
  5
76
330
2
100
AcDbEntity
  8
Object
100
AcDbLine
 10
-537.7765461220343
 20
-1773.633959511522
 30
0.0
 11
-491.9765461220346
 21
-1773.633959511521
 31
0.0
  0
ARC
  5
77
330
2
100
AcDbEntity
  8
Object
100
AcDbCircle
 10
-498.8765461220332
 20
-1795.633959511528
 30
0.0
 40
6.0
100
AcDbArc
 50
150.0000000000006
 51
29.99999999999932
  0
LINE
  5
78
330
2
100
AcDbEntity
  8
Object
100
AcDbLine
 10
-499.5836528883191
 20
-1798.926852730341
 30
0.0
 11
-502.5836529016211
 21
-1795.926852730615
 31
0.0
  0
ARC
  5
79
330
2
100
AcDbEntity
  8
Object
100
AcDbCircle
 10
-498.8765461220332
 20
-1795.633959511528
 30
0.0
 40
4.0
100
AcDbArc
 50
180.0
 51
0.0
  0
ARC
  5
7A
330
2
100
AcDbEntity
  8
Object
100
AcDbCircle
 10
-501.7049732467791
 20
-1792.033959511527
 30
0.0
 40
0.5
100
AcDbArc
 50
270.0
 51
308.9424412689771
  0
ARC
  5
7B
330
2
100
AcDbEntity
  8
Object
100
AcDbCircle
 10
-498.8765461220332
 20
-1795.533959511528
 30
0.0
 40
6.0
100
AcDbArc
 50
32.57897039282417
 51
147.4210296071758
  0
LINE
  5
7C
330
2
100
AcDbEntity
  8
text3
100
AcDbLine
 10
-530.8765461220341
 20
-1802.633959511528
 30
0.0
 11
-498.8765461220341
 21
-1802.633959511528
 31
0.0
  0
LINE
  5
7D
330
2
100
AcDbEntity
  8
1
  6
Continuous
 62
     7
100
AcDbLine
 10
-541.33405923268
 20
-1825.433959511521
 30
0.0
 11
-488.4190330113884
 21
-1825.433959511521
 31
0.0
  0
LINE
  5
7F
330
2
100
AcDbEntity
  8
Object
100
AcDbLine
 10
-497.8765461220327
 20
-1823.106655892194
 30
0.0
 11
-531.8765461220323
 21
-1823.106655892194
 31
0.0
  0
LINE
  5
80
330
2
100
AcDbEntity
  8
1
  6
Continuous
 62
     7
100
AcDbLine
 10
-541.33405923268
 20
-1885.433959511519
 30
0.0
 11
-488.4190330113884
 21
-1885.433959511519
 31
0.0
  0
CIRCLE
  5
81
330
2
100
AcDbEntity
  8
1
  6
Continuous
 62
     7
100
AcDbCircle
 10
-514.8765461220341
 20
-1855.433959511519
 30
0.0
 40
25.0
  0
CIRCLE
  5
82
330
2
100
AcDbEntity
  8
1
  6
Continuous
 62
     3
100
AcDbCircle
 10
-514.8765461220341
 20
-1855.433959511519
 30
0.0
 40
24.5
  0
LINE
  5
83
330
2
100
AcDbEntity
  8
Object
100
AcDbLine
 10
-548.3765461220342
 20
-1854.767934107735
 30
0.0
 11
-548.3765461220342
 21
-1780.633959511521
 31
0.0
  0
LINE
  5
84
330
2
100
AcDbEntity
  8
1
  6
Continuous
 62
     7
100
AcDbLine
 10
-544.8765461220342
 20
-1881.891472622167
 30
0.0
 11
-544.8765461220342
 21
-1828.976446400875
 31
0.0
  0
LINE
  5
85
330
2
100
AcDbEntity
  8
Object2
  6
BORDER
 48
10.0
100
AcDbLine
 10
-544.3764647115608
 20
-1876.63395951152
 30
0.0
 11
-544.3764647115605
 21
-1828.233959511521
 31
0.0
  0
LINE
  5
88
330
2
100
AcDbEntity
  8
1
  6
DASH_CENTER
 62
     3
100
AcDbLine
 10
-536.6200796435206
 20
-1877.177493033006
 30
0.0
 11
-542.6304872836059
 21
-1883.187900673092
 31
0.0
  0
ARC
  5
8A
330
2
100
AcDbEntity
  8
1
  6
DASH_CENTER
 62
     3
100
AcDbCircle
 10
-514.8765461220341
 20
-1855.433959511519
 30
0.0
 40
34.99999999999998
100
AcDbArc
 50
218.0765510851914
 51
231.9234489148056
  0
CIRCLE
  5
8B
330
2
100
AcDbEntity
  8
1
  6
Continuous
 62
     7
100
AcDbCircle
 10
-539.6252834635634
 20
-1880.182696853051
 30
0.0
 40
2.75
  0
ARC
  5
8C
330
2
100
AcDbEntity
  8
1
  6
Continuous
 62
     7
100
AcDbCircle
 10
-514.8765461220341
 20
-1855.433959511519
 30
0.0
 40
40.0
100
AcDbArc
 50
221.409622109279
 51
228.5903778907194
  0
ARC
  5
8D
330
2
100
AcDbEntity
  8
Object
100
AcDbCircle
 10
-547.8765461220342
 20
-1858.922634646116
 30
0.0
 40
0.5
100
AcDbArc
 50
119.9999999999951
 51
180.0
  0
ARC
  5
8E
330
2
100
AcDbEntity
  8
Object
100
AcDbCircle
 10
-547.8765461220342
 20
-1854.767934107735
 30
0.0
 40
0.5
100
AcDbArc
 50
180.0
 51
262.8126975029303
  0
LINE
  5
8F
330
2
100
AcDbEntity
  8
Object
100
AcDbLine
 10
-548.1265461220342
 20
-1858.489621944223
 30
0.0
 11
-547.9391028044057
 21
-1858.381401494332
 31
0.0
  0
POINT
  5
90
330
2
100
AcDbEntity
  8
Object
100
AcDbPoint
 10
-548.3765461220347
 20
-1855.633959511521
 30
0.0
  0
POINT
  5
91
330
2
100
AcDbEntity
  8
Object
100
AcDbPoint
 10
-548.3765461220342
 20
-1858.633959511521
 30
0.0
  0
LINE
  5
92
330
2
100
AcDbEntity
  8
Object
100
AcDbLine
 10
-547.9391028044057
 20
-1858.381401494332
 30
0.0
 11
-547.9391028044057
 21
-1855.264005333964
 31
0.0
  0
LINE
  5
93
330
2
100
AcDbEntity
  8
Object
100
AcDbLine
 10
-544.876546122034
 20
-1880.633959511522
 30
0.0
 11
-545.3765461220342
 21
-1880.633959511521
 31
0.0
  0
ARC
  5
94
330
2
100
AcDbEntity
  8
Object
100
AcDbCircle
 10
-547.8765461220342
 20
-1868.767934107736
 30
0.0
 40
0.5
100
AcDbArc
 50
180.0
 51
262.8126975029303
  0
ARC
  5
95
330
2
100
AcDbEntity
  8
Object
100
AcDbCircle
 10
-547.8765461220342
 20
-1865.922634646116
 30
0.0
 40
0.5
100
AcDbArc
 50
119.9999999999951
 51
180.0
  0
ARC
  5
96
330
2
100
AcDbEntity
  8
Object
100
AcDbCircle
 10
-547.8765461220342
 20
-1861.767934107737
 30
0.0
 40
0.5
100
AcDbArc
 50
180.0
 51
262.8126975029303
  0
LINE
  5
97
330
2
100
AcDbEntity
  8
Object
100
AcDbLine
 10
-548.1265461220342
 20
-1865.489621944224
 30
0.0
 11
-547.9391028044052
 21
-1865.381401494333
 31
0.0
  0
POINT
  5
98
330
2
100
AcDbEntity
  8
Object
100
AcDbPoint
 10
-548.3765461220347
 20
-1862.633959511519
 30
0.0
  0
POINT
  5
99
330
2
100
AcDbEntity
  8
Object
100
AcDbPoint
 10
-548.3765461220342
 20
-1865.633959511519
 30
0.0
  0
POINT
  5
9A
330
2
100
AcDbEntity
  8
Object
100
AcDbPoint
 10
-548.3765461220347
 20
-1869.633959511521
 30
0.0
  0
LINE
  5
9B
330
2
100
AcDbEntity
  8
Object
100
AcDbLine
 10
-547.9391028044057
 20
-1865.381401494333
 30
0.0
 11
-547.9391028044057
 21
-1862.264005333964
 31
0.0
  0
LINE
  5
9C
330
2
100
AcDbEntity
  8
Object
100
AcDbLine
 10
-548.3765461220342
 20
-1868.767934107736
 30
0.0
 11
-548.3765461220342
 21
-1865.922634646116
 31
0.0
  0
LINE
  5
9D
330
2
100
AcDbEntity
  8
Object
100
AcDbLine
 10
-548.3765461220342
 20
-1877.633959511521
 30
0.0
 11
-548.3765461220342
 21
-1872.922634646116
 31
0.0
  0
ARC
  5
9E
330
2
100
AcDbEntity
  8
Object
100
AcDbCircle
 10
-547.8765461220342
 20
-1872.922634646116
 30
0.0
 40
0.5
100
AcDbArc
 50
119.9999999999951
 51
180.0
  0
LINE
  5
9F
330
2
100
AcDbEntity
  8
Object
100
AcDbLine
 10
-548.1265461220342
 20
-1872.489621944223
 30
0.0
 11
-547.9391028044052
 21
-1872.381401494332
 31
0.0
  0
POINT
  5
A0
330
2
100
AcDbEntity
  8
Object
100
AcDbPoint
 10
-548.3765461220342
 20
-1872.633959511521
 30
0.0
  0
LINE
  5
A1
330
2
100
AcDbEntity
  8
Object
100
AcDbLine
 10
-547.9391028044052
 20
-1872.381401494332
 30
0.0
 11
-547.9391028044057
 21
-1869.264005333964
 31
0.0
  0
ARC
  5
A2
330
2
100
AcDbEntity
  8
Object
100
AcDbCircle
 10
-545.3765461220342
 20
-1877.633959511521
 30
0.0
 40
3.0
100
AcDbArc
 50
180.0
 51
270.0
  0
LINE
  5
A3
330
2
100
AcDbEntity
  8
Object
100
AcDbLine
 10
-548.3765461220342
 20
-1861.767934107737
 30
0.0
 11
-548.3765461220342
 21
-1858.922634646116
 31
0.0
  0
LINE
  5
A5
330
2
100
AcDbEntity
  8
Center
  6
CENTER
100
AcDbLine
 10
-524.8765461220341
 20
-1855.433959511519
 30
0.0
 11
-504.8765461220343
 21
-1855.433959511519
 31
0.0
  0
CIRCLE
  5
A8
330
2
100
AcDbEntity
  8
1
  6
Continuous
 62
     7
100
AcDbCircle
 10
-514.8765461220341
 20
-1855.433959511519
 30
0.0
 40
9.0
  0
CIRCLE
  5
A9
330
2
100
AcDbEntity
  8
Object
100
AcDbCircle
 10
-514.8765461220341
 20
-1855.433959511519
 30
0.0
 40
4.0
  0
CIRCLE
  5
AE
330
2
100
AcDbEntity
  8
1
  6
Continuous
 62
     3
100
AcDbCircle
 10
-514.8765461220341
 20
-1855.433959511519
 30
0.0
 40
3.499999999999879
  0
LINE
  5
B0
330
2
100
AcDbEntity
  8
Center
  6
CENTER
100
AcDbLine
 10
-514.8765461220341
 20
-1845.433959511521
 30
0.0
 11
-514.8765461220341
 21
-1865.433959511521
 31
0.0
  0
ARC
  5
B1
330
2
100
AcDbEntity
  8
Object
100
AcDbCircle
 10
-536.7765461220348
 20
-1775.133959511521
 30
0.0
 40
1.0
100
AcDbArc
 50
90.0
 51
180.0
  0
ARC
  5
B2
330
2
100
AcDbEntity
  8
Object
100
AcDbCircle
 10
-530.8765461220341
 20
-1795.633959511528
 30
0.0
 40
7.0
100
AcDbArc
 50
180.0
 51
270.0
  0
LINE
  5
B3
330
2
100
AcDbEntity
  8
Object
100
AcDbLine
 10
-535.8765461220333
 20
-1792.633959511527
 30
0.0
 11
-537.3765461220333
 21
-1792.633959511527
 31
0.0
  0
LINE
  5
B4
330
2
100
AcDbEntity
  8
Object
100
AcDbLine
 10
-537.7765461220343
 20
-1783.333959511522
 30
0.0
 11
-535.7765461220338
 21
-1783.333959511522
 31
0.0
  0
LINE
  5
B5
330
2
100
AcDbEntity
  8
Object
100
AcDbLine
 10
-537.7765461220343
 20
-1783.133959511522
 30
0.0
 11
-535.7765461220338
 21
-1783.133959511522
 31
0.0
  0
LINE
  5
B6
330
2
100
AcDbEntity
  8
Object
100
AcDbLine
 10
-537.5765461220345
 20
-1792.533959511527
 30
0.0
 11
-533.7049732467811
 21
-1792.533959511527
 31
0.0
  0
LINE
  5
B7
330
2
100
AcDbEntity
  8
1
  6
DASH_CENTER
 62
     3
100
AcDbLine
 10
-536.6200796435206
 20
-1833.690425990035
 30
0.0
 11
-542.6304872836059
 21
-1827.680018349949
 31
0.0
  0
ARC
  5
B8
330
2
100
AcDbEntity
  8
1
  6
DASH_CENTER
 62
     3
100
AcDbCircle
 10
-514.8765461220341
 20
-1855.433959511519
 30
0.0
 40
35.00000000000012
100
AcDbArc
 50
128.0765510851892
 51
141.9234489148084
  0
CIRCLE
  5
B9
330
2
100
AcDbEntity
  8
1
  6
Continuous
 62
     7
100
AcDbCircle
 10
-539.6252834635634
 20
-1830.685222169992
 30
0.0
 40
2.749999999999989
  0
LINE
  5
BA
330
2
100
AcDbEntity
  8
HIDDEN-1
  6
ByBlock
100
AcDbLine
 10
-532.8765461220337
 20
-1823.633959511521
 30
0.0
 11
-542.2065362691711
 21
-1823.633959511521
 31
0.0
  0
LINE
  5
BD
330
2
100
AcDbEntity
  8
Object
100
AcDbLine
 10
-533.8765461220333
 20
-1822.96331666239
 30
0.0
 11
-540.5912763900617
 21
-1822.963316662389
 31
0.0
  0
LINE
  5
BE
330
2
100
AcDbEntity
  8
Object
100
AcDbLine
 10
-545.591276390062
 20
-1781.17963867127
 30
0.0
 11
-545.591276390062
 21
-1788.633959511519
 31
0.0
  0
LINE
  5
BF
330
2
100
AcDbEntity
  8
Object
100
AcDbLine
 10
-537.8765461220342
 20
-1781.433959511521
 30
0.0
 11
-537.8765461220342
 21
-1795.633959511528
 31
0.0
  0
LINE
  5
C0
330
2
100
AcDbEntity
  8
Object
100
AcDbLine
 10
-537.7765461220343
 20
-1773.633959511521
 30
0.0
 11
-537.7765461220343
 21
-1792.333959511527
 31
0.0
  0
LINE
  5
C1
330
2
100
AcDbEntity
  8
Object
100
AcDbLine
 10
-539.6141082015116
 20
-1788.633959511519
 30
0.0
 11
-539.6141082015116
 21
-1805.633959511521
 31
0.0
  0
LINE
  5
C2
330
2
100
AcDbEntity
  8
Object
100
AcDbLine
 10
-547.2578672950053
 20
-1789.633959511521
 30
0.0
 11
-547.2578672950053
 21
-1804.633959511521
 31
0.0
  0
LINE
  5
C3
330
2
100
AcDbEntity
  8
Object
100
AcDbLine
 10
-548.254061993097
 20
-1788.633959511519
 30
0.0
 11
-548.254061993097
 21
-1805.633959511521
 31
0.0
  0
LINE
  5
C4
330
2
100
AcDbEntity
  8
Object
100
AcDbLine
 10
-544.5950816919709
 20
-1789.633959511521
 30
0.0
 11
-544.5950816919703
 21
-1804.633959511521
 31
0.0
  0
LINE
  5
C5
330
2
100
AcDbEntity
  8
Object
100
AcDbLine
 10
-548.254061993097
 20
-1805.633959511521
 30
0.0
 11
-539.6141082015116
 21
-1805.633959511521
 31
0.0
  0
LINE
  5
C6
330
2
100
AcDbEntity
  8
Object
100
AcDbLine
 10
-548.254061993097
 20
-1788.633959511519
 30
0.0
 11
-539.6141082015116
 21
-1788.633959511519
 31
0.0
  0
ARC
  5
C7
330
2
100
AcDbEntity
  8
Object
100
AcDbCircle
 10
-537.3765461220333
 20
-1792.133959511528
 30
0.0
 40
0.5
100
AcDbArc
 50
180.0
 51
270.0
  0
ARC
  5
C8
330
2
100
AcDbEntity
  8
Object
100
AcDbCircle
 10
-537.576546122035
 20
-1792.333959511528
 30
0.0
 40
0.2
100
AcDbArc
 50
180.0
 51
270.0
  0
ARC
  5
C9
330
2
100
AcDbEntity
  8
1
  6
Continuous
 62
     7
100
AcDbCircle
 10
-514.8765461220341
 20
-1855.433959511519
 30
0.0
 40
40.00000000000006
100
AcDbArc
 50
131.4096221092803
 51
138.5903778907209
  0
ARC
  5
CA
330
2
100
AcDbEntity
  8
Object
100
AcDbCircle
 10
-540.5912763900617
 20
-1817.963316662389
 30
0.0
 40
5.0
100
AcDbArc
 50
180.0
 51
270.0
  0
ARC
  5
CB
330
2
100
AcDbEntity
  8
Object
100
AcDbCircle
 10
-542.2065362691711
 20
-1818.633959511521
 30
0.0
 40
5.0
100
AcDbArc
 50
180.0
 51
270.0
  0
LINE
  5
CC
330
2
100
AcDbEntity
  8
Object
100
AcDbLine
 10
-545.591276390062
 20
-1805.633959511521
 30
0.0
 11
-545.591276390062
 21
-1817.963316662389
 31
0.0
  0
LINE
  5
CD
330
2
100
AcDbEntity
  8
Object
100
AcDbLine
 10
-547.2065362691693
 20
-1805.633959511521
 30
0.0
 11
-547.2065362691693
 21
-1818.633959511521
 31
0.0
  0
LINE
  5
CE
330
2
100
AcDbEntity
  8
Object
100
AcDbLine
 10
-537.8765461220342
 20
-1773.633959511521
 30
0.0
 11
-541.3765461220342
 21
-1773.633959511521
 31
0.0
  0
LINE
  5
CF
330
2
100
AcDbEntity
  8
Object
100
AcDbLine
 10
-537.8765461220342
 20
-1776.17963867127
 30
0.0
 11
-540.591276390062
 21
-1776.17963867127
 31
0.0
  0
ARC
  5
D0
330
2
100
AcDbEntity
  8
Object
100
AcDbCircle
 10
-540.591276390062
 20
-1781.17963867127
 30
0.0
 40
5.0
100
AcDbArc
 50
90.0
 51
180.0
  0
ARC
  5
D1
330
2
100
AcDbEntity
  8
Object
100
AcDbCircle
 10
-541.3765461220342
 20
-1780.633959511521
 30
0.0
 40
7.0
100
AcDbArc
 50
90.0
 51
180.0
  0
LINE
  5
D2
330
2
100
AcDbEntity
  8
Object
100
AcDbLine
 10
-537.8765461220352
 20
-1781.433959511521
 30
0.0
 11
-537.8765461220342
 21
-1773.633959511521
 31
0.0
  0
ARC
  5
D3
330
2
100
AcDbEntity
  8
Object
100
AcDbCircle
 10
-516.8765461220341
 20
-1795.633959511528
 30
0.0
 40
7.0
100
AcDbArc
 50
180.0
 51
270.0
  0
ARC
  5
D4
330
2
100
AcDbEntity
  8
Object
100
AcDbCircle
 10
-516.8765461220341
 20
-1795.633959511528
 30
0.0
 40
7.099999999999997
100
AcDbArc
 50
180.0
 51
244.8779398133777
  0
ARC
  5
D5
330
2
100
AcDbEntity
  8
Object
100
AcDbCircle
 10
-520.018201736515
 20
-1802.333959511528
 30
0.0
 40
0.3
100
AcDbArc
 50
270.0
 51
64.8779398133777
  0
ARC
  5
D6
330
2
100
AcDbEntity
  8
Object
  6
Continuous
100
AcDbCircle
 10
-527.8765461220339
 20
-1795.219745947829
 30
0.0
 40
1.0
100
AcDbArc
 50
314.9999998703518
 51
0.0
  0
LINE
  5
D7
330
2
100
AcDbEntity
  8
Object
100
AcDbLine
 10
-523.9765461220342
 20
-1792.633959511528
 30
0.0
 11
-523.9765461220342
 21
-1795.633959511528
 31
0.0
  0
LINE
  5
D8
330
2
100
AcDbEntity
  8
Object
100
AcDbLine
 10
-526.8765461220332
 20
-1795.633959511528
 30
0.0
 11
-526.8765461220339
 21
-1793.633959511528
 31
0.0
  0
ARC
  5
D9
330
2
100
AcDbEntity
  8
Object
100
AcDbCircle
 10
-525.8765461220339
 20
-1793.633959511528
 30
0.0
 40
1.0
100
AcDbArc
 50
90.0
 51
180.0
  0
LINE
  5
DA
330
2
100
AcDbEntity
  8
Object
100
AcDbLine
 10
-528.0481189972893
 20
-1792.533959511527
 30
0.0
 11
-524.0765461220339
 21
-1792.533959511527
 31
0.0
  0
ARC
  5
DB
330
2
100
AcDbEntity
  8
Object
100
AcDbCircle
 10
-524.0765461220339
 20
-1792.733959511528
 30
0.0
 40
0.2
100
AcDbArc
 50
0.0
 51
90.0
  0
ARC
  5
DC
330
2
100
AcDbEntity
  8
Object
100
AcDbCircle
 10
-525.3993205469837
 20
-1792.033959511527
 30
0.0
 40
0.5
100
AcDbArc
 50
212.5789703927968
 51
270.0
  0
LINE
  5
DD
330
2
100
AcDbEntity
  8
Object
100
AcDbLine
 10
-523.8765461220341
 20
-1792.733959511528
 30
0.0
 11
-523.8765461220341
 21
-1795.633959511527
 31
0.0
  0
LINE
  5
DE
330
2
100
AcDbEntity
  8
Object
100
AcDbLine
 10
-525.8765461220339
 20
-1792.633959511528
 30
0.0
 11
-523.9033410412774
 21
-1792.633959511528
 31
0.0
  0
LINE
  5
DF
330
2
100
AcDbEntity
  8
1
  6
Continuous
 62
     7
100
AcDbLine
 10
-522.7765461220338
 20
-1823.106655892194
 30
0.0
 11
-522.7765461220338
 21
-1825.433959511521
 31
0.0
  0
ARC
  5
E0
330
2
100
AcDbEntity
  8
Object
  6
Continuous
100
AcDbCircle
 10
-533.8765461220333
 20
-1795.219745950481
 30
0.0
 40
1.0
100
AcDbArc
 50
180.0
 51
224.9999998703524
  0
LINE
  5
E1
330
2
100
AcDbEntity
  8
Center
  6
Continuous
100
AcDbLine
 10
-530.8765461220341
 20
-1796.633959511527
 30
0.0
 11
-530.8765461220341
 21
-1794.633959511528
 31
0.0
  0
LINE
  5
E2
330
2
100
AcDbEntity
  8
Center
  6
Continuous
100
AcDbLine
 10
-531.8765461220341
 20
-1795.633959511528
 30
0.0
 11
-529.8765461220344
 21
-1795.633959511528
 31
0.0
  0
LINE
  5
E3
330
2
100
AcDbEntity
  8
Object
100
AcDbLine
 10
-534.5836529048198
 20
-1795.926852730068
 30
0.0
 11
-531.5836529197219
 21
-1798.926852728741
 31
0.0
  0
LINE
  5
E4
330
2
100
AcDbEntity
  8
Object
100
AcDbLine
 10
-534.8765461220333
 20
-1795.633959511528
 30
0.0
 11
-534.8765461220333
 21
-1793.633959511527
 31
0.0
  0
ARC
  5
E5
330
2
100
AcDbEntity
  8
Object
100
AcDbCircle
 10
-530.8765461369353
 20
-1798.219745949154
 30
0.0
 40
1.0
100
AcDbArc
 50
224.9999999999818
 51
315.0000000000181
  0
ARC
  5
E6
330
2
100
AcDbEntity
  8
Object
100
AcDbCircle
 10
-535.8765461220333
 20
-1793.633959511527
 30
0.0
 40
1.0
100
AcDbArc
 50
0.0
 51
90.0
  0
ARC
  5
E7
330
2
100
AcDbEntity
  8
Object
100
AcDbCircle
 10
-536.3537716970873
 20
-1792.033959511527
 30
0.0
 40
0.5
100
AcDbArc
 50
270.0
 51
327.4210296072028
  0
ARC
  5
E8
330
2
100
AcDbEntity
  8
Object
100
AcDbCircle
 10
-530.8765461220351
 20
-1795.533959511528
 30
0.0
 40
4.0
100
AcDbArc
 50
51.05755873102278
 51
128.9424412689772
  0
ARC
  5
E9
330
2
100
AcDbEntity
  8
Object
100
AcDbCircle
 10
-533.7049732467818
 20
-1792.033959511527
 30
0.0
 40
0.5
100
AcDbArc
 50
270.0
 51
308.9424412689771
  0
LINE
  5
EA
330
2
100
AcDbEntity
  8
Center
100
AcDbLine
 10
-530.8765461220351
 20
-1796.533959511527
 30
0.0
 11
-530.8765461220351
 21
-1794.533959511527
 31
0.0
  0
LINE
  5
EB
330
2
100
AcDbEntity
  8
object-1
100
AcDbLine
 10
-531.8765461220332
 20
-1823.933959511528
 30
0.0
 11
-531.8765461220332
 21
-1822.633959511519
 31
0.0
  0
ARC
  5
ED
330
2
100
AcDbEntity
  8
Object
100
AcDbCircle
 10
-532.8765461220342
 20
-1827.433959511519
 30
0.0
 40
3.5
100
AcDbArc
 50
90.0
 51
145.150095420962
  0
LINE
  5
EE
330
2
100
AcDbEntity
  8
Object
100
AcDbLine
 10
-528.3765461220339
 20
-1823.933959511527
 30
0.0
 11
-528.3765461220339
 21
-1825.433959511521
 31
0.0
  0
ARC
  5
EF
330
2
100
AcDbEntity
  8
Object
100
AcDbCircle
 10
-532.8765461220337
 20
-1822.633959511519
 30
0.0
 40
1.0
100
AcDbArc
 50
270.0
 51
0.0
  0
LINE
  5
F0
330
2
100
AcDbEntity
  8
Object
100
AcDbLine
 10
-528.3765461220339
 20
-1823.933959511527
 30
0.0
 11
-532.8765461220342
 21
-1823.933959511527
 31
0.0
  0
ARC
  5
F1
330
2
100
AcDbEntity
  8
Object
100
AcDbCircle
 10
-530.8765461220341
 20
-1795.633959511528
 30
0.0
 40
6.0
100
AcDbArc
 50
150.0000000000006
 51
29.99999999999932
  0
LINE
  5
F2
330
2
100
AcDbEntity
  8
Object
100
AcDbLine
 10
-530.1694393573484
 20
-1798.926852731941
 30
0.0
 11
-527.1694393424468
 21
-1795.926852730615
 31
0.0
  0
ARC
  5
F3
330
2
100
AcDbEntity
  8
Object
100
AcDbCircle
 10
-530.8765461220341
 20
-1795.633959511528
 30
0.0
 40
4.0
100
AcDbArc
 50
180.0
 51
0.0
  0
ARC
  5
F4
330
2
100
AcDbEntity
  8
Object
100
AcDbCircle
 10
-528.0481189972893
 20
-1792.033959511527
 30
0.0
 40
0.5
100
AcDbArc
 50
231.0575587310228
 51
270.0
  0
ARC
  5
F5
330
2
100
AcDbEntity
  8
Object
100
AcDbCircle
 10
-530.8765461220351
 20
-1795.533959511528
 30
0.0
 40
6.0
100
AcDbArc
 50
32.57897039282417
 51
147.4210296071758
  0
CIRCLE
  5
F6
330
2
100
AcDbEntity
  8
Object
 48
0.5
100
AcDbCircle
 10
-514.8765461220341
 20
-1800.133959511527
 30
0.0
 40
2.649999999999999
  0
ARC
  5
F7
330
2
100
AcDbEntity
  8
Object
 48
0.5
100
AcDbCircle
 10
-514.8765461220341
 20
-1800.133959511527
 30
0.0
 40
2.25
100
AcDbArc
 50
42.83958840690946
 51
77.16041159309874
  0
ARC
  5
F8
330
2
100
AcDbEntity
  8
Object
 48
0.5
100
AcDbCircle
 10
-514.8765461220341
 20
-1796.263167431555
 30
0.0
 40
1.75
100
AcDbArc
 50
253.3984504009704
 51
286.6015495990294
  0
ARC
  5
F9
330
2
100
AcDbEntity
  8
Object
 48
0.5
100
AcDbCircle
 10
-518.2287503960583
 20
-1798.198563471541
 30
0.0
 40
1.75
100
AcDbArc
 50
313.3984504009698
 51
346.6015495990061
  0
ARC
  5
FA
330
2
100
AcDbEntity
  8
Object
 48
0.5
100
AcDbCircle
 10
-518.2287503960583
 20
-1802.069355551514
 30
0.0
 40
1.75
100
AcDbArc
 50
13.39845040099375
 51
46.60154959903002
  0
ARC
  5
FB
330
2
100
AcDbEntity
  8
Object
 48
0.5
100
AcDbCircle
 10
-514.8765461220347
 20
-1804.0047515915
 30
0.0
 40
1.75
100
AcDbArc
 50
73.39845040097052
 51
106.6015495990294
  0
ARC
  5
FC
330
2
100
AcDbEntity
  8
Object
 48
0.5
100
AcDbCircle
 10
-511.5243418480106
 20
-1802.069355551514
 30
0.0
 40
1.75
100
AcDbArc
 50
133.3984504009697
 51
166.6015495990062
  0
ARC
  5
FD
330
2
100
AcDbEntity
  8
Object
 48
0.5
100
AcDbCircle
 10
-511.5243418480104
 20
-1798.198563471541
 30
0.0
 40
1.75
100
AcDbArc
 50
193.3984504009938
 51
226.6015495990298
  0
ARC
  5
FE
330
2
100
AcDbEntity
  8
Object
 48
0.5
100
AcDbCircle
 10
-514.8765461220341
 20
-1800.133959511527
 30
0.0
 40
2.25
100
AcDbArc
 50
342.8395884069033
 51
17.16041159307065
  0
ARC
  5
FF
330
2
100
AcDbEntity
  8
Object
 48
0.5
100
AcDbCircle
 10
-514.8765461220341
 20
-1800.133959511527
 30
0.0
 40
2.25
100
AcDbArc
 50
282.8395884069011
 51
317.1604115930672
  0
ARC
  5
100
330
2
100
AcDbEntity
  8
Object
 48
0.5
100
AcDbCircle
 10
-514.8765461220341
 20
-1800.133959511527
 30
0.0
 40
2.25
100
AcDbArc
 50
222.8395884069048
 51
257.1604115930865
  0
ARC
  5
101
330
2
100
AcDbEntity
  8
Object
 48
0.5
100
AcDbCircle
 10
-514.8765461220341
 20
-1800.133959511527
 30
0.0
 40
2.25
100
AcDbArc
 50
162.8395884069011
 51
197.1604115930706
  0
ARC
  5
102
330
2
100
AcDbEntity
  8
Object
 48
0.5
100
AcDbCircle
 10
-514.8765461220341
 20
-1800.133959511527
 30
0.0
 40
2.25
100
AcDbArc
 50
102.8395884069012
 51
137.1604115930991
  0
LINE
  5
103
330
2
100
AcDbEntity
  8
Object
100
AcDbLine
 10
-505.8497512027908
 20
-1792.633959511528
 30
0.0
 11
-503.8765461220342
 21
-1792.633959511528
 31
0.0
  0
LINE
  5
104
330
2
100
AcDbEntity
  8
Object
100
AcDbLine
 10
-505.7765461220342
 20
-1795.633959511528
 30
0.0
 11
-505.7765461220342
 21
-1792.633959511527
 31
0.0
  0
ARC
  5
105
330
2
100
AcDbEntity
  8
Object
  6
Continuous
100
AcDbCircle
 10
-501.8765461220341
 20
-1795.219745947829
 30
0.0
 40
1.0
100
AcDbArc
 50
180.0
 51
225.000000129648
  0
LINE
  5
106
330
2
100
AcDbEntity
  8
Object
100
AcDbLine
 10
-502.8765461220341
 20
-1795.633959511528
 30
0.0
 11
-502.8765461220341
 21
-1793.633959511528
 31
0.0
  0
ARC
  5
107
330
2
100
AcDbEntity
  8
Object
100
AcDbCircle
 10
-503.8765461220342
 20
-1793.633959511528
 30
0.0
 40
1.0
100
AcDbArc
 50
0.0
 51
90.0
  0
LINE
  5
108
330
2
100
AcDbEntity
  8
Object
100
AcDbLine
 10
-501.7049732467791
 20
-1792.533959511527
 30
0.0
 11
-505.6765461220343
 21
-1792.533959511528
 31
0.0
  0
ARC
  5
109
330
2
100
AcDbEntity
  8
Object
100
AcDbCircle
 10
-505.6765461220343
 20
-1792.733959511528
 30
0.0
 40
0.2
100
AcDbArc
 50
90.0
 51
180.0
  0
ARC
  5
10A
330
2
100
AcDbEntity
  8
Object
100
AcDbCircle
 10
-504.3537716970846
 20
-1792.033959511527
 30
0.0
 40
0.5
100
AcDbArc
 50
270.0
 51
327.4210296072028
  0
LINE
  5
10B
330
2
100
AcDbEntity
  8
Object
100
AcDbLine
 10
-505.8765461220341
 20
-1795.633959511527
 30
0.0
 11
-505.8765461220341
 21
-1792.733959511528
 31
0.0
  0
ARC
  5
10C
330
2
100
AcDbEntity
  8
Object
100
AcDbCircle
 10
-509.7348905075532
 20
-1802.333959511528
 30
0.0
 40
0.3
100
AcDbArc
 50
115.1220601866222
 51
270.0
  0
LINE
  5
10D
330
2
100
AcDbEntity
  8
Object
100
AcDbLine
 10
-516.8765461220341
 20
-1802.633959511527
 30
0.0
 11
-512.8765461220344
 21
-1802.633959511527
 31
0.0
  0
ARC
  5
10E
330
2
100
AcDbEntity
  8
Object
100
AcDbCircle
 10
-512.8765461220344
 20
-1795.633959511528
 30
0.0
 40
7.099999999999997
100
AcDbArc
 50
295.1220601866223
 51
0.0
  0
ARC
  5
10F
330
2
100
AcDbEntity
  8
Object
100
AcDbCircle
 10
-512.8765461220344
 20
-1795.633959511528
 30
0.0
 40
7.0
100
AcDbArc
 50
270.0
 51
0.0
  0
LINE
  5
110
330
2
100
AcDbEntity
  8
1
  6
Continuous
 62
     7
100
AcDbLine
 10
-512.7663389233486
 20
-1825.433959511521
 30
0.0
 11
-512.7663389233486
 21
-1823.106655892194
 31
0.0
  0
LINE
  5
111
330
2
100
AcDbEntity
  8
1
  6
Continuous
 62
     7
100
AcDbLine
 10
-515.2663389233484
 20
-1825.433959511521
 30
0.0
 11
-515.2663389233484
 21
-1823.106655892194
 31
0.0
  0
LINE
  5
112
330
2
100
AcDbEntity
  8
1
  6
Continuous
 62
     7
100
AcDbLine
 10
-516.0163389233483
 20
-1823.106655892194
 30
0.0
 11
-516.0163389233485
 21
-1824.03064242349
 31
0.0
  0
LINE
  5
113
330
2
100
AcDbEntity
  8
1
  6
Continuous
 62
     7
100
AcDbLine
 10
-517.2163389233483
 20
-1823.106655892194
 30
0.0
 11
-517.2163389233483
 21
-1824.03064242349
 31
0.0
  0
LINE
  5
114
330
2
100
AcDbEntity
  8
1
  6
Continuous
 62
     7
100
AcDbLine
 10
-516.5163389233483
 20
-1824.53064242349
 30
0.0
 11
-516.716338923348
 21
-1824.53064242349
 31
0.0
  0
ARC
  5
115
330
2
100
AcDbEntity
  8
1
  6
Continuous
 62
     7
100
AcDbCircle
 10
-516.716338923348
 20
-1824.03064242349
 30
0.0
 40
0.5
100
AcDbArc
 50
180.0
 51
270.0
  0
ARC
  5
116
330
2
100
AcDbEntity
  8
1
  6
Continuous
 62
     7
100
AcDbCircle
 10
-516.5163389233483
 20
-1824.03064242349
 30
0.0
 40
0.5
100
AcDbArc
 50
270.0
 51
0.0
  0
LINE
  5
117
330
2
100
AcDbEntity
  8
1
  6
Continuous
 62
     7
100
AcDbLine
 10
-506.9765461220342
 20
-1825.433959511521
 30
0.0
 11
-506.9765461220338
 21
-1823.106655892194
 31
0.0
  0
ARC
  5
118
330
2
100
AcDbEntity
  8
Object
100
AcDbCircle
 10
-524.3765461220323
 20
-1766.001923417351
 30
0.0
 40
8.63815572471549
100
AcDbArc
 50
259.9999999999949
 51
280.000000000005
  0
ARC
  5
119
330
2
100
AcDbEntity
  8
Object
100
AcDbCircle
 10
-526.0765461220321
 20
-1773.833959511521
 30
0.0
 40
0.2
100
AcDbArc
 50
0.0
 51
90.0
  0
ARC
  5
11A
330
2
100
AcDbEntity
  8
Object
100
AcDbCircle
 10
-522.6765461220326
 20
-1773.833959511521
 30
0.0
 40
0.2
100
AcDbArc
 50
90.0
 51
180.0
  0
LINE
  5
11B
330
2
100
AcDbEntity
  8
Object
100
AcDbLine
 10
-522.8765461220323
 20
-1773.833959511518
 30
0.0
 11
-522.8765461220318
 21
-1774.508846146778
 31
0.0
  0
LINE
  5
11C
330
2
100
AcDbEntity
  8
Object
100
AcDbLine
 10
-525.8765461220313
 20
-1773.833959511518
 30
0.0
 11
-525.8765461220313
 21
-1774.508846146778
 31
0.0
  0
LINE
  5
11D
330
2
100
AcDbEntity
  8
Object
100
AcDbLine
 10
-534.4765461220345
 20
-1774.133959511521
 30
0.0
 11
-536.7765461220343
 21
-1774.133959511521
 31
0.0
  0
ARC
  5
11E
330
2
100
AcDbEntity
  8
Object
100
AcDbCircle
 10
-534.4765461220345
 20
-1773.933959511519
 30
0.0
 40
0.2
100
AcDbArc
 50
270.0
 51
0.0
  0
ARC
  5
11F
330
2
100
AcDbEntity
  8
Object
100
AcDbCircle
 10
-534.0765461220349
 20
-1773.833959511521
 30
0.0
 40
0.2
100
AcDbArc
 50
90.0
 51
180.0
  0
LINE
  5
120
330
2
100
AcDbEntity
  8
Object
100
AcDbLine
 10
-531.8765461220318
 20
-1773.833959511518
 30
0.0
 11
-531.8765461220318
 21
-1774.508846146778
 31
0.0
  0
LINE
  5
121
330
2
100
AcDbEntity
  8
Object
100
AcDbLine
 10
-528.8765461220328
 20
-1773.833959511518
 30
0.0
 11
-528.8765461220322
 21
-1774.508846146778
 31
0.0
  0
ARC
  5
122
330
2
100
AcDbEntity
  8
Object
100
AcDbCircle
 10
-528.6765461220333
 20
-1773.833959511521
 30
0.0
 40
0.2
100
AcDbArc
 50
90.0
 51
180.0
  0
ARC
  5
123
330
2
100
AcDbEntity
  8
Object
100
AcDbCircle
 10
-532.0765461220321
 20
-1773.833959511521
 30
0.0
 40
0.2
100
AcDbArc
 50
0.0
 51
90.0
  0
ARC
  5
124
330
2
100
AcDbEntity
  8
Object
100
AcDbCircle
 10
-530.3765461220323
 20
-1766.001923417351
 30
0.0
 40
8.63815572471549
100
AcDbArc
 50
259.9999999999949
 51
280.000000000005
  0
ARC
  5
125
330
2
100
AcDbEntity
  8
Object
100
AcDbCircle
 10
-535.7765461220343
 20
-1781.633959511523
 30
0.0
 40
1.7
100
AcDbArc
 50
270.0
 51
0.0
  0
ARC
  5
126
330
2
100
AcDbEntity
  8
Object
100
AcDbCircle
 10
-535.7765461220343
 20
-1781.633959511523
 30
0.0
 40
1.5
100
AcDbArc
 50
270.0
 51
0.0
  0
LINE
  5
127
330
2
100
AcDbEntity
  8
Object
100
AcDbLine
 10
-534.2765461220343
 20
-1773.833959511521
 30
0.0
 11
-534.2765461220343
 21
-1781.633959511523
 31
0.0
  0
LINE
  5
128
330
2
100
AcDbEntity
  8
Object
100
AcDbLine
 10
-534.0765461220345
 20
-1773.833959511521
 30
0.0
 11
-534.0765461220345
 21
-1781.633959511523
 31
0.0
  0
LINE
  5
129
330
2
100
AcDbEntity
  8
Object
100
AcDbLine
 10
-503.8765461220352
 20
-1773.833959511518
 30
0.0
 11
-503.8765461220352
 21
-1774.508846146778
 31
0.0
  0
ARC
  5
12A
330
2
100
AcDbEntity
  8
Object
100
AcDbCircle
 10
-503.6765461220353
 20
-1773.833959511521
 30
0.0
 40
0.2
100
AcDbArc
 50
90.0
 51
180.0
  0
ARC
  5
12B
330
2
100
AcDbEntity
  8
Object
100
AcDbCircle
 10
-507.0765461220339
 20
-1773.833959511521
 30
0.0
 40
0.2
100
AcDbArc
 50
0.0
 51
90.0
  0
POINT
  5
12C
330
2
100
AcDbEntity
  8
Text
100
AcDbPoint
 10
-514.8765461220341
 20
-1773.633959511521
 30
0.0
  0
LINE
  5
12E
330
2
100
AcDbEntity
  8
Object
100
AcDbLine
 10
-506.8765461220341
 20
-1773.833959511518
 30
0.0
 11
-506.8765461220347
 21
-1774.508846146778
 31
0.0
  0
ARC
  5
12F
330
2
100
AcDbEntity
  8
Object
100
AcDbCircle
 10
-505.3765461220351
 20
-1766.001923417351
 30
0.0
 40
8.63815572471549
100
AcDbArc
 50
259.9999999999949
 51
280.000000000005
  0
DIMENSION
  5
130
330
2
100
AcDbEntity
  8
text3
100
AcDbDimension
  2
*D6
 10
-403.3834821881423
 20
-1892.555781675219
 30
0.0
 11
-416.216815521476
 21
-1889.055781675219
 31
0.0
 70
     1
 71
     5
 42
3.0
  3
DMST_1
100
AcDbAlignedDimension
 13
-400.3834821881429
 23
-1885.433959511519
 33
0.0
 14
-403.3834821881427
 24
-1885.433959511519
 34
0.0
1001
ACAD
1000
DSTYLE
1002
{
1070
    41
1040
5.0
1070
    42
1040
2.0
1070
    43
1040
0.38
1070
    44
1040
5.0
1070
    47
1040
0.0
1070
    48
1040
0.0
1070
    71
1070
     0
1070
    78
1070
     8
1070
    79
1070
     2
1070
   140
1040
4.0
1070
   141
1040
1.0
1070
   146
1040
1.0
1070
   147
1040
1.5
1070
   176
1070
     0
1070
   177
1070
     0
1070
   178
1070
     0
1070
   179
1070
     2
1070
   279
1070
     0
1002
}
  0
DIMENSION
  5
13E
330
2
100
AcDbEntity
  8
text3
100
AcDbDimension
  2
*D5
 10
-425.3834821881429
 20
-1910.732136864053
 30
0.0
 11
-412.8834821881429
 21
-1907.232136864053
 31
0.0
 70
     1
  1
<>±1
 71
     5
 42
25.00000000000005
  3
DMST_1
100
AcDbAlignedDimension
 13
-400.3834821881429
 23
-1885.433959511519
 33
0.0
 14
-425.3834821881429
 24
-1885.433959511519
 34
0.0
1001
ACAD
1000
DSTYLE
1002
{
1070
    41
1040
3.0
1070
    42
1040
2.0
1070
    43
1040
0.38
1070
    44
1040
0.18
1070
    47
1040
0.0
1070
    48
1040
0.0
1070
    71
1070
     0
1070
    78
1070
     8
1070
    79
1070
     2
1070
   140
1040
4.0
1070
   141
1040
1.0
1070
   146
1040
1.0
1070
   147
1040
1.5
1070
   176
1070
     0
1070
   177
1070
     0
1070
   178
1070
     0
1070
   179
1070
     2
1070
   279
1070
     0
1002
}
  0
LINE
  5
179
330
2
100
AcDbEntity
  8
1
  6
Continuous
 62
     7
100
AcDbLine
 10
-403.3834821881427
 20
-1859.433959511521
 30
0.0
 11
-424.8834821881429
 21
-1859.433959511521
 31
0.0
  0
LINE
  5
17A
330
2
100
AcDbEntity
  8
Center
  6
CENTER
100
AcDbLine
 10
-400.3834821881433
 20
-1855.433959511519
 30
0.0
 11
-435.2154928105289
 21
-1855.433959511519
 31
0.0
  0
DIMENSION
  5
17B
330
2
100
AcDbEntity
  8
text3
100
AcDbDimension
  2
*D11
 10
-447.9683342549548
 20
-1880.43395951152
 30
0.0
 11
-447.9683342549545
 21
-1855.10582263892
 31
0.0
 70
   161
  1
Φ<>h7
 71
     5
 42
49.99999999999886
  3
DMST_1
100
AcDbAlignedDimension
 13
-402.8834821881427
 23
-1830.433959511521
 33
0.0
 14
-402.8834821881427
 24
-1880.43395951152
 34
0.0
1001
ACAD
1000
DSTYLE
1002
{
1070
    41
1040
5.0
1070
    42
1040
3.0
1070
    43
1040
0.38
1070
    44
1040
5.0
1070
    47
1040
0.0
1070
    48
1040
0.0
1070
    71
1070
     0
1070
    78
1070
     8
1070
    79
1070
     2
1070
   140
1040
4.0
1070
   141
1040
2.0
1070
   146
1040
1.0
1070
   147
1040
1.5
1070
   176
1070
     0
1070
   177
1070
     0
1070
   178
1070
     0
1070
   179
1070
     2
1070
   279
1070
     0
1002
}
  0
DIMENSION
  5
188
330
2
100
AcDbEntity
  8
text3
100
AcDbDimension
  2
*D10
 10
-436.1509725758859
 20
-1851.433959511521
 30
0.0
 11
-436.1509725758856
 21
-1889.335818248422
 31
0.0
 70
   161
  1
Φ<>h6
 71
     5
 42
8.0
  3
DMST_1
100
AcDbAlignedDimension
 13
-424.8834821881429
 23
-1859.433959511521
 33
0.0
 14
-424.8834821881429
 24
-1851.433959511521
 34
0.0
1001
ACAD
1000
DSTYLE
1002
{
1070
    41
1040
5.0
1070
    42
1040
2.0
1070
    43
1040
0.38
1070
    44
1040
5.0
1070
    47
1040
0.0
1070
    48
1040
0.0
1070
    71
1070
     0
1070
    78
1070
     8
1070
    79
1070
     2
1070
   140
1040
4.0
1070
   141
1040
1.0
1070
   146
1040
1.0
1070
   147
1040
1.5
1070
   176
1070
     0
1070
   177
1070
     0
1070
   178
1070
     0
1070
   179
1070
     2
1070
   279
1070
     0
1002
}
  0
TEXT
  5
196
330
2
100
AcDbEntity
  8
text3
100
AcDbText
 10
-450.0066203025791
 20
-1844.844520086976
 30
0.0
 40
2.304
  1
-0.025
 50
90.0
  7
Roman
100
AcDbText
  0
LINE
  5
197
330
2
100
AcDbEntity
  8
Object
100
AcDbLine
 10
-481.3765461220332
 20
-1854.767934107735
 30
0.0
 11
-481.3765461220341
 21
-1780.633959511521
 31
0.0
  0
LINE
  5
198
330
2
100
AcDbEntity
  8
1
  6
Continuous
 62
     7
100
AcDbLine
 10
-484.8765461220341
 20
-1881.891472622167
 30
0.0
 11
-484.8765461220341
 21
-1828.976446400875
 31
0.0
  0
LINE
  5
199
330
2
100
AcDbEntity
  8
Object2
  6
BORDER
 48
10.0
100
AcDbLine
 10
-485.3766275325066
 20
-1876.63395951152
 30
0.0
 11
-485.376627532507
 21
-1828.233959511521
 31
0.0
  0
MTEXT
  5
19A
102
{ACAD_REACTORS
330
19B
102
}
330
2
100
AcDbEntity
  8
text3
100
AcDbMText
 10
-475.0170439214817
 20
-1900.575760976662
 30
0.0
 40
4.0
 41
0.0
 71
     1
 72
     1
  1
4-Φ5.5 \PPCD　70
 73
     1
 44
1.0
  0
LEADER
  5
19B
330
2
100
AcDbEntity
  8
text3
100
AcDbLeader
  3
DMST_1
 73
     0
 40
10.66666666666666
 41
22.8
 76
     3
 10
-486.5922748745719
 20
-1886.287396041518
 30
0.0
 10
-481.0170439214815
 20
-1902.075760976664
 30
0.0
 10
-476.0170439214816
 20
-1902.075760976662
 30
0.0
340
19A
213
0.0
223
-1.5
233
0.0
1001
ACAD
1000
DSTYLE
1002
{
1070
    77
1070
     0
1070
    41
1040
5.0
1070
    42
1040
0.0625
1070
    43
1040
0.38
1070
    44
1040
0.18
1070
    47
1040
0.0
1070
    48
1040
0.0
1070
    71
1070
     0
1070
    78
1070
     8
1070
    79
1070
     2
1070
   140
1040
3.0
1070
   141
1040
2.0
1070
   146
1040
1.0
1070
   147
1040
1.0
1070
   176
1070
     0
1070
   177
1070
     0
1070
   178
1070
     0
1070
   179
1070
     2
1070
   279
1070
     0
1002
}
  0
ARC
  5
19C
330
2
100
AcDbEntity
  8
Object
100
AcDbCircle
 10
-484.3765461220333
 20
-1877.633959511521
 30
0.0
 40
3.0
100
AcDbArc
 50
270.0
 51
0.0
  0
LINE
  5
19D
330
2
100
AcDbEntity
  8
Object
100
AcDbLine
 10
-484.3765461220333
 20
-1880.633959511521
 30
0.0
 11
-484.8765461220341
 21
-1880.633959511521
 31
0.0
  0
ARC
  5
19E
330
2
100
AcDbEntity
  8
1
  6
Continuous
 62
     7
100
AcDbCircle
 10
-514.8765461220341
 20
-1855.433959511519
 30
0.0
 40
39.99999999999992
100
AcDbArc
 50
311.4096221092805
 51
318.590377890721
  0
LINE
  5
19F
330
2
100
AcDbEntity
  8
1
  6
DASH_CENTER
 62
     3
100
AcDbLine
 10
-493.1330126005477
 20
-1877.177493033006
 30
0.0
 11
-487.1226049604621
 21
-1883.187900673092
 31
0.0
  0
ARC
  5
1A0
330
2
100
AcDbEntity
  8
1
  6
DASH_CENTER
 62
     3
100
AcDbCircle
 10
-514.8765461220341
 20
-1855.433959511519
 30
0.0
 40
34.99999999999998
100
AcDbArc
 50
308.0765510851942
 51
321.9234489148083
  0
CIRCLE
  5
1A1
330
2
100
AcDbEntity
  8
1
  6
Continuous
 62
     7
100
AcDbCircle
 10
-490.1278087805048
 20
-1880.182696853051
 30
0.0
 40
2.75
  0
TEXT
  5
1A2
330
2
100
AcDbEntity
  8
text3
100
AcDbText
 10
-452.8335307064162
 20
-1842.017384466056
 30
0.0
 40
2.304
  1
0
 50
90.0
  7
Roman
100
AcDbText
  0
LINE
  5
1A3
330
2
100
AcDbEntity
  8
Object
100
AcDbLine
 10
-481.8139894396617
 20
-1858.381401494332
 30
0.0
 11
-481.8139894396617
 21
-1855.264005333964
 31
0.0
  0
POINT
  5
1A4
330
2
100
AcDbEntity
  8
Object
100
AcDbPoint
 10
-481.3765461220332
 20
-1858.633959511521
 30
0.0
  0
POINT
  5
1A5
330
2
100
AcDbEntity
  8
Object
100
AcDbPoint
 10
-481.3765461220327
 20
-1855.633959511521
 30
0.0
  0
LINE
  5
1A6
330
2
100
AcDbEntity
  8
Object
100
AcDbLine
 10
-481.6265461220332
 20
-1858.489621944223
 30
0.0
 11
-481.8139894396617
 21
-1858.381401494332
 31
0.0
  0
ARC
  5
1A7
330
2
100
AcDbEntity
  8
Object
100
AcDbCircle
 10
-481.8765461220332
 20
-1854.767934107735
 30
0.0
 40
0.5
100
AcDbArc
 50
277.1873024970693
 51
0.0
  0
ARC
  5
1A8
330
2
100
AcDbEntity
  8
Object
100
AcDbCircle
 10
-481.8765461220332
 20
-1858.922634646116
 30
0.0
 40
0.5
100
AcDbArc
 50
0.0
 51
60.00000000000483
  0
LINE
  5
1A9
330
2
100
AcDbEntity
  8
Object
100
AcDbLine
 10
-481.3765461220332
 20
-1868.767934107736
 30
0.0
 11
-481.3765461220332
 21
-1865.922634646116
 31
0.0
  0
LINE
  5
1AA
330
2
100
AcDbEntity
  8
Object
100
AcDbLine
 10
-481.8139894396617
 20
-1865.381401494333
 30
0.0
 11
-481.8139894396617
 21
-1862.264005333964
 31
0.0
  0
POINT
  5
1AB
330
2
100
AcDbEntity
  8
Object
100
AcDbPoint
 10
-481.3765461220327
 20
-1869.633959511521
 30
0.0
  0
POINT
  5
1AC
330
2
100
AcDbEntity
  8
Object
100
AcDbPoint
 10
-481.3765461220332
 20
-1865.633959511519
 30
0.0
  0
POINT
  5
1AD
330
2
100
AcDbEntity
  8
Object
100
AcDbPoint
 10
-481.3765461220327
 20
-1862.633959511519
 30
0.0
  0
LINE
  5
1AE
330
2
100
AcDbEntity
  8
Object
100
AcDbLine
 10
-481.6265461220332
 20
-1865.489621944224
 30
0.0
 11
-481.8139894396623
 21
-1865.381401494333
 31
0.0
  0
ARC
  5
1AF
330
2
100
AcDbEntity
  8
Object
100
AcDbCircle
 10
-481.8765461220332
 20
-1861.767934107737
 30
0.0
 40
0.5
100
AcDbArc
 50
277.1873024970693
 51
0.0
  0
ARC
  5
1B0
330
2
100
AcDbEntity
  8
Object
100
AcDbCircle
 10
-481.8765461220332
 20
-1865.922634646116
 30
0.0
 40
0.5
100
AcDbArc
 50
0.0
 51
60.00000000000483
  0
ARC
  5
1B1
330
2
100
AcDbEntity
  8
Object
100
AcDbCircle
 10
-481.8765461220332
 20
-1868.767934107736
 30
0.0
 40
0.5
100
AcDbArc
 50
277.1873024970693
 51
0.0
  0
LINE
  5
1B2
330
2
100
AcDbEntity
  8
Object
100
AcDbLine
 10
-481.3765461220332
 20
-1877.633959511521
 30
0.0
 11
-481.3765461220332
 21
-1872.922634646116
 31
0.0
  0
POINT
  5
1B3
330
2
100
AcDbEntity
  8
Object
100
AcDbPoint
 10
-481.3765461220332
 20
-1872.633959511521
 30
0.0
  0
LINE
  5
1B4
330
2
100
AcDbEntity
  8
Object
100
AcDbLine
 10
-481.6265461220332
 20
-1872.489621944223
 30
0.0
 11
-481.8139894396623
 21
-1872.381401494332
 31
0.0
  0
ARC
  5
1B5
330
2
100
AcDbEntity
  8
Object
100
AcDbCircle
 10
-481.8765461220332
 20
-1872.922634646116
 30
0.0
 40
0.5
100
AcDbArc
 50
0.0
 51
60.00000000000483
  0
LINE
  5
1B6
330
2
100
AcDbEntity
  8
Object
100
AcDbLine
 10
-481.8139894396623
 20
-1872.381401494332
 30
0.0
 11
-481.8139894396617
 21
-1869.264005333964
 31
0.0
  0
LINE
  5
1B7
330
2
100
AcDbEntity
  8
Object
100
AcDbLine
 10
-481.3765461220332
 20
-1861.767934107737
 30
0.0
 11
-481.3765461220332
 21
-1858.922634646116
 31
0.0
  0
LINE
  5
1B8
330
2
100
AcDbEntity
  8
text3
100
AcDbLine
 10
-425.3834821881429
 20
-1887.433959511519
 30
0.0
 11
-425.3834821881429
 21
-1861.030016698756
 31
0.0
  0
LINE
  5
1BA
330
2
100
AcDbEntity
  8
1
  6
Continuous
 62
     3
100
AcDbLine
 10
-424.8834821881429
 20
-1857.370459511519
 30
0.0
 11
-424.8834821881429
 21
-1859.433959511521
 31
0.0
  0
LINE
  5
1BB
330
2
100
AcDbEntity
  8
1
  6
Continuous
 62
     3
100
AcDbLine
 10
-424.8834821881429
 20
-1851.433959511518
 30
0.0
 11
-424.8834821881429
 21
-1859.433959511521
 31
0.0
  0
LINE
  5
1BC
330
2
100
AcDbEntity
  8
1
  6
Continuous
 62
     7
100
AcDbLine
 10
-425.3834821881429
 20
-1855.433959511519
 30
0.0
 11
-425.3834821881429
 21
-1858.933959511521
 31
0.0
  0
LINE
  5
1BD
330
2
100
AcDbEntity
  8
1
  6
Continuous
 62
     7
100
AcDbLine
 10
-424.8834821881429
 20
-1859.433959511521
 30
0.0
 11
-425.3834821881429
 21
-1858.933959511521
 31
0.0
  0
LINE
  5
1BE
330
2
100
AcDbEntity
  8
1
  6
Continuous
 62
     7
100
AcDbLine
 10
-425.3834821881429
 20
-1851.933959511519
 30
0.0
 11
-425.3834821881429
 21
-1855.433959511519
 31
0.0
  0
TEXT
  5
1BF
330
2
100
AcDbEntity
  8
text3
100
AcDbText
 10
-437.9227008277167
 20
-1879.455583242321
 30
0.0
 40
2.304
  1
-0.009
 50
90.0
  7
Roman
100
AcDbText
  0
LINE
  5
1C0
330
2
100
AcDbEntity
  8
Object
100
AcDbLine
 10
-484.1618158540055
 20
-1781.17963867127
 30
0.0
 11
-484.1618158540055
 21
-1788.633959511519
 31
0.0
  0
LINE
  5
1C1
330
2
100
AcDbEntity
  8
Object
100
AcDbLine
 10
-491.8765461220346
 20
-1781.433959511521
 30
0.0
 11
-491.8765461220342
 21
-1795.633959511528
 31
0.0
  0
LINE
  5
1C2
330
2
100
AcDbEntity
  8
Object
100
AcDbLine
 10
-491.9765461220346
 20
-1773.633959511521
 30
0.0
 11
-491.9765461220346
 21
-1792.333959511527
 31
0.0
  0
LINE
  5
1C3
330
2
100
AcDbEntity
  8
Object
100
AcDbLine
 10
-481.4990302509704
 20
-1805.633959511521
 30
0.0
 11
-490.138984042556
 21
-1805.633959511521
 31
0.0
  0
ARC
  5
1C4
330
2
100
AcDbEntity
  8
Object
100
AcDbCircle
 10
-487.546555974896
 20
-1818.633959511521
 30
0.0
 40
5.0
100
AcDbArc
 50
270.0
 51
0.0
  0
ARC
  5
1C5
330
2
100
AcDbEntity
  8
Object
100
AcDbCircle
 10
-489.1618158540053
 20
-1817.963316662389
 30
0.0
 40
5.0
100
AcDbArc
 50
270.0
 51
0.0
  0
LINE
  5
1C6
330
2
100
AcDbEntity
  8
Object
100
AcDbLine
 10
-481.4990302509704
 20
-1788.633959511519
 30
0.0
 11
-490.138984042556
 21
-1788.633959511519
 31
0.0
  0
LINE
  5
1C7
330
2
100
AcDbEntity
  8
Object
100
AcDbLine
 10
-484.1618158540055
 20
-1805.633959511521
 30
0.0
 11
-484.1618158540055
 21
-1817.963316662389
 31
0.0
  0
ARC
  5
1C8
330
2
100
AcDbEntity
  8
Object
100
AcDbCircle
 10
-498.8765461220341
 20
-1795.633959511528
 30
0.0
 40
7.0
100
AcDbArc
 50
270.0
 51
0.0
  0
LINE
  5
1C9
330
2
100
AcDbEntity
  8
Object
100
AcDbLine
 10
-490.138984042556
 20
-1788.633959511519
 30
0.0
 11
-490.138984042556
 21
-1805.633959511521
 31
0.0
  0
LINE
  5
1CA
330
2
100
AcDbEntity
  8
Object
100
AcDbLine
 10
-485.158010552097
 20
-1789.633959511521
 30
0.0
 11
-485.158010552097
 21
-1804.633959511521
 31
0.0
  0
ARC
  5
1CB
330
2
100
AcDbEntity
  8
Object
  6
Continuous
100
AcDbCircle
 10
-495.8765461220342
 20
-1795.21974595048
 30
0.0
 40
1.0
100
AcDbArc
 50
315.0000001296476
 51
0.0
  0
LINE
  5
1CC
330
2
100
AcDbEntity
  8
Center
  6
Continuous
100
AcDbLine
 10
-498.8765461220332
 20
-1796.633959511527
 30
0.0
 11
-498.8765461220332
 21
-1794.633959511528
 31
0.0
  0
LINE
  5
1CD
330
2
100
AcDbEntity
  8
Center
  6
Continuous
100
AcDbLine
 10
-499.8765461220332
 20
-1795.633959511528
 30
0.0
 11
-497.8765461220332
 21
-1795.633959511528
 31
0.0
  0
LINE
  5
1CE
330
2
100
AcDbEntity
  8
Object
100
AcDbLine
 10
-495.1694393392478
 20
-1795.926852730066
 30
0.0
 11
-498.1694393259464
 21
-1798.926852730341
 31
0.0
  0
LINE
  5
1CF
330
2
100
AcDbEntity
  8
Object
100
AcDbLine
 10
-494.8765461220341
 20
-1795.633959511528
 30
0.0
 11
-494.8765461220341
 21
-1793.633959511527
 31
0.0
  0
ARC
  5
1D0
330
2
100
AcDbEntity
  8
Object
100
AcDbCircle
 10
-498.8765461071326
 20
-1798.219745949154
 30
0.0
 40
1.0
100
AcDbArc
 50
224.9999999999818
 51
315.0000000000181
  0
ARC
  5
1D1
330
2
100
AcDbEntity
  8
Object
100
AcDbCircle
 10
-492.3765461220336
 20
-1792.133959511527
 30
0.0
 40
0.5
100
AcDbArc
 50
270.0
 51
0.0
  0
ARC
  5
1D2
330
2
100
AcDbEntity
  8
Object
100
AcDbCircle
 10
-493.8765461220341
 20
-1793.633959511527
 30
0.0
 40
1.0
100
AcDbArc
 50
90.0
 51
180.0
  0
LINE
  5
1D3
330
2
100
AcDbEntity
  8
Object
100
AcDbLine
 10
-493.8765461220341
 20
-1792.633959511527
 30
0.0
 11
-492.3765461220336
 21
-1792.633959511527
 31
0.0
  0
ARC
  5
1D4
330
2
100
AcDbEntity
  8
Object
100
AcDbCircle
 10
-492.1765461220344
 20
-1792.333959511528
 30
0.0
 40
0.2
100
AcDbArc
 50
270.0
 51
0.0
  0
ARC
  5
1D5
330
2
100
AcDbEntity
  8
Object
100
AcDbCircle
 10
-496.0481189972876
 20
-1792.033959511527
 30
0.0
 40
0.5
100
AcDbArc
 50
231.0575587310228
 51
270.0
  0
ARC
  5
1D6
330
2
100
AcDbEntity
  8
Object
100
AcDbCircle
 10
-498.8765461220332
 20
-1795.533959511528
 30
0.0
 40
4.0
100
AcDbArc
 50
51.05755873102278
 51
128.9424412689772
  0
ARC
  5
1D7
330
2
100
AcDbEntity
  8
Object
100
AcDbCircle
 10
-493.3993205469819
 20
-1792.033959511527
 30
0.0
 40
0.5
100
AcDbArc
 50
212.5789703927968
 51
270.0
  0
LINE
  5
1D8
330
2
100
AcDbEntity
  8
Center
100
AcDbLine
 10
-498.8765461220332
 20
-1796.533959511527
 30
0.0
 11
-498.8765461220332
 21
-1794.533959511527
 31
0.0
  0
LINE
  5
1D9
330
2
100
AcDbEntity
  8
Object
100
AcDbLine
 10
-492.1765461220344
 20
-1792.533959511527
 30
0.0
 11
-496.0481189972871
 21
-1792.533959511527
 31
0.0
  0
LINE
  5
1DA
330
2
100
AcDbEntity
  8
object-1
100
AcDbLine
 10
-497.8765461220332
 20
-1823.933959511527
 30
0.0
 11
-497.8765461220327
 21
-1822.633959511519
 31
0.0
  0
LINE
  5
1DB
330
2
100
AcDbEntity
  8
Object
100
AcDbLine
 10
-501.3765461220341
 20
-1823.933959511528
 30
0.0
 11
-501.3765461220341
 21
-1825.433959511522
 31
0.0
  0
ARC
  5
1DC
330
2
100
AcDbEntity
  8
Object
100
AcDbCircle
 10
-496.8765461220342
 20
-1827.433959511519
 30
0.0
 40
3.5
100
AcDbArc
 50
34.84990457903772
 51
90.0
  0
LINE
  5
1DD
330
2
100
AcDbEntity
  8
1
  6
DASH_CENTER
 62
     3
100
AcDbLine
 10
-493.1330126005477
 20
-1833.690425990035
 30
0.0
 11
-487.1226049604621
 21
-1827.680018349949
 31
0.0
  0
ARC
  5
1DE
330
2
100
AcDbEntity
  8
1
  6
DASH_CENTER
 62
     3
100
AcDbCircle
 10
-514.8765461220341
 20
-1855.433959511519
 30
0.0
 40
35.0000000000001
100
AcDbArc
 50
38.07655108519147
 51
51.92344891480574
  0
CIRCLE
  5
1DF
330
2
100
AcDbEntity
  8
1
  6
Continuous
 62
     7
100
AcDbCircle
 10
-490.1278087805048
 20
-1830.685222169992
 30
0.0
 40
2.75
  0
ARC
  5
1E0
330
2
100
AcDbEntity
  8
1
  6
Continuous
 62
     7
100
AcDbCircle
 10
-514.8765461220341
 20
-1855.433959511519
 30
0.0
 40
40.00000000000006
100
AcDbArc
 50
41.40962210927898
 51
48.59037789071939
  0
LINE
  5
1E1
330
2
100
AcDbEntity
  8
HIDDEN-1
  6
ByBlock
100
AcDbLine
 10
-487.546555974896
 20
-1823.633959511521
 30
0.0
 11
-496.8765461220342
 21
-1823.633959511521
 31
0.0
  0
LINE
  5
1E2
330
2
100
AcDbEntity
  8
Object
100
AcDbLine
 10
-495.8765461220328
 20
-1822.963316662389
 30
0.0
 11
-489.1618158540053
 21
-1822.963316662389
 31
0.0
  0
ARC
  5
1E3
330
2
100
AcDbEntity
  8
Object
100
AcDbCircle
 10
-496.8765461220342
 20
-1822.633959511519
 30
0.0
 40
1.0
100
AcDbArc
 50
180.0
 51
270.0
  0
LINE
  5
1E4
330
2
100
AcDbEntity
  8
Object
100
AcDbLine
 10
-496.8765461220342
 20
-1823.933959511527
 30
0.0
 11
-501.3765461220341
 21
-1823.933959511527
 31
0.0
  0
TEXT
  5
1E5
330
2
100
AcDbEntity
  8
text3
100
AcDbText
 10
-441.2496112315539
 20
-1876.628447621401
 30
0.0
 40
2.304
  1
0
 50
90.0
  7
Roman
100
AcDbText
  0
LINE
  5
1E6
330
2
100
AcDbEntity
  8
Object
100
AcDbLine
 10
-481.4990302509704
 20
-1788.633959511519
 30
0.0
 11
-481.4990302509704
 21
-1805.633959511521
 31
0.0
  0
LINE
  5
1E7
330
2
100
AcDbEntity
  8
Object
100
AcDbLine
 10
-482.495224949062
 20
-1789.633959511521
 30
0.0
 11
-482.495224949062
 21
-1804.633959511521
 31
0.0
  0
LINE
  5
1E8
330
2
100
AcDbEntity
  8
Object
100
AcDbLine
 10
-482.5465559748969
 20
-1805.633959511521
 30
0.0
 11
-482.546555974896
 21
-1818.633959511521
 31
0.0
  0
ARC
  5
1E9
330
2
100
AcDbEntity
  8
Object
100
AcDbCircle
 10
-489.1618158540053
 20
-1781.17963867127
 30
0.0
 40
5.0
100
AcDbArc
 50
0.0
 51
90.0
  0
ARC
  5
1EA
330
2
100
AcDbEntity
  8
Object
100
AcDbCircle
 10
-488.3765461220342
 20
-1780.633959511521
 30
0.0
 40
7.0
100
AcDbArc
 50
0.0
 51
90.0
  0
LINE
  5
1EB
330
2
100
AcDbEntity
  8
Object
100
AcDbLine
 10
-489.1618158540053
 20
-1776.17963867127
 30
0.0
 11
-491.8765461220342
 21
-1776.17963867127
 31
0.0
  0
LINE
  5
1EC
330
2
100
AcDbEntity
  8
Object
100
AcDbLine
 10
-488.3765461220342
 20
-1773.633959511521
 30
0.0
 11
-491.8765461220346
 21
-1773.633959511521
 31
0.0
  0
LINE
  5
1ED
330
2
100
AcDbEntity
  8
Object
100
AcDbLine
 10
-495.2765461220348
 20
-1774.133959511521
 30
0.0
 11
-492.9765461220341
 21
-1774.133959511521
 31
0.0
  0
ARC
  5
1EE
330
2
100
AcDbEntity
  8
Object
100
AcDbCircle
 10
-495.6765461220343
 20
-1773.833959511521
 30
0.0
 40
0.2
100
AcDbArc
 50
0.0
 51
90.0
  0
ARC
  5
1EF
330
2
100
AcDbEntity
  8
Object
100
AcDbCircle
 10
-495.2765461220348
 20
-1773.933959511519
 30
0.0
 40
0.2
100
AcDbArc
 50
180.0
 51
270.0
  0
LINE
  5
1F0
330
2
100
AcDbEntity
  8
Object
100
AcDbLine
 10
-500.8765461220338
 20
-1773.833959511518
 30
0.0
 11
-500.8765461220342
 21
-1774.508846146778
 31
0.0
  0
LINE
  5
1F1
330
2
100
AcDbEntity
  8
Object
100
AcDbLine
 10
-497.8765461220347
 20
-1773.833959511518
 30
0.0
 11
-497.8765461220347
 21
-1774.508846146778
 31
0.0
  0
ARC
  5
1F2
330
2
100
AcDbEntity
  8
Object
100
AcDbCircle
 10
-499.3765461220341
 20
-1766.001923417351
 30
0.0
 40
8.63815572471549
100
AcDbArc
 50
259.9999999999949
 51
280.000000000005
  0
ARC
  5
1F3
330
2
100
AcDbEntity
  8
Object
100
AcDbCircle
 10
-497.6765461220343
 20
-1773.833959511521
 30
0.0
 40
0.2
100
AcDbArc
 50
90.0
 51
180.0
  0
ARC
  5
1F4
330
2
100
AcDbEntity
  8
Object
100
AcDbCircle
 10
-501.076546122034
 20
-1773.833959511521
 30
0.0
 40
0.2
100
AcDbArc
 50
0.0
 51
90.0
  0
ARC
  5
1F5
330
2
100
AcDbEntity
  8
Object
100
AcDbCircle
 10
-492.9765461220345
 20
-1775.133959511521
 30
0.0
 40
1.0
100
AcDbArc
 50
0.0
 51
90.0
  0
ARC
  5
1F6
330
2
100
AcDbEntity
  8
Object
100
AcDbCircle
 10
-493.9765461220342
 20
-1781.633959511523
 30
0.0
 40
1.7
100
AcDbArc
 50
180.0
 51
270.0
  0
ARC
  5
1F7
330
2
100
AcDbEntity
  8
Object
100
AcDbCircle
 10
-493.9765461220342
 20
-1781.633959511523
 30
0.0
 40
1.5
100
AcDbArc
 50
180.0
 51
270.0
  0
LINE
  5
1F8
330
2
100
AcDbEntity
  8
Object
100
AcDbLine
 10
-491.9765461220346
 20
-1783.133959511522
 30
0.0
 11
-493.9765461220342
 21
-1783.133959511522
 31
0.0
  0
LINE
  5
1F9
330
2
100
AcDbEntity
  8
Object
100
AcDbLine
 10
-491.9765461220346
 20
-1783.333959511522
 30
0.0
 11
-493.9765461220342
 21
-1783.333959511523
 31
0.0
  0
LINE
  5
1FA
330
2
100
AcDbEntity
  8
Object
100
AcDbLine
 10
-491.8765461220352
 20
-1781.433959511521
 30
0.0
 11
-491.8765461220342
 21
-1773.633959511521
 31
0.0
  0
LINE
  5
1FB
330
2
100
AcDbEntity
  8
Object
100
AcDbLine
 10
-495.6765461220339
 20
-1773.833959511521
 30
0.0
 11
-495.6765461220339
 21
-1781.633959511523
 31
0.0
  0
LINE
  5
1FC
330
2
100
AcDbEntity
  8
Object
100
AcDbLine
 10
-495.4765461220342
 20
-1773.833959511521
 30
0.0
 11
-495.4765461220331
 21
-1781.633959511523
 31
0.0
  0
LINE
  5
20D
330
2
100
AcDbEntity
  8
Object
100
AcDbLine
 10
-353.3834821881427
 20
-1877.366440033988
 30
0.0
 11
-353.3834821881433
 21
-1823.633959511521
 31
0.0
  0
LINE
  5
20E
330
2
100
AcDbEntity
  8
1
  6
Continuous
 62
     7
100
AcDbLine
 10
-400.3834821881429
 20
-1884.933959511521
 30
0.0
 11
-400.3834821881429
 21
-1825.933959511521
 31
0.0
  0
LINE
  5
20F
330
2
100
AcDbEntity
  8
1
  6
Continuous
 62
     3
100
AcDbLine
 10
-399.8834821881427
 20
-1885.433959511519
 30
0.0
 11
-399.8834821881427
 21
-1825.433959511521
 31
0.0
  0
LINE
  5
210
330
2
100
AcDbEntity
  8
1
  6
Continuous
 62
     7
100
AcDbLine
 10
-389.0834821881431
 20
-1885.433959511519
 30
0.0
 11
-389.0834821881431
 21
-1825.433959511521
 31
0.0
  0
LINE
  5
211
330
2
100
AcDbEntity
  8
1
  6
Continuous
 62
     7
100
AcDbLine
 10
-403.3834821881427
 20
-1879.933959511521
 30
0.0
 11
-403.3834821881427
 21
-1830.933959511519
 31
0.0
  0
LINE
  5
212
330
2
100
AcDbEntity
  8
1
  6
Continuous
 62
     3
100
AcDbLine
 10
-402.8834821881427
 20
-1880.43395951152
 30
0.0
 11
-402.8834821881427
 21
-1830.433959511521
 31
0.0
  0
LINE
  5
213
330
2
100
AcDbEntity
  8
1
  6
Continuous
 62
     7
100
AcDbLine
 10
-366.5834821881431
 20
-1885.433959511519
 30
0.0
 11
-366.5834821881431
 21
-1825.433959511521
 31
0.0
  0
LINE
  5
214
330
2
100
AcDbEntity
  8
1
  6
Continuous
 62
     7
100
AcDbLine
 10
-394.3834821881427
 20
-1875.433959511521
 30
0.0
 11
-356.3834821881427
 21
-1875.433959511521
 31
0.0
  0
LINE
  5
215
330
2
100
AcDbEntity
  8
1
  6
Continuous
 62
     7
100
AcDbLine
 10
-399.8834821881427
 20
-1885.433959511519
 30
0.0
 11
-356.3834821881427
 21
-1885.433959511519
 31
0.0
  0
DIMENSION
  5
216
330
2
100
AcDbEntity
  8
text3
100
AcDbDimension
  2
*D0
 10
-400.3834821881429
 20
-1900.846379545744
 30
0.0
 11
-381.5501488548095
 21
-1900.846379545744
 31
0.0
 70
   129
 71
     5
 42
6.0
  3
DMST_1
100
AcDbAlignedDimension
 13
-394.3834821881427
 23
-1885.433959511519
 33
0.0
 14
-400.3834821881429
 24
-1885.433959511519
 34
0.0
1001
ACAD
1000
DSTYLE
1002
{
1070
    41
1040
5.0
1070
    42
1040
2.0
1070
    43
1040
0.38
1070
    44
1040
5.0
1070
    47
1040
0.0
1070
    48
1040
0.0
1070
    71
1070
     0
1070
    78
1070
     8
1070
    79
1070
     2
1070
   140
1040
4.0
1070
   141
1040
2.0
1070
   146
1040
1.0
1070
   147
1040
1.5
1070
   176
1070
     0
1070
   177
1070
     0
1070
   178
1070
     0
1070
   179
1070
     2
1070
   279
1070
     0
1002
}
  0
LINE
  5
224
330
2
100
AcDbEntity
  8
text3
100
AcDbLine
 10
-403.3834821881426
 20
-1887.433959511522
 30
0.0
 11
-403.3834821881426
 21
-1882.901663650165
 31
0.0
  0
LINE
  5
227
330
2
100
AcDbEntity
  8
1
  6
Continuous
 62
     7
100
AcDbLine
 10
-424.883482188145
 20
-1851.433959511521
 30
0.0
 11
-403.3834821881427
 21
-1851.433959511521
 31
0.0
  0
LINE
  5
228
330
2
100
AcDbEntity
  8
1
  6
Continuous
 62
     7
100
AcDbLine
 10
-394.3834821881427
 20
-1885.433959511519
 30
0.0
 11
-394.3834821881427
 21
-1872.433959511521
 31
0.0
  0
LINE
  5
229
330
2
100
AcDbEntity
  8
1
  6
Continuous
 62
     7
100
AcDbLine
 10
-402.8834821881427
 20
-1880.43395951152
 30
0.0
 11
-403.3834821881427
 21
-1879.933959511521
 31
0.0
  0
LINE
  5
22A
330
2
100
AcDbEntity
  8
1
  6
Continuous
 62
     7
100
AcDbLine
 10
-402.8834821881427
 20
-1880.43395951152
 30
0.0
 11
-400.3834821881429
 21
-1880.43395951152
 31
0.0
  0
LINE
  5
22B
330
2
100
AcDbEntity
  8
1
  6
Continuous
 62
     7
100
AcDbLine
 10
-399.8834821881427
 20
-1885.433959511519
 30
0.0
 11
-400.3834821881429
 21
-1884.933959511521
 31
0.0
  0
LINE
  5
22C
330
2
100
AcDbEntity
  8
1
  6
Continuous
 62
     7
100
AcDbLine
 10
-356.3834821881427
 20
-1879.233959511521
 30
0.0
 11
-361.5834821881431
 21
-1879.233959511521
 31
0.0
  0
LINE
  5
22D
330
2
100
AcDbEntity
  8
1
 62
     7
100
AcDbLine
 10
-360.8834821881433
 20
-1885.383959511521
 30
0.0
 11
-360.8834821881433
 21
-1879.483959511521
 31
0.0
  0
LINE
  5
22E
330
2
100
AcDbEntity
  8
1
 62
     7
100
AcDbLine
 10
-361.5834821881431
 20
-1885.383959511521
 30
0.0
 11
-360.8834821881433
 21
-1885.383959511521
 31
0.0
  0
LINE
  5
22F
330
2
100
AcDbEntity
  8
1
 62
     7
100
AcDbLine
 10
-361.5834821881431
 20
-1879.483959511521
 30
0.0
 11
-361.5834821881431
 21
-1885.383959511521
 31
0.0
  0
LINE
  5
230
330
2
100
AcDbEntity
  8
1
 62
     7
100
AcDbLine
 10
-360.8834821881433
 20
-1879.483959511521
 30
0.0
 11
-361.5834821881431
 21
-1879.483959511521
 31
0.0
  0
LINE
  5
231
330
2
100
AcDbEntity
  8
1
 62
     7
100
AcDbLine
 10
-361.5834821881431
 20
-1882.52145951152
 30
0.0
 11
-360.8834821881433
 21
-1882.696459511521
 31
0.0
  0
LINE
  5
232
330
2
100
AcDbEntity
  8
1
 62
     7
100
AcDbLine
 10
-361.5834821881431
 20
-1882.171459511521
 30
0.0
 11
-360.8834821881433
 21
-1882.346459511522
 31
0.0
  0
LINE
  5
233
330
2
100
AcDbEntity
  8
1
 62
     7
100
AcDbLine
 10
-360.8834821881433
 20
-1879.68395951152
 30
0.0
 11
-360.8834821881433
 21
-1885.183959511519
 31
0.0
  0
LINE
  5
234
330
2
100
AcDbEntity
  8
1
 62
     7
100
AcDbLine
 10
-358.1834821881431
 20
-1879.68395951152
 30
0.0
 11
-360.8834821881433
 21
-1879.68395951152
 31
0.0
  0
LINE
  5
235
330
2
100
AcDbEntity
  8
1
 62
     7
100
AcDbLine
 10
-357.8834821881433
 20
-1884.883959511521
 30
0.0
 11
-357.8834821881433
 21
-1879.983959511521
 31
0.0
  0
LINE
  5
236
330
2
100
AcDbEntity
  8
1
 62
     7
100
AcDbLine
 10
-360.8834821881433
 20
-1885.183959511519
 30
0.0
 11
-358.1834821881431
 21
-1885.183959511519
 31
0.0
  0
ARC
  5
237
330
2
100
AcDbEntity
  8
1
 62
     7
100
AcDbCircle
 10
-358.1834821881431
 20
-1879.983959511521
 30
0.0
 40
0.3000000000000114
100
AcDbArc
 50
0.0
 51
90.0
  0
ARC
  5
238
330
2
100
AcDbEntity
  8
1
 62
     7
100
AcDbCircle
 10
-358.1834821881431
 20
-1884.883959511521
 30
0.0
 40
0.299999999999983
100
AcDbArc
 50
270.0
 51
0.0
  0
LINE
  5
239
330
2
100
AcDbEntity
  8
1
  6
Continuous
 62
     7
100
AcDbLine
 10
-361.5834821881431
 20
-1878.220626178189
 30
0.0
 11
-361.5834821881431
 21
-1885.433959511519
 31
0.0
  0
LINE
  5
23A
330
2
100
AcDbEntity
  8
1
  6
Continuous
 62
     7
100
AcDbLine
 10
-360.8834821881427
 20
-1879.483959511521
 30
0.0
 11
-360.8834821881427
 21
-1885.383959511521
 31
0.0
  0
LINE
  5
23B
330
2
100
AcDbEntity
  8
1
  6
Continuous
 62
     7
100
AcDbLine
 10
-360.8834821881427
 20
-1885.383959511521
 30
0.0
 11
-361.5834821881431
 21
-1885.383959511521
 31
0.0
  0
LINE
  5
23C
330
2
100
AcDbEntity
  8
1
  6
Continuous
 62
     7
100
AcDbLine
 10
-361.5834821881431
 20
-1885.383959511521
 30
0.0
 11
-361.5834821881431
 21
-1879.483959511521
 31
0.0
  0
LINE
  5
23D
330
2
100
AcDbEntity
  8
1
  6
Continuous
 62
     7
100
AcDbLine
 10
-361.5834821881431
 20
-1879.483959511521
 30
0.0
 11
-360.8834821881427
 21
-1879.483959511521
 31
0.0
  0
LINE
  5
23E
330
2
100
AcDbEntity
  8
1
  6
Continuous
 62
     7
100
AcDbLine
 10
-360.8834821881427
 20
-1882.696459511521
 30
0.0
 11
-361.5834821881431
 21
-1882.52145951152
 31
0.0
  0
LINE
  5
23F
330
2
100
AcDbEntity
  8
1
  6
Continuous
 62
     7
100
AcDbLine
 10
-360.8834821881427
 20
-1882.346459511521
 30
0.0
 11
-361.5834821881431
 21
-1882.171459511521
 31
0.0
  0
ARC
  5
242
330
2
100
AcDbEntity
  8
Object
100
AcDbCircle
 10
-350.3834821881427
 20
-1877.366440033988
 30
0.0
 40
3.0
100
AcDbArc
 50
180.0
 51
268.999999999998
  0
LINE
  5
243
330
2
100
AcDbEntity
  8
1
  6
Continuous
 62
     7
100
AcDbLine
 10
-356.3834821881427
 20
-1825.433959511521
 30
0.0
 11
-356.3834821881427
 21
-1885.433959511519
 31
0.0
  0
ARC
  5
244
330
2
100
AcDbEntity
  8
Object
100
AcDbCircle
 10
-342.5834821881281
 20
-1855.151908703952
 30
0.0
 40
1.5
100
AcDbArc
 50
221.3520290631663
 51
268.319661727438
  0
ARC
  5
245
330
2
100
AcDbEntity
  8
Object
100
AcDbCircle
 10
-342.5834821881281
 20
-1857.133959511521
 30
0.0
 40
1.5
100
AcDbArc
 50
91.68033827256174
 51
268.319661727438
  0
ARC
  5
246
330
2
100
AcDbEntity
  8
Object
100
AcDbCircle
 10
-342.5834821881286
 20
-1864.133959511519
 30
0.0
 40
1.5
100
AcDbArc
 50
91.68033827256174
 51
268.319661727438
  0
ARC
  5
247
330
2
100
AcDbEntity
  8
Object
100
AcDbCircle
 10
-342.5834821881286
 20
-1862.151908703952
 30
0.0
 40
1.5
100
AcDbArc
 50
221.3520290631663
 51
268.319661727438
  0
ARC
  5
248
330
2
100
AcDbEntity
  8
Object
100
AcDbCircle
 10
-342.5834821881281
 20
-1869.151908703952
 30
0.0
 40
1.5
100
AcDbArc
 50
221.3520290631663
 51
268.319661727438
  0
ARC
  5
249
330
2
100
AcDbEntity
  8
Object
100
AcDbCircle
 10
-342.5834821881281
 20
-1871.133959511521
 30
0.0
 40
1.5
100
AcDbArc
 50
91.68033827256174
 51
268.319661727438
  0
LINE
  5
24A
330
2
100
AcDbEntity
  8
0
100
AcDbLine
 10
-353.3834821881433
 20
-1858.633959511521
 30
0.0
 11
-353.3834821881433
 21
-1840.542487644981
 31
0.0
  0
ARC
  5
24B
330
2
100
AcDbEntity
  8
Object
100
AcDbCircle
 10
-370.4834821881437
 20
-1818.033766631718
 30
0.0
 40
5.0
100
AcDbArc
 50
180.0
 51
267.9999999999961
  0
LINE
  5
24C
330
2
100
AcDbEntity
  8
1
  6
Continuous
 62
     7
100
AcDbLine
 10
-356.3834821881427
 20
-1835.43395951152
 30
0.0
 11
-394.3834821881427
 21
-1835.43395951152
 31
0.0
  0
LINE
  5
24D
330
2
100
AcDbEntity
  8
1
  6
Continuous
 62
     7
100
AcDbLine
 10
-399.8834821881427
 20
-1825.433959511521
 30
0.0
 11
-356.3834821881427
 21
-1825.433959511521
 31
0.0
  0
LINE
  5
24E
330
2
100
AcDbEntity
  8
Object
100
AcDbLine
 10
-375.1887179100746
 20
-1806.239741654397
 30
0.0
 11
-341.4660297817055
 21
-1805.651109943561
 31
0.0
  0
LINE
  5
24F
330
2
100
AcDbEntity
  8
Object
100
AcDbLine
 10
-375.1887179100741
 20
-1788.028177368644
 30
0.0
 11
-341.4660297817055
 21
-1788.61680907948
 31
0.0
  0
ARC
  5
250
330
2
100
AcDbEntity
  8
Object
100
AcDbCircle
 10
-367.4834821881427
 20
-1784.208632400504
 30
0.0
 40
8.0
100
AcDbArc
 50
94.4999999999972
 51
180.0
  0
ARC
  5
251
330
2
100
AcDbEntity
  8
Object
100
AcDbCircle
 10
-370.4834821881433
 20
-1784.436867350298
 30
0.0
 40
7.5
100
AcDbArc
 50
94.4999999999972
 51
169.1398297200754
  0
ARC
  5
252
330
2
100
AcDbEntity
  8
Object
100
AcDbCircle
 10
-370.4834821881433
 20
-1784.436867350298
 30
0.0
 40
8.0
100
AcDbArc
 50
94.4999999999972
 51
180.0
  0
LINE
  5
253
330
2
100
AcDbEntity
  8
Object
100
AcDbLine
 10
-378.4834821881431
 20
-1801.598429197732
 30
0.0
 11
-378.4834821881431
 21
-1784.436867350297
 31
0.0
  0
LINE
  5
254
330
2
100
AcDbEntity
  8
Object
100
AcDbLine
 10
-375.4834821881436
 20
-1818.033766631718
 30
0.0
 11
-375.4834821881427
 21
-1784.208632400504
 31
0.0
  0
LINE
  5
255
330
2
100
AcDbEntity
  8
Center
 48
10.0
100
AcDbLine
 10
-378.4834821881434
 20
-1795.633959511522
 30
0.0
 11
-393.3016142985731
 21
-1795.633959511522
 31
0.0
  0
ARC
  5
257
330
2
100
AcDbEntity
  8
Object
100
AcDbCircle
 10
-390.8016142985731
 20
-1793.633959511521
 30
0.0
 40
2.499999999999914
100
AcDbArc
 50
126.8698976458309
 51
233.1301023541688
  0
LINE
  5
258
330
2
100
AcDbEntity
  8
1
  6
Continuous
 62
     7
100
AcDbLine
 10
-394.3834821881427
 20
-1838.433959511521
 30
0.0
 11
-394.3834821881427
 21
-1825.433959511521
 31
0.0
  0
LINE
  5
259
330
2
100
AcDbEntity
  8
1
  6
Continuous
 62
     7
100
AcDbLine
 10
-399.8834821881427
 20
-1825.433959511521
 30
0.0
 11
-400.3834821881429
 21
-1825.933959511521
 31
0.0
  0
LINE
  5
25A
330
2
100
AcDbEntity
  8
1
  6
Continuous
 62
     7
100
AcDbLine
 10
-402.8834821881427
 20
-1830.433959511521
 30
0.0
 11
-403.3834821881427
 21
-1830.933959511519
 31
0.0
  0
LINE
  5
25B
330
2
100
AcDbEntity
  8
1
  6
Continuous
 62
     7
100
AcDbLine
 10
-400.3834821881429
 20
-1830.433959511521
 30
0.0
 11
-402.8834821881427
 21
-1830.433959511521
 31
0.0
  0
LINE
  5
25C
330
2
100
AcDbEntity
  8
Object
 48
0.5
100
AcDbLine
 10
-379.0834821881436
 20
-1799.633959511522
 30
0.0
 11
-379.0834821881436
 21
-1802.783959511527
 31
0.0
  0
LINE
  5
25D
330
2
100
AcDbEntity
  8
画層1
 62
     0
 48
0.5
370
    30
100
AcDbLine
 10
-380.7834821881434
 20
-1799.633959511522
 30
0.0
 11
-380.7834821881434
 21
-1801.383959511524
 31
0.0
  0
LINE
  5
25F
330
2
100
AcDbEntity
  8
Object
 48
0.5
100
AcDbLine
 10
-378.4834821881431
 20
-1802.783959511527
 30
0.0
 11
-378.4834821881431
 21
-1797.483959511528
 31
0.0
  0
ARC
  5
260
330
2
100
AcDbEntity
  8
Object
 48
0.5
100
AcDbCircle
 10
-380.0575762674379
 20
-1801.230830059948
 30
0.0
 40
0.4330127018920962
100
AcDbArc
 50
90.0
 51
270.0
  0
LINE
  5
261
330
2
100
AcDbEntity
  8
Object
100
AcDbLine
 10
-378.4834821881431
 20
-1801.651262248406
 30
0.0
 11
-378.4834821881431
 21
-1793.616656774644
 31
0.0
  0
LINE
  5
262
330
2
100
AcDbEntity
  8
Object
100
AcDbLine
 10
-378.4834821881431
 20
-1802.783959511527
 30
0.0
 11
-379.0834821881436
 21
-1802.783959511527
 31
0.0
  0
ARC
  5
263
330
2
100
AcDbEntity
  8
Object
 48
0.5
370
    30
100
AcDbCircle
 10
-379.7834821881433
 20
-1801.383959511524
 30
0.0
 40
1.0
100
AcDbArc
 50
180.0
 51
250.6896266621385
  0
LINE
  5
264
330
2
100
AcDbEntity
  8
Object
 48
0.5
100
AcDbLine
 10
-380.0575762674379
 20
-1801.66384276184
 30
0.0
 11
-379.0834821881436
 21
-1801.66384276184
 31
0.0
  0
LINE
  5
265
330
2
100
AcDbEntity
  8
Object
 48
0.5
100
AcDbLine
 10
-380.114167449563
 20
-1802.327700608372
 30
0.0
 11
-379.0834821881436
 21
-1802.327700608372
 31
0.0
  0
LINE
  5
266
330
2
100
AcDbEntity
  8
Object
 48
10.0
100
AcDbLine
 10
-376.4660297817054
 20
-1802.669174274267
 30
0.0
 11
-377.5009345945806
 21
-1802.651109943564
 31
0.0
  0
ARC
  5
267
330
2
100
AcDbEntity
  8
Object
100
AcDbCircle
 10
-376.4834821881427
 20
-1803.669021969422
 30
0.0
 40
1.0
100
AcDbArc
 50
0.0
 51
88.99999999999822
  0
ARC
  5
268
330
2
100
AcDbEntity
  8
Object
100
AcDbCircle
 10
-375.1834821881434
 20
-1806.539695962943
 30
0.0
 40
0.3
100
AcDbArc
 50
90.99999999997569
 51
180.0
  0
POINT
  5
269
330
2
100
AcDbEntity
  8
Hidden
100
AcDbPoint
 10
-378.4834821881431
 20
-1802.633959511523
 30
0.0
  0
ARC
  5
26B
330
2
100
AcDbEntity
  8
Object
100
AcDbCircle
 10
-377.4834821881431
 20
-1801.651262248406
 30
0.0
 40
1.0
100
AcDbArc
 50
180.0
 51
268.999999999998
  0
LINE
  5
26C
330
2
100
AcDbEntity
  8
Object
 48
10.0
100
AcDbLine
 10
-376.4834821881436
 20
-1802.633959511521
 30
0.0
 11
-377.5183816848453
 21
-1802.597820024751
 31
0.0
  0
ARC
  5
26D
330
2
100
AcDbEntity
  8
Object
 48
10.0
100
AcDbCircle
 10
-377.4834821881431
 20
-1801.598429197732
 30
0.0
 40
1.0
100
AcDbArc
 50
180.0
 51
268.0000000000223
  0
LINE
  5
26E
330
2
100
AcDbEntity
  8
Object
100
AcDbLine
 10
-376.4834821881431
 20
-1792.533959511528
 30
0.0
 11
-375.4834821881427
 21
-1792.499038742036
 31
0.0
  0
LINE
  5
26F
330
2
100
AcDbEntity
  8
Object
 48
0.5
100
AcDbLine
 10
-380.0575762674375
 20
-1800.797817358056
 30
0.0
 11
-379.0834821881436
 21
-1800.797817358056
 31
0.0
  0
ARC
  5
270
330
2
100
AcDbEntity
  8
Object
100
AcDbCircle
 10
-375.1834821881431
 20
-1787.728223060097
 30
0.0
 40
0.3
100
AcDbArc
 50
180.0
 51
269.0000000000241
  0
POINT
  5
271
330
2
100
AcDbEntity
  8
Hidden
100
AcDbPoint
 10
-378.4834821881431
 20
-1792.633959511528
 30
0.0
  0
LINE
  5
272
330
2
100
AcDbEntity
  8
Object
100
AcDbLine
 10
-376.4834821881431
 20
-1792.533959511528
 30
0.0
 11
-378.2904620874838
 21
-1792.470858382986
 31
0.0
  0
ARC
  5
273
330
2
100
AcDbEntity
  8
Object
100
AcDbCircle
 10
-378.2834821881434
 20
-1792.270980217583
 30
0.0
 40
0.2
100
AcDbArc
 50
180.0
 51
268.0000000000223
  0
ARC
  5
274
330
2
100
AcDbEntity
  8
Object
100
AcDbCircle
 10
-393.8016142985726
 20
-1797.633959511522
 30
0.0
 40
2.499999999999983
100
AcDbArc
 50
306.8698976458311
 51
53.13010235416886
  0
LINE
  5
275
330
2
100
AcDbEntity
  8
Object
 48
10.0
100
AcDbLine
 10
-378.4834821881427
 20
-1791.633959511521
 30
0.0
 11
-392.301614298573
 21
-1791.633959511521
 31
0.0
  0
LINE
  5
276
330
2
100
AcDbEntity
  8
Object
 48
10.0
100
AcDbLine
 10
-378.4834821881431
 20
-1799.633959511522
 30
0.0
 11
-392.301614298573
 21
-1799.633959511522
 31
0.0
  0
LINE
  5
277
330
2
100
AcDbEntity
  8
Object
  6
Continuous
100
AcDbLine
 10
-378.2942264872563
 20
-1783.291974571696
 30
0.0
 11
-377.9758447675258
 21
-1783.173539602464
 31
0.0
  0
POINT
  5
278
330
2
100
AcDbEntity
  8
Object
  6
Continuous
100
AcDbPoint
 10
-377.8694439510865
 20
-1783.133959511522
 30
0.0
  0
POINT
  5
279
330
2
100
AcDbEntity
  8
Object
  6
Continuous
100
AcDbPoint
 10
-378.4070921166522
 20
-1783.333959511522
 30
0.0
  0
ARC
  5
27A
330
2
100
AcDbEntity
  8
Object
  6
Continuous
100
AcDbCircle
 10
-378.0455746257613
 20
-1782.986088950637
 30
0.0
 40
0.2
100
AcDbArc
 50
290.4047219671054
 51
349.1398297200763
  0
ARC
  5
27B
330
2
100
AcDbEntity
  8
Object
  6
Continuous
100
AcDbCircle
 10
-378.224496629021
 20
-1783.479425223523
 30
0.0
 40
0.2
100
AcDbArc
 50
110.4047219671054
 51
172.9492186620558
  0
LINE
  5
27C
330
2
100
AcDbEntity
  8
1
  6
Continuous
 62
     7
100
AcDbLine
 10
-361.5834821881431
 20
-1831.63395951152
 30
0.0
 11
-356.3834821881433
 21
-1831.63395951152
 31
0.0
  0
LINE
  5
27D
330
2
100
AcDbEntity
  8
Object
100
AcDbLine
 10
-353.3834821881433
 20
-1823.633959511521
 30
0.0
 11
-370.6579796716565
 21
-1823.030720766814
 31
0.0
  0
LINE
  5
27E
330
2
100
AcDbEntity
  8
1
  6
Continuous
 62
     7
100
AcDbLine
 10
-359.2870756595162
 20
-1824.083959511521
 30
0.0
 11
-359.3446579721791
 21
-1823.425790666067
 31
0.0
  0
LINE
  5
27F
330
2
100
AcDbEntity
  8
1
 62
     7
100
AcDbLine
 10
-357.8834821881433
 20
-1830.88395951152
 30
0.0
 11
-357.8834821881433
 21
-1825.983959511519
 31
0.0
  0
LINE
  5
280
330
2
100
AcDbEntity
  8
1
 62
     7
100
AcDbLine
 10
-360.8834821881433
 20
-1825.683959511519
 30
0.0
 11
-360.8834821881433
 21
-1831.183959511521
 31
0.0
  0
LINE
  5
281
330
2
100
AcDbEntity
  8
1
 62
     7
100
AcDbLine
 10
-360.8834821881433
 20
-1831.383959511519
 30
0.0
 11
-360.8834821881433
 21
-1825.483959511521
 31
0.0
  0
LINE
  5
282
330
2
100
AcDbEntity
  8
1
 62
     7
100
AcDbLine
 10
-361.5834821881431
 20
-1825.483959511521
 30
0.0
 11
-361.5834821881431
 21
-1831.383959511519
 31
0.0
  0
LINE
  5
283
330
2
100
AcDbEntity
  8
1
  6
Continuous
 62
     7
100
AcDbLine
 10
-361.5834821881431
 20
-1825.433959511521
 30
0.0
 11
-361.5834821881431
 21
-1832.647292844854
 31
0.0
  0
LINE
  5
284
330
2
100
AcDbEntity
  8
1
 62
     7
100
AcDbLine
 10
-360.8834821881433
 20
-1828.521459511521
 30
0.0
 11
-361.5834821881431
 21
-1828.696459511522
 31
0.0
  0
LINE
  5
285
330
2
100
AcDbEntity
  8
1
 62
     7
100
AcDbLine
 10
-360.8834821881433
 20
-1831.183959511521
 30
0.0
 11
-358.1834821881431
 21
-1831.183959511521
 31
0.0
  0
LINE
  5
286
330
2
100
AcDbEntity
  8
1
 62
     7
100
AcDbLine
 10
-361.5834821881431
 20
-1831.383959511519
 30
0.0
 11
-360.8834821881433
 21
-1831.383959511519
 31
0.0
  0
ARC
  5
287
330
2
100
AcDbEntity
  8
1
 62
     7
100
AcDbCircle
 10
-358.1834821881431
 20
-1830.88395951152
 30
0.0
 40
0.3000000000000114
100
AcDbArc
 50
270.0
 51
0.0
  0
LINE
  5
288
330
2
100
AcDbEntity
  8
1
 62
     7
100
AcDbLine
 10
-360.8834821881433
 20
-1828.171459511521
 30
0.0
 11
-361.5834821881431
 21
-1828.346459511521
 31
0.0
  0
LINE
  5
289
330
2
100
AcDbEntity
  8
1
 62
     7
100
AcDbLine
 10
-358.1834821881431
 20
-1825.683959511519
 30
0.0
 11
-360.8834821881433
 21
-1825.683959511519
 31
0.0
  0
LINE
  5
28A
330
2
100
AcDbEntity
  8
1
 62
     7
100
AcDbLine
 10
-360.8834821881433
 20
-1825.483959511521
 30
0.0
 11
-361.5834821881431
 21
-1825.483959511521
 31
0.0
  0
ARC
  5
28B
330
2
100
AcDbEntity
  8
1
 62
     7
100
AcDbCircle
 10
-358.1834821881431
 20
-1825.983959511519
 30
0.0
 40
0.3000000000000114
100
AcDbArc
 50
0.0
 51
90.0
  0
LINE
  5
28C
330
2
100
AcDbEntity
  8
1
  6
Continuous
 62
     7
100
AcDbLine
 10
-359.1834419423926
 20
-1825.433959511521
 30
0.0
 11
-359.1834419423926
 21
-1825.283959511521
 31
0.0
  0
LINE
  5
28D
330
2
100
AcDbEntity
  8
1
  6
Continuous
 62
     7
100
AcDbLine
 10
-361.7745756595163
 20
-1824.083959511521
 30
0.0
 11
-359.2870756595162
 21
-1824.083959511521
 31
0.0
  0
LINE
  5
28E
330
2
100
AcDbEntity
  8
1
  6
Continuous
 62
     7
100
AcDbLine
 10
-359.0370756595163
 20
-1824.78395951152
 30
0.0
 11
-359.0370756595163
 21
-1825.283959511521
 31
0.0
  0
LINE
  5
28F
330
2
100
AcDbEntity
  8
1
  6
Continuous
 62
     7
100
AcDbLine
 10
-359.2870756595162
 20
-1824.78395951152
 30
0.0
 11
-359.0370756595163
 21
-1824.78395951152
 31
0.0
  0
LINE
  5
290
330
2
100
AcDbEntity
  8
1
  6
Continuous
 62
     7
100
AcDbLine
 10
-359.2870756595162
 20
-1824.083959511521
 30
0.0
 11
-359.2870756595162
 21
-1824.78395951152
 31
0.0
  0
LINE
  5
291
330
2
100
AcDbEntity
  8
1
  6
Continuous
 62
     7
100
AcDbLine
 10
-362.2995756595165
 20
-1824.78395951152
 30
0.0
 11
-362.1245756595163
 21
-1824.083959511521
 31
0.0
  0
LINE
  5
292
330
2
100
AcDbEntity
  8
1
  6
Continuous
 62
     7
100
AcDbLine
 10
-361.9495756595162
 20
-1824.78395951152
 30
0.0
 11
-362.2995756595165
 21
-1824.78395951152
 31
0.0
  0
LINE
  5
293
330
2
100
AcDbEntity
  8
1
  6
Continuous
 62
     7
100
AcDbLine
 10
-361.7745756595163
 20
-1824.083959511521
 30
0.0
 11
-361.9495756595162
 21
-1824.78395951152
 31
0.0
  0
LINE
  5
294
330
2
100
AcDbEntity
  8
1
  6
Continuous
 62
     7
100
AcDbLine
 10
-362.1245756595163
 20
-1824.083959511521
 30
0.0
 11
-361.7745756595163
 21
-1824.083959511521
 31
0.0
  0
LINE
  5
295
330
2
100
AcDbEntity
  8
1
  6
Continuous
 62
     7
100
AcDbLine
 10
-359.2870756595162
 20
-1824.78395951152
 30
0.0
 11
-361.9495756595162
 21
-1824.78395951152
 31
0.0
  0
LINE
  5
296
330
2
100
AcDbEntity
  8
1
  6
Continuous
 62
     7
100
AcDbLine
 10
-360.8834821881427
 20
-1825.483959511521
 30
0.0
 11
-360.8834821881427
 21
-1831.383959511519
 31
0.0
  0
LINE
  5
297
330
2
100
AcDbEntity
  8
1
  6
Continuous
 62
     7
100
AcDbLine
 10
-360.8834821881427
 20
-1831.383959511519
 30
0.0
 11
-361.5834821881431
 21
-1831.383959511519
 31
0.0
  0
LINE
  5
298
330
2
100
AcDbEntity
  8
1
  6
Continuous
 62
     7
100
AcDbLine
 10
-361.5834821881431
 20
-1831.383959511519
 30
0.0
 11
-361.5834821881431
 21
-1825.483959511521
 31
0.0
  0
LINE
  5
299
330
2
100
AcDbEntity
  8
1
  6
Continuous
 62
     7
100
AcDbLine
 10
-361.5834821881431
 20
-1825.483959511521
 30
0.0
 11
-360.8834821881427
 21
-1825.483959511521
 31
0.0
  0
LINE
  5
29A
330
2
100
AcDbEntity
  8
1
  6
Continuous
 62
     7
100
AcDbLine
 10
-360.8834821881427
 20
-1828.696459511521
 30
0.0
 11
-361.5834821881431
 21
-1828.521459511521
 31
0.0
  0
LINE
  5
29B
330
2
100
AcDbEntity
  8
1
  6
Continuous
 62
     7
100
AcDbLine
 10
-360.8834821881427
 20
-1828.346459511521
 30
0.0
 11
-361.5834821881431
 21
-1828.171459511521
 31
0.0
  0
LINE
  5
29C
330
2
100
AcDbEntity
  8
1
  6
Continuous
 62
     7
100
AcDbLine
 10
-368.5834821881431
 20
-1824.433959511521
 30
0.0
 11
-368.5834821881431
 21
-1823.103163815247
 31
0.0
  0
LINE
  5
29D
330
2
100
AcDbEntity
  8
1
  6
Continuous
 62
     7
100
AcDbLine
 10
-367.433482188143
 20
-1823.143322700162
 30
0.0
 11
-367.433482188143
 21
-1824.433959511521
 31
0.0
  0
LINE
  5
29E
330
2
100
AcDbEntity
  8
1
  6
Continuous
 62
     7
100
AcDbLine
 10
-368.5834821881436
 20
-1823.103163815247
 30
0.0
 11
-368.5834821881431
 21
-1825.433959511521
 31
0.0
  0
LINE
  5
29F
330
2
100
AcDbEntity
  8
1
  6
Continuous
 62
     7
100
AcDbLine
 10
-367.5834821881431
 20
-1825.433959511521
 30
0.0
 11
-367.5834821881431
 21
-1824.433959511521
 31
0.0
  0
LINE
  5
2A0
330
2
100
AcDbEntity
  8
1
  6
Continuous
 62
     7
100
AcDbLine
 10
-367.433482188143
 20
-1824.433959511521
 30
0.0
 11
-367.433482188143
 21
-1825.283959511521
 31
0.0
  0
LINE
  5
2A1
330
2
100
AcDbEntity
  8
1
  6
Continuous
 62
     7
100
AcDbLine
 10
-367.5834821881431
 20
-1824.433955259312
 30
0.0
 11
-367.5834821881431
 21
-1825.283959511521
 31
0.0
  0
LINE
  5
2A2
330
2
100
AcDbEntity
  8
1
  6
Continuous
 62
     7
100
AcDbLine
 10
-368.5834821881431
 20
-1824.433959511521
 30
0.0
 11
-367.433482188143
 21
-1824.433959511521
 31
0.0
  0
LINE
  5
2A3
330
2
100
AcDbEntity
  8
1
  6
Continuous
 62
     7
100
AcDbLine
 10
-367.5834821881431
 20
-1825.283959511521
 30
0.0
 11
-367.5834821881431
 21
-1825.433959511521
 31
0.0
  0
LINE
  5
2A4
330
2
100
AcDbEntity
  8
1
  6
Continuous
 62
     7
100
AcDbLine
 10
-367.5834821881431
 20
-1824.433959511521
 30
0.0
 11
-367.5834821881431
 21
-1825.283959511521
 31
0.0
  0
LINE
  5
2A5
330
2
100
AcDbEntity
  8
1
  6
Continuous
 62
     7
100
AcDbLine
 10
-367.433482188143
 20
-1824.433959511521
 30
0.0
 11
-367.5834821881431
 21
-1824.433959511521
 31
0.0
  0
LINE
  5
2A6
330
2
100
AcDbEntity
  8
1
  6
Continuous
 62
     7
100
AcDbLine
 10
-364.7870756595163
 20
-1824.78395951152
 30
0.0
 11
-364.7870756595163
 21
-1824.083959511521
 31
0.0
  0
LINE
  5
2A7
330
2
100
AcDbEntity
  8
1
  6
Continuous
 62
     7
100
AcDbLine
 10
-365.0370756595163
 20
-1824.78395951152
 30
0.0
 11
-364.7870756595163
 21
-1824.78395951152
 31
0.0
  0
LINE
  5
2A8
330
2
100
AcDbEntity
  8
1
  6
Continuous
 62
     7
100
AcDbLine
 10
-365.0370756595163
 20
-1825.283959511521
 30
0.0
 11
-365.0370756595163
 21
-1824.78395951152
 31
0.0
  0
LINE
  5
2A9
330
2
100
AcDbEntity
  8
1
  6
Continuous
 62
     7
100
AcDbLine
 10
-367.5834821881431
 20
-1825.433959511521
 30
0.0
 11
-359.1834419423926
 21
-1825.433959511521
 31
0.0
  0
LINE
  5
2AA
330
2
100
AcDbEntity
  8
1
  6
Continuous
 62
     7
100
AcDbLine
 10
-367.5834821881431
 20
-1825.283959511521
 30
0.0
 11
-359.1834419423926
 21
-1825.283959511521
 31
0.0
  0
LINE
  5
2AB
330
2
100
AcDbEntity
  8
1
  6
Continuous
 62
     7
100
AcDbLine
 10
-364.7129509870793
 20
-1823.236710628642
 30
0.0
 11
-364.7870756595163
 21
-1824.083959511521
 31
0.0
  0
LINE
  5
2AC
330
2
100
AcDbEntity
  8
1
  6
Continuous
 62
     7
100
AcDbLine
 10
-362.2995756595165
 20
-1824.78395951152
 30
0.0
 11
-364.7870756595163
 21
-1824.78395951152
 31
0.0
  0
LINE
  5
2AD
330
2
100
AcDbEntity
  8
1
  6
Continuous
 62
     7
100
AcDbLine
 10
-359.0370756595163
 20
-1825.283959511521
 30
0.0
 11
-365.0370756595163
 21
-1825.283959511521
 31
0.0
  0
LINE
  5
2AE
330
2
100
AcDbEntity
  8
1
  6
Continuous
 62
     7
100
AcDbLine
 10
-364.7870756595163
 20
-1824.083959511521
 30
0.0
 11
-362.1245756595163
 21
-1824.083959511521
 31
0.0
  0
LINE
  5
2AF
330
2
100
AcDbEntity
  8
Object
100
AcDbLine
 10
-340.4834821881428
 20
-1789.616656774636
 30
0.0
 11
-340.4834821881428
 21
-1804.651262248405
 31
0.0
  0
POINT
  5
2B0
330
2
100
AcDbEntity
  8
Text
100
AcDbPoint
 10
-340.4834821881428
 20
-1805.633959511521
 30
0.0
  0
ARC
  5
2B1
330
2
100
AcDbEntity
  8
Object
100
AcDbCircle
 10
-341.4834821881428
 20
-1804.651262248405
 30
0.0
 40
1.0
100
AcDbArc
 50
271.0000000000017
 51
0.0
  0
POINT
  5
2B2
330
2
100
AcDbEntity
  8
Text
100
AcDbPoint
 10
-340.4834821881428
 20
-1788.633959511519
 30
0.0
  0
ARC
  5
2B3
330
2
100
AcDbEntity
  8
Object
100
AcDbCircle
 10
-341.4834821881428
 20
-1789.616656774636
 30
0.0
 40
1.0
100
AcDbArc
 50
0.0
 51
88.99999999999822
  0
LINE
  5
2B7
330
2
100
AcDbEntity
  8
Object
100
AcDbLine
 10
-370.8266773270421
 20
-1776.940685904881
 30
0.0
 11
-371.0719254061028
 21
-1776.959987347299
 31
0.0
  0
DIMENSION
  5
2B8
330
2
100
AcDbEntity
  8
text3
100
AcDbDimension
  2
*D2
 10
-295.3440971025644
 20
-1880.633959511519
 30
0.0
 11
-298.8440971025642
 21
-1827.133959511519
 31
0.0
 70
     1
  1
<>±1
 71
     5
 42
107.0000000000004
  3
DMST_1
100
AcDbAlignedDimension
 13
-312.2834821881296
 23
-1773.633959511519
 33
0.0
 14
-312.2834821881304
 24
-1880.633959511519
 34
0.0
1001
ACAD
1000
DSTYLE
1002
{
1070
    41
1040
5.0
1070
    42
1040
2.0
1070
    43
1040
0.38
1070
    44
1040
5.0
1070
    47
1040
0.0
1070
    48
1040
0.0
1070
    71
1070
     0
1070
    78
1070
     8
1070
    79
1070
     2
1070
   140
1040
4.0
1070
   141
1040
1.0
1070
   146
1040
1.0
1070
   147
1040
1.5
1070
   176
1070
     0
1070
   177
1070
     0
1070
   178
1070
     0
1070
   179
1070
     2
1070
   279
1070
     0
1002
}
  0
DIMENSION
  5
2C5
330
2
100
AcDbEntity
  8
text3
100
AcDbDimension
  2
*D1
 10
-284.6806566777378
 20
-1773.633959511519
 30
0.0
 11
-284.6806566777377
 21
-1829.533959511521
 31
0.0
 70
   129
  1
112±1
 71
     5
 42
111.8000000000009
  3
DMST_1
100
AcDbAlignedDimension
 13
-308.1177162003924
 23
-1885.433959511519
 33
0.0
 14
-308.1177162003924
 24
-1773.633959511519
 34
0.0
1001
ACAD
1000
DSTYLE
1002
{
1070
    41
1040
5.0
1070
    42
1040
2.0
1070
    43
1040
0.38
1070
    44
1040
5.0
1070
    47
1040
0.0
1070
    48
1040
0.0
1070
    71
1070
     0
1070
    78
1070
     8
1070
    79
1070
     2
1070
   140
1040
4.0
1070
   141
1040
1.0
1070
   146
1040
1.0
1070
   147
1040
1.5
1070
   176
1070
     0
1070
   177
1070
     0
1070
   178
1070
     0
1070
   179
1070
     2
1070
   279
1070
     0
1002
}
  0
LINE
  5
2D2
330
2
100
AcDbEntity
  8
Object
100
AcDbLine
 10
-335.0834821881432
 20
-1773.958497683113
 30
0.0
 11
-335.0834821881426
 21
-1855.413295357979
 31
0.0
  0
LINE
  5
2D3
330
2
100
AcDbEntity
  8
Object
100
AcDbLine
 10
-335.0834821881426
 20
-1855.413295357979
 30
0.0
 11
-335.0834821881436
 21
-1773.958497683113
 31
0.0
  0
LINE
  5
2D4
330
2
100
AcDbEntity
  8
Object
100
AcDbLine
 10
-335.0834821881426
 20
-1880.633959511521
 30
0.0
 11
-335.0834821881436
 21
-1773.633959511521
 31
0.0
  0
LINE
  5
2D5
330
2
100
AcDbEntity
  8
Object
100
AcDbLine
 10
-335.0834821881426
 20
-1773.633959511521
 30
0.0
 11
-335.0834821881422
 21
-1880.633959511521
 31
0.0
  0
LINE
  5
2D6
330
2
100
AcDbEntity
  8
Object
100
AcDbLine
 10
-312.2834821881434
 20
-1879.7446353996
 30
0.0
 11
-312.2834821881425
 21
-1774.523283623442
 31
0.0
  0
LINE
  5
2D7
330
2
100
AcDbEntity
  8
Object
100
AcDbLine
 10
-335.0834821881426
 20
-1880.633959511521
 30
0.0
 11
-312.7747559849248
 21
-1880.244559247179
 31
0.0
  0
LINE
  5
2D8
330
2
100
AcDbEntity
  8
Object
100
AcDbLine
 10
-335.0834821881432
 20
-1869.413295357977
 30
0.0
 11
-335.0834821881432
 21
-1865.854623665063
 31
0.0
  0
LINE
  5
2D9
330
2
100
AcDbEntity
  8
Object
100
AcDbLine
 10
-335.0834821881422
 20
-1865.854623665063
 30
0.0
 11
-335.0834821881422
 21
-1869.413295357977
 31
0.0
  0
ARC
  5
2DA
330
2
100
AcDbEntity
  8
Object
100
AcDbCircle
 10
-335.3834821881422
 20
-1880.328677293629
 30
0.0
 40
0.3
100
AcDbArc
 50
268.999999999998
 51
0.0
  0
POINT
  5
2DB
330
2
100
AcDbEntity
  8
Object
  6
Continuous
100
AcDbPoint
 10
-335.0834821881426
 20
-1880.633959511521
 30
0.0
  0
POINT
  5
2DC
330
2
100
AcDbEntity
  8
Object
  6
Continuous
100
AcDbPoint
 10
-335.0834821881426
 20
-1879.133959511521
 30
0.0
  0
LINE
  5
2DD
330
2
100
AcDbEntity
  8
Object
100
AcDbLine
 10
-335.0834821881422
 20
-1872.854623665062
 30
0.0
 11
-335.0834821881422
 21
-1880.328677293629
 31
0.0
  0
POINT
  5
2DE
330
2
100
AcDbEntity
  8
DIM
100
AcDbPoint
 10
-335.0834821881426
 20
-1879.133959511522
 30
0.0
  0
POINT
  5
2DF
330
2
100
AcDbEntity
  8
Object2
100
AcDbPoint
 10
-335.0834821881426
 20
-1879.651414576449
 30
0.0
  0
LINE
  5
2E0
330
2
100
AcDbEntity
  8
Object
100
AcDbLine
 10
-335.0834821881426
 20
-1880.328677293629
 30
0.0
 11
-335.0834821881426
 21
-1872.633959511521
 31
0.0
  0
POINT
  5
2E1
330
2
100
AcDbEntity
  8
Object2
100
AcDbPoint
 10
-335.0834821881426
 20
-1879.651414576449
 30
0.0
  0
ARC
  5
2E2
330
2
100
AcDbEntity
  8
Object
100
AcDbCircle
 10
-334.783482188142
 20
-1880.328677293629
 30
0.0
 40
0.3
100
AcDbArc
 50
180.0
 51
270.9999999999757
  0
LINE
  5
2E3
330
2
100
AcDbEntity
  8
Object
100
AcDbLine
 10
-335.0834821881432
 20
-1862.413295357979
 30
0.0
 11
-335.0834821881426
 21
-1858.854623665062
 31
0.0
  0
LINE
  5
2E4
330
2
100
AcDbEntity
  8
Object
100
AcDbLine
 10
-335.0834821881422
 20
-1858.854623665062
 30
0.0
 11
-335.0834821881413
 21
-1862.413295357979
 31
0.0
  0
LINE
  5
2E5
330
2
100
AcDbEntity
  8
text3
100
AcDbLine
 10
-306.1177162003924
 20
-1885.433959511519
 30
0.0
 11
-314.0405811256105
 21
-1885.433959511519
 31
0.0
  0
LINE
  5
2E6
330
2
100
AcDbEntity
  8
text3
100
AcDbLine
 10
-312.2834821881434
 20
-1882.7446353996
 30
0.0
 11
-312.2834821881434
 21
-1890.074820360259
 31
0.0
  0
ARC
  5
2E7
330
2
100
AcDbEntity
  8
Object
100
AcDbCircle
 10
-312.7834821881434
 20
-1879.7446353996
 30
0.0
 40
0.5
100
AcDbArc
 50
271.0000000000017
 51
0.0
  0
POINT
  5
2E8
330
2
100
AcDbEntity
  8
Hidden
100
AcDbPoint
 10
-312.283482188143
 20
-1879.896425502099
 30
0.0
  0
LINE
  5
2E9
330
2
100
AcDbEntity
  8
Object
100
AcDbLine
 10
-335.0834821881426
 20
-1773.633959511521
 30
0.0
 11
-312.7747559849241
 21
-1774.023359775863
 31
0.0
  0
ARC
  5
2EA
330
2
100
AcDbEntity
  8
Object
100
AcDbCircle
 10
-335.3834821881446
 20
-1773.850318292582
 30
0.0
 40
0.2
100
AcDbArc
 50
62.25639959038398
 51
94.4999999999972
  0
POINT
  5
2EB
330
2
100
AcDbEntity
  8
Object
  6
Continuous
100
AcDbPoint
 10
-335.0834821881436
 20
-1775.133959511522
 30
0.0
  0
POINT
  5
2EC
330
2
100
AcDbEntity
  8
Object
  6
Continuous
100
AcDbPoint
 10
-335.0834821881432
 20
-1773.633959511521
 30
0.0
  0
ARC
  5
2ED
330
2
100
AcDbEntity
  8
Object
100
AcDbCircle
 10
-335.3834821881434
 20
-1773.958497683113
 30
0.0
 40
0.3
100
AcDbArc
 50
0.0
 51
94.4999999999972
  0
POINT
  5
2EE
330
2
100
AcDbEntity
  8
Text
100
AcDbPoint
 10
-335.0840913611242
 20
-1775.433938238731
 30
0.0
  0
POINT
  5
2EF
330
2
100
AcDbEntity
  8
Hidden
100
AcDbPoint
 10
-335.0834821881426
 20
-1774.916504446593
 30
0.0
  0
ARC
  5
2F0
330
2
100
AcDbEntity
  8
Object
100
AcDbCircle
 10
-334.783482188143
 20
-1773.939241729413
 30
0.0
 40
0.3
100
AcDbArc
 50
89.0000000000243
 51
180.0
  0
LINE
  5
2F1
330
2
100
AcDbEntity
  8
DIM
100
AcDbLine
 10
-335.0834821881432
 20
-1773.633959511519
 30
0.0
 11
-335.0834821881436
 21
-1774.789734613732
 31
0.0
  0
POINT
  5
2F2
330
2
100
AcDbEntity
  8
Object
  6
Continuous
100
AcDbPoint
 10
-335.1834821881447
 20
-1773.633959511521
 30
0.0
  0
POINT
  5
2F3
330
2
100
AcDbEntity
  8
Object
100
AcDbPoint
 10
-335.1834821881443
 20
-1774.714774172905
 30
0.0
  0
ARC
  5
2F4
330
2
100
AcDbEntity
  8
Object
100
AcDbCircle
 10
-312.7834821881425
 20
-1774.523283623442
 30
0.0
 40
0.5
100
AcDbArc
 50
0.0
 51
88.99999999999822
  0
LINE
  5
355
330
2
100
AcDbEntity
  8
1
  6
Continuous
 62
     7
100
AcDbLine
 10
-424.8834821881429
 20
-1851.433959511518
 30
0.0
 11
-425.3834821881429
 21
-1851.933959511518
 31
0.0
  0
LWPOLYLINE
  5
59B
330
2
100
AcDbEntity
  8
Object
100
AcDbPolyline
 90
        4
 70
     0
 43
0.3
 10
-452.862219676948
 20
-1804.633959511521
 10
-451.9992061575568
 20
-1804.633959511521
 42
0.112265638776158
 10
-449.8370379012659
 20
-1804.14228829628
 10
-437.1497249568789
 20
-1798.057526821315
  0
LINE
  5
59C
330
2
100
AcDbEntity
  8
Object
100
AcDbLine
 10
-452.862219676948
 20
-1780.783959511521
 30
0.0
 11
-452.862219676948
 21
-1810.483959511521
 31
0.0
  0
LINE
  5
59D
330
2
100
AcDbEntity
  8
Object
100
AcDbLine
 10
-453.8622196769479
 20
-1784.383959511521
 30
0.0
 11
-453.8622196769479
 21
-1806.883959511521
 31
0.0
  0
LINE
  5
59E
330
2
100
AcDbEntity
  8
Object
100
AcDbLine
 10
-463.2622196769476
 20
-1805.183959511521
 30
0.0
 11
-463.2622196769476
 21
-1803.583959511521
 31
0.0
  0
LINE
  5
59F
330
2
100
AcDbEntity
  8
Object
100
AcDbLine
 10
-462.2622196769476
 20
-1805.183959511521
 30
0.0
 11
-462.2622196769476
 21
-1803.583959511521
 31
0.0
  0
LINE
  5
5A0
330
2
100
AcDbEntity
  8
Object
100
AcDbLine
 10
-460.6622196769473
 20
-1803.883959511521
 30
0.0
 11
-460.362219676948
 21
-1803.583959511521
 31
0.0
  0
ARC
  5
5A1
330
2
100
AcDbEntity
  8
Object
100
AcDbCircle
 10
-463.862219676948
 20
-1803.133959511521
 30
0.0
 40
0.9999999999999829
100
AcDbArc
 50
143.1301023541768
 51
216.8698976458566
  0
LINE
  5
5A2
330
2
100
AcDbEntity
  8
Object
100
AcDbLine
 10
-464.862219676948
 20
-1782.083959511521
 30
0.0
 11
-464.862219676948
 21
-1809.183959511521
 31
0.0
  0
LINE
  5
5A3
330
2
100
AcDbEntity
  8
Object
100
AcDbLine
 10
-464.862219676948
 20
-1809.183959511521
 30
0.0
 11
-455.862219676948
 21
-1809.183959511521
 31
0.0
  0
LINE
  5
5A4
330
2
100
AcDbEntity
  8
Object
100
AcDbLine
 10
-464.6622196769473
 20
-1809.383959511521
 30
0.0
 11
-455.862219676948
 21
-1809.383959511521
 31
0.0
  0
LINE
  5
5A5
330
2
100
AcDbEntity
  8
Object
100
AcDbLine
 10
-460.3622196769475
 20
-1805.183959511521
 30
0.0
 11
-463.2622196769476
 21
-1805.183959511521
 31
0.0
  0
LINE
  5
5A6
330
2
100
AcDbEntity
  8
Object
100
AcDbLine
 10
-460.3622196769475
 20
-1805.183959511521
 30
0.0
 11
-460.6622196769473
 21
-1804.883959511522
 31
0.0
  0
LINE
  5
5A7
330
2
100
AcDbEntity
  8
Object
100
AcDbLine
 10
-460.6622196769473
 20
-1804.883959511522
 30
0.0
 11
-463.2622196769476
 21
-1804.883959511522
 31
0.0
  0
LINE
  5
5A8
330
2
100
AcDbEntity
  8
Object
100
AcDbLine
 10
-460.6622196769473
 20
-1806.383959511521
 30
0.0
 11
-463.2622196769476
 21
-1806.383959511521
 31
0.0
  0
LINE
  5
5A9
330
2
100
AcDbEntity
  8
Object
100
AcDbLine
 10
-460.6622196769473
 20
-1806.383959511521
 30
0.0
 11
-460.362219676948
 21
-1806.083959511521
 31
0.0
  0
LINE
  5
5AA
330
2
100
AcDbEntity
  8
Object
100
AcDbLine
 10
-460.3622196769475
 20
-1806.083959511521
 30
0.0
 11
-463.2622196769476
 21
-1806.083959511521
 31
0.0
  0
LINE
  5
5AB
330
2
100
AcDbEntity
  8
Object
100
AcDbLine
 10
-460.6622196769473
 20
-1803.883959511521
 30
0.0
 11
-463.2622196769476
 21
-1803.883959511521
 31
0.0
  0
LINE
  5
5AC
330
2
100
AcDbEntity
  8
Object
100
AcDbLine
 10
-463.2622196769476
 20
-1803.733959511521
 30
0.0
 11
-464.6622196769473
 21
-1803.733959511521
 31
0.0
  0
LINE
  5
5AD
330
2
100
AcDbEntity
  8
Object
100
AcDbLine
 10
-464.6622196769473
 20
-1809.383959511521
 30
0.0
 11
-464.862219676948
 21
-1809.183959511521
 31
0.0
  0
LINE
  5
5AE
330
2
100
AcDbEntity
  8
Object
100
AcDbLine
 10
-460.6622196769473
 20
-1807.383959511521
 30
0.0
 11
-463.2622196769476
 21
-1807.383959511521
 31
0.0
  0
LINE
  5
5AF
330
2
100
AcDbEntity
  8
Object
100
AcDbLine
 10
-460.3622196769475
 20
-1807.683959511521
 30
0.0
 11
-460.6622196769473
 21
-1807.383959511521
 31
0.0
  0
LINE
  5
5B0
330
2
100
AcDbEntity
  8
Object
100
AcDbLine
 10
-460.3622196769475
 20
-1807.683959511521
 30
0.0
 11
-463.2622196769476
 21
-1807.683959511521
 31
0.0
  0
LINE
  5
5B1
330
2
100
AcDbEntity
  8
Object
100
AcDbLine
 10
-464.6622196769473
 20
-1803.733959511521
 30
0.0
 11
-464.6622196769473
 21
-1809.383959511521
 31
0.0
  0
LINE
  5
5B2
330
2
100
AcDbEntity
  8
Object
100
AcDbLine
 10
-462.2622196769476
 20
-1807.683959511521
 30
0.0
 11
-462.2622196769476
 21
-1806.083959511521
 31
0.0
  0
LINE
  5
5B3
330
2
100
AcDbEntity
  8
Object
100
AcDbLine
 10
-463.2622196769476
 20
-1807.683959511521
 30
0.0
 11
-463.2622196769476
 21
-1806.083959511521
 31
0.0
  0
LINE
  5
5B4
330
2
100
AcDbEntity
  8
Object
100
AcDbLine
 10
-453.8633512595776
 20
-1808.137361447644
 30
0.0
 11
-455.3633512595776
 21
-1808.887361447644
 31
0.0
  0
LINE
  5
5B5
330
2
100
AcDbEntity
  8
Object
100
AcDbLine
 10
-453.8633512595776
 20
-1808.137361447644
 30
0.0
 11
-453.8633512595776
 21
-1809.637361447644
 31
0.0
  0
LINE
  5
5B6
330
2
100
AcDbEntity
  8
Object
100
AcDbLine
 10
-455.862219676948
 20
-1810.483959511521
 30
0.0
 11
-455.862219676948
 21
-1806.883959511521
 31
0.0
  0
LINE
  5
5B7
330
2
100
AcDbEntity
  8
Object
100
AcDbLine
 10
-452.862219676948
 20
-1810.483959511521
 30
0.0
 11
-455.862219676948
 21
-1810.483959511521
 31
0.0
  0
LINE
  5
5B8
330
2
100
AcDbEntity
  8
Object
100
AcDbLine
 10
-455.3633512595776
 20
-1808.887361447644
 30
0.0
 11
-453.8633512595776
 21
-1809.637361447644
 31
0.0
  0
LINE
  5
5B9
330
2
100
AcDbEntity
  8
Object
100
AcDbLine
 10
-455.862219676948
 20
-1806.883959511521
 30
0.0
 11
-453.8622196769479
 21
-1806.883959511521
 31
0.0
  0
LINE
  5
5BA
330
2
100
AcDbEntity
  8
Object
100
AcDbLine
 10
-394.301614298573
 20
-1791.633959511521
 30
0.0
 11
-437.1497249568789
 21
-1791.633959511521
 31
0.0
  0
LINE
  5
5BB
330
2
100
AcDbEntity
  8
Object
100
AcDbLine
 10
-437.1497249568789
 20
-1799.633959511521
 30
0.0
 11
-394.301614298573
 21
-1799.633959511521
 31
0.0
  0
LINE
  5
5BC
330
2
100
AcDbEntity
  8
Center
  6
CENTER
100
AcDbLine
 10
-394.3016142985726
 20
-1795.633959511521
 30
0.0
 11
-437.1497249568789
 21
-1795.633959511521
 31
0.0
  0
INSERT
  5
5BD
330
2
100
AcDbEntity
  8
Dims
100
AcDbBlockReference
  2
1-178128-4-jo1
 10
-420.9460698746376
 20
-1769.858448578053
 30
0.0
 50
180.0
  0
LINE
  5
5BE
330
2
100
AcDbEntity
  8
Object
100
AcDbLine
 10
-453.0622196769478
 20
-1761.899115567281
 30
0.0
 11
-466.4622196769474
 21
-1761.899115567281
 31
0.0
  0
LINE
  5
5BF
330
2
100
AcDbEntity
  8
Object
100
AcDbLine
 10
-453.0622196769478
 20
-1753.899115567281
 30
0.0
 11
-466.4622196769474
 21
-1753.899115567281
 31
0.0
  0
LINE
  5
5C0
330
2
100
AcDbEntity
  8
Object
100
AcDbLine
 10
-452.862219676948
 20
-1754.699115567281
 30
0.0
 11
-466.4622196769474
 21
-1754.699115567281
 31
0.0
  0
LINE
  5
5C1
330
2
100
AcDbEntity
  8
Object
100
AcDbLine
 10
-471.9622196769474
 20
-1762.099115567281
 30
0.0
 11
-471.9622196769474
 21
-1753.699115567281
 31
0.0
  0
LINE
  5
5C2
330
2
100
AcDbEntity
  8
Object
100
AcDbLine
 10
-466.4622196769466
 20
-1761.899115567281
 30
0.0
 11
-466.4622196769474
 21
-1754.699115567281
 31
0.0
  0
LINE
  5
5C3
330
2
100
AcDbEntity
  8
Object
100
AcDbLine
 10
-474.2622196769477
 20
-1760.399115567281
 30
0.0
 11
-474.4622196769475
 21
-1760.599115567281
 31
0.0
  0
LINE
  5
5C4
330
2
100
AcDbEntity
  8
Object
100
AcDbLine
 10
-468.4622196769474
 20
-1760.399115567281
 30
0.0
 11
-468.4622196769474
 21
-1762.899115567281
 31
0.0
  0
LINE
  5
5C5
330
2
100
AcDbEntity
  8
Object
100
AcDbLine
 10
-471.9622196769474
 20
-1762.099115567281
 30
0.0
 11
-474.4622196769475
 21
-1762.099115567281
 31
0.0
  0
LINE
  5
5C6
330
2
100
AcDbEntity
  8
Object
100
AcDbLine
 10
-468.4622196769465
 20
-1762.899115567281
 30
0.0
 11
-474.2622196769477
 21
-1762.899115567281
 31
0.0
  0
LINE
  5
5C7
330
2
100
AcDbEntity
  8
Object
100
AcDbLine
 10
-474.4622196769475
 20
-1760.599115567281
 30
0.0
 11
-474.4622196769475
 21
-1762.699115567281
 31
0.0
  0
LINE
  5
5C8
330
2
100
AcDbEntity
  8
Object
100
AcDbLine
 10
-474.4622196769475
 20
-1762.699115567281
 30
0.0
 11
-474.2622196769477
 21
-1762.899115567281
 31
0.0
  0
LINE
  5
5C9
330
2
100
AcDbEntity
  8
Object
100
AcDbLine
 10
-466.4622196769474
 20
-1761.899115567281
 30
0.0
 11
-468.4622196769474
 21
-1762.899115567281
 31
0.0
  0
LINE
  5
5CA
330
2
100
AcDbEntity
  8
Object
100
AcDbLine
 10
-469.4622196769475
 20
-1758.399115567281
 30
0.0
 11
-469.4622196769475
 21
-1757.399115567281
 31
0.0
  0
LINE
  5
5CB
330
2
100
AcDbEntity
  8
Object
100
AcDbLine
 10
-469.9622196769475
 20
-1758.399115567281
 30
0.0
 11
-469.9622196769475
 21
-1757.399115567281
 31
0.0
  0
LINE
  5
5CC
330
2
100
AcDbEntity
  8
Object
100
AcDbLine
 10
-470.4622196769475
 20
-1758.399115567281
 30
0.0
 11
-470.4622196769475
 21
-1757.399115567281
 31
0.0
  0
LINE
  5
5CD
330
2
100
AcDbEntity
  8
Object
100
AcDbLine
 10
-467.4622196769474
 20
-1760.399115567281
 30
0.0
 11
-467.4622196769474
 21
-1755.399115567281
 31
0.0
  0
LINE
  5
5CE
330
2
100
AcDbEntity
  8
Object
100
AcDbLine
 10
-472.4622196769474
 20
-1760.399115567281
 30
0.0
 11
-472.4622196769474
 21
-1755.399115567281
 31
0.0
  0
LINE
  5
5CF
330
2
100
AcDbEntity
  8
Object
100
AcDbLine
 10
-472.2122196769475
 20
-1760.399115567281
 30
0.0
 11
-472.2122196769475
 21
-1755.399115567281
 31
0.0
  0
LINE
  5
5D0
330
2
100
AcDbEntity
  8
Object
100
AcDbLine
 10
-472.2122196769475
 20
-1760.399115567281
 30
0.0
 11
-474.2622196769477
 21
-1760.399115567281
 31
0.0
  0
LINE
  5
5D1
330
2
100
AcDbEntity
  8
Object
100
AcDbLine
 10
-467.4622196769474
 20
-1760.399115567281
 30
0.0
 11
-471.9622196769474
 21
-1760.399115567281
 31
0.0
  0
LINE
  5
5D2
330
2
100
AcDbEntity
  8
Object
100
AcDbLine
 10
-469.4622196769475
 20
-1758.399115567281
 30
0.0
 11
-470.4622196769475
 21
-1758.399115567281
 31
0.0
  0
LINE
  5
5D3
330
2
100
AcDbEntity
  8
Object
100
AcDbLine
 10
-472.2122196769475
 20
-1755.399115567281
 30
0.0
 11
-474.2622196769477
 21
-1755.399115567281
 31
0.0
  0
LINE
  5
5D4
330
2
100
AcDbEntity
  8
Object
100
AcDbLine
 10
-471.9622196769474
 20
-1753.699115567281
 30
0.0
 11
-474.4622196769475
 21
-1753.699115567281
 31
0.0
  0
LINE
  5
5D5
330
2
100
AcDbEntity
  8
Object
100
AcDbLine
 10
-468.4622196769465
 20
-1752.899115567281
 30
0.0
 11
-474.2622196769477
 21
-1752.899115567281
 31
0.0
  0
LINE
  5
5D6
330
2
100
AcDbEntity
  8
Object
100
AcDbLine
 10
-474.4622196769475
 20
-1755.199115567281
 30
0.0
 11
-474.4622196769475
 21
-1753.099115567281
 31
0.0
  0
LINE
  5
5D7
330
2
100
AcDbEntity
  8
Object
100
AcDbLine
 10
-474.2622196769477
 20
-1755.399115567281
 30
0.0
 11
-474.4622196769475
 21
-1755.199115567281
 31
0.0
  0
LINE
  5
5D8
330
2
100
AcDbEntity
  8
Object
100
AcDbLine
 10
-474.4622196769475
 20
-1753.099115567281
 30
0.0
 11
-474.2622196769477
 21
-1752.899115567281
 31
0.0
  0
LINE
  5
5D9
330
2
100
AcDbEntity
  8
Object
100
AcDbLine
 10
-468.4622196769474
 20
-1755.399115567281
 30
0.0
 11
-468.4622196769474
 21
-1752.899115567281
 31
0.0
  0
ARC
  5
5DA
330
2
100
AcDbEntity
  8
Object
100
AcDbCircle
 10
-466.4622196769474
 20
-1754.299115567281
 30
0.0
 40
0.4
100
AcDbArc
 50
90.0
 51
270.0
  0
LINE
  5
5DB
330
2
100
AcDbEntity
  8
Object
100
AcDbLine
 10
-466.4622196769474
 20
-1753.899115567281
 30
0.0
 11
-468.4622196769474
 21
-1752.899115567281
 31
0.0
  0
LINE
  5
5DC
330
2
100
AcDbEntity
  8
Object
100
AcDbLine
 10
-467.4622196769474
 20
-1755.399115567281
 30
0.0
 11
-471.9622196769474
 21
-1755.399115567281
 31
0.0
  0
LINE
  5
5DD
330
2
100
AcDbEntity
  8
Object
100
AcDbLine
 10
-469.4622196769475
 20
-1757.399115567281
 30
0.0
 11
-470.4622196769475
 21
-1757.399115567281
 31
0.0
  0
LWPOLYLINE
  5
5DE
330
2
100
AcDbEntity
  8
Object
100
AcDbPolyline
 90
        4
 70
     0
 43
0.3
 10
-452.862219676948
 20
-1790.633959511521
 10
-451.5169027720791
 20
-1790.633959511521
 42
-0.0651900857428688
 10
-450.2296065016804
 20
-1790.802513732852
 10
-437.1497249568789
 20
-1794.287533228303
  0
LWPOLYLINE
  5
5DF
330
2
100
AcDbEntity
  8
Object
100
AcDbPolyline
 90
        4
 70
     0
 43
0.3
 10
-452.862219676948
 20
-1788.633959511521
 10
-451.7644027314942
 20
-1788.633959511521
 42
-0.0894957036537151
 10
-450.016929747867
 20
-1788.949267614342
 10
-437.1497249568789
 20
-1793.748962715015
  0
LWPOLYLINE
  5
5E0
330
2
100
AcDbEntity
  8
Object
100
AcDbPolyline
 90
        4
 70
     0
 43
0.3
 10
-452.862219676948
 20
-1786.633959511521
 10
-451.9992061575568
 20
-1786.633959511521
 42
-0.112265638776158
 10
-449.8370379012659
 20
-1787.125630726762
 10
-437.1497249568789
 20
-1793.210392201728
  0
LWPOLYLINE
  5
5E1
330
2
100
AcDbEntity
  8
Object
100
AcDbPolyline
 90
        4
 70
     0
 43
0.3
 10
-452.862219676948
 20
-1798.633959511521
 10
-451.2593601006561
 20
-1798.633959511521
 42
0.0396516019860022
 10
-450.4700588134952
 20
-1798.571266821998
 10
-437.1497249568789
 20
-1796.441815281452
  0
LWPOLYLINE
  5
5E2
330
2
100
AcDbEntity
  8
Object
100
AcDbPolyline
 90
        4
 70
     0
 43
0.3
 10
-452.862219676948
 20
-1796.633959511521
 10
-450.9953458426017
 20
-1796.633959511521
 42
0.0133102580627244
 10
-450.7292821246716
 20
-1796.626875503004
 10
-437.1497249568789
 20
-1795.903244768165
  0
LWPOLYLINE
  5
5E3
330
2
100
AcDbEntity
  8
Object
100
AcDbPolyline
 90
        4
 70
     0
 43
0.3
 10
-452.862219676948
 20
-1794.633959511521
 10
-450.9953458426021
 20
-1794.633959511521
 42
-0.0133102580627244
 10
-450.729282124672
 20
-1794.641043520039
 10
-437.1497249568789
 20
-1795.364674254878
  0
LWPOLYLINE
  5
5E4
330
2
100
AcDbEntity
  8
Object
100
AcDbPolyline
 90
        4
 70
     0
 43
0.3
 10
-452.862219676948
 20
-1802.633959511521
 10
-451.7644027314942
 20
-1802.633959511521
 42
0.0894957036537148
 10
-450.016929747867
 20
-1802.3186514087
 10
-437.1497249568789
 20
-1797.518956308027
  0
LWPOLYLINE
  5
5E5
330
2
100
AcDbEntity
  8
Object
100
AcDbPolyline
 90
        4
 70
     0
 43
0.3
 10
-452.862219676948
 20
-1800.633959511521
 10
-451.5169027720791
 20
-1800.633959511521
 42
0.0651900857428688
 10
-450.2296065016809
 20
-1800.46540529019
 10
-437.1497249568789
 20
-1796.98038579474
  0
LWPOLYLINE
  5
5E6
330
2
100
AcDbEntity
  8
Object
100
AcDbPolyline
 90
        4
 70
     0
 43
0.3
 10
-452.862219676948
 20
-1792.633959511521
 10
-451.2593601006566
 20
-1792.633959511521
 42
-0.0396516019860023
 10
-450.4700588134957
 20
-1792.696652201045
 10
-437.1497249568789
 20
-1794.82610374159
  0
LWPOLYLINE
  5
5E7
330
2
100
AcDbEntity
  8
Object
100
AcDbPolyline
 90
        4
 70
     0
 43
0.3
 10
-452.862219676948
 20
-1768.114227196677
 10
-452.1025367783132
 20
-1768.114227196677
 42
-0.2956990489431058
 10
-447.5386655112475
 20
-1771.071905219698
 10
-437.1497249568789
 20
-1794.287533228303
  0
LWPOLYLINE
  5
5E8
330
2
100
AcDbEntity
  8
Object
100
AcDbPolyline
 90
        4
 70
     0
 43
0.3
 10
-452.862219676948
 20
-1771.114227196676
 10
-451.9691754818692
 20
-1771.114227196676
 42
-0.2853901843838895
 10
-447.4862444646229
 20
-1773.899880906096
 10
-437.1497249568789
 20
-1794.82610374159
  0
LWPOLYLINE
  5
5E9
330
2
100
AcDbEntity
  8
Object
100
AcDbPolyline
 90
        4
 70
     0
 10
-452.862219676948
 20
-1774.114227196676
 40
0.3
 41
0.3
 10
-451.8334802239802
 20
-1774.114227196676
 40
0.3
 41
0.3
 42
-0.2747042088169623
 10
-447.4418130267969
 20
-1776.723984692413
 40
0.3
 41
0.3
 10
-437.1497249568789
 20
-1795.633959511521
 40
0.5
 41
0.5
  0
LWPOLYLINE
  5
5EA
330
2
100
AcDbEntity
  8
Object
100
AcDbPolyline
 90
        4
 70
     0
 43
0.3
 10
-452.862219676948
 20
-1757.899115567281
 10
-452.5054740316801
 20
-1757.899115567281
 42
-0.3256819082115214
 10
-447.745949589792
 20
-1761.367147197154
 10
-437.1497249568789
 20
-1794.287533228303
  0
LWPOLYLINE
  5
5EB
330
2
100
AcDbEntity
  8
Object
100
AcDbPolyline
 90
        4
 70
     0
 43
0.3
 10
-452.862219676948
 20
-1754.899115567281
 10
-452.5620655021099
 20
-1754.899115567281
 42
-0.3297534451698269
 10
-447.7805264384575
 20
-1758.437307035782
 10
-437.1497249568789
 20
-1793.210392201728
  0
LWPOLYLINE
  5
5EC
330
2
100
AcDbEntity
  8
Object
100
AcDbPolyline
 90
        4
 70
     0
 43
0.3
 10
-452.862219676948
 20
-1760.899115567281
 10
-452.4528373293829
 20
-1760.899115567281
 42
-0.3218642003028505
 10
-447.7149415400173
 20
-1764.30151001862
 10
-437.1497249568789
 20
-1795.633959511521
  0
LINE
  5
5ED
330
2
100
AcDbEntity
  8
Object
100
AcDbLine
 10
-452.8622196769475
 20
-1761.699115567281
 30
0.0
 11
-452.862219676948
 21
-1754.099115567281
 31
0.0
  0
LINE
  5
5EE
330
2
100
AcDbEntity
  8
Object
100
AcDbLine
 10
-453.6622196769477
 20
-1770.364227196676
 30
0.0
 11
-457.362219676948
 21
-1770.364227196676
 31
0.0
  0
LINE
  5
5EF
330
2
100
AcDbEntity
  8
Object
100
AcDbLine
 10
-453.6622196769477
 20
-1771.864227196676
 30
0.0
 11
-457.362219676948
 21
-1771.864227196676
 31
0.0
  0
LINE
  5
5F0
330
2
100
AcDbEntity
  8
Object
100
AcDbLine
 10
-453.6622196769477
 20
-1775.114227196677
 30
0.0
 11
-462.362219676948
 21
-1775.114227196677
 31
0.0
  0
LINE
  5
5F1
330
2
100
AcDbEntity
  8
Object
100
AcDbLine
 10
-464.6622196769473
 20
-1781.883959511521
 30
0.0
 11
-455.862219676948
 21
-1781.883959511521
 31
0.0
  0
LINE
  5
5F2
330
2
100
AcDbEntity
  8
Object
100
AcDbLine
 10
-464.862219676948
 20
-1782.083959511521
 30
0.0
 11
-455.862219676948
 21
-1782.083959511521
 31
0.0
  0
LINE
  5
5F3
330
2
100
AcDbEntity
  8
Object
100
AcDbLine
 10
-452.862219676948
 20
-1774.114227196676
 30
0.0
 11
-462.362219676948
 21
-1774.114227196676
 31
0.0
  0
LINE
  5
5F4
330
2
100
AcDbEntity
  8
Object
100
AcDbLine
 10
-452.862219676948
 20
-1773.214227196677
 30
0.0
 11
-462.362219676948
 21
-1773.214227196676
 31
0.0
  0
LINE
  5
5F5
330
2
100
AcDbEntity
  8
Object
100
AcDbLine
 10
-452.862219676948
 20
-1768.114227196677
 30
0.0
 11
-462.362219676948
 21
-1768.114227196677
 31
0.0
  0
LINE
  5
5F6
330
2
100
AcDbEntity
  8
Object
100
AcDbLine
 10
-452.862219676948
 20
-1769.014227196676
 30
0.0
 11
-462.3622196769475
 21
-1769.014227196676
 31
0.0
  0
LINE
  5
5F7
330
2
100
AcDbEntity
  8
Object
100
AcDbLine
 10
-453.6622196769477
 20
-1767.114227196676
 30
0.0
 11
-462.362219676948
 21
-1767.114227196676
 31
0.0
  0
LINE
  5
5F8
330
2
100
AcDbEntity
  8
Object
100
AcDbLine
 10
-457.362219676948
 20
-1775.114227196677
 30
0.0
 11
-457.362219676948
 21
-1774.114227196676
 31
0.0
  0
LINE
  5
5F9
330
2
100
AcDbEntity
  8
Object
100
AcDbLine
 10
-457.362219676948
 20
-1767.114227196676
 30
0.0
 11
-457.362219676948
 21
-1768.114227196677
 31
0.0
  0
LINE
  5
5FA
330
2
100
AcDbEntity
  8
Object
100
AcDbLine
 10
-457.362219676948
 20
-1770.364227196676
 30
0.0
 11
-457.362219676948
 21
-1771.864227196676
 31
0.0
  0
LINE
  5
5FB
330
2
100
AcDbEntity
  8
Object
100
AcDbLine
 10
-462.362219676948
 20
-1767.114227196676
 30
0.0
 11
-462.362219676948
 21
-1775.114227196677
 31
0.0
  0
LINE
  5
5FC
330
2
100
AcDbEntity
  8
Object
100
AcDbLine
 10
-460.6622196769473
 20
-1784.883959511521
 30
0.0
 11
-463.2622196769476
 21
-1784.883959511521
 31
0.0
  0
LINE
  5
5FD
330
2
100
AcDbEntity
  8
Object
100
AcDbLine
 10
-460.3622196769475
 20
-1785.183959511521
 30
0.0
 11
-463.2622196769476
 21
-1785.183959511521
 31
0.0
  0
LINE
  5
5FE
330
2
100
AcDbEntity
  8
Object
100
AcDbLine
 10
-460.6622196769473
 20
-1784.883959511521
 30
0.0
 11
-460.3622196769475
 21
-1785.183959511521
 31
0.0
  0
LINE
  5
5FF
330
2
100
AcDbEntity
  8
Object
100
AcDbLine
 10
-460.6622196769473
 20
-1783.883959511521
 30
0.0
 11
-463.2622196769476
 21
-1783.883959511521
 31
0.0
  0
LINE
  5
600
330
2
100
AcDbEntity
  8
Object
100
AcDbLine
 10
-460.3622196769475
 20
-1783.583959511521
 30
0.0
 11
-463.2622196769476
 21
-1783.583959511521
 31
0.0
  0
LINE
  5
601
330
2
100
AcDbEntity
  8
Object
100
AcDbLine
 10
-460.3622196769475
 20
-1783.583959511521
 30
0.0
 11
-460.6622196769473
 21
-1783.883959511521
 31
0.0
  0
LINE
  5
602
330
2
100
AcDbEntity
  8
Object
100
AcDbLine
 10
-463.2622196769476
 20
-1783.583959511521
 30
0.0
 11
-463.2622196769476
 21
-1785.183959511521
 31
0.0
  0
LINE
  5
603
330
2
100
AcDbEntity
  8
Object
100
AcDbLine
 10
-462.2622196769476
 20
-1783.583959511521
 30
0.0
 11
-462.2622196769476
 21
-1785.183959511521
 31
0.0
  0
LINE
  5
604
330
2
100
AcDbEntity
  8
Object
100
AcDbLine
 10
-464.6622196769473
 20
-1781.883959511521
 30
0.0
 11
-464.862219676948
 21
-1782.083959511521
 31
0.0
  0
LINE
  5
605
330
2
100
AcDbEntity
  8
Object
100
AcDbLine
 10
-463.2622196769476
 20
-1791.083959511521
 30
0.0
 11
-463.2622196769476
 21
-1792.683959511521
 31
0.0
  0
LINE
  5
606
330
2
100
AcDbEntity
  8
Object
100
AcDbLine
 10
-462.2622196769476
 20
-1791.083959511521
 30
0.0
 11
-462.2622196769476
 21
-1792.683959511521
 31
0.0
  0
LINE
  5
607
330
2
100
AcDbEntity
  8
Object
100
AcDbLine
 10
-464.6622196769473
 20
-1788.733959511521
 30
0.0
 11
-464.6622196769473
 21
-1802.533959511521
 31
0.0
  0
LINE
  5
608
330
2
100
AcDbEntity
  8
Object
100
AcDbLine
 10
-460.3622196769475
 20
-1792.683959511521
 30
0.0
 11
-463.2622196769476
 21
-1792.683959511521
 31
0.0
  0
LINE
  5
609
330
2
100
AcDbEntity
  8
Object
100
AcDbLine
 10
-460.6622196769473
 20
-1792.383959511521
 30
0.0
 11
-460.362219676948
 21
-1792.683959511521
 31
0.0
  0
LINE
  5
60A
330
2
100
AcDbEntity
  8
Object
100
AcDbLine
 10
-460.6622196769473
 20
-1792.383959511521
 30
0.0
 11
-463.2622196769476
 21
-1792.383959511521
 31
0.0
  0
LINE
  5
60B
330
2
100
AcDbEntity
  8
Object
100
AcDbLine
 10
-460.6622196769473
 20
-1798.883959511521
 30
0.0
 11
-463.2622196769476
 21
-1798.883959511521
 31
0.0
  0
LINE
  5
60C
330
2
100
AcDbEntity
  8
Object
100
AcDbLine
 10
-460.6622196769473
 20
-1794.883959511521
 30
0.0
 11
-463.2622196769476
 21
-1794.883959511521
 31
0.0
  0
LINE
  5
60D
330
2
100
AcDbEntity
  8
Object
100
AcDbLine
 10
-460.6622196769473
 20
-1794.883959511521
 30
0.0
 11
-460.362219676948
 21
-1795.183959511521
 31
0.0
  0
LINE
  5
60E
330
2
100
AcDbEntity
  8
Object
100
AcDbLine
 10
-460.3622196769475
 20
-1795.183959511521
 30
0.0
 11
-463.2622196769476
 21
-1795.183959511521
 31
0.0
  0
LINE
  5
60F
330
2
100
AcDbEntity
  8
Object
100
AcDbLine
 10
-463.2622196769476
 20
-1797.683959511521
 30
0.0
 11
-463.2622196769476
 21
-1796.083959511521
 31
0.0
  0
LINE
  5
610
330
2
100
AcDbEntity
  8
Object
100
AcDbLine
 10
-462.2622196769476
 20
-1797.683959511521
 30
0.0
 11
-462.2622196769476
 21
-1796.083959511521
 31
0.0
  0
LINE
  5
611
330
2
100
AcDbEntity
  8
Object
100
AcDbLine
 10
-460.3622196769475
 20
-1797.683959511521
 30
0.0
 11
-463.2622196769476
 21
-1797.683959511521
 31
0.0
  0
LINE
  5
612
330
2
100
AcDbEntity
  8
Object
100
AcDbLine
 10
-460.3622196769475
 20
-1797.683959511521
 30
0.0
 11
-460.6622196769473
 21
-1797.383959511521
 31
0.0
  0
LINE
  5
613
330
2
100
AcDbEntity
  8
Object
100
AcDbLine
 10
-460.6622196769473
 20
-1797.383959511521
 30
0.0
 11
-463.2622196769476
 21
-1797.383959511521
 31
0.0
  0
LINE
  5
614
330
2
100
AcDbEntity
  8
Object
100
AcDbLine
 10
-460.3622196769475
 20
-1798.583959511521
 30
0.0
 11
-463.2622196769476
 21
-1798.583959511521
 31
0.0
  0
LINE
  5
615
330
2
100
AcDbEntity
  8
Object
100
AcDbLine
 10
-460.3622196769475
 20
-1796.083959511521
 30
0.0
 11
-463.2622196769476
 21
-1796.083959511521
 31
0.0
  0
LINE
  5
616
330
2
100
AcDbEntity
  8
Object
100
AcDbLine
 10
-460.6622196769473
 20
-1796.383959511521
 30
0.0
 11
-460.362219676948
 21
-1796.083959511521
 31
0.0
  0
LINE
  5
617
330
2
100
AcDbEntity
  8
Object
100
AcDbLine
 10
-460.6622196769473
 20
-1796.383959511521
 30
0.0
 11
-463.2622196769476
 21
-1796.383959511521
 31
0.0
  0
LINE
  5
618
330
2
100
AcDbEntity
  8
Object
100
AcDbLine
 10
-460.6622196769473
 20
-1798.883959511521
 30
0.0
 11
-460.362219676948
 21
-1798.583959511521
 31
0.0
  0
LINE
  5
619
330
2
100
AcDbEntity
  8
Object
100
AcDbLine
 10
-460.6622196769473
 20
-1793.883959511521
 30
0.0
 11
-463.2622196769476
 21
-1793.883959511521
 31
0.0
  0
LINE
  5
61A
330
2
100
AcDbEntity
  8
Object
100
AcDbLine
 10
-460.3622196769475
 20
-1793.583959511521
 30
0.0
 11
-460.6622196769473
 21
-1793.883959511521
 31
0.0
  0
LINE
  5
61B
330
2
100
AcDbEntity
  8
Object
100
AcDbLine
 10
-460.3622196769475
 20
-1793.583959511521
 30
0.0
 11
-463.2622196769476
 21
-1793.583959511521
 31
0.0
  0
LINE
  5
61C
330
2
100
AcDbEntity
  8
Object
100
AcDbLine
 10
-462.2622196769476
 20
-1793.583959511521
 30
0.0
 11
-462.2622196769476
 21
-1795.183959511521
 31
0.0
  0
LINE
  5
61D
330
2
100
AcDbEntity
  8
Object
100
AcDbLine
 10
-463.2622196769476
 20
-1793.583959511521
 30
0.0
 11
-463.2622196769476
 21
-1795.183959511521
 31
0.0
  0
LINE
  5
61E
330
2
100
AcDbEntity
  8
Object
100
AcDbLine
 10
-463.2622196769476
 20
-1802.683959511521
 30
0.0
 11
-463.2622196769476
 21
-1801.083959511521
 31
0.0
  0
LINE
  5
61F
330
2
100
AcDbEntity
  8
Object
100
AcDbLine
 10
-462.2622196769476
 20
-1802.683959511521
 30
0.0
 11
-462.2622196769476
 21
-1801.083959511521
 31
0.0
  0
LINE
  5
620
330
2
100
AcDbEntity
  8
Object
100
AcDbLine
 10
-460.3622196769475
 20
-1801.083959511521
 30
0.0
 11
-463.2622196769476
 21
-1801.083959511521
 31
0.0
  0
LINE
  5
621
330
2
100
AcDbEntity
  8
Object
100
AcDbLine
 10
-460.6622196769473
 20
-1801.383959511522
 30
0.0
 11
-460.362219676948
 21
-1801.083959511521
 31
0.0
  0
LINE
  5
622
330
2
100
AcDbEntity
  8
Object
100
AcDbLine
 10
-460.6622196769473
 20
-1801.383959511522
 30
0.0
 11
-463.2622196769476
 21
-1801.383959511522
 31
0.0
  0
LINE
  5
623
330
2
100
AcDbEntity
  8
Object
100
AcDbLine
 10
-460.6622196769473
 20
-1799.883959511521
 30
0.0
 11
-463.2622196769476
 21
-1799.883959511521
 31
0.0
  0
LINE
  5
624
330
2
100
AcDbEntity
  8
Object
100
AcDbLine
 10
-460.3622196769475
 20
-1800.183959511521
 30
0.0
 11
-460.6622196769473
 21
-1799.883959511521
 31
0.0
  0
LINE
  5
625
330
2
100
AcDbEntity
  8
Object
100
AcDbLine
 10
-460.3622196769475
 20
-1800.183959511521
 30
0.0
 11
-463.2622196769476
 21
-1800.183959511521
 31
0.0
  0
LINE
  5
626
330
2
100
AcDbEntity
  8
Object
100
AcDbLine
 10
-460.3622196769475
 20
-1803.583959511521
 30
0.0
 11
-463.2622196769476
 21
-1803.583959511521
 31
0.0
  0
LINE
  5
627
330
2
100
AcDbEntity
  8
Object
100
AcDbLine
 10
-460.3622196769475
 20
-1802.683959511521
 30
0.0
 11
-463.2622196769476
 21
-1802.683959511521
 31
0.0
  0
LINE
  5
628
330
2
100
AcDbEntity
  8
Object
100
AcDbLine
 10
-460.3622196769475
 20
-1802.683959511521
 30
0.0
 11
-460.6622196769473
 21
-1802.383959511521
 31
0.0
  0
LINE
  5
629
330
2
100
AcDbEntity
  8
Object
100
AcDbLine
 10
-460.6622196769473
 20
-1802.383959511521
 30
0.0
 11
-463.2622196769476
 21
-1802.383959511521
 31
0.0
  0
LINE
  5
62A
330
2
100
AcDbEntity
  8
Object
100
AcDbLine
 10
-462.2622196769476
 20
-1800.183959511521
 30
0.0
 11
-462.2622196769476
 21
-1798.583959511521
 31
0.0
  0
LINE
  5
62B
330
2
100
AcDbEntity
  8
Object
100
AcDbLine
 10
-463.2622196769476
 20
-1800.183959511521
 30
0.0
 11
-463.2622196769476
 21
-1798.583959511521
 31
0.0
  0
LINE
  5
62C
330
2
100
AcDbEntity
  8
Object
100
AcDbLine
 10
-463.2622196769476
 20
-1802.533959511521
 30
0.0
 11
-464.6622196769473
 21
-1802.533959511521
 31
0.0
  0
LINE
  5
62D
330
2
100
AcDbEntity
  8
Object
100
AcDbLine
 10
-462.2622196769476
 20
-1788.583959511521
 30
0.0
 11
-462.2622196769476
 21
-1790.183959511521
 31
0.0
  0
LINE
  5
62E
330
2
100
AcDbEntity
  8
Object
100
AcDbLine
 10
-463.2622196769476
 20
-1788.583959511521
 30
0.0
 11
-463.2622196769476
 21
-1790.183959511521
 31
0.0
  0
LINE
  5
62F
330
2
100
AcDbEntity
  8
Object
100
AcDbLine
 10
-462.2622196769476
 20
-1786.083959511521
 30
0.0
 11
-462.2622196769476
 21
-1787.683959511521
 31
0.0
  0
LINE
  5
630
330
2
100
AcDbEntity
  8
Object
100
AcDbLine
 10
-460.6622196769473
 20
-1787.383959511521
 30
0.0
 11
-463.2622196769476
 21
-1787.383959511521
 31
0.0
  0
LINE
  5
631
330
2
100
AcDbEntity
  8
Object
100
AcDbLine
 10
-460.6622196769473
 20
-1786.383959511521
 30
0.0
 11
-463.2622196769476
 21
-1786.383959511521
 31
0.0
  0
LINE
  5
632
330
2
100
AcDbEntity
  8
Object
100
AcDbLine
 10
-460.6622196769473
 20
-1787.383959511521
 30
0.0
 11
-460.3622196769475
 21
-1787.683959511521
 31
0.0
  0
LINE
  5
633
330
2
100
AcDbEntity
  8
Object
100
AcDbLine
 10
-460.3622196769475
 20
-1786.083959511521
 30
0.0
 11
-460.6622196769473
 21
-1786.383959511521
 31
0.0
  0
LINE
  5
634
330
2
100
AcDbEntity
  8
Object
100
AcDbLine
 10
-463.2622196769476
 20
-1786.083959511521
 30
0.0
 11
-463.2622196769476
 21
-1787.683959511521
 31
0.0
  0
LINE
  5
635
330
2
100
AcDbEntity
  8
Object
100
AcDbLine
 10
-460.3622196769475
 20
-1786.083959511521
 30
0.0
 11
-463.2622196769476
 21
-1786.083959511521
 31
0.0
  0
LINE
  5
636
330
2
100
AcDbEntity
  8
Object
100
AcDbLine
 10
-460.3622196769475
 20
-1787.683959511521
 30
0.0
 11
-463.2622196769476
 21
-1787.683959511521
 31
0.0
  0
LINE
  5
637
330
2
100
AcDbEntity
  8
Object
100
AcDbLine
 10
-460.6622196769473
 20
-1788.883959511522
 30
0.0
 11
-463.2622196769476
 21
-1788.883959511522
 31
0.0
  0
LINE
  5
638
330
2
100
AcDbEntity
  8
Object
100
AcDbLine
 10
-460.3622196769475
 20
-1788.583959511521
 30
0.0
 11
-460.6622196769473
 21
-1788.883959511522
 31
0.0
  0
LINE
  5
639
330
2
100
AcDbEntity
  8
Object
100
AcDbLine
 10
-460.3622196769475
 20
-1788.583959511521
 30
0.0
 11
-463.2622196769476
 21
-1788.583959511521
 31
0.0
  0
LINE
  5
63A
330
2
100
AcDbEntity
  8
Object
100
AcDbLine
 10
-460.3622196769475
 20
-1791.083959511521
 30
0.0
 11
-463.2622196769476
 21
-1791.083959511521
 31
0.0
  0
LINE
  5
63B
330
2
100
AcDbEntity
  8
Object
100
AcDbLine
 10
-460.3622196769475
 20
-1791.083959511521
 30
0.0
 11
-460.6622196769473
 21
-1791.383959511521
 31
0.0
  0
LINE
  5
63C
330
2
100
AcDbEntity
  8
Object
100
AcDbLine
 10
-460.6622196769473
 20
-1791.383959511521
 30
0.0
 11
-463.2622196769476
 21
-1791.383959511521
 31
0.0
  0
LINE
  5
63D
330
2
100
AcDbEntity
  8
Object
100
AcDbLine
 10
-460.6622196769473
 20
-1789.883959511521
 30
0.0
 11
-463.2622196769476
 21
-1789.883959511521
 31
0.0
  0
LINE
  5
63E
330
2
100
AcDbEntity
  8
Object
100
AcDbLine
 10
-460.6622196769473
 20
-1789.883959511521
 30
0.0
 11
-460.362219676948
 21
-1790.183959511521
 31
0.0
  0
LINE
  5
63F
330
2
100
AcDbEntity
  8
Object
100
AcDbLine
 10
-460.3622196769475
 20
-1790.183959511521
 30
0.0
 11
-463.2622196769476
 21
-1790.183959511521
 31
0.0
  0
ARC
  5
640
330
2
100
AcDbEntity
  8
Object
100
AcDbCircle
 10
-463.862219676948
 20
-1788.133959511521
 30
0.0
 40
0.9999999999999829
100
AcDbArc
 50
143.1301023541432
 51
216.8698976458231
  0
LINE
  5
641
330
2
100
AcDbEntity
  8
Object
100
AcDbLine
 10
-463.2622196769476
 20
-1787.533959511521
 30
0.0
 11
-464.6622196769473
 21
-1787.533959511521
 31
0.0
  0
LINE
  5
642
330
2
100
AcDbEntity
  8
Object
100
AcDbLine
 10
-463.2622196769476
 20
-1788.733959511521
 30
0.0
 11
-464.6622196769473
 21
-1788.733959511521
 31
0.0
  0
LINE
  5
643
330
2
100
AcDbEntity
  8
Object
100
AcDbLine
 10
-464.6622196769473
 20
-1781.883959511521
 30
0.0
 11
-464.6622196769473
 21
-1787.533959511521
 31
0.0
  0
LINE
  5
644
330
2
100
AcDbEntity
  8
Object
100
AcDbLine
 10
-452.862219676948
 20
-1761.699115567281
 30
0.0
 11
-453.0622196769478
 21
-1761.899115567281
 31
0.0
  0
LINE
  5
645
330
2
100
AcDbEntity
  8
Object
100
AcDbLine
 10
-452.862219676948
 20
-1766.214227196677
 30
0.0
 11
-452.862219676948
 21
-1776.014227196676
 31
0.0
  0
LINE
  5
646
330
2
100
AcDbEntity
  8
Object
100
AcDbLine
 10
-452.862219676948
 20
-1780.783959511521
 30
0.0
 11
-455.862219676948
 21
-1780.783959511521
 31
0.0
  0
LINE
  5
647
330
2
100
AcDbEntity
  8
Object
100
AcDbLine
 10
-455.862219676948
 20
-1784.383959511521
 30
0.0
 11
-453.8622196769479
 21
-1784.383959511521
 31
0.0
  0
LINE
  5
648
330
2
100
AcDbEntity
  8
Object
100
AcDbLine
 10
-455.862219676948
 20
-1780.783959511521
 30
0.0
 11
-455.862219676948
 21
-1784.383959511521
 31
0.0
  0
LINE
  5
649
330
2
100
AcDbEntity
  8
Object
100
AcDbLine
 10
-452.862219676948
 20
-1776.014227196676
 30
0.0
 11
-453.6622196769477
 21
-1776.014227196677
 31
0.0
  0
LINE
  5
64A
330
2
100
AcDbEntity
  8
Object
100
AcDbLine
 10
-453.6622196769477
 20
-1775.114227196677
 30
0.0
 11
-453.6622196769477
 21
-1776.014227196676
 31
0.0
  0
LINE
  5
64B
330
2
100
AcDbEntity
  8
Object
100
AcDbLine
 10
-456.862219676948
 20
-1775.114227196677
 30
0.0
 11
-456.862219676948
 21
-1775.514227196676
 31
0.0
  0
LINE
  5
64C
330
2
100
AcDbEntity
  8
Object
100
AcDbLine
 10
-453.6622196769477
 20
-1775.514227196676
 30
0.0
 11
-456.862219676948
 21
-1775.514227196676
 31
0.0
  0
LINE
  5
64D
330
2
100
AcDbEntity
  8
Object
100
AcDbLine
 10
-453.6622196769477
 20
-1769.014227196677
 30
0.0
 11
-453.6622196769477
 21
-1770.364227196676
 31
0.0
  0
LINE
  5
64E
330
2
100
AcDbEntity
  8
Object
100
AcDbLine
 10
-453.6622196769477
 20
-1766.214227196677
 30
0.0
 11
-453.6622196769477
 21
-1767.114227196676
 31
0.0
  0
LINE
  5
64F
330
2
100
AcDbEntity
  8
Object
100
AcDbLine
 10
-456.862219676948
 20
-1766.714227196677
 30
0.0
 11
-456.862219676948
 21
-1767.114227196676
 31
0.0
  0
LINE
  5
650
330
2
100
AcDbEntity
  8
Object
100
AcDbLine
 10
-453.6622196769477
 20
-1766.714227196677
 30
0.0
 11
-456.862219676948
 21
-1766.714227196677
 31
0.0
  0
LINE
  5
651
330
2
100
AcDbEntity
  8
Object
100
AcDbLine
 10
-452.862219676948
 20
-1766.214227196677
 30
0.0
 11
-453.6622196769477
 21
-1766.214227196677
 31
0.0
  0
LINE
  5
652
330
2
100
AcDbEntity
  8
Object
100
AcDbLine
 10
-453.6622196769477
 20
-1771.864227196676
 30
0.0
 11
-453.6622196769477
 21
-1773.214227196677
 31
0.0
  0
TEXT
  5
653
330
2
100
AcDbEntity
  8
Object
100
AcDbText
 10
-455.3669115370682
 20
-1793.168922246664
 30
0.0
 40
1.0
  1
H
 50
270.0
100
AcDbText
  0
TEXT
  5
654
330
2
100
AcDbEntity
  8
Object
100
AcDbText
 10
-455.4140463027485
 20
-1796.430260662927
 30
0.0
 40
1.0
  1
JST 20
 50
270.0
100
AcDbText
  0
LINE
  5
655
330
2
100
AcDbEntity
  8
Object
100
AcDbLine
 10
-452.862219676948
 20
-1754.099115567281
 30
0.0
 11
-453.0622196769478
 21
-1753.899115567281
 31
0.0
  0
LINE
  5
656
330
2
100
AcDbEntity
  8
Object
100
AcDbLine
 10
-437.1497249568789
 20
-1791.633959511521
 30
0.0
 11
-437.1497249568789
 21
-1799.633959511521
 31
0.0
  0
ARC
  5
657
330
2
100
AcDbEntity
  8
Object
100
AcDbCircle
 10
-392.8016142985731
 20
-1793.633959511521
 30
0.0
 40
2.499999999999914
100
AcDbArc
 50
126.8698976458336
 51
233.1301023541663
  0
ARC
  5
658
330
2
100
AcDbEntity
  8
Object
100
AcDbCircle
 10
-407.9460698746376
 20
-1782.633959511521
 30
0.0
 40
9.0
100
AcDbArc
 50
180.0
 51
270.0
  0
LWPOLYLINE
  5
659
330
2
100
AcDbEntity
  8
Object
100
AcDbPolyline
 90
        6
 70
     0
 43
0.3
 10
-422.8510698746373
 20
-1769.858448578053
 10
-422.8510698746373
 20
-1772.161237695514
 42
0.0794699954038677
 10
-422.6016115162084
 20
-1773.720838321219
 10
-422.1005282330667
 20
-1775.24713740268
 42
-0.0794699954038734
 10
-421.8510698746373
 20
-1776.806738028386
 10
-421.8510698746373
 20
-1778.006987264255
  0
LINE
  5
65A
330
2
100
AcDbEntity
  8
Object
100
AcDbLine
 10
-416.9460698746376
 20
-1778.006987264255
 30
0.0
 11
-424.9460698746376
 21
-1778.006987264255
 31
0.0
  0
ARC
  5
65B
330
2
100
AcDbEntity
  8
Center
  6
CENTER
100
AcDbCircle
 10
-407.9460698746376
 20
-1782.633959511521
 30
0.0
 40
13.0
100
AcDbArc
 50
180.0
 51
223.8130614604016
  0
LWPOLYLINE
  5
65C
330
2
100
AcDbEntity
  8
Object
100
AcDbPolyline
 90
        5
 70
     0
 43
0.3
 10
-426.6610698746377
 20
-1769.858448578053
 10
-426.6610698746377
 20
-1770.401984429517
 42
0.216102127730352
 10
-424.9560339993173
 20
-1774.162730554566
 10
-424.5561057499577
 20
-1774.513126244748
 42
-0.2021674280290146
 10
-422.858197721213
 20
-1778.006987264255
 42
-0.2021674280290146
  0
LINE
  5
65D
330
2
100
AcDbEntity
  8
Object
100
AcDbLine
 10
-424.9460698746376
 20
-1778.006987264255
 30
0.0
 11
-424.9460698746376
 21
-1782.633959511521
 31
0.0
  0
ARC
  5
65E
330
2
100
AcDbEntity
  8
Object
100
AcDbCircle
 10
-407.9460698746376
 20
-1782.633959511521
 30
0.0
 40
17.0
100
AcDbArc
 50
180.0
 51
211.9657187507939
  0
LWPOLYLINE
  5
65F
330
2
100
AcDbEntity
  8
Object
100
AcDbPolyline
 90
        6
 70
     0
 43
0.3
 10
-419.0410698746378
 20
-1769.858448578053
 10
-419.0410698746378
 20
-1772.161237695515
 42
-0.0794699954038677
 10
-419.2905282330667
 20
-1773.720838321221
 10
-419.7916115162085
 20
-1775.247137402681
 42
0.0794699954038734
 10
-420.0410698746378
 20
-1776.806738028387
 10
-420.0410698746378
 20
-1778.006987264255
  0
LWPOLYLINE
  5
660
330
2
100
AcDbEntity
  8
Object
100
AcDbPolyline
 90
        5
 70
     0
 43
0.3
 10
-415.2310698746374
 20
-1769.858448578053
 10
-415.2310698746374
 20
-1770.356392374722
 42
-0.2200502165146602
 10
-416.9931727489539
 20
-1774.166382165192
 10
-417.2789670003213
 20
-1774.409262707117
 42
0.2089452191475042
 10
-419.0365621897869
 20
-1778.006987264255
 42
0.2089452191475042
  0
LINE
  5
661
330
2
100
AcDbEntity
  8
Object
100
AcDbLine
 10
-416.9460698746376
 20
-1782.633959511521
 30
0.0
 11
-416.9460698746376
 21
-1778.006987264255
 31
0.0
  0
LINE
  5
662
330
2
100
AcDbEntity
  8
Center
  6
CENTER
100
AcDbLine
 10
-420.9460698746376
 20
-1782.633959511521
 30
0.0
 11
-420.9460698746376
 21
-1778.006987264255
 31
0.0
  0
LINE
  5
664
330
2
100
AcDbEntity
  8
Object
100
AcDbLine
 10
-392.301614298573
 20
-1799.633959511521
 30
0.0
 11
-390.8420503876801
 21
-1799.633959511521
 31
0.0
  0
ARC
  5
666
330
2
100
AcDbEntity
  8
Object
100
AcDbCircle
 10
-395.801614298573
 20
-1797.633959511521
 30
0.0
 40
2.499999999999983
100
AcDbArc
 50
306.8698976458426
 51
53.13010235416641
  0
LINE
  5
667
330
2
100
AcDbEntity
  8
Object
100
AcDbLine
 10
-390.8420503876801
 20
-1791.633959511521
 30
0.0
 11
-392.301614298573
 21
-1791.633959511521
 31
0.0
  0
DIMENSION
  5
668
330
2
100
AcDbEntity
  8
text3
100
AcDbDimension
  2
*D13
 10
-378.4834821881431
 20
-1815.730001031878
 30
0.0
 11
-415.6728509325455
 21
-1815.730001031878
 31
0.0
 70
   161
  1
300±50
 71
     5
 42
74.37873748880486
  3
DMST_1
100
AcDbAlignedDimension
 13
-452.862219676948
 23
-1810.483959511521
 33
0.0
 14
-378.4834821881431
 24
-1810.483959511521
 34
0.0
1001
ACAD
1000
DSTYLE
1002
{
1070
    41
1040
5.0
1070
    42
1040
2.0
1070
    43
1040
0.38
1070
    44
1040
5.0
1070
    47
1040
0.0
1070
    48
1040
0.0
1070
    71
1070
     0
1070
    78
1070
     8
1070
    79
1070
     2
1070
   140
1040
4.0
1070
   141
1040
1.0
1070
   146
1040
1.0
1070
   147
1040
1.5
1070
   176
1070
     0
1070
   177
1070
     0
1070
   178
1070
     0
1070
   179
1070
     2
1070
   279
1070
     0
1002
}
  0
ARC
  5
690
330
2
100
AcDbEntity
  8
text3
100
AcDbCircle
 10
-407.9460698746376
 20
-1782.633959511521
 30
0.0
 40
3.0
100
AcDbArc
 50
180.0
 51
270.0
  0
LEADER
  5
691
330
2
100
AcDbEntity
  8
text3
100
AcDbLeader
  3
DMST_1
 73
     0
 40
4.0
 76
     2
 10
-378.4834821881431
 20
-1785.633959511521
 30
0.0
 10
-407.9460698746376
 20
-1785.633959511522
 30
0.0
340
692
211
-1.0
221
0.0
231
0.0
210
0.0
220
0.0
230
-1.0
213
0.0
223
-2.0
233
0.0
1001
ACAD
1000
DSTYLE
1002
{
1070
    77
1070
     0
1070
    41
1040
5.0
1070
    42
1040
2.0
1070
    43
1040
0.38
1070
    44
1040
0.18
1070
    47
1040
0.0
1070
    48
1040
0.0
1070
    71
1070
     0
1070
    78
1070
     8
1070
    79
1070
     2
1070
   140
1040
4.0
1070
   141
1040
1.0
1070
   146
1040
1.0
1070
   147
1040
1.5
1070
   176
1070
     0
1070
   177
1070
     0
1070
   178
1070
     0
1070
   179
1070
     2
1070
   279
1070
     0
1002
}
  0
MTEXT
  5
692
102
{ACAD_REACTORS
330
691
102
}
330
2
100
AcDbEntity
  8
text3
100
AcDbMText
 10
-376.9834821881431
 20
-1783.633959511521
 30
0.0
 40
4.0
 41
0.0
 71
     1
 72
     1
  1

 73
     1
 44
1.0
  0
LEADER
  5
693
330
2
100
AcDbEntity
  8
text3
100
AcDbLeader
  3
DMST_1
 40
4.0
 76
     2
 10
-410.9460698746374
 20
-1769.858448578053
 30
0.0
 10
-410.9460698746375
 20
-1782.633959511521
 30
0.0
211
-0.0000000000000002
221
-1.0
231
0.0
213
-2.0
223
0.0000000000000004
233
0.0
1001
ACAD
1000
DSTYLE
1002
{
1070
    77
1070
     0
1070
    41
1040
5.0
1070
    42
1040
2.0
1070
    43
1040
0.38
1070
    44
1040
0.18
1070
    47
1040
0.0
1070
    48
1040
0.0
1070
    71
1070
     0
1070
    78
1070
     8
1070
    79
1070
     2
1070
   140
1040
4.0
1070
   141
1040
1.0
1070
   146
1040
1.0
1070
   147
1040
1.5
1070
   176
1070
     0
1070
   177
1070
     0
1070
   178
1070
     0
1070
   179
1070
     2
1070
   279
1070
     0
1002
}
  0
TEXT
  5
7E1
330
2
100
AcDbEntity
  8
text3
100
AcDbText
 10
-543.8708287681556
 20
-1952.846058588063
 30
0.0
 40
1.92
  1
-0.006
 50
90.0
  7
Roman
100
AcDbText
  0
LINE
  5
7E2
330
2
100
AcDbEntity
  8
Object
100
AcDbLine
 10
-544.4023891346155
 20
-1979.354488296295
 30
0.0
 11
-545.9104883781633
 21
-1979.354488296295
 31
0.0
  0
LINE
  5
7E3
330
2
100
AcDbEntity
  8
Object
100
AcDbLine
 10
-544.4023891346155
 20
-1976.354488296295
 30
0.0
 11
-545.9104883781633
 21
-1976.354488296295
 31
0.0
  0
DIMENSION
  5
7E4
330
2
100
AcDbEntity
  8
text3
100
AcDbDimension
  2
*D14
 10
-539.7538495772397
 20
-1979.354488296295
 30
0.0
 11
-539.7538495772393
 21
-1959.521154962962
 31
0.0
 70
   161
  1
<>P9
 71
     5
 42
3.0
  3
DMST_1
100
AcDbAlignedDimension
 13
-545.9104883781633
 23
-1976.354488296295
 33
0.0
 14
-545.9104883781633
 24
-1979.354488296295
 34
0.0
1001
ACAD
1000
DSTYLE
1002
{
1070
    41
1040
5.0
1070
    42
1040
2.0
1070
    43
1040
0.38
1070
    44
1040
5.0
1070
    47
1040
0.0
1070
    48
1040
0.0
1070
    71
1070
     0
1070
    78
1070
     8
1070
    79
1070
     2
1070
   140
1040
4.0
1070
   141
1040
2.0
1070
   146
1040
1.0
1070
   147
1040
1.5
1070
   176
1070
     0
1070
   177
1070
     0
1070
   178
1070
     0
1070
   179
1070
     2
1070
   279
1070
     0
1002
}
  0
TEXT
  5
7E5
330
2
100
AcDbEntity
  8
Object
100
AcDbText
 10
-567.1354742017871
 20
-1930.373109994533
 30
0.0
 40
3.84
  1
（キー溝）
  7
Roman
100
AcDbText
  0
DIMENSION
  5
7E6
330
2
100
AcDbEntity
  8
text3
100
AcDbDimension
  2
*D15
 10
-552.1104883781633
 20
-2000.3506513402
 30
0.0
 11
-530.4104883781633
 21
-2000.3506513402
 31
0.0
 70
   161
 71
     5
 42
6.200000000000045
  3
DMST_1
100
AcDbAlignedDimension
 13
-545.9104883781633
 23
-1977.854488296295
 33
0.0
 14
-552.1104883781633
 24
-1977.854488296295
 34
0.0
1001
ACAD
1000
DSTYLE
1002
{
1070
    41
1040
5.0
1070
    42
1040
2.0
1070
    43
1040
0.38
1070
    44
1040
5.0
1070
    47
1040
0.0
1070
    48
1040
0.0
1070
    71
1070
     0
1070
    78
1070
     8
1070
    79
1070
     2
1070
   140
1040
4.0
1070
   141
1040
2.0
1070
   146
1040
1.0
1070
   147
1040
1.5
1070
   176
1070
     0
1070
   177
1070
     0
1070
   178
1070
     0
1070
   179
1070
     2
1070
   279
1070
     0
1002
}
  0
TEXT
  5
7E7
330
2
100
AcDbEntity
  8
text3
100
AcDbText
 10
-558.875031574418
 20
-2012.781220008785
 30
0.0
 40
3.84
  1
付属キー　3*3*16
  7
Roman
100
AcDbText
  0
LINE
  5
7E8
330
2
100
AcDbEntity
  8
Center
  6
CENTER
 48
0.5
100
AcDbLine
 10
-541.1104883781633
 20
-1977.854488296295
 30
0.0
 11
-555.1104883781634
 21
-1977.854488296295
 31
0.0
  0
ARC
  5
7E9
330
2
100
AcDbEntity
  8
Object
100
AcDbCircle
 10
-548.1104883781633
 20
-1977.854488296295
 30
0.0
 40
4.0
100
AcDbArc
 50
22.02431283704329
 51
337.9756871629567
  0
LINE
  5
7EB
330
2
100
AcDbEntity
  8
Object
100
AcDbLine
 10
-545.9104883781633
 20
-1979.354488296295
 30
0.0
 11
-545.9104883781633
 21
-1976.354488296295
 31
0.0
  0
LINE
  5
7EC
330
2
100
AcDbEntity
  8
Center
  6
CENTER
 48
0.5
100
AcDbLine
 10
-548.1104883781633
 20
-1984.854488296295
 30
0.0
 11
-548.1104883781633
 21
-1970.854488296295
 31
0.0
  0
LINE
  5
7ED
330
2
100
AcDbEntity
  8
1
  6
Continuous
 62
     7
100
AcDbLine
 10
-301.8736182496437
 20
-1973.854488296295
 30
0.0
 11
-295.8736182496437
 21
-1973.854488296295
 31
0.0
  0
LINE
  5
7EE
330
2
100
AcDbEntity
  8
1
  6
Continuous
 62
     7
100
AcDbLine
 10
-295.8736182496437
 20
-1981.854488296295
 30
0.0
 11
-317.3736182496437
 21
-1981.854488296295
 31
0.0
  0
LINE
  5
7EF
330
2
100
AcDbEntity
  8
Center
  6
CENTER
100
AcDbLine
 10
-274.1752754224378
 20
-1977.854488296295
 30
0.0
 11
-322.8736182496437
 21
-1977.854488296295
 31
0.0
  0
DIMENSION
  5
7F0
330
2
100
AcDbEntity
  8
text3
100
AcDbDimension
  2
*D16
 10
-292.8736182496437
 20
-1942.879835058605
 30
0.0
 11
-305.3736182496437
 21
-1942.879835058605
 31
0.0
 70
   161
  1
<>±1
 71
     5
 42
25.0
  3
DMST_1
100
AcDbAlignedDimension
 13
-317.8736182496437
 23
-1973.786243889203
 33
0.0
 14
-292.8736182496437
 24
-1973.786243889203
 34
0.0
1001
ACAD
1000
DSTYLE
1002
{
1070
    41
1040
5.0
1070
    42
1040
2.0
1070
    43
1040
0.38
1070
    44
1040
5.0
1070
    47
1040
0.0
1070
    48
1040
0.0
1070
    71
1070
     0
1070
    78
1070
     8
1070
    79
1070
     2
1070
   140
1040
4.0
1070
   141
1040
2.0
1070
   146
1040
1.0
1070
   147
1040
1.5
1070
   176
1070
     0
1070
   177
1070
     0
1070
   178
1070
     0
1070
   179
1070
     2
1070
   279
1070
     0
1002
}
  0
DIMENSION
  5
7F1
330
2
100
AcDbEntity
  8
text3
100
AcDbDimension
  2
*D17
 10
-426.0702616811513
 20
-1981.854488296295
 30
0.0
 11
-426.070261681151
 21
-1954.754488296295
 31
0.0
 70
   161
  1
Φ<>h6
 71
     5
 42
8.0
  3
DMST_1
100
AcDbAlignedDimension
 13
-416.90635623853
 23
-1973.854488296295
 33
0.0
 14
-416.90635623853
 24
-1981.854488296295
 34
0.0
1001
ACAD
1000
DSTYLE
1002
{
1070
    41
1040
5.0
1070
    42
1040
2.0
1070
    43
1040
0.38
1070
    44
1040
5.0
1070
    47
1040
0.0
1070
    48
1040
0.0
1070
    71
1070
     0
1070
    78
1070
     8
1070
    79
1070
     2
1070
   140
1040
4.0
1070
   141
1040
2.0
1070
   146
1040
1.0
1070
   147
1040
1.5
1070
   176
1070
     0
1070
   177
1070
     0
1070
   178
1070
     0
1070
   179
1070
     2
1070
   279
1070
     0
1002
}
  0
DIMENSION
  5
7F2
330
2
100
AcDbEntity
  8
text3
100
AcDbDimension
  2
*D18
 10
-447.0204172751392
 20
-2001.64891217409
 30
0.0
 11
-424.7870839418059
 21
-2001.64891217409
 31
0.0
 70
   161
  1
<>±0.2
 71
     5
 42
7.5
  3
DMST_1
100
AcDbAlignedDimension
 13
-454.5204172751392
 23
-1977.854488296295
 33
0.0
 14
-447.0204172751392
 24
-1977.854488296295
 34
0.0
1001
ACAD
1000
DSTYLE
1002
{
1070
    41
1040
5.0
1070
    42
1040
2.0
1070
    43
1040
0.38
1070
    44
1040
5.0
1070
    47
1040
0.0
1070
    48
1040
0.0
1070
    71
1070
     0
1070
    78
1070
     8
1070
    79
1070
     2
1070
   140
1040
4.0
1070
   141
1040
2.0
1070
   146
1040
1.0
1070
   147
1040
1.5
1070
   176
1070
     0
1070
   177
1070
     0
1070
   178
1070
     0
1070
   179
1070
     2
1070
   279
1070
     0
1002
}
  0
DIMENSION
  5
7F3
330
2
100
AcDbEntity
  8
text3
100
AcDbDimension
  2
*D19
 10
-524.7238935713381
 20
-1981.854488296295
 30
0.0
 11
-524.7238935713378
 21
-1954.754488296295
 31
0.0
 70
   161
  1
Φ<>h6
 71
     5
 42
8.0
  3
DMST_1
100
AcDbAlignedDimension
 13
-513.5876489389363
 23
-1973.854488296295
 33
0.0
 14
-513.5876489389363
 24
-1981.854488296295
 34
0.0
1001
ACAD
1000
DSTYLE
1002
{
1070
    41
1040
5.0
1070
    42
1040
2.0
1070
    43
1040
0.38
1070
    44
1040
5.0
1070
    47
1040
0.0
1070
    48
1040
0.0
1070
    71
1070
     0
1070
    78
1070
     8
1070
    79
1070
     2
1070
   140
1040
4.0
1070
   141
1040
2.0
1070
   146
1040
1.0
1070
   147
1040
1.5
1070
   176
1070
     0
1070
   177
1070
     0
1070
   178
1070
     0
1070
   179
1070
     2
1070
   279
1070
     0
1002
}
  0
LINE
  5
7F4
330
2
100
AcDbEntity
  8
1
  6
Continuous
 62
     7
100
AcDbLine
 10
-477.7876489389359
 20
-1988.31052750396
 30
0.0
 11
-477.7876489389361
 21
-1947.854488296295
 31
0.0
  0
LINE
  5
7F5
330
2
100
AcDbEntity
  8
1
  6
Continuous
 62
     3
100
AcDbLine
 10
-488.5876489389363
 20
-2007.854488296295
 30
0.0
 11
-488.5876489389363
 21
-1947.854488296295
 31
0.0
  0
LINE
  5
7F6
330
2
100
AcDbEntity
  8
1
  6
Continuous
 62
     7
100
AcDbLine
 10
-489.0876489389363
 20
-2007.354488296295
 30
0.0
 11
-489.0876489389363
 21
-1948.354488296295
 31
0.0
  0
LINE
  5
7F7
330
2
100
AcDbEntity
  8
1
  6
Continuous
 62
     3
100
AcDbLine
 10
-491.5876489389363
 20
-2002.854488296295
 30
0.0
 11
-491.5876489389363
 21
-1952.854488296295
 31
0.0
  0
LINE
  5
7F8
330
2
100
AcDbEntity
  8
1
  6
Continuous
 62
     7
100
AcDbLine
 10
-492.0876489389363
 20
-2002.354488296295
 30
0.0
 11
-492.0876489389363
 21
-1953.354488296295
 31
0.0
  0
LINE
  5
7F9
330
2
100
AcDbEntity
  8
Object2
100
AcDbLine
 10
-469.60944551548
 20
-1940.327490051485
 30
0.0
 11
-482.521696677659
 21
-2016.086064279857
 31
0.0
  0
LINE
  5
7FA
330
2
100
AcDbEntity
  8
Object2
100
AcDbLine
 10
-467.5532244584648
 20
-1940.327490051485
 30
0.0
 11
-480.4654756206439
 21
-2016.086064279857
 31
0.0
  0
LINE
  5
7FB
330
2
100
AcDbEntity
  8
1
  6
Continuous
 62
     7
100
AcDbLine
 10
-483.0876489389363
 20
-1997.854488296295
 30
0.0
 11
-479.4143165483492
 21
-1997.854488296295
 31
0.0
  0
TEXT
  5
7FC
330
2
100
AcDbEntity
  8
text3
100
AcDbText
 10
-523.4112682104759
 20
-1996.455055406897
 30
0.0
 40
1.92
  1
0
  7
Roman
100
AcDbText
  0
TEXT
  5
7FD
330
2
100
AcDbEntity
  8
text3
100
AcDbText
 10
-525.7652030668378
 20
-1999.106582513459
 30
0.0
 40
1.92
  1
-0.2
  7
Roman
100
AcDbText
  0
LINE
  5
7FE
330
2
100
AcDbEntity
  8
text3
100
AcDbLine
 10
-524.9104883781633
 20
-2000.3506513402
 30
0.0
 11
-515.8022251408615
 21
-2000.3506513402
 31
0.0
  0
LINE
  5
7FF
330
2
100
AcDbEntity
  8
1
  6
Continuous
 62
     7
100
AcDbLine
 10
-483.0876489389363
 20
-2007.854488296295
 30
0.0
 11
-483.0876489389363
 21
-1994.854488296295
 31
0.0
  0
LINE
  5
800
330
2
100
AcDbEntity
  8
1
  6
Continuous
 62
     7
100
AcDbLine
 10
-488.5876489389363
 20
-2007.854488296295
 30
0.0
 11
-489.0876489389363
 21
-2007.354488296295
 31
0.0
  0
LINE
  5
801
330
2
100
AcDbEntity
  8
1
  6
Continuous
 62
     7
100
AcDbLine
 10
-491.5876489389363
 20
-2002.854488296295
 30
0.0
 11
-489.0876489389363
 21
-2002.854488296295
 31
0.0
  0
LINE
  5
802
330
2
100
AcDbEntity
  8
1
  6
Continuous
 62
     7
100
AcDbLine
 10
-491.5876489389363
 20
-2002.854488296295
 30
0.0
 11
-492.0876489389363
 21
-2002.354488296295
 31
0.0
  0
LINE
  5
803
330
2
100
AcDbEntity
  8
1
  6
Continuous
 62
     7
100
AcDbLine
 10
-488.5876489389363
 20
-2007.854488296295
 30
0.0
 11
-481.1187112381512
 21
-2007.854488296295
 31
0.0
  0
LINE
  5
804
330
2
100
AcDbEntity
  8
1
  6
Continuous
 62
     7
100
AcDbLine
 10
-472.5967377891422
 20
-1957.854488296295
 30
0.0
 11
-483.0876489389363
 21
-1957.854488296295
 31
0.0
  0
LINE
  5
805
330
2
100
AcDbEntity
  8
1
  6
Continuous
 62
     7
100
AcDbLine
 10
-488.5876489389363
 20
-1947.854488296295
 30
0.0
 11
-470.8923430993406
 21
-1947.854488296295
 31
0.0
  0
LINE
  5
806
330
2
100
AcDbEntity
  8
Center
  6
CENTER
100
AcDbLine
 10
-470.3893061117304
 20
-1977.854488296295
 30
0.0
 11
-519.0876489389363
 21
-1977.854488296295
 31
0.0
  0
LINE
  5
807
330
2
100
AcDbEntity
  8
1
  6
Continuous
 62
     7
100
AcDbLine
 10
-492.0876489389363
 20
-1981.854488296295
 30
0.0
 11
-513.5876489389363
 21
-1981.854488296295
 31
0.0
  0
LINE
  5
808
330
2
100
AcDbEntity
  8
1
  6
Continuous
 62
     7
100
AcDbLine
 10
-513.5876489389363
 20
-1973.854488296295
 30
0.0
 11
-492.0876489389363
 21
-1973.854488296295
 31
0.0
  0
LINE
  5
809
330
2
100
AcDbEntity
  8
Object
100
AcDbLine
 10
-514.0876489389365
 20
-1976.354488296295
 30
0.0
 11
-499.5876489389368
 21
-1976.354488296295
 31
0.0
  0
LINE
  5
80A
330
2
100
AcDbEntity
  8
Object
100
AcDbLine
 10
-514.0876489389365
 20
-1979.354488296295
 30
0.0
 11
-499.5876489389368
 21
-1979.354488296295
 31
0.0
  0
DIMENSION
  5
80B
330
2
100
AcDbEntity
  8
text3
100
AcDbDimension
  2
*D20
 10
-489.0876489389363
 20
-1944.29226291304
 30
0.0
 11
-501.5876489389363
 21
-1944.29226291304
 31
0.0
 70
   161
  1
<>±1
 71
     5
 42
25.0
  3
DMST_1
100
AcDbAlignedDimension
 13
-514.0876489389363
 23
-1974.354488296295
 33
0.0
 14
-489.0876489389363
 24
-1974.354488296295
 34
0.0
1001
ACAD
1000
DSTYLE
1002
{
1070
    41
1040
5.0
1070
    42
1040
2.0
1070
    43
1040
0.38
1070
    44
1040
2.0
1070
    47
1040
0.0
1070
    48
1040
0.0
1070
    71
1070
     0
1070
    78
1070
     8
1070
    79
1070
     2
1070
   140
1040
4.0
1070
   141
1040
2.0
1070
   146
1040
1.0
1070
   147
1040
1.5
1070
   176
1070
     0
1070
   177
1070
     0
1070
   178
1070
     0
1070
   179
1070
     2
1070
   279
1070
     0
1002
}
  0
DIMENSION
  5
80C
330
2
100
AcDbEntity
  8
text3
100
AcDbDimension
  2
*D21
 10
-514.0876489389363
 20
-1957.804474891068
 30
0.0
 11
-506.0876489389365
 21
-1954.304474891068
 31
0.0
 70
    33
 71
     5
 42
15.99999999999954
  3
DMST_1
100
AcDbAlignedDimension
 13
-498.0876489389368
 23
-1974.354488296295
 33
0.0
 14
-514.0876489389363
 24
-1974.354488296295
 34
0.0
1001
ACAD
1000
DSTYLE
1002
{
1070
    41
1040
5.0
1070
    42
1040
2.0
1070
    43
1040
0.38
1070
    44
1040
5.0
1070
    47
1040
0.0
1070
    48
1040
0.0
1070
    71
1070
     0
1070
    78
1070
     8
1070
    79
1070
     2
1070
   140
1040
4.0
1070
   141
1040
2.0
1070
   146
1040
1.0
1070
   147
1040
1.5
1070
   176
1070
     0
1070
   177
1070
     0
1070
   178
1070
     0
1070
   179
1070
     2
1070
   279
1070
     0
1002
}
  0
TEXT
  5
80D
330
2
100
AcDbEntity
  8
text3
100
AcDbText
 10
-526.3335243569001
 20
-1945.547626549396
 30
0.0
 40
1.92
  1
-0.009
 50
90.0
  7
Roman
100
AcDbText
  0
LINE
  5
80E
330
2
100
AcDbEntity
  8
text3
100
AcDbLine
 10
-524.723893571338
 20
-1950.430714296245
 30
0.0
 11
-524.723893571338
 21
-1936.678541200697
 31
0.0
  0
TEXT
  5
80F
330
2
100
AcDbEntity
  8
text3
100
AcDbText
 10
-528.985051463462
 20
-1943.193691693035
 30
0.0
 40
1.92
  1
0
 50
90.0
  7
Roman
100
AcDbText
  0
TEXT
  5
810
330
2
100
AcDbEntity
  8
text3
100
AcDbText
 10
-541.2193016615938
 20
-1953.014964537665
 30
0.0
 40
1.92
  1
-0.031
 50
90.0
  7
Roman
100
AcDbText
  0
LINE
  5
811
330
2
100
AcDbEntity
  8
text3
100
AcDbLine
 10
-539.7538495772396
 20
-1952.687821629628
 30
0.0
 11
-539.7538495772396
 21
-1941.700814634328
 31
0.0
  0
LINE
  5
812
330
2
100
AcDbEntity
  8
1
  6
Continuous
 62
     3
100
AcDbLine
 10
-513.5876489389363
 20
-1979.790988296295
 30
0.0
 11
-513.5876489389363
 21
-1981.854488296295
 31
0.0
  0
LINE
  5
813
330
2
100
AcDbEntity
  8
1
  6
Continuous
 62
     3
100
AcDbLine
 10
-513.5876489389363
 20
-1973.854488296295
 30
0.0
 11
-513.5876489389363
 21
-1981.854488296295
 31
0.0
  0
LINE
  5
814
330
2
100
AcDbEntity
  8
1
  6
Continuous
 62
     7
100
AcDbLine
 10
-514.0876489389363
 20
-1977.854488296295
 30
0.0
 11
-514.0876489389363
 21
-1981.354488296295
 31
0.0
  0
LINE
  5
815
330
2
100
AcDbEntity
  8
1
  6
Continuous
 62
     7
100
AcDbLine
 10
-513.5876489389363
 20
-1981.854488296295
 30
0.0
 11
-514.0876489389363
 21
-1981.354488296295
 31
0.0
  0
LINE
  5
816
330
2
100
AcDbEntity
  8
1
  6
Continuous
 62
     7
100
AcDbLine
 10
-514.0876489389363
 20
-1974.354488296295
 30
0.0
 11
-514.0876489389363
 21
-1977.854488296295
 31
0.0
  0
LINE
  5
817
330
2
100
AcDbEntity
  8
1
  6
Continuous
 62
     7
100
AcDbLine
 10
-513.5876489389363
 20
-1973.854488296295
 30
0.0
 11
-514.0876489389363
 21
-1974.354488296295
 31
0.0
  0
ARC
  5
818
330
2
100
AcDbEntity
  8
Object
100
AcDbCircle
 10
-499.5876489389368
 20
-1977.854488296295
 30
0.0
 40
1.5
100
AcDbArc
 50
270.0
 51
90.0
  0
LINE
  5
819
330
2
100
AcDbEntity
  8
1
  6
Continuous
 62
     7
100
AcDbLine
 10
-483.0876489389363
 20
-1960.854488296295
 30
0.0
 11
-483.0876489389363
 21
-1947.854488296295
 31
0.0
  0
LINE
  5
81A
330
2
100
AcDbEntity
  8
1
  6
Continuous
 62
     7
100
AcDbLine
 10
-488.5876489389363
 20
-1947.854488296295
 30
0.0
 11
-489.0876489389363
 21
-1948.354488296295
 31
0.0
  0
LINE
  5
81B
330
2
100
AcDbEntity
  8
1
  6
Continuous
 62
     7
100
AcDbLine
 10
-489.0876489389363
 20
-1952.854488296295
 30
0.0
 11
-491.5876489389363
 21
-1952.854488296295
 31
0.0
  0
LINE
  5
81C
330
2
100
AcDbEntity
  8
1
  6
Continuous
 62
     7
100
AcDbLine
 10
-491.5876489389363
 20
-1952.854488296295
 30
0.0
 11
-492.0876489389363
 21
-1953.354488296295
 31
0.0
  0
TEXT
  5
81D
330
2
100
AcDbEntity
  8
text3
100
AcDbText
 10
-427.6409722090773
 20
-1945.259901384179
 30
0.0
 40
1.92
  1
-0.009
 50
90.0
  7
Roman
100
AcDbText
  0
ARC
  5
81E
330
2
100
AcDbEntity
  8
Object
100
AcDbCircle
 10
-450.5204172751392
 20
-1977.854488296295
 30
0.0
 40
4.0
100
AcDbArc
 50
28.95502437186067
 51
331.0449756281101
  0
LINE
  5
81F
330
2
100
AcDbEntity
  8
Center
 48
0.5
100
AcDbLine
 10
-443.520417275139
 20
-1977.854488296295
 30
0.0
 11
-457.5204172751393
 21
-1977.854488296295
 31
0.0
  0
CIRCLE
  5
820
330
2
100
AcDbEntity
  8
Object2
100
AcDbCircle
 10
-450.5204172751392
 20
-1977.854488296295
 30
0.0
 40
3.5
  0
LINE
  5
821
330
2
100
AcDbEntity
  8
Center
 48
0.5
100
AcDbLine
 10
-450.5204172751392
 20
-1984.854488296295
 30
0.0
 11
-450.5204172751392
 21
-1970.854488296295
 31
0.0
  0
LINE
  5
822
330
2
100
AcDbEntity
  8
Object
100
AcDbLine
 10
-447.0204172751395
 20
-1975.917996623191
 30
0.0
 11
-447.0204172751397
 21
-1979.790979969399
 31
0.0
  0
TEXT
  5
823
330
2
100
AcDbEntity
  8
text3
100
AcDbText
 10
-430.2924993156392
 20
-1942.905966527817
 30
0.0
 40
1.92
  1
0
 50
90.0
  7
Roman
100
AcDbText
  0
TEXT
  5
824
330
2
100
AcDbEntity
  8
Object
100
AcDbText
 10
-466.0604577157344
 20
-1931.020191578774
 30
0.0
 40
3.84
  1
（Ｄカット）
  7
Roman
100
AcDbText
  0
DIMENSION
  5
825
330
2
100
AcDbEntity
  8
text3
100
AcDbDimension
  2
*D22
 10
-354.9876792862529
 20
-1999.471093328974
 30
0.0
 11
-325.2543459529196
 21
-1999.471093328974
 31
0.0
 70
   161
  1
<>±0.2
 71
     5
 42
7.5
  3
DMST_1
100
AcDbAlignedDimension
 13
-347.4876792862529
 23
-1977.854488296295
 33
0.0
 14
-354.9876792862529
 24
-1977.854488296295
 34
0.0
1001
ACAD
1000
DSTYLE
1002
{
1070
    41
1040
5.0
1070
    42
1040
2.0
1070
    43
1040
0.38
1070
    44
1040
5.0
1070
    47
1040
0.0
1070
    48
1040
0.0
1070
    71
1070
     0
1070
    78
1070
     8
1070
    79
1070
     2
1070
   140
1040
4.0
1070
   141
1040
2.0
1070
   146
1040
1.0
1070
   147
1040
1.5
1070
   176
1070
     0
1070
   177
1070
     0
1070
   178
1070
     0
1070
   179
1070
     2
1070
   279
1070
     0
1002
}
  0
LINE
  5
826
330
2
100
AcDbEntity
  8
1
  6
Continuous
 62
     7
100
AcDbLine
 10
-381.1063562385299
 20
-1988.31052750396
 30
0.0
 11
-381.1063562385299
 21
-1947.854488296295
 31
0.0
  0
LINE
  5
827
330
2
100
AcDbEntity
  8
1
  6
Continuous
 62
     3
100
AcDbLine
 10
-391.90635623853
 20
-2007.854488296295
 30
0.0
 11
-391.90635623853
 21
-1947.854488296295
 31
0.0
  0
LINE
  5
828
330
2
100
AcDbEntity
  8
1
  6
Continuous
 62
     7
100
AcDbLine
 10
-395.40635623853
 20
-2002.354488296295
 30
0.0
 11
-395.40635623853
 21
-1953.354488296295
 31
0.0
  0
LINE
  5
829
330
2
100
AcDbEntity
  8
1
  6
Continuous
 62
     3
100
AcDbLine
 10
-394.90635623853
 20
-2002.854488296295
 30
0.0
 11
-394.90635623853
 21
-1952.854488296295
 31
0.0
  0
LINE
  5
82A
330
2
100
AcDbEntity
  8
1
  6
Continuous
 62
     7
100
AcDbLine
 10
-392.40635623853
 20
-2007.354488296295
 30
0.0
 11
-392.40635623853
 21
-1948.354488296295
 31
0.0
  0
DIMENSION
  5
82B
330
2
100
AcDbEntity
  8
text3
100
AcDbDimension
  2
*D23
 10
-341.0467496006508
 20
-1981.854488296295
 30
0.0
 11
-341.0467496006505
 21
-1952.121154962961
 31
0.0
 70
   161
  1
<>±0.2
 71
     5
 42
7.5
  3
DMST_1
100
AcDbAlignedDimension
 13
-350.9876792862529
 23
-1974.354488296295
 33
0.0
 14
-350.9876792862529
 24
-1981.854488296295
 34
0.0
1001
ACAD
1000
DSTYLE
1002
{
1070
    41
1040
5.0
1070
    42
1040
2.0
1070
    43
1040
0.38
1070
    44
1040
5.0
1070
    47
1040
0.0
1070
    48
1040
0.0
1070
    71
1070
     0
1070
    78
1070
     8
1070
    79
1070
     2
1070
   140
1040
4.0
1070
   141
1040
2.0
1070
   146
1040
1.0
1070
   147
1040
1.5
1070
   176
1070
     0
1070
   177
1070
     0
1070
   178
1070
     0
1070
   179
1070
     2
1070
   279
1070
     0
1002
}
  0
DIMENSION
  5
82C
330
2
100
AcDbEntity
  8
text3
100
AcDbDimension
  2
*D24
 10
-324.8863982699012
 20
-1981.854488296295
 30
0.0
 11
-324.8863982699009
 21
-1954.754488296295
 31
0.0
 70
   161
  1
Φ<>h6
 71
     5
 42
8.0
  3
DMST_1
100
AcDbAlignedDimension
 13
-301.8736182496437
 23
-1973.854488296295
 33
0.0
 14
-301.8736182496437
 24
-1981.854488296295
 34
0.0
1001
ACAD
1000
DSTYLE
1002
{
1070
    41
1040
5.0
1070
    42
1040
2.0
1070
    43
1040
0.38
1070
    44
1040
5.0
1070
    47
1040
0.0
1070
    48
1040
0.0
1070
    71
1070
     0
1070
    78
1070
     8
1070
    79
1070
     2
1070
   140
1040
4.0
1070
   141
1040
2.0
1070
   146
1040
1.0
1070
   147
1040
1.5
1070
   176
1070
     0
1070
   177
1070
     0
1070
   178
1070
     0
1070
   179
1070
     2
1070
   279
1070
     0
1002
}
  0
LINE
  5
82D
330
2
100
AcDbEntity
  8
Object2
100
AcDbLine
 10
-370.8719317580586
 20
-1940.327490051485
 30
0.0
 11
-383.7841829202376
 21
-2016.086064279857
 31
0.0
  0
LINE
  5
82E
330
2
100
AcDbEntity
  8
Object2
100
AcDbLine
 10
-372.9281528150737
 20
-1940.327490051485
 30
0.0
 11
-385.8404039772527
 21
-2016.086064279857
 31
0.0
  0
LINE
  5
82F
330
2
100
AcDbEntity
  8
1
  6
Continuous
 62
     7
100
AcDbLine
 10
-394.90635623853
 20
-2002.854488296295
 30
0.0
 11
-395.40635623853
 21
-2002.354488296295
 31
0.0
  0
LINE
  5
830
330
2
100
AcDbEntity
  8
1
  6
Continuous
 62
     7
100
AcDbLine
 10
-391.90635623853
 20
-2007.854488296295
 30
0.0
 11
-384.4374185377447
 21
-2007.854488296295
 31
0.0
  0
LINE
  5
831
330
2
100
AcDbEntity
  8
1
  6
Continuous
 62
     7
100
AcDbLine
 10
-386.40635623853
 20
-1997.854488296295
 30
0.0
 11
-382.7330238479427
 21
-1997.854488296295
 31
0.0
  0
LINE
  5
832
330
2
100
AcDbEntity
  8
1
  6
Continuous
 62
     7
100
AcDbLine
 10
-394.90635623853
 20
-2002.854488296295
 30
0.0
 11
-392.40635623853
 21
-2002.854488296295
 31
0.0
  0
LINE
  5
833
330
2
100
AcDbEntity
  8
1
  6
Continuous
 62
     7
100
AcDbLine
 10
-391.90635623853
 20
-2007.854488296295
 30
0.0
 11
-392.40635623853
 21
-2007.354488296295
 31
0.0
  0
LINE
  5
834
330
2
100
AcDbEntity
  8
1
  6
Continuous
 62
     7
100
AcDbLine
 10
-386.40635623853
 20
-2007.854488296295
 30
0.0
 11
-386.40635623853
 21
-1994.854488296295
 31
0.0
  0
LINE
  5
835
330
2
100
AcDbEntity
  8
1
  6
Continuous
 62
     7
100
AcDbLine
 10
-394.90635623853
 20
-1952.854488296295
 30
0.0
 11
-395.40635623853
 21
-1953.354488296295
 31
0.0
  0
LINE
  5
836
330
2
100
AcDbEntity
  8
Center
  6
CENTER
100
AcDbLine
 10
-373.7080134113241
 20
-1977.854488296295
 30
0.0
 11
-422.4063562385301
 21
-1977.854488296295
 31
0.0
  0
DIMENSION
  5
837
330
2
100
AcDbEntity
  8
text3
100
AcDbDimension
  2
*D25
 10
-392.40635623853
 20
-1945.071451635449
 30
0.0
 11
-404.90635623853
 21
-1945.071451635449
 31
0.0
 70
   161
  1
<>±1
 71
     5
 42
25.0
  3
DMST_1
100
AcDbAlignedDimension
 13
-417.40635623853
 23
-1974.354488296295
 33
0.0
 14
-392.40635623853
 24
-1974.354488296295
 34
0.0
1001
ACAD
1000
DSTYLE
1002
{
1070
    41
1040
5.0
1070
    42
1040
2.0
1070
    43
1040
0.38
1070
    44
1040
5.0
1070
    47
1040
0.0
1070
    48
1040
0.0
1070
    71
1070
     0
1070
    78
1070
     8
1070
    79
1070
     2
1070
   140
1040
4.0
1070
   141
1040
2.0
1070
   146
1040
1.0
1070
   147
1040
1.5
1070
   176
1070
     0
1070
   177
1070
     0
1070
   178
1070
     0
1070
   179
1070
     2
1070
   279
1070
     0
1002
}
  0
LINE
  5
838
330
2
100
AcDbEntity
  8
text3
100
AcDbLine
 10
-426.0702616811512
 20
-1947.920199907913
 30
0.0
 11
-426.0702616811512
 21
-1934.168026812365
 31
0.0
  0
LINE
  5
839
330
2
100
AcDbEntity
  8
1
  6
Continuous
 62
     7
100
AcDbLine
 10
-401.4063562385301
 20
-1979.790988296295
 30
0.0
 11
-417.40635623853
 21
-1979.790988296295
 31
0.0
  0
LINE
  5
83A
330
2
100
AcDbEntity
  8
1
  6
Continuous
 62
     7
100
AcDbLine
 10
-417.40635623853
 20
-1975.917988296295
 30
0.0
 11
-401.4063562385301
 21
-1975.917988296295
 31
0.0
  0
LINE
  5
83B
330
2
100
AcDbEntity
  8
1
  6
Continuous
 62
     7
100
AcDbLine
 10
-401.4063562385301
 20
-1979.790988296295
 30
0.0
 11
-417.40635623853
 21
-1975.917988296295
 31
0.0
  0
LINE
  5
83C
330
2
100
AcDbEntity
  8
1
  6
Continuous
 62
     7
100
AcDbLine
 10
-417.40635623853
 20
-1979.790988296295
 30
0.0
 11
-401.4063562385301
 21
-1975.917988296295
 31
0.0
  0
LINE
  5
83D
330
2
100
AcDbEntity
  8
1
  6
Continuous
 62
     7
100
AcDbLine
 10
-395.40635623853
 20
-1981.854488296295
 30
0.0
 11
-416.90635623853
 21
-1981.854488296295
 31
0.0
  0
LINE
  5
83E
330
2
100
AcDbEntity
  8
1
  6
Continuous
 62
     7
100
AcDbLine
 10
-416.90635623853
 20
-1973.854488296295
 30
0.0
 11
-395.40635623853
 21
-1973.854488296295
 31
0.0
  0
DIMENSION
  5
83F
330
2
100
AcDbEntity
  8
text3
100
AcDbDimension
  2
*D26
 10
-417.40635623853
 20
-1964.834018204753
 30
0.0
 11
-409.40635623853
 21
-1961.334018204753
 31
0.0
 70
    33
 71
     5
 42
16.0
  3
DMST_1
100
AcDbAlignedDimension
 13
-401.4063562385301
 23
-1974.354488296295
 33
0.0
 14
-417.40635623853
 24
-1974.354488296295
 34
0.0
1001
ACAD
1000
DSTYLE
1002
{
1070
    41
1040
5.0
1070
    42
1040
2.0
1070
    43
1040
0.38
1070
    44
1040
5.0
1070
    47
1040
0.0
1070
    48
1040
0.0
1070
    71
1070
     0
1070
    78
1070
     8
1070
    79
1070
     2
1070
   140
1040
4.0
1070
   141
1040
2.0
1070
   146
1040
1.0
1070
   147
1040
1.5
1070
   176
1070
     0
1070
   177
1070
     0
1070
   178
1070
     0
1070
   179
1070
     2
1070
   279
1070
     0
1002
}
  0
LINE
  5
840
330
2
100
AcDbEntity
  8
1
  6
Continuous
 62
     7
100
AcDbLine
 10
-417.40635623853
 20
-1974.354488296295
 30
0.0
 11
-417.40635623853
 21
-1977.854488296295
 31
0.0
  0
LINE
  5
841
330
2
100
AcDbEntity
  8
1
  6
Continuous
 62
     7
100
AcDbLine
 10
-416.90635623853
 20
-1981.854488296295
 30
0.0
 11
-417.40635623853
 21
-1981.354488296295
 31
0.0
  0
LINE
  5
842
330
2
100
AcDbEntity
  8
1
  6
Continuous
 62
     7
100
AcDbLine
 10
-417.40635623853
 20
-1977.854488296295
 30
0.0
 11
-417.40635623853
 21
-1981.354488296295
 31
0.0
  0
LINE
  5
843
330
2
100
AcDbEntity
  8
1
  6
Continuous
 62
     3
100
AcDbLine
 10
-416.90635623853
 20
-1979.790988296295
 30
0.0
 11
-416.90635623853
 21
-1981.854488296295
 31
0.0
  0
LINE
  5
844
330
2
100
AcDbEntity
  8
1
  6
Continuous
 62
     3
100
AcDbLine
 10
-416.90635623853
 20
-1979.790988296295
 30
0.0
 11
-416.90635623853
 21
-1981.854488296295
 31
0.0
  0
LINE
  5
845
330
2
100
AcDbEntity
  8
1
  6
Continuous
 62
     3
100
AcDbLine
 10
-416.90635623853
 20
-1973.854488296295
 30
0.0
 11
-416.90635623853
 21
-1975.917988296295
 31
0.0
  0
LINE
  5
846
330
2
100
AcDbEntity
  8
1
  6
Continuous
 62
     7
100
AcDbLine
 10
-416.90635623853
 20
-1973.854488296295
 30
0.0
 11
-417.40635623853
 21
-1974.354488296295
 31
0.0
  0
LINE
  5
847
330
2
100
AcDbEntity
  8
1
  6
Continuous
 62
     7
100
AcDbLine
 10
-401.4063562385301
 20
-1975.917988296295
 30
0.0
 11
-401.4063562385301
 21
-1979.790988296295
 31
0.0
  0
LINE
  5
848
330
2
100
AcDbEntity
  8
DIM
100
AcDbLine
 10
-401.4063562385301
 20
-1973.310024209285
 30
0.0
 11
-401.4063562385301
 21
-1975.499751788622
 31
0.0
  0
LINE
  5
849
330
2
100
AcDbEntity
  8
1
  6
Continuous
 62
     7
100
AcDbLine
 10
-391.90635623853
 20
-1947.854488296295
 30
0.0
 11
-374.2110503989343
 21
-1947.854488296295
 31
0.0
  0
LINE
  5
84A
330
2
100
AcDbEntity
  8
1
  6
Continuous
 62
     7
100
AcDbLine
 10
-375.9154450887359
 20
-1957.854488296295
 30
0.0
 11
-386.40635623853
 21
-1957.854488296295
 31
0.0
  0
LINE
  5
84B
330
2
100
AcDbEntity
  8
1
  6
Continuous
 62
     7
100
AcDbLine
 10
-391.90635623853
 20
-1947.854488296295
 30
0.0
 11
-392.40635623853
 21
-1948.354488296295
 31
0.0
  0
LINE
  5
84C
330
2
100
AcDbEntity
  8
1
  6
Continuous
 62
     7
100
AcDbLine
 10
-392.40635623853
 20
-1952.854488296295
 30
0.0
 11
-394.90635623853
 21
-1952.854488296295
 31
0.0
  0
LINE
  5
84D
330
2
100
AcDbEntity
  8
1
  6
Continuous
 62
     7
100
AcDbLine
 10
-386.40635623853
 20
-1960.854488296295
 30
0.0
 11
-386.40635623853
 21
-1947.854488296295
 31
0.0
  0
TEXT
  5
84E
330
2
100
AcDbEntity
  8
Object
100
AcDbText
 10
-374.3240859274245
 20
-1931.054247721814
 30
0.0
 40
3.84
  1
（ダブルＤカット）
  7
Roman
100
AcDbText
  0
CIRCLE
  5
84F
330
2
100
AcDbEntity
  8
Object2
100
AcDbCircle
 10
-350.9876792862529
 20
-1977.854488296295
 30
0.0
 40
3.5
  0
ARC
  5
850
330
2
100
AcDbEntity
  8
Object
100
AcDbCircle
 10
-350.9876792862529
 20
-1977.854488296295
 30
0.0
 40
4.0
100
AcDbArc
 50
118.9550243718429
 51
331.0449756281393
  0
ARC
  5
851
330
2
100
AcDbEntity
  8
Object
100
AcDbCircle
 10
-350.9876792862529
 20
-1977.854488296295
 30
0.0
 40
4.0
100
AcDbArc
 50
28.95502437186067
 51
61.04497562815704
  0
LINE
  5
852
330
2
100
AcDbEntity
  8
Center
 48
0.5
100
AcDbLine
 10
-343.9876792862529
 20
-1977.854488296295
 30
0.0
 11
-357.9876792862529
 21
-1977.854488296295
 31
0.0
  0
LINE
  5
853
330
2
100
AcDbEntity
  8
Center
 48
0.5
100
AcDbLine
 10
-350.9876792862529
 20
-1984.854488296295
 30
0.0
 11
-350.9876792862529
 21
-1970.854488296295
 31
0.0
  0
LINE
  5
854
330
2
100
AcDbEntity
  8
Object
100
AcDbLine
 10
-349.0511876131491
 20
-1974.354488296295
 30
0.0
 11
-352.9241709593567
 21
-1974.354488296295
 31
0.0
  0
LINE
  5
855
330
2
100
AcDbEntity
  8
Object
100
AcDbLine
 10
-347.4876792862534
 20
-1975.917996623191
 30
0.0
 11
-347.4876792862538
 21
-1979.790979969399
 31
0.0
  0
TEXT
  5
856
330
2
100
AcDbEntity
  8
text3
100
AcDbText
 10
-326.40222807282
 20
-1946.0262504411
 30
0.0
 40
1.92
  1
-0.009
 50
90.0
  7
Roman
100
AcDbText
  0
LINE
  5
857
330
2
100
AcDbEntity
  8
text3
100
AcDbLine
 10
-324.8863982699009
 20
-1948.486049997382
 30
0.0
 11
-324.8863982699009
 21
-1934.733876901834
 31
0.0
  0
LINE
  5
858
330
2
100
AcDbEntity
  8
1
  6
Continuous
 62
     7
100
AcDbLine
 10
-301.8736182496437
 20
-1979.790988296295
 30
0.0
 11
-317.8736182496437
 21
-1979.790988296295
 31
0.0
  0
LINE
  5
859
330
2
100
AcDbEntity
  8
1
  6
Continuous
 62
     7
100
AcDbLine
 10
-317.8736182496437
 20
-1975.917988296295
 30
0.0
 11
-301.8736182496437
 21
-1975.917988296295
 31
0.0
  0
LINE
  5
85A
330
2
100
AcDbEntity
  8
1
  6
Continuous
 62
     7
100
AcDbLine
 10
-301.8736182496437
 20
-1979.790988296295
 30
0.0
 11
-317.8736182496437
 21
-1975.917988296295
 31
0.0
  0
LINE
  5
85B
330
2
100
AcDbEntity
  8
1
  6
Continuous
 62
     7
100
AcDbLine
 10
-317.8736182496437
 20
-1979.790988296295
 30
0.0
 11
-301.8736182496437
 21
-1975.917988296295
 31
0.0
  0
LINE
  5
85C
330
2
100
AcDbEntity
  8
1
  6
Continuous
 62
     7
100
AcDbLine
 10
-317.8736182496437
 20
-1974.354488296295
 30
0.0
 11
-301.8736182496437
 21
-1974.354488296295
 31
0.0
  0
DIMENSION
  5
85D
330
2
100
AcDbEntity
  8
text3
100
AcDbDimension
  2
*D27
 10
-301.8736182496437
 20
-1963.675048630097
 30
0.0
 11
-309.8736182496437
 21
-1963.675048630097
 31
0.0
 70
   161
 71
     5
 42
16.0
  3
DMST_1
100
AcDbAlignedDimension
 13
-317.8736182496437
 23
-1973.786243889203
 33
0.0
 14
-301.8736182496437
 24
-1973.786243889203
 34
0.0
1001
ACAD
1000
DSTYLE
1002
{
1070
    41
1040
5.0
1070
    42
1040
2.0
1070
    43
1040
0.38
1070
    44
1040
5.0
1070
    47
1040
0.0
1070
    48
1040
0.0
1070
    71
1070
     0
1070
    78
1070
     8
1070
    79
1070
     2
1070
   140
1040
4.0
1070
   141
1040
2.0
1070
   146
1040
1.0
1070
   147
1040
1.5
1070
   176
1070
     0
1070
   177
1070
     0
1070
   178
1070
     0
1070
   179
1070
     2
1070
   279
1070
     0
1002
}
  0
TEXT
  5
85E
330
2
100
AcDbEntity
  8
text3
100
AcDbText
 10
-329.0537551793819
 20
-1943.672315584738
 30
0.0
 40
1.92
  1
0
 50
90.0
  7
Roman
100
AcDbText
  0
LINE
  5
85F
330
2
100
AcDbEntity
  8
1
  6
Continuous
 62
     7
100
AcDbLine
 10
-317.8736182496437
 20
-1974.354488296295
 30
0.0
 11
-317.8736182496437
 21
-1977.854488296295
 31
0.0
  0
LINE
  5
860
330
2
100
AcDbEntity
  8
1
  6
Continuous
 62
     7
100
AcDbLine
 10
-317.3736182496437
 20
-1981.854488296295
 30
0.0
 11
-317.8736182496437
 21
-1981.354488296295
 31
0.0
  0
LINE
  5
861
330
2
100
AcDbEntity
  8
1
  6
Continuous
 62
     7
100
AcDbLine
 10
-317.8736182496437
 20
-1977.854488296295
 30
0.0
 11
-317.8736182496437
 21
-1981.354488296295
 31
0.0
  0
LINE
  5
862
330
2
100
AcDbEntity
  8
1
  6
Continuous
 62
     3
100
AcDbLine
 10
-317.3736182496437
 20
-1979.790988296295
 30
0.0
 11
-317.3736182496437
 21
-1981.854488296295
 31
0.0
  0
LINE
  5
863
330
2
100
AcDbEntity
  8
1
  6
Continuous
 62
     3
100
AcDbLine
 10
-317.3736182496437
 20
-1979.790988296295
 30
0.0
 11
-317.3736182496437
 21
-1981.854488296295
 31
0.0
  0
LINE
  5
864
330
2
100
AcDbEntity
  8
1
  6
Continuous
 62
     3
100
AcDbLine
 10
-317.3736182496437
 20
-1974.354488296295
 30
0.0
 11
-317.3736182496437
 21
-1975.917988296295
 31
0.0
  0
LINE
  5
865
330
2
100
AcDbEntity
  8
1
  6
Continuous
 62
     7
100
AcDbLine
 10
-301.8736182496437
 20
-1975.917988296295
 30
0.0
 11
-301.8736182496437
 21
-1979.790988296295
 31
0.0
  0
LINE
  5
866
330
2
100
AcDbEntity
  8
1
  6
Continuous
 62
     7
100
AcDbLine
 10
-301.8736182496437
 20
-1974.354488296295
 30
0.0
 11
-301.8736182496437
 21
-1973.854488296295
 31
0.0
  0
LINE
  5
867
330
2
100
AcDbEntity
  8
1
  6
Continuous
 62
     7
100
AcDbLine
 10
-281.5736182496435
 20
-1988.31052750396
 30
0.0
 11
-281.5736182496435
 21
-1947.854488296295
 31
0.0
  0
LINE
  5
868
330
2
100
AcDbEntity
  8
1
  6
Continuous
 62
     3
100
AcDbLine
 10
-292.3736182496437
 20
-2007.854488296295
 30
0.0
 11
-292.3736182496437
 21
-1947.854488296295
 31
0.0
  0
LINE
  5
869
330
2
100
AcDbEntity
  8
1
  6
Continuous
 62
     7
100
AcDbLine
 10
-295.8736182496437
 20
-2002.354488296295
 30
0.0
 11
-295.8736182496437
 21
-1953.354488296295
 31
0.0
  0
LINE
  5
86A
330
2
100
AcDbEntity
  8
1
  6
Continuous
 62
     3
100
AcDbLine
 10
-295.3736182496437
 20
-2002.854488296295
 30
0.0
 11
-295.3736182496437
 21
-1952.854488296295
 31
0.0
  0
LINE
  5
86B
330
2
100
AcDbEntity
  8
1
  6
Continuous
 62
     7
100
AcDbLine
 10
-292.8736182496437
 20
-2007.354488296295
 30
0.0
 11
-292.8736182496437
 21
-1948.354488296295
 31
0.0
  0
LINE
  5
86C
330
2
100
AcDbEntity
  8
Object2
100
AcDbLine
 10
-271.3391937691723
 20
-1940.327490051485
 30
0.0
 11
-284.2514449313513
 21
-2016.086064279857
 31
0.0
  0
LINE
  5
86D
330
2
100
AcDbEntity
  8
Object2
100
AcDbLine
 10
-273.3954148261874
 20
-1940.327490051485
 30
0.0
 11
-286.3076659883664
 21
-2016.086064279857
 31
0.0
  0
LINE
  5
86E
330
2
100
AcDbEntity
  8
1
  6
Continuous
 62
     7
100
AcDbLine
 10
-286.8736182496437
 20
-1997.854488296295
 30
0.0
 11
-283.2002858590564
 21
-1997.854488296295
 31
0.0
  0
LINE
  5
86F
330
2
100
AcDbEntity
  8
1
  6
Continuous
 62
     7
100
AcDbLine
 10
-292.3736182496437
 20
-2007.854488296295
 30
0.0
 11
-284.9046805488584
 21
-2007.854488296295
 31
0.0
  0
LINE
  5
870
330
2
100
AcDbEntity
  8
1
  6
Continuous
 62
     7
100
AcDbLine
 10
-292.3736182496437
 20
-2007.854488296295
 30
0.0
 11
-292.8736182496437
 21
-2007.354488296295
 31
0.0
  0
LINE
  5
871
330
2
100
AcDbEntity
  8
1
  6
Continuous
 62
     7
100
AcDbLine
 10
-286.8736182496437
 20
-2007.854488296295
 30
0.0
 11
-286.8736182496437
 21
-1994.854488296295
 31
0.0
  0
LINE
  5
872
330
2
100
AcDbEntity
  8
1
  6
Continuous
 62
     7
100
AcDbLine
 10
-295.3736182496437
 20
-2002.854488296295
 30
0.0
 11
-295.8736182496437
 21
-2002.354488296295
 31
0.0
  0
LINE
  5
873
330
2
100
AcDbEntity
  8
1
  6
Continuous
 62
     7
100
AcDbLine
 10
-295.3736182496437
 20
-2002.854488296295
 30
0.0
 11
-292.8736182496437
 21
-2002.854488296295
 31
0.0
  0
LINE
  5
874
330
2
100
AcDbEntity
  8
1
  6
Continuous
 62
     7
100
AcDbLine
 10
-292.3736182496437
 20
-1947.854488296295
 30
0.0
 11
-274.678312410048
 21
-1947.854488296295
 31
0.0
  0
LINE
  5
875
330
2
100
AcDbEntity
  8
1
  6
Continuous
 62
     7
100
AcDbLine
 10
-276.3827070998496
 20
-1957.854488296295
 30
0.0
 11
-286.8736182496437
 21
-1957.854488296295
 31
0.0
  0
LINE
  5
876
330
2
100
AcDbEntity
  8
1
  6
Continuous
 62
     7
100
AcDbLine
 10
-292.3736182496437
 20
-1947.854488296295
 30
0.0
 11
-292.8736182496437
 21
-1948.354488296295
 31
0.0
  0
LINE
  5
877
330
2
100
AcDbEntity
  8
1
  6
Continuous
 62
     7
100
AcDbLine
 10
-295.3736182496437
 20
-1952.854488296295
 30
0.0
 11
-295.8736182496437
 21
-1953.354488296295
 31
0.0
  0
LINE
  5
878
330
2
100
AcDbEntity
  8
1
  6
Continuous
 62
     7
100
AcDbLine
 10
-292.8736182496437
 20
-1952.854488296295
 30
0.0
 11
-295.3736182496437
 21
-1952.854488296295
 31
0.0
  0
LINE
  5
879
330
2
100
AcDbEntity
  8
1
  6
Continuous
 62
     7
100
AcDbLine
 10
-286.8736182496437
 20
-1960.854488296295
 30
0.0
 11
-286.8736182496437
 21
-1947.854488296295
 31
0.0
  0
TEXT
  5
9B0
330
2
100
AcDbEntity
  8
Object
100
AcDbText
 10
-475.0931518322129
 20
-1822.704525207284
 30
0.0
 40
3.84
  1
（丸軸）
  7
Roman
100
AcDbText
  0
TEXT
  5
9C9
330
2
100
AcDbEntity
  8
text3
100
AcDbText
 10
-406.6200456200037
 20
-1783.814614350094
 30
0.0
 40
3.456
  1
300±50
  7
Roman
100
AcDbText
  0
TEXT
  5
A26
330
2
100
AcDbEntity
  8
text3
100
AcDbText
 10
-267.0215475574404
 20
-1999.865372953032
 30
0.0
 40
4.0
  1
Scale
  7
Roman
100
AcDbText
  0
TEXT
  5
A27
330
2
100
AcDbEntity
  8
text3
100
AcDbText
 10
-266.7059814401055
 20
-2006.906267417821
 30
0.0
 40
4.0
  1
単位   [ｍｍ]
  7
Roman
100
AcDbText
  0
LINE
  5
A7E
330
2
100
AcDbEntity
  8
text3
100
AcDbLine
 10
-353.3834821881429
 20
-1823.933959511519
 30
0.0
 11
-353.3834821881429
 21
-1877.433959511519
 31
0.0
  0
LINE
  5
A7F
330
2
100
AcDbEntity
  8
text3
100
AcDbLine
 10
-356.3834821881424
 20
-1823.93395951152
 30
0.0
 11
-356.3834821881429
 21
-1877.433959511519
 31
0.0
  0
LINE
  5
A80
330
2
100
AcDbEntity
  8
text3
100
AcDbLine
 10
-356.3834821881424
 20
-1823.93395951152
 30
0.0
 11
-353.3834821881429
 21
-1823.933959511519
 31
0.0
  0
LINE
  5
A81
330
2
100
AcDbEntity
  8
text3
100
AcDbLine
 10
-356.3834821881424
 20
-1826.93395951152
 30
0.0
 11
-353.3834821881424
 21
-1826.933959511519
 31
0.0
  0
LINE
  5
A82
330
2
100
AcDbEntity
  8
text3
100
AcDbLine
 10
-356.3834821881429
 20
-1877.433959511519
 30
0.0
 11
-353.3834821881433
 21
-1877.433959511519
 31
0.0
  0
LINE
  5
A83
330
2
100
AcDbEntity
  8
text3
100
AcDbLine
 10
-356.3834821881429
 20
-1874.433959511519
 30
0.0
 11
-353.3834821881429
 21
-1874.433959511519
 31
0.0
  0
DIMENSION
  5
A85
330
2
100
AcDbEntity
  8
text3
100
AcDbDimension
  2
*D28
 10
-353.3834821881438
 20
-1894.084943536816
 30
0.0
 11
-369.216815521476
 21
-1894.084943536816
 31
0.0
 70
   161
 71
     5
 42
2.999999999998919
  3
DMST_1
100
AcDbAlignedDimension
 13
-356.3834821881427
 23
-1885.433959511519
 33
0.0
 14
-353.3834821881438
 24
-1885.433959511519
 34
0.0
1001
ACAD
1000
DSTYLE
1002
{
1070
    41
1040
5.0
1070
    42
1040
2.0
1070
    43
1040
0.38
1070
    44
1040
0.18
1070
    47
1040
0.0
1070
    48
1040
0.0
1070
    71
1070
     0
1070
    78
1070
     8
1070
    79
1070
     2
1070
   140
1040
4.0
1070
   141
1040
1.0
1070
   146
1040
1.0
1070
   147
1040
1.5
1070
   176
1070
     0
1070
   177
1070
     0
1070
   178
1070
     0
1070
   179
1070
     2
1070
   279
1070
     0
1002
}
  0
TEXT
  5
ABE
330
2
100
AcDbEntity
  8
Object
100
AcDbText
 10
-472.1423509543867
 20
-1828.198880399331
 30
0.0
 40
3.84
  1
Round Shaft
  7
Roman
100
AcDbText
  0
TEXT
  5
AC6
330
2
100
AcDbEntity
  8
Object
100
AcDbText
 10
-562.5387773526981
 20
-1936.253263843309
 30
0.0
 40
3.84
  1
Keyway
  7
Roman
100
AcDbText
  0
TEXT
  5
AC7
330
2
100
AcDbEntity
  8
Object
100
AcDbText
 10
-461.2319428861915
 20
-1936.532177573635
 30
0.0
 40
3.84
  1
D-cut
  7
Roman
100
AcDbText
  0
TEXT
  5
AC8
330
2
100
AcDbEntity
  8
Object
100
AcDbText
 10
-369.8295691535051
 20
-1936.344468301904
 30
0.0
 40
3.84
  1
Double D-cut
  7
Roman
100
AcDbText
  0
TEXT
  5
AC9
330
2
100
AcDbEntity
  8
text3
100
AcDbText
 10
-556.5648831546802
 20
-2018.240134085466
 30
0.0
 40
3.84
  1
Key
  7
Roman
100
AcDbText
  0
TEXT
  5
ACE
330
2
100
AcDbEntity
  8
text3
100
AcDbText
 10
-266.957243670464
 20
-1994.084385150065
 30
0.0
 40
4.0
  1
尺度　  １：２　（A4）
  7
Roman
100
AcDbText
  0
TEXT
  5
ACF
330
2
100
AcDbEntity
  8
text3
100
AcDbText
 10
-267.0021389340805
 20
-2014.537170685297
 30
0.0
 40
4.0
  1
Unit
  7
Roman
100
AcDbText
  0
ENDSEC
  0
SECTION
  2
OBJECTS
  0
DICTIONARY
  5
7
330
0
100
AcDbDictionary
281
     1
  3
ACAD_GROUP
350
20
  3
ACAD_LAYOUT
350
B
  3
ACAD_MLINESTYLE
350
21
  3
ACAD_PLOTSETTINGS
350
22
  3
ACAD_PLOTSTYLENAME
350
6
  3
AcDbVariableDictionary
350
2F8
  0
DICTIONARY
  5
3D8
330
10
100
AcDbDictionary
280
     1
281
     1
  3
ACAD_LAYERSTATES
360
3D9
  0
DICTIONARY
  5
20
102
{ACAD_REACTORS
330
7
102
}
330
7
100
AcDbDictionary
281
     1
  0
DICTIONARY
  5
B
102
{ACAD_REACTORS
330
7
102
}
330
7
100
AcDbDictionary
281
     1
  3
Model
350
A
  3
ﾚｲｱｳﾄ1
350
F
  0
DICTIONARY
  5
21
102
{ACAD_REACTORS
330
7
102
}
330
7
100
AcDbDictionary
281
     1
  3
Standard
350
24
  0
DICTIONARY
  5
22
102
{ACAD_REACTORS
330
7
102
}
330
7
100
AcDbDictionary
281
     1
  0
ACDBDICTIONARYWDFLT
  5
6
102
{ACAD_REACTORS
330
7
102
}
330
7
100
AcDbDictionary
281
     1
  3
Normal
350
5
100
AcDbDictionaryWithDefault
340
5
  0
DICTIONARY
  5
2F8
102
{ACAD_REACTORS
330
7
102
}
330
7
100
AcDbDictionary
281
     1
  3
DIMASSOC
350
2FA
  3
HIDETEXT
350
2F9
  0
DICTIONARY
  5
3D9
102
{ACAD_REACTORS
330
3D8
102
}
330
3D8
100
AcDbDictionary
281
     1
  0
LAYOUT
  5
A
102
{ACAD_REACTORS
330
B
102
}
330
B
100
AcDbPlotSettings
  1

  2
クセロPDF
  4
A4
  6

 40
3.174999952316284
 41
3.174999952316284
 42
3.175003051757812
 43
3.17498779296875
 44
209.9733276367187
 45
296.9259948730469
 46
6.849999999999999
 47
70.18
 48
-589.7654530455885
 49
-2028.865297326907
140
-209.9210136109348
141
-1728.437974406908
142
1.0
143
2.0
 70
 11956
 72
     1
 73
     0
 74
     4
  7
monochrome.ctb
 75
    17
147
0.5
148
589.7654530455885
149
2028.865297326907
100
AcDbLayout
  1
Model
 70
     1
 71
     0
 10
0.0
 20
0.0
 11
12.0
 21
9.0
 12
0.0
 22
0.0
 32
0.0
 14
0.0
 24
0.0
 34
0.0
 15
0.0
 25
0.0
 35
0.0
146
0.0
 13
0.0
 23
0.0
 33
0.0
 16
1.0
 26
0.0
 36
0.0
 17
0.0
 27
1.0
 37
0.0
 76
     0
330
2
  0
LAYOUT
  5
F
102
{ACAD_REACTORS
330
B
102
}
330
B
100
AcDbPlotSettings
  1

  2
\\Epson_lpr\192.168.1.20(LP-8100)
  4

  6

 40
0.0
 41
0.0
 42
0.0
 43
0.0
 44
0.0
 45
0.0
 46
0.0
 47
0.0
 48
0.0
 49
0.0
140
0.0
141
0.0
142
1.0
143
1.0
 70
   688
 72
     0
 73
     0
 74
     5
  7
monochrome.ctb
 75
    16
147
1.0
148
0.0
149
0.0
100
AcDbLayout
  1
ﾚｲｱｳﾄ1
 70
     1
 71
     1
 10
0.0
 20
0.0
 11
12.0
 21
9.0
 12
0.0
 22
0.0
 32
0.0
 14
1.000000000000000E+20
 24
1.000000000000000E+20
 34
1.000000000000000E+20
 15
-1.000000000000000E+20
 25
-1.000000000000000E+20
 35
-1.000000000000000E+20
146
0.0
 13
0.0
 23
0.0
 33
0.0
 16
1.0
 26
0.0
 36
0.0
 17
0.0
 27
1.0
 37
0.0
 76
     0
330
C
  0
MLINESTYLE
  5
24
102
{ACAD_REACTORS
330
21
102
}
330
21
100
AcDbMlineStyle
  2
STANDARD
 70
     0
  3

 62
   256
 51
90.0
 52
90.0
 71
     2
 49
0.5
 62
   256
  6
BYLAYER
 49
-0.5
 62
   256
  6
BYLAYER
  0
ACDBPLACEHOLDER
  5
5
102
{ACAD_REACTORS
330
6
102
}
330
6
  0
DICTIONARYVAR
  5
2FA
102
{ACAD_REACTORS
330
2F8
102
}
330
2F8
100
DictionaryVariables
280
     0
  1
1
  0
DICTIONARYVAR
  5
2F9
102
{ACAD_REACTORS
330
2F8
102
}
330
2F8
100
DictionaryVariables
280
     0
  1
1
  0
ENDSEC
  0
EOF
